osu file format v14

[General]
AudioFilename: audio.mp3
AudioLeadIn: 0
PreviewTime: 256944
Countdown: 0
SampleSet: Soft
StackLeniency: 0.7
Mode: 0
LetterboxInBreaks: 0
WidescreenStoryboard: 0

[Editor]
Bookmarks: 26069,52069,68069,84069,100069,116069,132069,150069,166069,182069,198069,214069,234069,258069,274069,290069,293569
DistanceSpacing: 1.2
BeatDivisor: 6
GridSize: 16
TimelineZoom: 2.4

[Metadata]
Title:Tengai
TitleUnicode:天涯
Artist:UNDEAD CORPORATION
ArtistUnicode:UNDEAD CORPORATION
Creator:Lafayla
Version:Lunatic
Source:東方緋想天 ~ Scarlet Weather Rhapsody.
Tags:東方Project Team Shangahai Alice ZUN Suika Ibuki 砕月 Broken Moon 伊吹 萃香 Saigetsu SWR Hisouten TOHO Complete Box ONI Scarlet Perception Heaven TH10.5 鬼伽草子 fa featured artist mpg mappers' guild rock japanese
BeatmapID:2233180
BeatmapSetID:1066545

[Difficulty]
HPDrainRate:5
CircleSize:4.2
OverallDifficulty:8
ApproachRate:8.5
SliderMultiplier:1.8
SliderTickRate:1

[Events]
//Background and Video events
0,0,"bg.jpg",0,0
//Break Periods
2,234269,240394
//Storyboard Layer 0 (Background)
//Storyboard Layer 1 (Fail)
//Storyboard Layer 2 (Pass)
//Storyboard Layer 3 (Foreground)
//Storyboard Layer 4 (Overlay)
//Storyboard Sound Samples

[TimingPoints]
26069,500,4,2,1,60,1,0
26069,-125,4,2,1,60,0,0
52069,-125,4,2,1,50,0,0
52569,-125,4,2,2,50,0,0
52694,-125,4,2,1,50,0,0
53569,-125,4,2,2,50,0,0
53694,-125,4,2,1,50,0,0
54569,-125,4,2,2,50,0,0
54694,-125,4,2,1,50,0,0
55569,-125,4,2,2,50,0,0
55694,-125,4,2,1,50,0,0
56569,-125,4,2,2,50,0,0
56694,-125,4,2,1,50,0,0
57569,-125,4,2,2,50,0,0
57694,-125,4,2,1,50,0,0
58569,-125,4,2,2,50,0,0
58694,-125,4,2,1,50,0,0
59569,-125,4,2,2,50,0,0
59694,-125,4,2,1,50,0,0
60569,-125,4,2,2,50,0,0
60694,-125,4,2,1,50,0,0
61569,-125,4,2,2,50,0,0
61694,-125,4,2,1,50,0,0
62569,-125,4,2,2,50,0,0
62694,-125,4,2,1,50,0,0
63569,-125,4,2,2,50,0,0
63694,-125,4,2,1,50,0,0
64569,-125,4,2,2,50,0,0
64694,-125,4,2,1,50,0,0
65569,-125,4,2,2,50,0,0
65694,-125,4,2,1,50,0,0
66569,-125,4,2,2,50,0,0
66694,-125,4,2,1,50,0,0
67569,-125,4,2,2,50,0,0
67694,-125,4,2,1,50,0,0
68569,-125,4,2,2,50,0,0
68694,-125,4,2,1,50,0,0
69569,-125,4,2,2,50,0,0
69694,-125,4,2,1,50,0,0
70569,-125,4,2,2,50,0,0
70694,-125,4,2,1,50,0,0
71569,-125,4,2,2,50,0,0
71694,-125,4,2,1,50,0,0
72569,-125,4,2,2,50,0,0
72694,-125,4,2,1,50,0,0
73569,-125,4,2,2,50,0,0
73694,-125,4,2,1,50,0,0
74569,-125,4,2,2,50,0,0
74694,-125,4,2,1,50,0,0
75569,-125,4,2,2,50,0,0
75694,-125,4,2,1,50,0,0
76569,-125,4,2,2,50,0,0
76694,-125,4,2,1,50,0,0
77569,-125,4,2,2,50,0,0
77694,-125,4,2,1,50,0,0
78569,-125,4,2,2,50,0,0
78694,-125,4,2,1,50,0,0
79569,-125,4,2,2,50,0,0
79694,-125,4,2,1,50,0,0
80569,-125,4,2,2,50,0,0
80694,-125,4,2,1,50,0,0
81569,-125,4,2,2,50,0,0
81694,-125,4,2,1,50,0,0
82569,-125,4,2,2,50,0,0
82694,-125,4,2,1,50,0,0
83569,-125,4,2,2,50,0,0
83694,-125,4,2,1,50,0,0
84069,-125,4,2,1,40,0,0
85069,-125,4,2,2,40,0,0
85194,-125,4,2,1,40,0,0
87069,-125,4,2,2,40,0,0
87194,-125,4,2,1,40,0,0
89069,-125,4,2,2,40,0,0
89194,-125,4,2,1,40,0,0
91069,-125,4,2,2,40,0,0
91194,-125,4,2,1,40,0,0
93069,-125,4,2,2,40,0,0
93194,-125,4,2,1,40,0,0
95069,-125,4,2,2,40,0,0
95194,-125,4,2,1,40,0,0
97069,-125,4,2,2,40,0,0
97194,-125,4,2,1,40,0,0
100069,-100,4,2,1,70,0,1
132069,-111.111111111111,4,2,1,60,0,0
150069,-125,4,2,1,50,0,0
150569,-125,4,2,2,50,0,0
150694,-125,4,2,1,50,0,0
151569,-125,4,2,2,50,0,0
151694,-125,4,2,1,50,0,0
152569,-125,4,2,2,50,0,0
152694,-125,4,2,1,50,0,0
153569,-125,4,2,2,50,0,0
153694,-125,4,2,1,50,0,0
154569,-125,4,2,2,50,0,0
154694,-125,4,2,1,50,0,0
155569,-125,4,2,2,50,0,0
155694,-125,4,2,1,50,0,0
156569,-125,4,2,2,50,0,0
156694,-125,4,2,1,50,0,0
157569,-125,4,2,2,50,0,0
157694,-125,4,2,1,50,0,0
158569,-125,4,2,2,50,0,0
158694,-125,4,2,1,50,0,0
159569,-125,4,2,2,50,0,0
159694,-125,4,2,1,50,0,0
160569,-125,4,2,2,50,0,0
160694,-125,4,2,1,50,0,0
161569,-125,4,2,2,50,0,0
161694,-125,4,2,1,50,0,0
162569,-125,4,2,2,50,0,0
162694,-125,4,2,1,50,0,0
163569,-125,4,2,2,50,0,0
163694,-125,4,2,1,50,0,0
164569,-125,4,2,2,50,0,0
164694,-125,4,2,1,50,0,0
166069,-125,4,2,1,40,0,0
167069,-125,4,2,2,40,0,0
167194,-125,4,2,1,40,0,0
169069,-125,4,2,2,40,0,0
169194,-125,4,2,1,40,0,0
171069,-125,4,2,2,40,0,0
171194,-125,4,2,1,40,0,0
173069,-125,4,2,2,40,0,0
173194,-125,4,2,1,40,0,0
175069,-125,4,2,2,40,0,0
175194,-125,4,2,1,40,0,0
177069,-125,4,2,2,40,0,0
177194,-125,4,2,1,40,0,0
179069,-125,4,2,2,40,0,0
179194,-125,4,2,1,40,0,0
182069,-100,4,2,1,75,0,1
214069,-90.9090909090909,4,2,1,75,0,0
225194,-142.857142857143,4,2,1,75,0,0
234069,-125,4,2,1,40,0,0
241069,-142.857142857143,4,2,1,50,0,0
241569,-142.857142857143,4,2,2,50,0,0
241694,-142.857142857143,4,2,1,50,0,0
243569,-142.857142857143,4,2,2,50,0,0
243694,-142.857142857143,4,2,1,50,0,0
245569,-142.857142857143,4,2,2,50,0,0
245694,-142.857142857143,4,2,1,50,0,0
247569,-142.857142857143,4,2,2,50,0,0
247694,-142.857142857143,4,2,1,50,0,0
249569,-142.857142857143,4,2,2,50,0,0
249694,-142.857142857143,4,2,1,50,0,0
251569,-142.857142857143,4,2,2,50,0,0
251694,-142.857142857143,4,2,1,50,0,0
253569,-142.857142857143,4,2,2,50,0,0
253694,-142.857142857143,4,2,1,50,0,0
255569,-142.857142857143,4,2,2,50,0,0
255694,-142.857142857143,4,2,1,50,0,0
258069,-100,4,2,1,80,0,1
290069,-100,4,2,1,70,0,0

[Colours]
Combo1 : 186,202,218
Combo2 : 242,162,164
Combo3 : 160,171,243
Combo4 : 248,192,156

[HitObjects]
434,163,28944,5,2,0:0:0:0:
478,297,29194,1,8,1:0:0:0:
449,279,29319,1,8,1:0:0:0:
417,274,29444,1,8,1:0:0:0:
386,284,29569,1,8,1:0:0:0:
357,299,29694,1,8,1:0:0:0:
327,309,29819,1,8,1:0:0:0:
294,304,29944,1,8,1:0:0:0:
266,286,30069,6,0,L|254:206,1,72,14|0,0:0|0:0,0:0:0:0:
147,87,30569,2,0,L|154:51,2,36,8|8|8,1:0|1:0|1:0,0:0:0:0:
84,138,30944,2,0,P|58:179|56:207,1,72,2|0,0:0|0:0,0:0:0:0:
68,282,31319,1,2,0:0:0:0:
251,265,31569,2,0,L|286:257,2,36,8|8|8,1:0|1:0|1:0,0:0:0:0:
237,182,31944,6,0,L|244:110,1,72,2|0,0:0|0:0,0:0:0:0:
220,36,32319,1,2,0:0:0:0:
408,66,32569,2,0,L|400:30,2,36,8|8|8,1:0|1:0|1:0,0:0:0:0:
455,126,32944,2,0,P|430:148|402:207,1,72,2|0,0:0|0:0,0:0:0:0:
388,258,33319,1,8,1:0:0:0:
388,258,33444,1,8,0:0:0:0:
388,258,33569,2,0,L|422:269,1,36,8|0,1:0|0:0,0:0:0:0:
321,308,33819,2,0,L|286:296,1,36,8|0,1:0|0:0,0:0:0:0:
212,303,34069,5,8,0:0:0:0:
277,176,34319,1,2,0:0:0:0:
142,71,34569,2,0,L|134:142,1,72,8|0,1:0|0:0,0:0:0:0:
60,178,34944,1,2,0:0:0:0:
60,178,35069,2,0,L|67:249,1,72,2|0,0:0|0:0,0:0:0:0:
153,384,35569,1,8,1:0:0:0:
280,321,35819,1,2,0:0:0:0:
280,321,35944,1,2,0:0:0:0:
280,321,36069,6,0,P|317:309|377:326,1,72,2|0,0:0|0:0,0:0:0:0:
345,196,36569,2,0,P|382:204|426:248,1,72,8|0,1:0|0:0,0:0:0:0:
469,289,36944,1,2,0:0:0:0:
469,289,37069,2,0,L|460:332,2,36,2|0|0,0:0|0:0|0:0,0:0:0:0:
511,134,37569,1,8,1:0:0:0:
410,192,37819,1,2,0:0:0:0:
306,67,38069,6,0,P|292:119|268:157,1,72,2|0,0:0|0:0,0:0:0:0:
209,265,38569,2,0,P|194:232|186:197,1,72,8|0,1:0|0:0,0:0:0:0:
175,117,38944,1,2,0:0:0:0:
175,117,39069,1,2,0:0:0:0:
175,117,39194,2,0,L|220:107,2,36,2|0|0,0:0|0:0|0:0,0:0:0:0:
93,89,39569,1,8,1:0:0:0:
12,180,39819,1,2,0:0:0:0:
177,269,40069,6,0,P|143:255|107:254,1,72,2|0,0:0|0:0,0:0:0:0:
220,363,40569,2,0,P|255:361|289:348,1,72,8|0,1:0|0:0,0:0:0:0:
358,298,40944,1,2,0:0:0:0:
358,298,41069,2,0,L|350:262,2,36,2|0|0,0:0|0:0|0:0,0:0:0:0:
292,171,41569,1,8,1:0:0:0:
185,208,41819,1,2,0:0:0:0:
87,100,42069,6,0,P|120:87|156:82,1,72,2|0,0:0|0:0,0:0:0:0:
218,36,42444,1,2,0:0:0:0:
218,36,42569,2,0,P|251:48|287:53,1,72,8|0,1:0|0:0,0:0:0:0:
460,13,43069,1,8,0:0:0:0:
438,27,43194,1,8,0:0:0:0:
425,49,43319,1,8,0:0:0:0:
485,214,43569,2,0,L|474:142,1,72,8|0,1:0|0:0,0:0:0:0:
336,190,44069,5,2,0:0:0:0:
336,190,44195,2,0,P|300:183|268:167,1,72,2|0,0:0|0:0,0:0:0:0:
229,94,44569,2,0,P|193:100|161:116,1,72,8|0,1:0|0:0,0:0:0:0:
47,235,45069,2,0,L|82:239,3,36,8|8|8|8,0:0|0:0|0:0|0:0,0:0:0:0:
137,311,45569,2,0,P|166:290|200:277,1,72,8|0,1:0|0:0,0:0:0:0:
354,226,46069,6,0,L|282:215,1,72,2|0,0:0|0:0,0:0:0:0:
211,171,46444,1,2,0:0:0:0:
211,171,46569,2,0,L|282:160,1,72,8|0,1:0|0:0,0:0:0:0:
422,120,47069,1,8,0:0:0:0:
438,108,47194,1,8,0:0:0:0:
452,91,47319,1,8,0:0:0:0:
504,247,47569,2,0,L|490:342,1,72,8|0,1:0|0:0,0:0:0:0:
414,283,47944,2,0,L|405:241,1,36,2|0,0:0|0:0,0:0:0:0:
382,172,48194,5,8,1:0:0:0:
358,145,48319,1,8,1:0:0:0:
329,126,48444,1,8,1:0:0:0:
296,116,48569,1,8,1:0:0:0:
261,114,48694,1,8,1:0:0:0:
227,122,48819,1,8,1:0:0:0:
197,139,48944,2,0,B|171:202|171:202|204:291,1,144,14|0,0:0|0:0,0:0:0:0:
34,168,49819,5,2,0:0:0:0:
116,92,50069,1,2,0:0:0:0:
287,176,50444,1,2,0:0:0:0:
287,176,50569,2,0,P|321:166|356:174,2,72,2|0|0,0:0|0:0|0:0,0:0:0:0:
215,220,51194,1,2,0:0:0:0:
58,260,51444,1,2,0:0:0:0:
58,260,51569,2,0,L|68:188,1,72,2|0,0:0|0:0,0:0:0:0:
138,43,52069,6,0,P|196:31|244:50,1,108,6|0,0:0|0:0,0:0:0:0:
279,127,52569,2,0,L|207:137,2,72,2|0|0,0:0|0:0|0:0,0:0:0:0:
332,71,53194,1,0,0:0:0:0:
471,61,53444,1,0,0:0:0:0:
471,61,53569,2,0,P|483:98|484:143,1,72,2|0,0:0|0:0,0:0:0:0:
381,178,54069,6,0,P|369:212|366:247,1,72,10|0,0:0|0:0,0:0:0:0:
376,327,54444,1,0,0:0:0:0:
376,327,54569,1,2,0:0:0:0:
242,359,54819,1,2,0:0:0:0:
257,236,55069,1,2,0:0:0:0:
257,236,55194,2,0,L|247:164,1,72,0|0,0:0|0:0,0:0:0:0:
272,93,55569,1,2,0:0:0:0:
196,4,55819,1,0,0:0:0:0:
44,35,56069,6,0,P|25:84|43:148,1,108,8|0,0:0|0:0,0:0:0:0:
108,166,56569,2,0,L|97:250,1,72,2|0,0:0|0:0,0:0:0:0:
6,374,57069,1,2,0:0:0:0:
6,374,57194,2,0,P|40:355|87:351,1,72,0|0,0:0|0:0,0:0:0:0:
144,328,57569,2,0,P|178:346|225:350,1,72,2|0,0:0|0:0,0:0:0:0:
368,291,58069,6,0,L|296:281,1,72,10|0,0:0|0:0,0:0:0:0:
240,230,58444,1,0,0:0:0:0:
240,230,58569,1,2,0:0:0:0:
352,166,58819,1,2,0:0:0:0:
481,262,59069,1,2,0:0:0:0:
481,262,59194,2,0,P|461:219|459:189,1,72,0|0,0:0|0:0,0:0:0:0:
503,129,59569,2,0,P|497:93|480:61,1,72,2|0,0:0|0:0,0:0:0:0:
313,18,60069,6,0,L|202:33,1,108,8|0,0:0|0:0,0:0:0:0:
136,68,60569,2,0,P|100:48|53:49,2,72,2|0|0,0:0|0:0|0:0,0:0:0:0:
186,128,61194,1,0,0:0:0:0:
84,217,61444,1,0,0:0:0:0:
84,217,61569,2,0,P|53:230|0:229,1,72,2|0,0:0|0:0,0:0:0:0:
174,240,62069,6,0,P|209:241|242:255,1,72,10|0,0:0|0:0,0:0:0:0:
310,305,62444,1,0,0:0:0:0:
310,305,62569,1,2,0:0:0:0:
377,206,62819,1,0,0:0:0:0:
244,97,63069,1,2,0:0:0:0:
244,97,63194,2,0,P|280:109|328:104,1,72,0|0,0:0|0:0,0:0:0:0:
387,90,63569,1,2,0:0:0:0:
512,160,63819,1,2,0:0:0:0:
446,268,64069,6,0,P|381:250|322:241,1,108,10|0,0:0|0:0,0:0:0:0:
242,229,64569,2,0,P|256:260|254:306,1,72,2|0,0:0|0:0,0:0:0:0:
138,384,65069,1,0,0:0:0:0:
138,384,65194,2,0,L|147:312,1,72,0|0,0:0|0:0,0:0:0:0:
70,285,65569,2,0,L|79:213,1,72,2|0,0:0|0:0,0:0:0:0:
205,99,66069,6,0,P|169:121|134:123,1,72,10|0,0:0|0:0,0:0:0:0:
67,117,66444,1,0,0:0:0:0:
67,117,66569,1,2,0:0:0:0:
134,3,66819,1,2,0:0:0:0:
148,14,66902,1,0,0:0:0:0:
160,22,66985,1,0,0:0:0:0:
303,50,67194,2,0,L|306:14,2,36,2|0|0,0:0|0:0|0:0,0:0:0:0:
284,129,67569,2,0,P|302:156|312:206,1,72,2|0,0:0|0:0,0:0:0:0:
364,347,68069,5,10,0:0:0:0:
364,347,68194,2,0,L|377:276,1,72,2|0,0:0|0:0,0:0:0:0:
469,289,68569,2,0,L|456:218,1,72,2|0,0:0|0:0,0:0:0:0:
352,116,69069,1,2,0:0:0:0:
373,124,69194,1,2,0:0:0:0:
512,44,69444,1,2,0:0:0:0:
492,51,69569,2,0,P|447:50|405:32,1,72,2|0,0:0|0:0,0:0:0:0:
296,17,70069,6,0,P|251:17|209:35,1,72,10|0,0:0|0:0,0:0:0:0:
167,72,70444,1,2,0:0:0:0:
167,72,70569,1,2,0:0:0:0:
270,152,70819,1,2,0:0:0:0:
161,264,71069,1,2,0:0:0:0:
145,253,71194,2,0,L|110:256,2,36,2|0|0,0:0|0:0|0:0,0:0:0:0:
193,192,71569,1,2,0:0:0:0:
306,257,71819,1,2,0:0:0:0:
386,136,72069,6,0,L|396:207,1,72,10|0,0:0|0:0,0:0:0:0:
472,270,72444,1,2,0:0:0:0:
472,270,72569,2,0,L|482:198,1,72,2|0,0:0|0:0,0:0:0:0:
512,67,73069,1,2,0:0:0:0:
489,78,73194,1,2,0:0:0:0:
353,148,73444,1,2,0:0:0:0:
330,137,73569,2,0,P|286:129|245:136,1,72,2|0,0:0|0:0,0:0:0:0:
167,6,74069,6,0,L|156:90,1,72,10|0,0:0|0:0,0:0:0:0:
83,131,74444,1,2,0:0:0:0:
83,131,74569,2,0,L|73:59,2,72,2|0|0,0:0|0:0|0:0,0:0:0:0:
51,200,75194,1,2,0:0:0:0:
51,200,75319,2,0,L|46:249,1,36,2|0,0:0|0:0,0:0:0:0:
39,324,75569,2,0,P|78:310|123:313,1,72,2|0,0:0|0:0,0:0:0:0:
254,359,76069,5,10,0:0:0:0:
254,359,76194,2,0,P|249:323|246:287,1,72,2|0,0:0|0:0,0:0:0:0:
339,297,76569,2,0,P|334:261|331:225,1,72,2|0,0:0|0:0,0:0:0:0:
349,91,77069,1,2,0:0:0:0:
330,99,77194,1,2,0:0:0:0:
461,67,77444,1,2,0:0:0:0:
480,75,77569,2,0,P|477:110|472:146,1,72,2|0,0:0|0:0,0:0:0:0:
494,288,78069,6,0,P|472:260|440:245,1,72,10|0,0:0|0:0,0:0:0:0:
367,234,78444,1,2,0:0:0:0:
367,234,78569,1,2,0:0:0:0:
292,321,78819,1,0,0:0:0:0:
186,208,79069,1,2,0:0:0:0:
199,226,79194,2,0,L|196:261,2,36,2|0|0,0:0|0:0|0:0,0:0:0:0:
256,170,79569,1,2,0:0:0:0:
389,212,79819,1,2,0:0:0:0:
512,119,80069,6,0,P|470:106|427:104,1,72,10|0,0:0|0:0,0:0:0:0:
400,38,80444,1,2,0:0:0:0:
400,38,80569,2,0,P|358:50|315:53,1,72,2|0,0:0|0:0,0:0:0:0:
182,21,81069,1,0,0:0:0:0:
166,38,81194,1,2,0:0:0:0:
27,81,81444,1,2,0:0:0:0:
43,98,81569,2,0,P|63:139|68:184,1,72,2|0,0:0|0:0,0:0:0:0:
218,160,82069,6,0,P|201:191|193:226,1,72,10|0,0:0|0:0,0:0:0:0:
196,306,82444,1,2,0:0:0:0:
196,306,82569,1,2,0:0:0:0:
304,379,82819,1,0,0:0:0:0:
426,274,83069,1,2,0:0:0:0:
407,244,83194,2,0,L|412:207,2,36,2|0|0,0:0|0:0|0:0,0:0:0:0:
336,180,83569,2,0,P|327:146|336:111,1,72,2|0,0:0|0:0,0:0:0:0:
348,93,83902,1,2,0:0:0:0:
360,81,83985,1,2,0:0:0:0:
377,73,84069,6,0,L|459:83,2,72,6|0|0,0:0|0:0|0:0,0:0:0:0:
296,2,84819,1,2,0:0:0:0:
172,91,85069,1,2,0:0:0:0:
58,47,85319,1,0,0:0:0:0:
58,47,85569,2,0,P|70:80|74:116,1,72,2|0,0:0|0:0,0:0:0:0:
17,208,86069,6,0,P|4:241|0:277,2,72,2|0|0,0:0|0:0|0:0,0:0:0:0:
117,299,86819,1,2,0:0:0:0:
243,256,87069,2,0,P|189:189|118:213,1,144,2|0,0:0|0:0,0:0:0:0:
220,350,87819,1,0,0:0:0:0:
220,350,88069,6,0,L|291:339,1,72,6|0,0:0|0:0,0:0:0:0:
325,271,88444,1,0,0:0:0:0:
325,271,88569,2,0,L|396:279,1,72,2|0,0:0|0:0,0:0:0:0:
512,352,89069,2,0,P|493:321|486:286,2,72,2|0|0,0:0|0:0|0:0,0:0:0:0:
512,193,89819,6,0,P|465:166|382:172,1,108,2|0,0:0|0:0,0:0:0:0:
337,176,90319,1,2,0:0:0:0:
224,92,90569,2,0,L|216:163,1,72,0|0,0:0|0:0,0:0:0:0:
92,16,91069,2,0,L|100:87,1,72,2|0,0:0|0:0,0:0:0:0:
60,212,91569,1,0,0:0:0:0:
197,158,91819,1,2,0:0:0:0:
197,158,91944,1,2,0:0:0:0:
197,158,92069,6,0,P|231:147|267:143,2,72,6|0|0,0:0|0:0|0:0,0:0:0:0:
282,245,92819,1,2,0:0:0:0:
380,109,93069,1,2,0:0:0:0:
487,161,93319,1,0,0:0:0:0:
487,161,93569,2,0,P|479:202|479:232,1,72,2|0,0:0|0:0,0:0:0:0:
418,313,94069,6,0,P|426:354|426:384,2,72,2|0|0,0:0|0:0|0:0,0:0:0:0:
372,219,94819,1,2,0:0:0:0:
246,307,95069,2,0,B|182:336|182:336|89:295,1,144,2|0,0:0|0:0,0:0:0:0:
0,201,95819,1,0,0:0:0:0:
0,201,96069,6,0,P|34:189|70:167,1,72,6|0,0:0|0:0,0:0:0:0:
231,143,96569,2,0,P|197:131|161:109,1,72,2|0,0:0|0:0,0:0:0:0:
113,63,96944,1,0,0:0:0:0:
113,63,97069,2,0,L|42:71,2,72,2|0|0,0:0|0:0|0:0,0:0:0:0:
240,7,97819,1,2,0:0:0:0:
240,7,97944,1,2,0:0:0:0:
240,7,98069,6,0,P|269:21|300:56,1,72,6|0,0:0|0:0,0:0:0:0:
395,118,98569,2,0,P|365:132|335:167,1,72
303,230,98902,1,0,3:0:0:0:
303,230,98985,1,0,3:0:0:0:
303,230,99069,1,2,3:2:0:0:
204,134,99319,1,2,0:0:0:0:
2,117,99569,1,2,0:0:0:0:
100,22,99819,1,2,0:0:0:0:
100,22,100069,6,0,P|196:2|266:59,1,180,14|8,0:0|0:0,0:0:0:0:
475,116,100819,1,2,0:0:0:0:
475,116,101069,2,0,P|390:93|316:140,1,180,8|0,1:0|0:0,0:0:0:0:
252,261,101819,1,8,0:0:0:0:
363,360,102069,6,0,L|373:270,1,90,2|8,0:0|0:0,0:0:0:0:
474,175,102569,2,0,L|483:265,1,90,2|8,0:0|0:0,0:0:0:0:
486,78,103069,2,0,B|379:59|422:161|279:113,1,180,8|0,1:0|0:0,0:0:0:0:
120,21,103819,1,2,0:0:0:0:
120,21,104069,6,0,P|212:56|187:146,1,180,14|8,0:0|0:0,0:0:0:0:
58,249,104819,1,2,0:0:0:0:
58,249,105069,2,0,P|103:225|142:221,1,90,8|0,1:0|0:0,0:0:0:0:
209,266,105444,1,2,0:0:0:0:
209,266,105569,1,2,0:0:0:0:
280,161,105819,1,10,0:0:0:0:
363,300,106069,6,0,P|376:253|378:208,1,90,2|8,0:0|0:0,0:0:0:0:
510,352,106569,2,0,P|496:305|494:260,1,90,2|8,0:0|0:0,0:0:0:0:
512,88,107069,2,0,B|424:121|424:121|324:85,1,180,8|0,1:0|0:0,0:0:0:0:
183,39,107819,1,2,0:0:0:0:
183,39,108069,6,0,L|270:23,1,90,14|0,0:0|0:0,0:0:0:0:
174,75,108444,1,2,0:0:0:0:
174,75,108569,2,0,L|86:59,1,90,8|0,0:0|0:0,0:0:0:0:
0,242,109069,2,0,P|61:171|160:213,1,180,8|0,1:0|0:0,0:0:0:0:
237,308,109819,1,8,0:0:0:0:
387,209,110069,6,0,P|340:198|298:196,1,90,2|8,0:0|0:0,0:0:0:0:
227,221,110444,1,2,0:0:0:0:
227,221,110569,1,2,0:0:0:0:
310,99,110819,1,8,0:0:0:0:
484,176,111069,2,0,B|491:246|491:246|466:280|466:280|474:352,1,180,8|0,1:0|0:0,0:0:0:0:
352,261,111819,1,2,0:0:0:0:
352,261,112069,6,0,P|311:240|262:245,1,90,14|0,0:0|0:0,0:0:0:0:
259,329,112444,1,2,0:0:0:0:
259,329,112569,2,0,P|218:350|169:345,1,90,8|0,0:0|0:0,0:0:0:0:
9,260,113069,1,8,1:0:0:0:
113,199,113319,1,2,0:0:0:0:
0,38,113569,2,0,P|54:84|147:69,1,135,2|0,0:0|0:0,0:0:0:0:
173,31,114069,6,0,L|260:49,1,90,2|8,0:0|0:0,0:0:0:0:
466,113,114569,2,0,L|378:131,1,90,2|8,0:0|0:0,0:0:0:0:
207,225,115069,1,8,1:0:0:0:
273,92,115319,1,8,3:0:0:0:
454,151,115569,1,8,3:0:0:0:
388,284,115819,1,8,3:0:0:0:
388,284,116069,6,0,B|298:323|298:234|198:284,1,180,14|8,0:0|0:0,0:0:0:0:
0,184,116819,1,2,0:0:0:0:
0,184,117069,2,0,B|89:223|89:134|189:184,1,180,8|0,1:0|0:0,0:0:0:0:
282,242,117819,1,8,0:0:0:0:
422,165,118069,6,0,P|391:147|318:152,1,90,2|8,0:0|0:0,0:0:0:0:
183,79,118569,2,0,P|227:79|267:59,1,90,2|8,0:0|0:0,0:0:0:0:
63,6,119069,2,0,L|81:185,1,180,8|0,1:0|0:0,0:0:0:0:
0,354,119819,1,2,0:0:0:0:
0,354,120069,6,0,B|102:320|102:320|187:360,1,180,14|8,0:0|0:0,0:0:0:0:
374,257,120819,1,2,0:0:0:0:
374,257,121069,2,0,B|271:290|271:290|186:250,1,180,8|0,1:0|0:0,0:0:0:0:
89,157,121819,1,8,0:0:0:0:
195,40,122069,6,0,L|205:135,1,90,2|8,0:0|0:0,0:0:0:0:
332,242,122569,2,0,L|322:152,1,90,2|8,0:0|0:0,0:0:0:0:
442,0,123069,2,0,B|435:70|435:70|460:104|460:104|452:176,1,180,8|0,1:0|0:0,0:0:0:0:
512,363,123819,1,2,0:0:0:0:
512,363,124069,6,0,P|474:338|430:333,1,90,14|0,0:0|0:0,0:0:0:0:
421,254,124444,1,2,0:0:0:0:
421,254,124569,2,0,P|376:250|335:268,1,90,8|0,0:0|0:0,0:0:0:0:
125,170,125069,2,0,P|200:195|303:160,1,180,8|0,1:0|0:0,0:0:0:0:
368,72,125819,1,8,0:0:0:0:
178,38,126069,6,0,L|88:50,1,90,2|8,0:0|0:0,0:0:0:0:
42,113,126444,1,2,0:0:0:0:
42,113,126569,1,2,0:0:0:0:
168,185,126819,1,8,0:0:0:0:
6,259,127069,2,0,B|116:233|84:318|192:295,1,180,8|0,1:0|0:0,0:0:0:0:
380,289,127819,1,2,0:0:0:0:
380,289,128069,6,0,P|335:289|294:262,1,90,14|0,0:0|0:0,0:0:0:0:
234,214,128444,1,2,0:0:0:0:
234,214,128569,2,0,P|278:214|319:187,1,90,8|0,0:0|0:0,0:0:0:0:
416,72,129069,1,8,1:0:0:0:
495,175,129319,1,8,3:0:0:0:
501,206,129444,1,8,3:0:0:0:
508,239,129569,1,8,3:0:0:0:
388,328,129819,1,8,0:0:0:0:
228,279,130069,6,0,P|228:234|246:193,1,90,14|0,0:0|0:0,0:0:0:0:
335,210,130444,1,0,0:0:0:0:
335,210,130569,2,0,P|334:165|316:124,1,90,8|0,1:0|0:0,0:0:0:0:
170,14,131069,1,8,1:0:0:0:
195,27,131194,1,8,0:0:0:0:
228,31,131319,1,8,0:0:0:0:
445,78,131569,1,8,3:0:0:0:
432,81,131694,1,8,0:0:0:0:
420,88,131819,1,8,0:0:0:0:
306,233,132069,5,14,0:0:0:0:
306,233,134944,5,2,0:0:0:0:
464,199,135194,1,8,1:0:0:0:
464,199,135319,2,0,L|473:228,3,20.2499993820191,8|8|8|8,3:0|0:0|3:0|0:0,0:0:0:0:
474,264,135569,2,0,P|500:273|526:273,1,40.4999987640381,8|0,1:0|0:0,0:0:0:0:
400,302,135819,2,0,P|374:304|351:316,1,40.4999987640381,8|0,3:0|0:0,0:0:0:0:
269,358,136069,6,0,L|282:262,1,80.9999975280763,14|0,0:0|0:0,0:0:0:0:
262,204,136444,1,8,0:0:0:0:
262,204,136569,1,8,1:0:0:0:
331,38,136819,1,8,1:0:0:0:
331,38,136944,2,0,L|343:127,1,80.9999975280763,2|0,0:0|0:0,0:0:0:0:
406,168,137319,1,2,0:0:0:0:
239,104,137569,1,8,1:0:0:0:
208,91,137694,1,8,0:0:0:0:
166,112,137819,1,8,0:0:0:0:
123,92,137944,6,0,P|88:90|43:108,1,80.9999975280763,14|0,0:0|0:0,0:0:0:0:
0,178,138319,1,8,0:0:0:0:
36,194,138444,1,8,0:0:0:0:
69,217,138569,2,0,L|67:260,1,40.4999987640381,8|0,3:0|0:0,0:0:0:0:
48,334,138819,1,8,1:0:0:0:
48,334,138944,2,0,P|80:306|127:294,1,80.9999975280763,2|0,0:0|0:0,0:0:0:0:
199,282,139319,1,8,1:0:0:0:
188,251,139444,1,8,0:0:0:0:
188,218,139569,2,0,P|196:199|209:184,1,40.4999987640381,8|0,1:0|0:0,0:0:0:0:
289,153,139819,2,0,P|280:134|267:119,1,40.4999987640381,8|0,1:0|0:0,0:0:0:0:
205,55,140069,5,14,0:0:0:0:
307,115,140319,1,2,0:0:0:0:
433,2,140569,2,0,P|417:42|423:89,1,80.9999975280763,8|0,1:0|0:0,0:0:0:0:
491,141,140944,1,2,0:0:0:0:
491,141,141069,2,0,L|499:101,2,40.4999987640381,2|0|0,0:0|0:0|0:0,0:0:0:0:
504,310,141569,1,8,1:0:0:0:
390,253,141819,1,2,0:0:0:0:
390,253,141944,1,2,0:0:0:0:
390,253,142069,6,0,L|346:257,1,40.4999987640381,2|0,0:0|0:0,0:0:0:0:
281,201,142319,2,0,L|237:205,1,40.4999987640381,2|0,0:0|0:0,0:0:0:0:
172,253,142569,2,0,P|142:226|103:215,1,80.9999975280763,8|0,1:0|0:0,0:0:0:0:
27,217,142944,1,2,0:0:0:0:
27,217,143069,1,2,0:0:0:0:
105,87,143319,2,0,L|144:78,1,40.4999987640381,2|0,0:0|0:0,0:0:0:0:
216,33,143569,2,0,P|190:72|182:132,1,80.9999975280763,8|0,1:0|0:0,0:0:0:0:
299,205,144069,6,0,L|287:124,1,80.9999975280763,14|0,0:0|0:0,0:0:0:0:
174,214,144569,2,0,L|162:294,1,80.9999975280763,8|0,1:0|0:0,0:0:0:0:
134,373,144944,1,2,0:0:0:0:
134,373,145069,2,0,P|168:352|208:350,1,80.9999975280763,8|0,1:0|0:0,0:0:0:0:
288,366,145444,1,2,0:0:0:0:
288,366,145569,1,8,1:0:0:0:
418,255,145819,1,0,0:0:0:0:
425,292,145944,1,2,0:0:0:0:
299,220,146194,5,8,1:0:0:0:
290,188,146319,1,8,1:0:0:0:
286,155,146444,1,8,1:0:0:0:
286,122,146569,1,8,1:0:0:0:
288,89,146694,1,8,1:0:0:0:
292,56,146819,1,8,1:0:0:0:
292,56,146944,2,0,P|332:50|389:45,2,80.9999975280763,14|0|0,0:0|0:0|0:0,0:0:0:0:
221,28,147569,1,2,0:0:0:0:
129,112,147819,1,2,0:0:0:0:
225,233,148069,6,0,P|235:190|238:150,1,80.9999975280763,2|0,0:0|0:0,0:0:0:0:
310,96,148444,1,2,0:0:0:0:
310,96,148569,2,0,P|313:136|323:175,1,80.9999975280763,2|0,0:0|0:0,0:0:0:0:
393,309,149069,1,0,0:0:0:0:
393,309,149194,2,0,P|358:288|318:286,1,80.9999975280763,2|0,0:0|0:0,0:0:0:0:
243,298,149569,2,0,P|202:295|168:275,1,80.9999975280763,2|0,0:0|0:0,0:0:0:0:
41,153,150069,5,0,0:0:0:0:
41,153,150194,2,0,L|112:142,1,72,2|0,0:0|0:0,0:0:0:0:
161,70,150569,2,0,L|232:80,1,72,2|0,0:0|0:0,0:0:0:0:
371,143,151069,1,0,0:0:0:0:
363,164,151194,1,2,0:0:0:0:
487,82,151444,1,2,0:0:0:0:
495,61,151569,2,0,L|507:145,1,72,2|0,0:0|0:0,0:0:0:0:
512,296,152069,6,0,P|483:274|449:262,1,72,10|0,0:0|0:0,0:0:0:0:
378,255,152444,1,2,0:0:0:0:
378,255,152569,1,2,0:0:0:0:
294,340,152819,1,2,0:0:0:0:
159,250,153069,1,2,0:0:0:0:
145,263,153194,2,0,L|148:298,2,36,2|0|0,0:0|0:0|0:0,0:0:0:0:
84,206,153569,1,2,0:0:0:0:
154,94,153819,1,2,0:0:0:0:
298,142,154069,6,0,P|333:143|367:131,1,72,8|0,0:0|0:0,0:0:0:0:
438,104,154444,1,2,0:0:0:0:
438,104,154569,2,0,P|402:105|368:93,1,72,2|0,0:0|0:0,0:0:0:0:
250,16,155069,1,2,0:0:0:0:
254,39,155194,1,2,0:0:0:0:
274,188,155444,1,2,0:0:0:0:
258,200,155569,2,0,P|233:165|183:140,1,72,2|0,0:0|0:0,0:0:0:0:
87,118,156069,6,0,L|76:209,1,72,10|0,0:0|0:0,0:0:0:0:
7,244,156444,1,2,0:0:0:0:
7,244,156569,2,0,L|-1:172,2,72,2|0|0,0:0|0:0|0:0,0:0:0:0:
24,325,157194,1,0,0:0:0:0:
24,325,157319,2,0,L|78:328,1,36,2|0,0:0|0:0,0:0:0:0:
140,294,157569,2,0,P|166:258|164:212,1,72,2|0,0:0|0:0,0:0:0:0:
221,72,158069,5,8,0:0:0:0:
221,72,158194,2,0,P|229:107|236:142,1,72,2|0,0:0|0:0,0:0:0:0:
320,174,158569,2,0,P|311:209|304:244,1,72,2|0,0:0|0:0,0:0:0:0:
226,361,159069,1,2,0:0:0:0:
220,342,159194,1,2,0:0:0:0:
387,342,159444,1,2,0:0:0:0:
401,326,159569,2,0,P|421:289|429:246,1,72,2|0,0:0|0:0,0:0:0:0:
512,165,160069,6,0,P|492:128|484:85,1,72,10|0,0:0|0:0,0:0:0:0:
474,25,160444,1,2,0:0:0:0:
474,25,160569,1,2,0:0:0:0:
381,116,160819,1,2,0:0:0:0:
248,83,161069,1,2,0:0:0:0:
237,66,161194,2,0,L|240:31,2,36,2|0|0,0:0|0:0|0:0,0:0:0:0:
191,128,161569,1,2,0:0:0:0:
273,222,161819,1,2,0:0:0:0:
143,312,162069,6,0,P|178:316|212:327,1,72,10|0,0:0|0:0,0:0:0:0:
277,379,162444,1,2,0:0:0:0:
277,379,162569,2,0,P|312:374|347:364,1,72,2|0,0:0|0:0,0:0:0:0:
507,296,163069,1,0,0:0:0:0:
491,313,163194,1,2,0:0:0:0:
349,262,163444,1,2,0:0:0:0:
346,239,163569,2,0,P|338:203|321:172,1,72,2|0,0:0|0:0,0:0:0:0:
224,35,164069,6,0,P|207:66|199:101,1,72,8|0,0:0|0:0,0:0:0:0:
205,183,164444,1,2,0:0:0:0:
205,183,164569,1,2,0:0:0:0:
269,279,164819,1,2,0:0:0:0:
401,159,165069,1,2,0:0:0:0:
433,178,165194,2,0,L|438:142,2,36,2|0|0,0:0|0:0|0:0,0:0:0:0:
432,257,165569,2,0,P|406:283|369:294,1,72,2|0,0:0|0:0,0:0:0:0:
352,299,165902,1,2,0:0:0:0:
332,301,165985,1,2,0:0:0:0:
314,296,166069,6,0,P|280:282|242:287,2,72,6|0|0,0:0|0:0|0:0,0:0:0:0:
359,373,166819,1,2,0:0:0:0:
493,285,167069,1,2,0:0:0:0:
433,206,167319,1,0,0:0:0:0:
433,206,167569,2,0,P|420:172|417:136,1,72,2|0,0:0|0:0,0:0:0:0:
340,69,168069,6,0,P|352:35|355:0,2,72,2|0|0,0:0|0:0|0:0,0:0:0:0:
260,141,168819,1,2,0:0:0:0:
127,46,169069,2,0,P|149:137|112:203,1,144,2|0,0:0|0:0,0:0:0:0:
0,289,169819,1,0,0:0:0:0:
0,289,170069,6,0,P|34:280|70:278,1,72,6|0,0:0|0:0,0:0:0:0:
126,350,170444,1,0,0:0:0:0:
126,350,170569,2,0,P|161:348|197:339,1,72,2|0,0:0|0:0,0:0:0:0:
309,240,171069,2,0,L|297:319,2,72,2|0|0,0:0|0:0|0:0,0:0:0:0:
192,107,171819,6,0,P|239:134|322:128,1,108,2|0,0:0|0:0,0:0:0:0:
364,124,172319,1,2,0:0:0:0:
489,225,172569,2,0,L|497:154,1,72,0|0,0:0|0:0,0:0:0:0:
407,288,173069,2,0,L|415:359,1,72,2|0,0:0|0:0,0:0:0:0:
303,287,173569,1,0,0:0:0:0:
394,190,173819,1,2,0:0:0:0:
394,190,173944,1,2,0:0:0:0:
394,190,174069,6,0,P|428:188|463:204,2,72,6|0|0,0:0|0:0|0:0,0:0:0:0:
295,227,174819,1,2,0:0:0:0:
175,97,175069,1,2,0:0:0:0:
110,198,175319,1,0,0:0:0:0:
110,198,175569,2,0,P|84:229|39:252,1,72,2|0,0:0|0:0,0:0:0:0:
156,304,176069,6,0,P|186:323|208:351,2,72,2|0|0,0:0|0:0|0:0,0:0:0:0:
66,338,176819,1,2,0:0:0:0:
210,222,177069,2,0,B|287:188|287:265|374:222,1,144,2|0,0:0|0:0,0:0:0:0:
494,166,177819,1,0,0:0:0:0:
494,166,178069,6,0,P|476:197|469:232,1,72,6|0,0:0|0:0,0:0:0:0:
482,343,178569,1,0,0:0:0:0:
338,282,178819,1,2,0:0:0:0:
338,282,178944,1,2,0:0:0:0:
338,282,179069,2,0,L|330:353,2,72,2|0|0,0:0|0:0|0:0,0:0:0:0:
416,110,179819,1,2,0:0:0:0:
416,110,179944,1,2,0:0:0:0:
416,110,180069,6,0,P|405:140|373:174,1,72,6|0,0:0|0:0,0:0:0:0:
478,243,180569,2,0,P|453:263|408:277,1,72,0|0,0:0|0:0,0:0:0:0:
342,286,180902,1,0,3:0:0:0:
342,286,180985,1,0,3:0:0:0:
342,286,181069,1,2,3:2:0:0:
211,328,181319,1,2,0:0:0:0:
190,122,181569,1,2,0:0:0:0:
321,164,181819,1,2,0:0:0:0:
321,164,182069,6,0,P|393:212|487:201,1,180,14|8,0:0|0:0,0:0:0:0:
287,60,182819,1,2,0:0:0:0:
287,60,183069,2,0,P|199:50|125:99,1,180,8|0,1:0|0:0,0:0:0:0:
47,219,183819,1,8,0:0:0:0:
220,172,184069,5,2,0:0:0:0:
125,99,184319,1,8,0:0:0:0:
336,157,184569,1,2,0:0:0:0:
431,84,184819,1,8,0:0:0:0:
431,84,185069,2,0,P|501:114|481:222,1,180,8|0,1:0|0:0,0:0:0:0:
372,379,185819,1,2,0:0:0:0:
372,379,186069,6,0,B|364:311|364:311|389:277|389:277|382:207,1,180,14|8,0:0|0:0,0:0:0:0:
269,0,186819,1,2,0:0:0:0:
269,0,187069,2,0,B|262:70|262:70|287:104|287:104|279:171,1,180,8|0,1:0|0:0,0:0:0:0:
218,311,187819,1,8,0:0:0:0:
0,259,188069,5,2,0:0:0:0:
105,307,188319,1,8,0:0:0:0:
220,135,188569,1,2,0:0:0:0:
115,183,188819,1,8,0:0:0:0:
115,183,189069,2,0,B|168:230|168:230|309:218,1,180,8|0,1:0|0:0,0:0:0:0:
430,91,189819,1,2,0:0:0:0:
430,91,190069,6,0,P|404:128|396:172,1,90,14|0,0:0|0:0,0:0:0:0:
385,257,190444,1,2,0:0:0:0:
385,257,190569,2,0,P|376:213|350:176,1,90,8|0,0:0|0:0,0:0:0:0:
185,39,191069,2,0,P|222:136|233:236,1,180,8|0,1:0|0:0,0:0:0:0:
209,343,191819,1,8,0:0:0:0:
345,277,192069,6,0,P|389:268|436:289,1,90,2|8,0:0|0:0,0:0:0:0:
508,262,192444,1,2,0:0:0:0:
508,262,192569,2,0,L|512:306,1,45,2|0,0:0|0:0,0:0:0:0:
496,181,192819,1,8,0:0:0:0:
322,122,193069,2,0,B|222:98|245:178|148:149,1,180,8|0,1:0|0:0,0:0:0:0:
14,49,193819,1,2,0:0:0:0:
14,49,194069,6,0,L|26:138,1,90,14|0,0:0|0:0,0:0:0:0:
111,271,194569,2,0,L|123:181,1,90,8|0,0:0|0:0,0:0:0:0:
15,279,195069,1,8,1:0:0:0:
72,381,195319,1,2,0:0:0:0:
208,284,195569,2,0,P|288:266|315:282,1,90,2|8,0:0|0:0,0:0:0:0:
423,281,196069,6,0,L|404:369,1,90,2|8,0:0|0:0,0:0:0:0:
501,210,196569,2,0,L|482:121,1,90,2|8,0:0|0:0,0:0:0:0:
296,0,197069,1,8,1:0:0:0:
351,157,197319,1,8,3:0:0:0:
118,91,197569,1,8,3:0:0:0:
63,248,197819,1,8,3:0:0:0:
63,248,198069,6,0,P|143:250|207:172,1,180,14|8,0:0|0:0,0:0:0:0:
346,320,198819,1,2,0:0:0:0:
346,320,199069,2,0,P|266:322|202:244,1,180,8|0,1:0|0:0,0:0:0:0:
205,113,199819,1,8,0:0:0:0:
346,39,200069,5,2,0:0:0:0:
302,148,200319,1,8,0:0:0:0:
500,231,200569,1,2,0:0:0:0:
456,122,200819,1,8,0:0:0:0:
456,122,201069,2,0,B|366:158|430:220|324:257,1,180,8|0,1:0|0:0,0:0:0:0:
154,354,201819,1,2,0:0:0:0:
154,354,202069,6,0,B|344:374,1,180,14|8,0:0|0:0,0:0:0:0:
180,226,202819,1,2,0:0:0:0:
180,226,203069,2,0,B|-10:246,1,180,8|0,1:0|0:0,0:0:0:0:
39,109,203819,1,8,0:0:0:0:
180,226,204069,5,2,0:0:0:0:
140,338,204319,1,8,0:0:0:0:
327,187,204569,1,2,0:0:0:0:
287,299,204819,1,8,0:0:0:0:
287,299,205069,2,0,P|359:353|425:288,1,180,8|0,1:0|0:0,0:0:0:0:
512,142,205819,1,2,0:0:0:0:
512,142,206069,6,0,P|482:180|425:188,1,90,14|0,0:0|0:0,0:0:0:0:
356,170,206444,1,2,0:0:0:0:
356,170,206569,2,0,P|326:132|269:124,1,90,8|0,0:0|0:0,0:0:0:0:
72,132,207069,2,0,P|174:152|170:246,1,180,8|0,1:0|0:0,0:0:0:0:
126,323,207819,1,8,0:0:0:0:
292,372,208069,6,0,L|280:282,1,90,2|8,0:0|0:0,0:0:0:0:
225,218,208444,1,2,0:0:0:0:
225,218,208569,1,2,0:0:0:0:
291,110,208819,1,8,0:0:0:0:
413,261,209069,2,0,B|380:185|380:185|417:94,1,180,8|0,1:0|0:0,0:0:0:0:
512,258,209819,1,2,0:0:0:0:
512,258,210069,6,0,P|505:302|473:339,1,90,14|0,0:0|0:0,0:0:0:0:
390,375,210444,1,2,0:0:0:0:
389,375,210569,2,0,P|396:331|379:289,1,90,8|0,0:0|0:0,0:0:0:0:
248,188,211069,1,8,3:0:0:0:
267,196,211194,1,8,3:0:0:0:
290,199,211319,1,8,3:0:0:0:
144,229,211569,1,2,0:0:0:0:
243,307,211819,1,8,0:0:0:0:
400,262,212069,6,0,P|452:250|496:246,1,90,14|0,0:0|0:0,0:0:0:0:
379,231,212444,1,8,0:0:0:0:
379,231,212569,2,0,P|334:225|290:215,1,90,8|0,1:0|0:0,0:0:0:0:
130,101,213069,1,8,1:0:0:0:
104,72,213194,1,8,0:0:0:0:
88,42,213319,1,8,0:0:0:0:
191,191,213569,1,8,3:0:0:0:
199,174,213694,1,8,0:0:0:0:
213,158,213819,1,8,0:0:0:0:
253,309,214069,5,14,0:0:0:0:
253,309,214569,2,0,P|287:237|382:250,1,148.50000453186,2|0,0:0|0:0,0:0:0:0:
348,228,215069,2,0,L|249:214,1,99.0000030212403,12|0,0:0|0:0,0:0:0:0:
48,172,215569,2,0,P|117:158|144:91,1,148.50000453186,2|0,0:0|0:0,0:0:0:0:
144,91,216069,6,0,B|264:124|218:32|369:78,1,198.000006042481,12|0,0:0|0:0,0:0:0:0:
506,124,216819,2,0,L|504:173,1,49.5000015106202,2|0,0:0|0:0,0:0:0:0:
503,173,217069,2,0,P|458:173|412:201,1,99.0000030212403,12|0,0:0|0:0,0:0:0:0:
443,369,217569,2,0,P|373:303|295:309,1,148.50000453186,2|0,0:0|0:0,0:0:0:0:
324,299,218069,5,12,0:0:0:0:
324,299,218569,2,0,B|295:225|295:225|322:159,1,148.50000453186,2|0,0:0|0:0,0:0:0:0:
321,161,219069,2,0,P|247:182|198:171,1,99.0000030212403,12|0,0:0|0:0,0:0:0:0:
122,0,219569,2,0,B|148:63|148:63|119:137,1,148.50000453186,2|0,0:0|0:0,0:0:0:0:
118,137,220069,5,12,0:0:0:0:
199,245,220319,1,2,0:0:0:0:
434,204,220569,1,2,0:0:0:0:
354,312,220819,1,2,0:0:0:0:
354,312,221069,2,0,P|343:259|316:217,1,99.0000030212403,8|0,1:0|0:0,0:0:0:0:
235,212,221444,2,0,P|304:119|393:113,1,198.000006042481,2|0,0:0|0:0,0:0:0:0:
379,109,222069,5,12,0:0:0:0:
382,113,222569,2,0,P|296:109|234:133,1,148.50000453186,2|0,0:0|0:0,0:0:0:0:
238,130,223069,2,0,P|231:81|204:39,1,99.0000030212403,12|0,0:0|0:0,0:0:0:0:
3,166,223569,2,0,P|72:189|146:183,1,148.50000453186,2|0,0:0|0:0,0:0:0:0:
146,182,224069,6,0,P|117:189|229:234,1,396.000012084961,12|0,0:0|0:0,0:0:0:0:
235,262,225194,2,0,B|361:306|321:198|462:248,1,220.499993270874,12|0,0:0|0:0,0:0:0:0:
283,174,226319,1,2,0:0:0:0:
283,174,226444,1,2,0:0:0:0:
283,174,226569,1,4,0:0:0:0:
256,192,226694,12,2,234069,0:0:0:0:
360,120,241069,6,0,L|435:129,2,62.9999980773926,2|0|2,0:0|0:0|0:0,0:0:0:0:
242,86,241819,1,0,0:0:0:0:
242,86,242069,6,0,P|272:139|256:198,1,125.999996154785,2|0,0:0|0:0,0:0:0:0:
159,286,242819,1,0,0:0:0:0:
159,286,243069,2,0,L|223:293,1,62.9999980773926,2|0,0:0|0:0,0:0:0:0:
368,345,243569,1,2,0:0:0:0:
458,267,243819,1,0,0:0:0:0:
458,267,244069,6,0,P|464:301|474:332,1,62.9999980773926,2|0,0:0|0:0,0:0:0:0:
371,232,244569,2,0,P|379:201|385:170,1,62.9999980773926,2|0,0:0|0:0,0:0:0:0:
507,64,245069,2,0,P|452:83|391:72,1,94.499997116089,2|0,0:0|0:0,0:0:0:0:
346,63,245569,1,2,0:0:0:0:
194,107,245819,1,0,0:0:0:0:
194,107,246069,6,0,P|240:168|244:231,1,125.999996154785,2|0,0:0|0:0,0:0:0:0:
299,361,246819,1,0,0:0:0:0:
299,361,247069,2,0,P|303:330|319:302,1,62.9999980773926,2|0,0:0|0:0,0:0:0:0:
377,253,247444,1,0,0:0:0:0:
377,253,247569,1,2,0:0:0:0:
272,160,247819,1,0,0:0:0:0:
154,277,248069,6,0,L|165:197,1,62.9999980773926,2|0,0:0|0:0,0:0:0:0:
71,111,248569,2,0,L|62:173,1,62.9999980773926,2|0,0:0|0:0,0:0:0:0:
169,73,249069,2,0,P|212:53|259:53,1,94.499997116089,2|0,0:0|0:0,0:0:0:0:
331,70,249569,1,2,0:0:0:0:
477,35,249819,1,0,0:0:0:0:
477,35,250069,6,0,P|476:71|470:97,1,62.9999980773926,2|0,0:0|0:0,0:0:0:0:
407,157,250444,1,0,0:0:0:0:
407,157,250569,2,0,P|407:193|413:219,1,62.9999980773926,2|0,0:0|0:0,0:0:0:0:
497,325,251069,2,0,L|435:312,1,62.9999980773926,2|0,0:0|0:0,0:0:0:0:
302,243,251569,1,2,0:0:0:0:
219,334,251819,1,0,0:0:0:0:
219,334,252069,6,0,P|212:303|193:266,1,62.9999980773926,2|0,0:0|0:0,0:0:0:0:
155,212,252444,1,0,0:0:0:0:
155,212,252569,1,2,0:0:0:0:
52,274,252819,1,0,0:0:0:0:
64,136,253069,2,0,P|96:102|140:84,1,94.499997116089,2|0,0:0|0:0,0:0:0:0:
215,81,253569,1,2,0:0:0:0:
299,175,253819,1,0,0:0:0:0:
159,255,254069,6,0,P|192:253|232:260,1,62.9999980773926,2|0,0:0|0:0,0:0:0:0:
289,312,254444,1,0,0:0:0:0:
289,312,254569,2,0,P|322:314|362:307,1,62.9999980773926,2|0,0:0|0:0,0:0:0:0:
501,285,255069,1,2,0:0:0:0:
412,202,255319,1,0,0:0:0:0:
512,115,255569,2,0,L|419:97,1,94.499997116089,2|0,0:0|0:0,0:0:0:0:
359,31,256068,6,0,P|312:53|267:61,1,94.499997116089,2|0,0:0|0:0,0:0:0:0:
195,69,256569,1,0,0:0:0:0:
304,185,256818,2,0,L|307:164,2,20.9999993591309,2|0|0,3:2|3:0|3:0,0:0:0:0:
330,213,257069,1,2,3:2:0:0:
419,97,257319,1,2,0:0:0:0:
158,55,257569,1,2,0:0:0:0:
69,171,257819,1,2,0:0:0:0:
69,171,258069,6,0,L|48:313,1,135,14|0,0:0|0:0,0:0:0:0:
87,376,258569,1,8,0:0:0:0:
209,226,258819,1,2,0:0:0:0:
209,226,259069,2,0,L|188:83,1,135,8|0,1:0|0:0,0:0:0:0:
141,29,259569,1,2,0:0:0:0:
306,103,259819,1,8,0:0:0:0:
486,18,260069,5,2,0:0:0:0:
465,139,260319,1,8,0:0:0:0:
302,241,260569,1,2,0:0:0:0:
323,362,260819,1,8,0:0:0:0:
323,362,261069,2,0,B|229:331|229:331|121:369,1,180,8|0,1:0|0:0,0:0:0:0:
0,225,261819,1,2,0:0:0:0:
0,225,262069,6,0,P|61:248|136:237,1,135,14|0,0:0|0:0,0:0:0:0:
165,166,262569,1,8,0:0:0:0:
0,69,262819,1,2,0:0:0:0:
0,69,263069,2,0,P|61:45|136:57,1,135,8|0,1:0|0:0,0:0:0:0:
204,29,263569,1,2,0:0:0:0:
267,143,263819,1,8,0:0:0:0:
196,290,264069,5,2,0:0:0:0:
102,215,264319,1,8,0:0:0:0:
63,49,264569,1,2,0:0:0:0:
157,124,264819,1,8,0:0:0:0:
157,124,265069,2,0,B|247:163|247:74|347:124,1,180,8|0,1:0|0:0,0:0:0:0:
512,0,265819,1,2,0:0:0:0:
512,0,266069,6,0,P|486:37|478:81,1,90,14|0,0:0|0:0,0:0:0:0:
413,132,266444,1,2,0:0:0:0:
413,132,266569,2,0,P|439:169|447:213,1,90,8|0,0:0|0:0,0:0:0:0:
512,380,267069,2,0,P|471:331|397:310,1,135,8|0,1:0|0:0,0:0:0:0:
332,323,267569,1,2,0:0:0:0:
249,225,267819,1,8,0:0:0:0:
153,368,268069,6,0,P|154:323|130:268,1,90,2|8,0:0|0:0,0:0:0:0:
96,212,268444,1,2,0:0:0:0:
96,212,268569,2,0,L|52:216,1,45,2|0,0:0|0:0,0:0:0:0:
148,122,268819,1,8,0:0:0:0:
0,55,269069,2,0,P|77:94|190:73,1,180,8|0,1:0|0:0,0:0:0:0:
352,28,269819,1,2,0:0:0:0:
352,28,270069,6,0,P|307:25|263:15,1,90,14|0,0:0|0:0,0:0:0:0:
386,128,270569,1,8,0:0:0:0:
485,56,270819,1,2,0:0:0:0:
379,247,271069,1,8,1:0:0:0:
280,175,271319,1,2,0:0:0:0:
280,175,271569,2,0,L|293:79,1,90,2|8,0:0|0:0,0:0:0:0:
379,247,272069,6,0,P|347:279|298:287,1,90,2|8,0:0|0:0,0:0:0:0:
438,153,272569,2,0,P|481:162|512:193,1,90,2|8,0:0|0:0,0:0:0:0:
280,175,273069,1,8,1:0:0:0:
224,25,273319,1,8,3:0:0:0:
16,190,273569,1,8,3:0:0:0:
72,41,273819,1,8,3:0:0:0:
72,41,274069,6,0,P|122:90|144:160,1,135,14|0,0:0|0:0,0:0:0:0:
158,227,274569,1,8,0:0:0:0:
346,110,274819,1,2,0:0:0:0:
346,110,275069,2,0,P|295:159|274:229,1,135,8|0,1:0|0:0,0:0:0:0:
265,296,275569,1,2,0:0:0:0:
392,331,275819,1,8,0:0:0:0:
497,189,276069,5,2,0:0:0:0:
373,235,276319,1,8,0:0:0:0:
192,185,276569,1,2,0:0:0:0:
316,138,276819,1,8,0:0:0:0:
316,138,277069,2,0,P|396:158|386:263,1,180,8|0,1:0|0:0,0:0:0:0:
230,377,277819,1,2,0:0:0:0:
230,377,278069,6,0,B|256:314|256:314|220:215,1,135,14|0,0:0|0:0,0:0:0:0:
171,197,278569,1,8,0:0:0:0:
15,325,278819,1,2,0:0:0:0:
15,325,279069,2,0,B|-11:262|-11:262|25:163,1,135,8|0,1:0|0:0,0:0:0:0:
51,132,279569,1,2,0:0:0:0:
0,20,279819,1,8,0:0:0:0:
155,91,280069,5,2,0:0:0:0:
115,203,280319,1,8,0:0:0:0:
325,132,280569,1,2,0:0:0:0:
285,20,280819,1,8,0:0:0:0:
285,20,281069,2,0,B|215:27|215:27|181:2|181:2|109:10,1,180,8|0,1:0|0:0,0:0:0:0:
0,144,281819,1,2,0:0:0:0:
0,144,282069,6,0,P|38:121|94:117,1,90,14|0,0:0|0:0,0:0:0:0:
158,133,282444,1,2,0:0:0:0:
158,133,282569,1,8,0:0:0:0:
88,228,282819,1,2,0:0:0:0:
206,372,283069,2,0,P|241:292|204:213,1,180,8|0,1:0|0:0,0:0:0:0:
341,267,283819,1,8,0:0:0:0:
410,142,284069,6,0,L|320:154,1,90,2|8,0:0|0:0,0:0:0:0:
246,134,284444,1,2,0:0:0:0:
246,134,284569,1,2,0:0:0:0:
331,22,284819,1,8,0:0:0:0:
512,64,285069,2,0,L|492:242,1,180,8|0,1:0|0:0,0:0:0:0:
316,342,285819,1,2,0:0:0:0:
316,342,286069,6,0,P|351:315|396:311,1,90,14|0,0:0|0:0,0:0:0:0:
473,335,286444,1,2,0:0:0:0:
473,335,286569,1,8,0:0:0:0:
357,214,286819,1,2,0:0:0:0:
183,169,287069,1,8,1:0:0:0:
299,48,287319,1,2,0:0:0:0:
299,48,287569,2,0,P|342:30|415:25,1,90,2|8,0:0|0:0,0:0:0:0:
507,152,288069,6,0,L|418:140,1,90,14|0,0:0|0:0,0:0:0:0:
389,225,288444,1,8,0:0:0:0:
389,225,288569,2,0,L|299:212,1,90,8|0,1:0|0:0,0:0:0:0:
173,121,289069,1,8,1:0:0:0:
178,153,289194,1,8,0:0:0:0:
184,184,289319,1,8,0:0:0:0:
60,103,289569,1,8,3:0:0:0:
62,121,289694,1,8,0:0:0:0:
65,139,289819,1,8,0:0:0:0:
60,331,290069,5,14,0:0:0:0:
287,208,291069,5,2,0:0:0:0:
60,331,292069,5,2,0:0:0:0:
256,192,292194,12,4,293569,2:0:0:0:
