osu file format v14

[General]
AudioFilename: audio.mp3
AudioLeadIn: 0
PreviewTime: 11666
Countdown: 1
SampleSet: Soft
StackLeniency: 0.7
Mode: 0
LetterboxInBreaks: 0
WidescreenStoryboard: 0

[Editor]
DistanceSpacing: 1.2
BeatDivisor: 8
GridSize: 32
TimelineZoom: 1

[Metadata]
Title:Sunny Miracle no Benigiri Ihen
TitleUnicode:サニーミルクの紅霧異変
Artist:UNDEAD CORPORATION
ArtistUnicode:UNDEAD CORPORATION
Creator:Trynna
Version:Insane
Source:東方三月精 ~ Strange and Bright Nature Deity.
Tags:Ayyri eiri- Featured Artist FA Mappers' Mappers Guild MPG osu! 東方Project Touhou Video Game Instrumental Team Shanghai Alice ZUN Scarlet Mist Incident TOHO Complete Box SILVER Touhou Sangetsusei Three Fairies of Light サニーミルク Sunny Milk ルナチャイルド Luna Child スターサファイア Star Sapphire
BeatmapID:2433380
BeatmapSetID:1166609

[Difficulty]
HPDrainRate:5
CircleSize:6
OverallDifficulty:7
ApproachRate:8
SliderMultiplier:1.8
SliderTickRate:1

[Events]
//Background and Video events
0,0,"Three Fairies of Light 387.jpg",0,0
//Break Periods
//Storyboard Layer 0 (Background)
//Storyboard Layer 1 (Fail)
//Storyboard Layer 2 (Pass)
//Storyboard Layer 3 (Foreground)
//Storyboard Layer 4 (Overlay)
//Storyboard Sound Samples

[TimingPoints]
212,545.454545454546,3,2,1,50,1,0
47666,681.818181818182,3,2,1,50,1,0
48347,885.608856088561,3,2,1,50,1,0
49232,1132.07547169811,3,2,1,50,1,0
50364,999.999999999997,3,2,1,50,1,0
50647,-100,3,2,1,30,0,0
51863,-100,3,2,1,20,0,0
52863,-100,3,2,1,10,0,0
53863,-100,3,2,1,7,0,0
54863,-100,3,2,1,5,0,0

[Colours]
Combo1 : 228,150,150
Combo2 : 227,170,119
Combo3 : 217,214,104
Combo4 : 148,186,228

[HitObjects]
68,134,212,6,0,B|139:139|116:91|193:96,1,135,2|0,0:0|0:0,0:0:0:0:
215,86,757,2,0,B|234:125|234:125|203:159,1,90,0|0,0:0|0:0,0:0:0:0:
138,330,1302,2,0,P|121:288|131:245,1,90,2|0,0:0|0:0,0:0:0:0:
303,248,1848,6,0,B|207:257|207:257|197:278|210:295,1,135,2|0,0:0|0:0,0:0:0:0:
234,287,2393,2,0,L|221:376,1,90,0|0,0:0|0:0,0:0:0:0:
315,232,2939,1,2,0:0:0:0:
428,170,3484,6,0,P|470:179|485:219,1,90,2|0,0:0|0:0,0:0:0:0:
369,74,4030,2,0,P|356:32|383:0,1,90,0|0,0:0|0:0,0:0:0:0:
315,172,4576,2,0,P|285:203|243:196,1,90,2|0,0:0|0:0,0:0:0:0:
138,83,5121,6,0,P|156:123|156:168,1,90,2|0,0:0|0:0,0:0:0:0:
95,267,5666,2,0,P|131:241|153:202,1,90,0|0,0:0|0:0,0:0:0:0:
60,172,6212,1,2,0:0:0:0:
138,350,6757,6,0,P|204:342|272:348,1,135,2|0,0:0|0:0,0:0:0:0:
295,364,7302,2,0,P|281:318|306:283,1,90,0|0,0:0|0:0,0:0:0:0:
404,208,7848,2,0,P|415:251|420:296,1,90,0|0,0:0|0:0,0:0:0:0:
409,114,8393,6,0,B|334:110|358:162|284:154,1,135,2|0,0:0|0:0,0:0:0:0:
268,176,8939,2,0,P|243:139|254:95,1,90,0|0,0:0|0:0,0:0:0:0:
129,23,9484,2,0,L|223:11,1,90,0|0,0:0|0:0,0:0:0:0:
156,130,10030,6,0,B|99:137|49:116|49:116|64:127|68:135,1,135,2|0,0:0|0:0,0:0:0:0:
81,153,10575,2,0,B|83:181|62:203|62:203|67:232|67:232|37:267|36:329,1,180,0|0,0:0|0:0,0:0:0:0:
244,272,11666,6,0,P|159:274|122:351,2,180,2|2|2,0:0|0:0|0:0,0:0:0:0:
407,346,13302,6,0,P|391:304|399:260,1,90,2|0,0:0|0:0,0:0:0:0:
404,150,13848,2,0,P|419:191|411:235,1,90,0|0,0:0|0:0,0:0:0:0:
428,51,14393,2,0,P|364:71|302:48,1,135,2|0,0:0|0:0,0:0:0:0:
287,67,14939,6,0,B|308:109|308:109|289:147,1,90,2|0,0:0|0:0,0:0:0:0:
102,149,15484,2,0,B|81:107|81:107|99:68,1,90,0|0,0:0|0:0,0:0:0:0:
195,32,16030,1,2,0:0:0:0:
205,202,16575,6,0,P|161:227|121:217,1,90,2|0,0:0|0:0,0:0:0:0:
226,306,17121,2,0,P|260:333|304:331,1,90,0|0,0:0|0:0,0:0:0:0:
439,322,17666,2,0,P|395:296|384:256,1,90,2|0,0:0|0:0,0:0:0:0:
429,132,18212,6,0,B|451:171|451:171|436:213,1,90,2|0,0:0|0:0,0:0:0:0:
327,225,18757,2,0,B|305:186|305:186|319:143,1,90,0|0,0:0|0:0,0:0:0:0:
440,113,19302,1,2,0:0:0:0:
310,48,19848,6,0,P|258:39|215:21,1,90,2|0,0:0|0:0,0:0:0:0:
157,90,20393,2,0,P|114:105|70:112,1,90,0|0,0:0|0:0,0:0:0:0:
82,202,20939,2,0,P|137:202|155:280,1,135,0|0,0:0|0:0,0:0:0:0:
176,298,21484,6,0,P|117:313|83:308,1,90,2|0,0:0|0:0,0:0:0:0:
182,187,22030,2,0,P|226:184|269:198,1,90,0|0,0:0|0:0,0:0:0:0:
331,118,22575,2,0,P|369:152|358:237,1,135,0|0,0:0|0:0,0:0:0:0:
380,256,23121,6,0,P|430:261|451:318,1,90,2|0,0:0|0:0,0:0:0:0:
333,337,23666,2,0,P|241:350|154:372,1,180,0|0,0:0|0:0,0:0:0:0:
211,244,24757,6,0,P|200:196|221:163,1,90,0|0,0:0|0:0,0:0:0:0:
135,268,25302,2,0,P|114:204|134:141,1,135,2|0,0:0|0:0,0:0:0:0:
151,118,25848,2,0,P|147:74|104:53,1,90,2|0,0:0|0:0,0:0:0:0:
220,163,26393,6,0,L|319:139,1,90,2|0,0:0|0:0,0:0:0:0:
321,48,26939,2,0,L|407:101,1,90,0|0,0:0|0:0,0:0:0:0:
473,38,27484,2,0,L|509:173,1,135,2|0,0:0|0:0,0:0:0:0:
488,191,28030,6,0,P|450:167|406:182,1,90,2|0,0:0|0:0,0:0:0:0:
393,312,28575,2,0,P|431:336|475:321,1,90,0|0,0:0|0:0,0:0:0:0:
342,242,29121,1,2,0:0:0:0:
199,293,29666,6,0,B|204:247|204:247|174:206,1,90,2|0,0:0|0:0,0:0:0:0:
21,263,30212,2,0,B|16:309|16:309|45:349,1,90,0|0,0:0|0:0,0:0:0:0:
110,279,30757,2,0,P|99:236|82:194,1,90,2|0,0:0|0:0,0:0:0:0:
39,105,31302,6,0,P|86:118|128:98,1,90,2|0,0:0|0:0,0:0:0:0:
246,30,31848,2,0,P|204:14|162:27,1,90,0|0,0:0|0:0,0:0:0:0:
39,105,32393,1,2,0:0:0:0:
281,142,32939,6,0,L|261:241,1,90,2|0,0:0|0:0,0:0:0:0:
471,215,33484,2,0,L|453:126,1,90,0|0,0:0|0:0,0:0:0:0:
361,56,34030,2,0,L|372:197,1,135,0|0,0:0|0:0,0:0:0:0:
385,217,34575,6,0,P|355:258|371:297,1,90,2|0,0:0|0:0,0:0:0:0:
240,375,35121,2,0,P|250:333|222:301,1,90,0|0,0:0|0:0,0:0:0:0:
151,243,35666,2,0,B|189:247|212:269|212:269|224:239|258:222,1,135,0|0,0:0|0:0,0:0:0:0:
287,231,36212,6,0,P|293:185|310:134,1,90,2|0,0:0|0:0,0:0:0:0:
268,55,36757,2,0,B|303:23|361:33|388:73|388:73|379:92|382:116,1,180,0|0,0:0|0:0,0:0:0:0:
195,153,37848,6,0,L|105:165,1,90,2|0,0:0|0:0,0:0:0:0:
167,41,38393,2,0,L|174:130,1,90,2|0,0:0|0:0,0:0:0:0:
241,3,38939,2,0,L|151:15,1,90,2|0,0:0|0:0,0:0:0:0:
23,163,39484,6,0,P|78:178|86:260,1,135,2|0,0:0|0:0,0:0:0:0:
116,275,40030,2,0,L|98:368,1,90,0|0,0:0|0:0,0:0:0:0:
207,214,40575,2,0,L|225:307,1,90,2|0,0:0|0:0,0:0:0:0:
389,325,41121,6,0,P|334:307|313:228,1,135,2|0,0:0|0:0,0:0:0:0:
339,243,41666,2,0,P|339:195|364:162,1,90,0|0,0:0|0:0,0:0:0:0:
463,121,42212,1,2,0:0:0:0:
301,34,42757,6,0,P|261:51|216:48,1,90,2|0,0:0|0:0,0:0:0:0:
107,10,43302,2,0,B|125:49|125:49|115:95,1,90,0|0,0:0|0:0,0:0:0:0:
0,159,43848,2,0,B|-10:113|-10:113|8:74,1,90,2|0,0:0|0:0,0:0:0:0:
86,193,44393,6,0,L|90:337,1,135,2|0,0:0|0:0,0:0:0:0:
81,358,44939,2,0,P|142:338|185:360,1,90,0|0,0:0|0:0,0:0:0:0:
303,377,45484,1,2,0:0:0:0:
282,227,46030,6,0,L|401:246,1,90,2|0,0:0|0:0,0:0:0:0:
249,68,46575,2,0,L|230:187,1,90,0|0,0:0|0:0,0:0:0:0:
408,35,47121,2,0,L|289:16,1,90,0|0,0:0|0:0,0:0:0:0:
441,194,47666,6,0,L|460:75,1,90,2|0,0:0|0:0,0:0:0:0:
320,271,48347,6,0,L|301:152,1,90,2|0,0:0|0:0,0:0:0:0:
446,323,49232,6,0,L|460:234,1,90,2|0,0:0|0:0,0:0:0:0:
256,192,50364,6,0,L|256:171,4,11.25,2|0|0|0|0,0:0|0:0|0:0|0:0|0:0,0:0:0:0:
256,192,50739,12,0,54863,0:0:0:0:
