osu file format v14

[General]
AudioFilename: audio.mp3
AudioLeadIn: 0
PreviewTime: 11666
Countdown: 1
SampleSet: Soft
StackLeniency: 0.7
Mode: 0
LetterboxInBreaks: 0
WidescreenStoryboard: 1

[Editor]
DistanceSpacing: 1.2
BeatDivisor: 8
GridSize: 32
TimelineZoom: 1

[Metadata]
Title:Sunny Miracle no Benigiri Ihen
TitleUnicode:サニーミルクの紅霧異変
Artist:UNDEAD CORPORATION
ArtistUnicode:UNDEAD CORPORATION
Creator:Trynna
Version:Hard
Source:東方三月精 ~ Strange and Bright Nature Deity.
Tags:Ayyri eiri- Featured Artist FA Mappers' Mappers Guild MPG osu! 東方Project Touhou Video Game Instrumental Team Shanghai Alice ZUN Scarlet Mist Incident TOHO Complete Box SILVER Touhou Sangetsusei Three Fairies of Light サニーミルク Sunny Milk ルナチャイルド Luna Child スターサファイア Star Sapphire
BeatmapID:2433379
BeatmapSetID:1166609

[Difficulty]
HPDrainRate:4.5
CircleSize:5
OverallDifficulty:6
ApproachRate:7
SliderMultiplier:1.5
SliderTickRate:1

[Events]
//Background and Video events
0,0,"Three Fairies of Light 387.jpg",0,0
//Break Periods
//Storyboard Layer 0 (Background)
//Storyboard Layer 1 (Fail)
//Storyboard Layer 2 (Pass)
//Storyboard Layer 3 (Foreground)
//Storyboard Layer 4 (Overlay)
//Storyboard Sound Samples

[TimingPoints]
212,545.454545454546,3,2,1,50,1,0
47666,681.818181818182,3,2,1,50,1,0
48347,885.608856088561,3,2,1,50,1,0
49232,1132.07547169811,3,2,1,50,1,0
50364,999.999999999997,3,2,1,50,1,0
50617,-100,3,2,1,30,0,0
51863,-100,3,2,1,20,0,0
52863,-100,3,2,1,10,0,0
53863,-100,3,2,1,7,0,0
54862,-100,3,2,1,5,0,0

[Colours]
Combo1 : 228,150,150
Combo2 : 227,170,119
Combo3 : 217,214,104
Combo4 : 148,186,228

[HitObjects]
81,67,212,6,0,P|116:73|134:104,1,75,2|0,0:0|0:0,0:0:0:0:
205,78,757,2,0,P|218:111|199:142,1,75,0|0,0:0|0:0,0:0:0:0:
259,188,1302,2,0,P|210:178|146:213,1,112.5,2|0,0:0|0:0,0:0:0:0:
142,225,1848,5,2,0:0:0:0:
256,321,2393,1,0,0:0:0:0:
394,264,2939,2,0,L|385:182,1,75,2|0,0:0|0:0,0:0:0:0:
454,160,3484,6,0,L|469:271,1,112.5,2|0,0:0|0:0,0:0:0:0:
484,287,4030,2,0,P|453:307|445:342,1,75
376,372,4575,2,0,P|368:336|337:316,1,75,2|0,0:0|0:0,0:0:0:0:
332,240,5121,6,0,B|247:243|276:297|200:301,1,150,2|0,0:0|0:0,0:0:0:0:
76,192,6212,1,2,0:0:0:0:
181,65,6757,6,0,L|188:145,1,75,2|0,0:0|0:0,0:0:0:0:
269,130,7302,2,0,L|262:204,1,75
345,209,7848,2,0,B|349:164|349:164|361:147|361:147|366:100,1,112.5
389,82,8393,6,0,P|453:115|457:186,1,150,2|0,0:0|0:0,0:0:0:0:
348,310,9484,1,2,0:0:0:0:
497,380,10030,6,0,B|510:344|510:344|490:305,1,75,2|0,0:0|0:0,0:0:0:0:
421,352,10575,1,0,0:0:0:0:
107,250,11666,6,0,B|69:256|69:256|39:309|81:359,2,150,2|2|2,0:0|0:0|0:0,0:0:0:0:
257,182,13302,6,0,P|245:147|253:111,1,75,2|0,0:0|0:0,0:0:0:0:
336,109,13848,2,0,P|348:144|340:180,1,75,0|0,0:0|0:0,0:0:0:0:
297,250,14393,1,2,0:0:0:0:
161,155,14939,6,0,L|87:170,1,75,2|0,0:0|0:0,0:0:0:0:
102,89,15484,2,0,L|28:104,1,75,0|0,0:0|0:0,0:0:0:0:
58,26,16030,2,0,P|110:11|158:37,1,112.5,2|0,0:0|0:0,0:0:0:0:
186,49,16575,5,2,0:0:0:0:
350,62,17121,1,0,0:0:0:0:
243,188,17666,2,0,L|217:303,1,112.5,2|0,0:0|0:0,0:0:0:0:
233,321,18212,6,0,P|289:327|315:239,1,150,2|0,0:0|0:0,0:0:0:0:
262,97,19302,1,2,0:0:0:0:
410,23,19848,6,0,L|412:103,1,75,2|0,0:0|0:0,0:0:0:0:
478,146,20393,2,0,L|476:220,1,75
418,280,20939,2,0,P|373:252|316:291,1,112.5,2|0,0:0|0:0,0:0:0:0:
330,301,21484,6,0,P|300:324|264:322,1,75,2|0,0:0|0:0,0:0:0:0:
192,364,22030,2,0,P|159:347|144:313,1,75
92,249,22575,2,0,P|116:209|205:202,1,112.5,2|0,0:0|0:0,0:0:0:0:
197,170,23121,6,0,P|151:163|43:128,1,150,2|0,0:0|0:0,0:0:0:0:
314,332,24757,6,0,P|384:307|458:294,2,150,0|2|2,0:0|0:0|0:0,0:0:0:0:
149,343,26393,6,0,P|121:311|134:259,1,75,2|0,0:0|0:0,0:0:0:0:
203,282,26939,2,0,P|231:250|218:198,1,75,0|0,0:0|0:0,0:0:0:0:
158,178,27484,1,2,0:0:0:0:
180,14,28030,6,0,L|105:22,1,75,2|0,0:0|0:0,0:0:0:0:
115,104,28575,2,0,L|189:95,1,75,0|0,0:0|0:0,0:0:0:0:
250,39,29121,2,0,P|296:57|306:122,1,112.5,2|0,0:0|0:0,0:0:0:0:
329,135,29666,6,0,L|310:210,1,75,2|0,0:0|0:0,0:0:0:0:
349,280,30212,2,0,L|424:299,1,75
504,323,30757,1,2,0:0:0:0:
348,280,31302,6,0,P|316:296|304:331,1,75,2|0,0:0|0:0,0:0:0:0:
222,332,31848,2,0,P|210:297|178:280,1,75,0|0,0:0|0:0,0:0:0:0:
190,199,32393,2,0,P|135:198|99:238,1,112.5,2|0,0:0|0:0,0:0:0:0:
76,262,32939,6,0,L|67:187,1,75,2|0,0:0|0:0,0:0:0:0:
24,116,33484,2,0,B|101:115|75:63|161:67,1,150
321,28,34575,5,2,0:0:0:0:
385,179,35121,2,0,P|448:174|499:109,1,150
334,123,36212,6,0,P|310:151|309:188,1,75,2|0,0:0|0:0,0:0:0:0:
349,260,36757,2,0,P|279:285|234:344,1,150,0|0,0:0|0:0,0:0:0:0:
81,282,37848,5,2,0:0:0:0:
130,124,38393,1,2,0:0:0:0:
248,239,38939,1,2,0:0:0:0:
87,199,39484,6,0,L|12:187,1,75,2|0,0:0|0:0,0:0:0:0:
24,105,40030,2,0,P|52:38|123:26,1,150,0|2,0:0|0:0,0:0:0:0:
267,103,41121,6,0,L|346:93,1,75,2|0,0:0|0:0,0:0:0:0:
410,48,41666,2,0,L|420:127,1,75
453,197,42212,2,0,B|387:206|414:246|357:249,1,112.5,2|0,0:0|0:0,0:0:0:0:
344,271,42757,6,0,L|354:345,1,75,2|0,0:0|0:0,0:0:0:0:
273,358,43302,2,0,L|262:283,1,75,0|0,0:0|0:0,0:0:0:0:
196,233,43848,1,2,0:0:0:0:
48,307,44393,6,0,L|36:229,1,75,2|0,0:0|0:0,0:0:0:0:
102,182,44939,2,0,L|130:108,1,75
211,101,45484,2,0,P|267:94|311:144,1,112.5,2|0,0:0|0:0,0:0:0:0:
327,147,46030,6,0,P|359:128|375:95,1,75,2|0,0:0|0:0,0:0:0:0:
457,104,46575,2,0,P|457:67|436:36,1,75,0|0,0:0|0:0,0:0:0:0:
355,17,47121,1,0,0:0:0:0:
327,147,47666,5,2,0:0:0:0:
371,265,48347,5,2,0:0:0:0:
259,330,49232,6,0,B|176:340|196:286|115:302,1,150,2|2,0:0|0:0,0:0:0:0:
256,192,50614,12,0,54863,0:0:0:0:
