osu file format v14

[General]
AudioFilename: audio.mp3
AudioLeadIn: 0
PreviewTime: 1141639
Countdown: 0
SampleSet: Soft
StackLeniency: 0.5
Mode: 0
LetterboxInBreaks: 0
WidescreenStoryboard: 0

[Editor]
DistanceSpacing: 0.7
BeatDivisor: 4
GridSize: 4
TimelineZoom: 6.239996

[Metadata]
Title:Songs Compilation #4
TitleUnicode:Songs Compilation #4
Artist:UNDEAD CORPORATION
ArtistUnicode:UNDEAD CORPORATION
Creator:-Ran Yakumo-
Version:The Unmoving Great Library
Source:東方Project
Tags:
BeatmapID:1518654
BeatmapSetID:719129

[Difficulty]
HPDrainRate:4.8
CircleSize:4
OverallDifficulty:10
ApproachRate:10
SliderMultiplier:2
SliderTickRate:1

[Events]
//Background and Video events
0,0,"__flandre_scarlet_hong_meiling_izayoi_sakuya_patchouli_knowledge_and_remilia_scarlet_touhou_drawn_by_i_la__f227ee7506634a3452f50aeb85827110.jpg",0,0
//Break Periods
2,221940,227779
2,347385,354039
2,452776,459627
//Storyboard Layer 0 (Background)
//Storyboard Layer 1 (Fail)
//Storyboard Layer 2 (Pass)
//Storyboard Layer 3 (Foreground)
//Storyboard Sound Samples

[TimingPoints]
2208,266.666666666667,4,2,0,100,1,0
4341,-83.3333333333333,4,2,0,100,0,1
12874,-100,4,2,0,100,0,0
38474,-90.9090909090909,4,2,0,100,0,0
47008,-86.9565217391304,4,2,0,100,0,0
55541,-100,4,2,0,100,0,0
64074,-83.3333333333333,4,2,0,100,0,0
72608,-76.9230769230769,4,2,0,100,0,1
81141,-100,4,2,0,100,0,1
90741,-100,4,2,0,100,0,0
91808,-83.3333333333333,4,2,0,100,0,1
100341,-100,4,2,0,100,0,0
108874,-90.9090909090909,4,2,0,100,0,0
119541,-100,4,2,0,100,0,0
136608,-83.3333333333333,4,2,0,100,0,1
144074,-76.9230769230769,4,2,0,100,0,0
145141,-83.3333333333333,4,2,0,100,0,1
153674,-100,4,2,0,100,0,1
164341,-100,4,2,0,100,0,0
173941,-83.3333333333333,4,2,0,100,0,0
175008,-100,4,2,0,100,0,0
176074,-90.9090909090909,4,2,0,100,0,0
177141,-83.3333333333333,4,2,0,100,0,1
185674,-100,4,2,0,100,0,0
194208,-76.9230769230769,4,2,0,100,0,1
202741,-100,4,2,0,100,0,1
213408,-83.3333333333333,4,2,0,100,0,1
219808,-100,4,2,0,100,0,0
228229,260.869565217391,4,2,0,100,1,0
234489,-83.3333333333333,4,2,0,100,0,1
242837,-100,4,2,0,100,0,0
269968,-90.9090909090909,4,2,0,100,0,0
272055,-83.3333333333333,4,2,0,100,0,0
274142,-90.9090909090909,4,2,0,100,0,0
276228,-100,4,2,0,100,0,0
295011,-90.9090909090909,4,2,0,100,0,0
297098,-83.3333333333333,4,2,0,100,0,0
299185,-76.9230769230769,4,2,0,100,0,0
301272,-100,4,2,0,100,0,0
303359,-83.3333333333333,4,2,0,100,0,1
311707,-90.9090909090909,4,2,0,100,0,1
322142,-100,4,2,0,100,0,0
338837,-90.9090909090909,4,2,0,100,0,0
340924,-83.3333333333333,4,2,0,100,0,0
343011,-90.9090909090909,4,2,0,100,0,0
345098,-100,4,2,0,100,0,0
365968,-66.6666666666667,4,2,0,100,0,1
382663,-83.3333333333333,4,2,0,100,0,0
391011,-100,4,2,0,100,0,1
399359,-83.3333333333333,4,2,0,100,0,0
407707,-100,4,2,0,100,0,0
411881,-83.3333333333333,4,2,0,100,0,1
424402,-90.9090909090909,4,2,0,100,0,0
426489,-83.3333333333333,4,2,0,100,0,0
428576,-76.9230769230769,4,2,0,100,0,0
430663,-100,4,2,0,100,0,0
432750,-83.3333333333333,4,2,0,100,0,1
441098,-90.9090909090909,4,2,0,100,0,1
451533,-100,4,2,0,100,0,0
460077,260.869565217391,4,2,0,100,1,0
493468,-90.9090909090909,4,2,0,100,0,0
501816,-100,4,2,0,100,0,0
520598,-125,4,2,0,100,0,1
537294,-100,4,2,0,100,0,0
565468,-90.9090909090909,4,2,0,100,0,0
573816,-83.3333333333333,4,2,0,100,0,1
577990,-90.9090909090909,4,2,0,100,0,0
582163,-125,4,2,0,100,0,1
598859,-100,4,2,0,100,0,0
607207,-166.666666666667,4,2,0,100,0,0
615555,-125,4,2,0,100,0,0
623903,-100,4,2,0,100,0,0
632250,-90.9090909090909,4,2,0,100,0,1
640598,-100,4,2,0,100,0,0
644772,-83.3333333333333,4,2,0,100,0,1
653120,-76.9230769230769,4,2,0,100,0,1
661468,-100,4,2,0,100,0,0
667047,214.285714285714,4,2,0,100,1,0
667261,214.285714285714,4,2,0,100,1,0
689546,-90.9090909090909,4,2,0,100,0,0
703261,-100,4,2,0,100,0,0
720403,-125,4,2,0,100,0,0
727260,-166.666666666667,4,2,0,100,0,0
734118,-100,4,2,0,100,0,1
747832,-100,4,2,0,100,0,0
754689,-90.9090909090909,4,2,0,100,0,0
768403,-100,4,2,0,100,0,0
785546,-100,4,2,0,100,0,1
799260,428.571428571429,4,2,0,100,1,0
806117,214.285714285714,4,2,0,100,1,0
812974,-125,4,2,0,100,0,0
819831,-166.666666666667,4,2,0,100,0,0
826688,-100,4,2,0,100,0,0
833545,-90.9090909090909,4,2,0,100,0,0
847259,-100,4,2,0,100,0,0
864402,-100,4,2,0,100,0,1
878117,-100,4,2,0,100,0,0
884974,-90.9090909090909,4,2,0,100,0,0
891831,-100,4,2,0,100,0,0
899925,214.285714285714,4,2,0,100,1,0
901639,-66.6666666666667,4,2,0,100,0,1
915353,-100,4,2,0,100,0,0
929067,-125,4,2,0,100,0,0
942782,-100,4,2,0,100,0,0
949639,-83.3333333333333,4,2,0,100,0,0
956496,-100,4,2,0,100,0,0
970210,-76.9230769230769,4,2,0,100,0,1
983924,-100,4,2,0,100,0,0
987353,-125,4,2,0,100,0,0
994210,-111.111111111111,4,2,0,100,0,0
1001067,-100,4,2,0,100,0,0
1014782,-166.666666666667,4,2,0,100,0,0
1028496,-125,4,2,0,100,0,0
1035353,-100,4,2,0,100,0,0
1049067,-90.9090909090909,4,2,0,100,0,0
1062782,-83.3333333333333,4,2,0,100,0,1
1075639,-83.3333333333333,4,2,0,100,0,0
1076496,-100,4,2,0,100,0,1
1090210,-90.9090909090909,4,2,0,100,0,1
1097067,-83.3333333333333,4,2,0,100,0,1
1100496,-100,4,2,0,100,0,0
1107353,-71.4285714285714,4,2,0,100,0,1
1114210,-100,4,2,0,100,0,0
1127924,-83.3333333333333,4,2,0,100,0,1
1141639,-66.6666666666667,4,2,0,100,0,1
1155353,-100,4,2,0,100,0,0
1159514,500,4,2,0,100,1,0
1163514,250,4,2,0,100,1,0
1169514,206.896551724138,4,2,0,100,1,0
1195996,-83.3333333333333,4,2,0,100,0,0
1202617,-111.111111111111,4,2,0,100,0,0
1209238,-100,4,2,0,100,0,0
1222479,-100,4,2,0,100,0,1
1235720,-100,4,2,0,100,0,0
1238203,-100,4,2,0,100,0,1
1252272,-125,4,2,0,100,0,0
1255582,-100,4,2,0,100,0,0
1275445,-83.3333333333333,4,2,0,100,0,0
1282065,-111.111111111111,4,2,0,100,0,0
1288686,-100,4,2,0,100,0,0
1300272,-100,4,2,0,100,0,1
1303582,-83.3333333333333,4,2,0,100,0,1
1306893,413.793103448276,4,2,0,100,1,0
1310203,-100,4,2,0,100,0,1
1313513,428.571428571429,4,2,0,100,1,1
1315227,454.545454545455,4,2,0,100,1,1
1316124,483.870967741935,4,2,0,100,1,1
1317091,508.474576271186,4,2,0,100,1,1
1318107,550.45871559633,4,2,0,100,1,1
1319207,600,4,2,0,100,1,1
1320407,631.578947368421,4,2,0,100,1,1
1321670,645.161290322581,4,2,0,100,1,1
1322960,666.666666666667,4,2,0,100,1,1
1324293,681.818181818182,4,2,0,100,1,1
1325656,857.142857142857,4,2,0,100,1,1
1327370,-100,4,2,0,100,0,0

[Colours]
Combo1 : 0,0,255
Combo2 : 255,0,0
Combo3 : 0,191,0
Combo4 : 128,0,128

[HitObjects]
288,91,2208,6,0,L|421:105,2,100
121,72,2608,5,0,0:0:0:0:
115,83,2674,1,0,0:0:0:0:
110,94,2741,1,0,0:0:0:0:
105,105,2808,1,0,0:0:0:0:
99,117,2874,1,0,0:0:0:0:
45,268,3008,5,0,0:0:0:0:
69,270,3074,1,0,0:0:0:0:
94,272,3141,1,0,0:0:0:0:
119,274,3208,1,0,0:0:0:0:
144,276,3274,6,0,L|206:262,1,50
290,244,3408,1,0,0:0:0:0:
290,244,3474,1,0,0:0:0:0:
290,244,3541,2,0,L|279:308,1,50
386,203,3674,2,0,L|397:267,1,50
370,82,3808,5,0,0:0:0:0:
371,45,3874,1,0,0:0:0:0:
392,14,3941,1,0,0:0:0:0:
426,0,4008,1,0,0:0:0:0:
462,7,4074,1,0,0:0:0:0:
488,33,4141,1,0,0:0:0:0:
496,69,4208,1,0,0:0:0:0:
483,104,4274,1,0,0:0:0:0:
453,125,4341,6,0,L|317:113,1,119.999996337891
137,104,4608,1,0,0:0:0:0:
110,127,4674,1,0,0:0:0:0:
99,161,4741,1,0,0:0:0:0:
106,195,4808,1,0,0:0:0:0:
131,221,4874,1,0,0:0:0:0:
165,231,4941,1,0,0:0:0:0:
199,222,5008,1,0,0:0:0:0:
235,218,5074,1,0,0:0:0:0:
267,232,5141,1,0,0:0:0:0:
287,262,5208,1,0,0:0:0:0:
289,297,5274,1,0,0:0:0:0:
272,329,5341,1,0,0:0:0:0:
242,347,5408,1,0,0:0:0:0:
206,346,5474,1,0,0:0:0:0:
176,328,5541,1,0,0:0:0:0:
145,309,5607,1,0,0:0:0:0:
110,303,5674,1,0,0:0:0:0:
75,310,5741,1,0,0:0:0:0:
45,329,5807,1,0,0:0:0:0:
23,358,5874,1,0,0:0:0:0:
5,326,5941,6,0,L|18:262,1,59.9999981689454
91,219,6074,2,0,L|125:163,1,59.9999981689454
39,84,6208,2,0,L|90:43,1,59.9999981689454
173,57,6341,2,0,L|234:36,1,59.9999981689454
372,24,6474,6,0,L|365:108,1,59.9999981689454
468,190,6608,1,0,0:0:0:0:
469,175,6674,1,0,0:0:0:0:
470,160,6741,1,0,0:0:0:0:
471,145,6808,1,0,0:0:0:0:
472,128,6874,6,0,L|477:57,1,59.9999981689454
357,168,7008,1,0,0:0:0:0:
356,183,7074,1,0,0:0:0:0:
355,198,7141,1,0,0:0:0:0:
354,213,7208,1,0,0:0:0:0:
353,230,7274,6,0,L|348:301,1,59.9999981689454
274,340,7408,1,0,0:0:0:0:
233,321,7474,1,0,0:0:0:0:
188,318,7541,1,0,0:0:0:0:
145,329,7608,1,0,0:0:0:0:
108,354,7674,6,0,L|101:274,1,59.9999981689454
99,171,7808,1,0,0:0:0:0:
139,152,7874,1,0,0:0:0:0:
184,149,7941,1,0,0:0:0:0:
227,160,8008,1,0,0:0:0:0:
264,185,8074,6,0,L|271:104,1,59.9999981689454
353,230,8208,2,0,L|360:149,1,59.9999981689454
438,284,8341,1,0,0:0:0:0:
439,269,8407,1,0,0:0:0:0:
440,254,8474,1,0,0:0:0:0:
441,239,8540,1,0,0:0:0:0:
443,224,8608,6,0,L|448:158,1,59.9999981689454
298,64,8741,2,0,L|352:101,1,59.9999981689454
500,21,8874,2,0,L|440:49,1,59.9999981689454
353,230,9008,5,0,0:0:0:0:
353,230,9074,1,0,0:0:0:0:
353,230,9141,2,0,L|265:240,1,59.9999981689454
229,375,9274,2,0,L|264:293,1,59.9999981689454
168,199,9408,2,0,L|220:270,1,59.9999981689454
111,121,9541,5,0,0:0:0:0:
111,121,9607,1,0,0:0:0:0:
111,121,9674,2,0,L|23:131,1,59.9999981689454
194,64,9808,2,0,L|202:-24,1,59.9999981689454
302,116,9941,5,0,0:0:0:0:
288,149,10007,1,0,0:0:0:0:
287,184,10074,1,0,0:0:0:0:
299,218,10140,1,0,0:0:0:0:
321,246,10207,1,0,0:0:0:0:
353,263,10274,1,0,0:0:0:0:
388,269,10340,1,0,0:0:0:0:
423,261,10407,1,0,0:0:0:0:
453,242,10474,1,0,0:0:0:0:
474,213,10540,1,0,0:0:0:0:
484,179,10607,1,0,0:0:0:0:
481,143,10674,1,0,0:0:0:0:
460,114,10741,6,0,L|394:101,3,59.9999981689454
316,80,11008,2,0,L|230:59,1,59.9999981689454
381,192,11141,2,0,L|315:179,3,59.9999981689454
237,158,11408,2,0,L|151:137,1,59.9999981689454
317,264,11541,2,0,L|251:251,3,59.9999981689454
173,230,11808,2,0,L|87:209,1,59.9999981689454
240,335,11941,2,0,L|174:322,3,59.9999981689454
96,301,12208,2,0,L|10:280,1,59.9999981689454
3,369,12341,5,0,0:0:0:0:
509,369,12608,5,0,0:0:0:0:
447,220,12874,6,0,L|457:100,1,100
325,170,13141,1,0,0:0:0:0:
322,194,13207,1,0,0:0:0:0:
320,219,13274,1,0,0:0:0:0:
65,220,13408,2,0,L|55:100,1,100
187,170,13675,1,0,0:0:0:0:
189,194,13741,1,0,0:0:0:0:
191,219,13808,1,0,0:0:0:0:
256,320,13941,5,0,0:0:0:0:
442,259,14074,1,0,0:0:0:0:
291,337,14208,1,0,0:0:0:0:
291,337,14274,1,0,0:0:0:0:
291,337,14341,1,0,0:0:0:0:
338,120,14474,1,0,0:0:0:0:
390,352,14608,1,0,0:0:0:0:
369,136,14741,1,0,0:0:0:0:
499,369,14874,1,0,0:0:0:0:
206,221,15008,6,0,P|146:240|128:303,1,100
4,178,15274,1,0,0:0:0:0:
4,178,15341,1,0,0:0:0:0:
4,178,15408,1,0,0:0:0:0:
88,55,15541,2,0,P|148:36|166:-27,1,100
285,115,15807,1,0,0:0:0:0:
285,115,15874,1,0,0:0:0:0:
285,115,15941,1,0,0:0:0:0:
128,269,16074,5,0,0:0:0:0:
365,161,16208,1,0,0:0:0:0:
298,365,16341,1,0,0:0:0:0:
209,170,16474,1,0,0:0:0:0:
435,289,16608,1,0,0:0:0:0:
155,366,16741,1,0,0:0:0:0:
294,60,16874,1,0,0:0:0:0:
294,60,16941,1,0,0:0:0:0:
294,60,17008,1,0,0:0:0:0:
459,314,17141,6,0,B|468:260|468:260|469:179,1,100
308,150,17408,1,0,0:0:0:0:
332,146,17474,1,0,0:0:0:0:
357,142,17541,1,0,0:0:0:0:
204,150,17674,2,0,L|84:129,1,100
53,314,17941,1,0,0:0:0:0:
48,289,18007,1,0,0:0:0:0:
44,264,18074,1,0,0:0:0:0:
239,368,18208,5,0,0:0:0:0:
232,131,18341,1,0,0:0:0:0:
305,293,18474,1,0,0:0:0:0:
305,293,18541,1,0,0:0:0:0:
305,293,18608,1,0,0:0:0:0:
47,140,18741,1,0,0:0:0:0:
326,48,18874,1,0,0:0:0:0:
164,268,19008,1,0,0:0:0:0:
125,26,19141,1,0,0:0:0:0:
322,175,19274,5,0,0:0:0:0:
322,175,19408,2,0,L|438:164,1,100
512,302,19674,2,0,L|412:311,1,100
412,311,19874,1,0,0:0:0:0:
412,311,19941,1,0,0:0:0:0:
276,320,20074,2,0,L|165:297,1,100
37,270,20341,5,0,0:0:0:0:
22,243,20407,1,0,0:0:0:0:
18,214,20474,1,0,0:0:0:0:
24,185,20541,1,0,0:0:0:0:
40,159,20607,1,0,0:0:0:0:
64,141,20674,1,0,0:0:0:0:
92,133,20741,1,0,0:0:0:0:
122,134,20807,1,0,0:0:0:0:
150,147,20874,1,0,0:0:0:0:
173,164,20940,1,0,0:0:0:0:
202,169,21007,1,0,0:0:0:0:
231,160,21074,1,0,0:0:0:0:
251,139,21141,2,0,B|296:130|296:130|388:149,1,100
282,36,21408,6,0,L|167:73,1,100
358,145,21674,1,0,0:0:0:0:
358,145,21741,1,0,0:0:0:0:
358,145,21808,1,0,0:0:0:0:
282,348,21941,2,0,L|167:311,1,100
358,239,22207,1,0,0:0:0:0:
358,239,22274,1,0,0:0:0:0:
358,239,22341,1,0,0:0:0:0:
12,257,22474,5,0,0:0:0:0:
151,135,22608,1,0,0:0:0:0:
186,317,22741,1,0,0:0:0:0:
186,317,22808,1,0,0:0:0:0:
186,317,22874,1,0,0:0:0:0:
43,158,23008,1,0,0:0:0:0:
218,217,23142,1,0,0:0:0:0:
78,338,23275,1,0,0:0:0:0:
78,338,23342,1,0,0:0:0:0:
78,338,23408,1,0,0:0:0:0:
172,109,23541,6,0,L|294:104,1,100
424,260,23808,1,0,0:0:0:0:
424,260,23874,1,0,0:0:0:0:
424,260,23941,1,0,0:0:0:0:
172,275,24074,2,0,L|294:280,1,100
424,124,24341,1,0,0:0:0:0:
424,124,24407,1,0,0:0:0:0:
424,124,24474,1,0,0:0:0:0:
329,378,24608,5,0,0:0:0:0:
198,137,24741,1,0,0:0:0:0:
339,220,24874,1,0,0:0:0:0:
134,369,25008,1,0,0:0:0:0:
94,100,25141,1,0,0:0:0:0:
198,247,25274,1,0,0:0:0:0:
27,308,25408,1,0,0:0:0:0:
24,270,25474,1,0,0:0:0:0:
22,233,25541,1,0,0:0:0:0:
19,195,25608,1,0,0:0:0:0:
17,158,25674,6,0,L|13:33,1,100
182,280,25941,1,0,0:0:0:0:
182,280,26008,1,0,0:0:0:0:
182,280,26074,1,0,0:0:0:0:
175,116,26208,2,0,L|171:-9,1,100
340,238,26475,1,0,0:0:0:0:
340,238,26542,1,0,0:0:0:0:
340,238,26608,1,0,0:0:0:0:
456,58,26741,5,0,0:0:0:0:
474,315,26874,1,0,0:0:0:0:
315,117,27008,1,0,0:0:0:0:
315,117,27074,1,0,0:0:0:0:
315,117,27141,1,0,0:0:0:0:
336,384,27274,1,0,0:0:0:0:
182,280,27408,1,0,0:0:0:0:
444,222,27541,1,0,0:0:0:0:
444,222,27608,1,0,0:0:0:0:
444,222,27674,1,0,0:0:0:0:
178,123,27808,5,0,0:0:0:0:
152,106,27874,1,0,0:0:0:0:
123,103,27941,1,0,0:0:0:0:
95,112,28008,1,0,0:0:0:0:
73,133,28074,1,0,0:0:0:0:
63,161,28141,1,0,0:0:0:0:
66,190,28208,1,0,0:0:0:0:
81,216,28274,1,0,0:0:0:0:
106,232,28341,1,0,0:0:0:0:
132,247,28408,1,0,0:0:0:0:
148,272,28475,1,0,0:0:0:0:
151,302,28542,1,0,0:0:0:0:
141,330,28608,1,0,0:0:0:0:
120,351,28675,1,0,0:0:0:0:
92,360,28742,1,0,0:0:0:0:
62,355,28808,1,0,0:0:0:0:
35,345,28874,6,0,L|-8:224,1,100
133,174,29141,1,0,0:0:0:0:
198,384,29274,1,0,0:0:0:0:
306,232,29408,1,0,0:0:0:0:
307,207,29474,1,0,0:0:0:0:
308,182,29541,1,0,0:0:0:0:
413,326,29674,2,0,L|409:376,1,50
491,205,29808,2,0,L|487:155,1,50
349,45,29941,6,0,L|234:37,1,100
139,115,30208,2,0,L|59:125,2,50
264,209,30474,2,0,L|135:227,1,100
29,332,30741,2,0,L|109:342,2,50
270,369,31008,5,0,0:0:0:0:
403,157,31141,1,0,0:0:0:0:
447,384,31274,1,0,0:0:0:0:
199,248,31408,1,0,0:0:0:0:
499,217,31541,1,0,0:0:0:0:
301,357,31674,1,0,0:0:0:0:
264,74,31808,1,0,0:0:0:0:
401,300,31941,1,0,0:0:0:0:
77,221,32074,6,0,P|62:157|90:96,1,100
287,49,32341,1,0,0:0:0:0:
311,51,32407,1,0,0:0:0:0:
336,54,32474,1,0,0:0:0:0:
475,211,32608,2,0,L|488:92,1,100
307,229,32874,1,0,0:0:0:0:
309,253,32940,1,0,0:0:0:0:
312,278,33007,1,0,0:0:0:0:
28,361,33141,5,0,0:0:0:0:
238,333,33274,1,0,0:0:0:0:
80,142,33408,1,0,0:0:0:0:
108,352,33541,1,0,0:0:0:0:
215,128,33674,1,0,0:0:0:0:
5,156,33807,1,0,0:0:0:0:
160,344,33941,1,0,0:0:0:0:
132,134,34074,1,0,0:0:0:0:
255,279,34208,6,0,L|373:258,1,100
512,239,34474,1,0,0:0:0:0:
512,239,34541,1,0,0:0:0:0:
512,239,34608,1,0,0:0:0:0:
321,88,34741,1,0,0:0:0:0:
389,276,34874,1,0,0:0:0:0:
459,33,35008,1,0,0:0:0:0:
459,33,35074,1,0,0:0:0:0:
459,33,35141,1,0,0:0:0:0:
286,222,35274,5,0,0:0:0:0:
477,164,35408,1,0,0:0:0:0:
253,28,35541,1,0,0:0:0:0:
186,297,35674,1,0,0:0:0:0:
345,117,35808,1,0,0:0:0:0:
70,166,35941,1,0,0:0:0:0:
313,247,36074,1,0,0:0:0:0:
124,38,36208,1,0,0:0:0:0:
82,371,36341,6,0,L|207:384,2,100
0,272,36741,2,0,L|125:285,1,100
99,282,36941,1,0,0:0:0:0:
99,282,37008,1,0,0:0:0:0:
288,318,37141,2,0,B|322:276|322:276|336:208,1,100
187,141,37408,5,0,0:0:0:0:
187,141,37474,1,0,0:0:0:0:
187,141,37541,2,0,L|106:151,1,50
249,58,37674,1,0,0:0:0:0:
249,58,37740,1,0,0:0:0:0:
249,58,37807,2,0,L|330:68,1,50
166,111,37941,1,0,0:0:0:0:
166,111,38007,1,0,0:0:0:0:
166,111,38074,2,0,L|85:121,1,50
228,28,38207,1,0,0:0:0:0:
228,28,38273,1,0,0:0:0:0:
228,28,38340,2,0,L|306:44,1,50
369,45,38474,6,0,L|380:117,3,55.0000016784668
462,127,38741,2,0,L|473:199,3,55.0000016784668
296,98,39008,2,0,L|307:170,3,55.0000016784668
389,180,39274,2,0,L|400:252,1,55.0000016784668
336,321,39408,1,0,0:0:0:0:
336,321,39474,1,0,0:0:0:0:
336,321,39541,2,0,L|247:309,1,55.0000016784668
220,384,39674,1,0,0:0:0:0:
220,384,39740,1,0,0:0:0:0:
220,384,39807,2,0,L|131:372,1,55.0000016784668
70,361,39941,1,0,0:0:0:0:
70,361,40008,1,0,0:0:0:0:
70,361,40074,5,0,0:0:0:0:
52,339,40140,1,0,0:0:0:0:
42,314,40207,1,0,0:0:0:0:
41,286,40273,1,0,0:0:0:0:
48,260,40340,1,0,0:0:0:0:
63,237,40407,1,0,0:0:0:0:
84,219,40473,1,0,0:0:0:0:
109,210,40540,1,0,0:0:0:0:
137,208,40608,6,0,L|195:238,1,55.0000016784668
271,275,40741,1,0,0:0:0:0:
298,271,40807,1,0,0:0:0:0:
321,256,40874,1,0,0:0:0:0:
336,234,40940,1,0,0:0:0:0:
341,207,41008,6,0,L|319:136,1,55.0000016784668
297,70,41141,1,0,0:0:0:0:
301,43,41207,1,0,0:0:0:0:
315,20,41274,1,0,0:0:0:0:
338,5,41341,1,0,0:0:0:0:
364,0,41408,6,0,L|435:22,1,55.0000016784668
503,50,41541,1,0,0:0:0:0:
488,73,41608,1,0,0:0:0:0:
479,99,41674,1,0,0:0:0:0:
477,126,41741,1,0,0:0:0:0:
480,153,41808,6,0,L|432:202,1,55.0000016784668
366,252,41941,1,0,0:0:0:0:
339,245,42007,1,0,0:0:0:0:
312,244,42074,1,0,0:0:0:0:
285,248,42140,1,0,0:0:0:0:
259,259,42207,1,0,0:0:0:0:
237,275,42274,1,0,0:0:0:0:
219,297,42341,1,0,0:0:0:0:
197,313,42407,1,0,0:0:0:0:
170,320,42474,6,0,L|54:291,1,110.000003356934
33,75,42741,6,0,L|125:69,3,55.0000016784668
75,157,43008,2,0,L|167:151,3,55.0000016784668
169,67,43274,2,0,L|261:61,3,55.0000016784668
211,149,43541,2,0,L|303:143,1,55.0000016784668
354,140,43674,5,0,0:0:0:0:
354,140,43741,1,0,0:0:0:0:
354,140,43808,2,0,L|346:205,1,55.0000016784668
464,263,43941,1,0,0:0:0:0:
464,263,44008,1,0,0:0:0:0:
464,263,44075,2,0,L|456:198,1,55.0000016784668
326,311,44208,5,0,0:0:0:0:
326,311,44274,1,0,0:0:0:0:
326,311,44341,1,0,0:0:0:0:
304,309,44407,1,0,0:0:0:0:
282,309,44474,1,0,0:0:0:0:
260,312,44541,1,0,0:0:0:0:
239,318,44607,1,0,0:0:0:0:
219,327,44674,1,0,0:0:0:0:
201,339,44741,1,0,0:0:0:0:
184,353,44807,1,0,0:0:0:0:
168,369,44874,6,0,L|93:359,5,55.0000016784668
134,285,45274,2,0,L|59:275,5,55.0000016784668
19,209,45674,1,0,0:0:0:0:
19,209,45741,1,0,0:0:0:0:
19,209,45808,1,0,0:0:0:0:
19,209,45875,1,0,0:0:0:0:
19,209,45941,6,0,B|25:151,1,55.0000016784668
97,160,46074,2,0,B|103:102,1,55.0000016784668
167,217,46208,2,0,B|173:159,1,55.0000016784668
245,168,46341,2,0,B|251:110,1,55.0000016784668
322,191,46474,2,0,B|316:245,1,55.0000016784668
396,154,46608,2,0,B|402:96,1,55.0000016784668
473,177,46741,2,0,B|467:231,1,55.0000016784668
455,319,46874,1,0,0:0:0:0:
455,319,46941,1,0,0:0:0:0:
455,319,47008,5,0,0:0:0:0:
432,319,47074,1,0,0:0:0:0:
409,315,47141,1,0,0:0:0:0:
387,308,47207,1,0,0:0:0:0:
368,297,47274,1,0,0:0:0:0:
337,262,47340,1,0,0:0:0:0:
296,242,47407,1,0,0:0:0:0:
251,237,47473,1,0,0:0:0:0:
207,249,47541,2,0,L|140:219,3,57.5000010967255
210,133,47808,2,0,L|277:102,3,57.5000010967255
354,65,48074,1,0,0:0:0:0:
382,65,48140,1,0,0:0:0:0:
407,77,48207,1,0,0:0:0:0:
424,101,48273,1,0,0:0:0:0:
428,129,48341,2,0,L|415:202,1,57.5000010967255
495,184,48474,2,0,L|481:256,1,57.5000010967255
468,324,48608,5,0,0:0:0:0:
435,300,48674,1,0,0:0:0:0:
397,288,48741,1,0,0:0:0:0:
357,289,48807,1,0,0:0:0:0:
319,303,48874,1,0,0:0:0:0:
288,328,48941,1,0,0:0:0:0:
252,346,49007,1,0,0:0:0:0:
213,352,49074,1,0,0:0:0:0:
173,345,49141,6,0,L|163:278,1,57.5000010967255
154,194,49274,1,0,0:0:0:0:
152,165,49340,1,0,0:0:0:0:
162,139,49407,1,0,0:0:0:0:
184,120,49473,1,0,0:0:0:0:
211,112,49540,1,0,0:0:0:0:
239,117,49607,1,0,0:0:0:0:
262,134,49674,2,0,L|366:128,1,57.5000010967255
417,229,49808,2,0,L|359:225,1,57.5000010967255
474,310,49941,1,0,0:0:0:0:
495,272,50007,1,0,0:0:0:0:
501,230,50074,1,0,0:0:0:0:
491,188,50140,1,0,0:0:0:0:
467,152,50208,2,0,L|409:148,1,57.5000010967255
297,51,50341,2,0,L|401:45,1,57.5000010967255
200,165,50474,1,0,0:0:0:0:
200,165,50541,1,0,0:0:0:0:
200,165,50608,2,0,L|142:77,1,57.5000010967255
139,260,50741,5,0,0:0:0:0:
139,260,50808,1,0,0:0:0:0:
139,260,50875,2,0,L|81:172,1,57.5000010967255
45,116,51008,1,0,0:0:0:0:
37,173,51074,1,0,0:0:0:0:
30,230,51141,1,0,0:0:0:0:
23,287,51207,1,0,0:0:0:0:
15,344,51274,6,0,L|86:329,3,57.5000010967255
164,284,51541,2,0,L|234:299,3,57.5000010967255
307,354,51808,2,0,L|377:338,3,57.5000010967255
456,293,52075,2,0,L|526:308,3,57.5000010967255
378,251,52341,1,0,0:0:0:0:
356,224,52407,1,0,0:0:0:0:
346,191,52474,1,0,0:0:0:0:
351,157,52540,1,0,0:0:0:0:
370,129,52607,1,0,0:0:0:0:
399,110,52674,1,0,0:0:0:0:
427,92,52740,1,0,0:0:0:0:
440,60,52807,1,0,0:0:0:0:
434,27,52874,5,0,0:0:0:0:
392,15,52940,1,0,0:0:0:0:
349,18,53007,1,0,0:0:0:0:
310,35,53073,1,0,0:0:0:0:
279,65,53140,1,0,0:0:0:0:
246,93,53207,1,0,0:0:0:0:
205,105,53274,1,0,0:0:0:0:
163,99,53340,1,0,0:0:0:0:
127,75,53408,5,0,0:0:0:0:
121,118,53474,1,0,0:0:0:0:
115,161,53541,1,0,0:0:0:0:
109,204,53607,1,0,0:0:0:0:
103,246,53674,2,0,L|138:301,1,57.5000010967255
177,373,53808,1,0,0:0:0:0:
177,373,53874,1,0,0:0:0:0:
177,373,53941,2,0,L|252:368,1,57.5000010967255
356,269,54074,2,0,L|281:264,1,57.5000010967255
197,350,54208,2,0,L|272:345,1,57.5000010967255
376,246,54341,2,0,L|301:241,1,57.5000010967255
474,258,54474,5,0,0:0:0:0:
491,219,54540,1,0,0:0:0:0:
486,176,54607,1,0,0:0:0:0:
460,143,54673,1,0,0:0:0:0:
420,127,54741,2,0,L|332:142,1,57.5000010967255
273,162,54874,1,0,0:0:0:0:
240,173,54940,1,0,0:0:0:0:
206,170,55007,1,0,0:0:0:0:
177,152,55073,1,0,0:0:0:0:
157,124,55140,1,0,0:0:0:0:
151,91,55207,1,0,0:0:0:0:
159,58,55273,1,0,0:0:0:0:
181,31,55340,1,0,0:0:0:0:
211,16,55407,1,0,0:0:0:0:
246,15,55473,1,0,0:0:0:0:
277,29,55541,6,0,L|294:94,2,50
92,10,55808,1,0,0:0:0:0:
86,47,55874,1,0,0:0:0:0:
80,84,55941,1,0,0:0:0:0:
74,121,56007,1,0,0:0:0:0:
68,158,56074,2,0,L|150:184,1,50
205,200,56208,1,0,0:0:0:0:
4,238,56341,1,0,0:0:0:0:
15,241,56407,1,0,0:0:0:0:
27,245,56474,1,0,0:0:0:0:
197,307,56608,6,0,L|328:289,1,100
442,156,56874,2,0,L|342:169,1,100
327,312,57141,1,0,0:0:0:0:
316,150,57274,1,0,0:0:0:0:
354,333,57408,1,0,0:0:0:0:
291,133,57541,1,0,0:0:0:0:
385,349,57674,5,0,0:0:0:0:
409,346,57740,1,0,0:0:0:0:
434,344,57807,1,0,0:0:0:0:
265,111,57941,1,0,0:0:0:0:
240,113,58007,1,0,0:0:0:0:
215,115,58074,1,0,0:0:0:0:
190,118,58141,1,0,0:0:0:0:
165,121,58208,2,0,L|147:199,1,50
137,253,58341,1,0,0:0:0:0:
90,60,58474,1,0,0:0:0:0:
87,72,58540,1,0,0:0:0:0:
84,84,58607,1,0,0:0:0:0:
45,310,58741,5,0,0:0:0:0:
8,157,58874,1,0,0:0:0:0:
45,318,59008,1,0,0:0:0:0:
46,173,59141,1,0,0:0:0:0:
45,325,59274,1,0,0:0:0:0:
12,193,59408,1,0,0:0:0:0:
45,336,59541,2,0,L|168:348,1,100
359,213,59808,5,0,0:0:0:0:
155,142,59941,1,0,0:0:0:0:
305,377,60074,1,0,0:0:0:0:
312,340,60140,1,0,0:0:0:0:
319,303,60207,1,0,0:0:0:0:
327,266,60273,1,0,0:0:0:0:
334,229,60341,2,0,L|349:151,1,50
360,102,60474,1,0,0:0:0:0:
440,302,60608,1,0,0:0:0:0:
442,289,60674,1,0,0:0:0:0:
444,277,60741,1,0,0:0:0:0:
470,57,60874,5,0,0:0:0:0:
236,85,61008,1,0,0:0:0:0:
457,38,61141,1,0,0:0:0:0:
226,87,61275,1,0,0:0:0:0:
443,21,61408,1,0,0:0:0:0:
217,90,61542,1,0,0:0:0:0:
427,6,61675,1,0,0:0:0:0:
208,93,61808,1,0,0:0:0:0:
460,198,61941,5,0,0:0:0:0:
202,246,62074,1,0,0:0:0:0:
202,246,62141,1,0,0:0:0:0:
202,246,62208,1,0,0:0:0:0:
472,301,62341,5,0,0:0:0:0:
214,341,62474,1,0,0:0:0:0:
214,341,62541,1,0,0:0:0:0:
214,341,62608,1,0,0:0:0:0:
477,382,62741,6,0,L|358:397,1,100
64,352,63008,5,0,0:0:0:0:
43,330,63074,1,0,0:0:0:0:
31,302,63141,1,0,0:0:0:0:
28,273,63207,1,0,0:0:0:0:
36,244,63274,1,0,0:0:0:0:
52,219,63341,1,0,0:0:0:0:
76,201,63407,1,0,0:0:0:0:
103,188,63474,1,0,0:0:0:0:
122,165,63541,1,0,0:0:0:0:
129,136,63608,1,0,0:0:0:0:
124,107,63674,1,0,0:0:0:0:
107,83,63741,1,0,0:0:0:0:
83,64,63808,2,0,B|132:49|132:49|193:47,1,100
472,301,64074,6,0,L|456:181,1,119.999996337891
349,118,64341,1,0,0:0:0:0:
307,119,64407,1,0,0:0:0:0:
272,142,64474,1,0,0:0:0:0:
254,179,64540,1,0,0:0:0:0:
256,221,64608,1,0,0:0:0:0:
252,262,64674,1,0,0:0:0:0:
233,299,64741,1,0,0:0:0:0:
202,327,64807,1,0,0:0:0:0:
162,341,64874,1,0,0:0:0:0:
121,340,64941,1,0,0:0:0:0:
82,324,65007,1,0,0:0:0:0:
52,295,65074,1,0,0:0:0:0:
35,257,65141,5,0,0:0:0:0:
33,215,65207,1,0,0:0:0:0:
46,175,65274,1,0,0:0:0:0:
73,143,65341,1,0,0:0:0:0:
109,123,65407,1,0,0:0:0:0:
151,118,65474,1,0,0:0:0:0:
190,131,65541,1,0,0:0:0:0:
220,159,65608,1,0,0:0:0:0:
235,198,65674,1,0,0:0:0:0:
256,234,65740,1,0,0:0:0:0:
291,257,65807,1,0,0:0:0:0:
332,263,65874,1,0,0:0:0:0:
372,251,65940,1,0,0:0:0:0:
403,223,66007,1,0,0:0:0:0:
419,185,66074,1,0,0:0:0:0:
417,143,66140,1,0,0:0:0:0:
397,107,66208,6,0,L|321:122,3,59.9999981689454
302,48,66474,2,0,L|225:62,3,59.9999981689454
217,152,66741,2,0,L|140:166,3,59.9999981689454
121,92,67007,2,0,L|22:113,3,59.9999981689454
14,188,67274,6,0,L|3:276,1,59.9999981689454
89,225,67408,2,0,L|78:313,1,59.9999981689454
173,199,67541,2,0,L|162:287,1,59.9999981689454
248,236,67675,2,0,L|237:324,1,59.9999981689454
338,226,67808,2,0,L|327:314,1,59.9999981689454
413,263,67942,2,0,L|402:351,1,59.9999981689454
496,262,68074,1,0,0:0:0:0:
494,247,68140,1,0,0:0:0:0:
492,232,68207,1,0,0:0:0:0:
490,217,68274,1,0,0:0:0:0:
488,202,68341,5,0,0:0:0:0:
467,165,68407,1,0,0:0:0:0:
437,136,68474,1,0,0:0:0:0:
400,117,68541,1,0,0:0:0:0:
358,110,68607,1,0,0:0:0:0:
317,115,68674,1,0,0:0:0:0:
279,133,68741,1,0,0:0:0:0:
247,160,68807,1,0,0:0:0:0:
223,195,68874,1,0,0:0:0:0:
191,222,68940,1,0,0:0:0:0:
150,230,69007,1,0,0:0:0:0:
111,218,69074,1,0,0:0:0:0:
82,189,69140,1,0,0:0:0:0:
71,149,69207,1,0,0:0:0:0:
80,108,69274,1,0,0:0:0:0:
108,78,69340,1,0,0:0:0:0:
147,64,69408,6,0,L|221:71,1,59.9999981689454
261,157,69541,2,0,L|201:151,1,59.9999981689454
152,60,69674,2,0,L|225:69,1,59.9999981689454
262,157,69807,2,0,L|202:149,1,59.9999981689454
157,57,69941,2,0,L|229:68,1,59.9999981689454
263,157,70074,2,0,L|204:148,1,59.9999981689454
161,54,70207,2,0,L|233:68,1,59.9999981689454
263,157,70340,2,0,L|191:146,1,59.9999981689454
346,82,70474,6,0,L|356:155,1,59.9999981689454
370,238,70608,1,0,0:0:0:0:
370,238,70674,1,0,0:0:0:0:
370,238,70741,2,0,L|380:311,1,59.9999981689454
472,197,70874,1,0,0:0:0:0:
472,197,70940,1,0,0:0:0:0:
472,197,71007,2,0,L|482:270,1,59.9999981689454
322,384,71141,5,0,0:0:0:0:
264,157,71274,1,0,0:0:0:0:
264,157,71541,5,0,0:0:0:0:
79,251,71674,1,0,0:0:0:0:
79,251,71741,1,0,0:0:0:0:
79,251,71808,1,0,0:0:0:0:
148,37,71941,1,0,0:0:0:0:
148,37,72008,1,0,0:0:0:0:
148,37,72074,1,0,0:0:0:0:
164,347,72208,1,0,0:0:0:0:
164,347,72274,1,0,0:0:0:0:
164,347,72341,1,0,0:0:0:0:
5,86,72474,1,0,0:0:0:0:
5,86,72541,1,0,0:0:0:0:
5,86,72608,6,0,B|59:69|59:69|137:67,1,129.999994049073
353,113,72874,2,0,L|366:214,1,64.9999970245363
444,91,73008,2,0,L|435:26,1,64.9999970245363
355,116,73141,2,0,L|365:217,1,64.9999970245363
447,97,73275,2,0,L|441:32,1,64.9999970245363
358,119,73408,2,0,L|364:221,1,64.9999970245363
450,104,73542,2,0,L|446:39,1,64.9999970245363
276,200,73674,6,0,L|182:160,1,64.9999970245363
249,289,73808,2,0,L|308:314,1,64.9999970245363
271,200,73941,2,0,L|178:157,1,64.9999970245363
242,289,74075,2,0,L|301:316,1,64.9999970245363
267,201,74208,2,0,L|175:155,1,64.9999970245363
234,288,74342,2,0,L|292:317,1,64.9999970245363
266,201,74474,2,0,L|177:152,1,64.9999970245363
230,287,74608,2,0,L|287:318,1,64.9999970245363
253,88,74741,6,0,L|333:26,1,64.9999970245363
189,20,74875,2,0,L|137:59,1,64.9999970245363
255,83,75008,2,0,L|338:24,1,64.9999970245363
192,14,75142,2,0,L|138:51,1,64.9999970245363
256,79,75275,2,0,L|341:23,1,64.9999970245363
197,7,75409,2,0,L|142:42,1,64.9999970245363
256,79,75541,2,0,L|342:26,1,64.9999970245363
200,5,75675,2,0,L|144:38,1,64.9999970245363
41,104,75808,5,0,0:0:0:0:
41,104,75875,1,0,0:0:0:0:
41,104,75942,1,0,0:0:0:0:
41,104,76008,1,0,0:0:0:0:
41,104,76074,2,0,L|35:185,1,64.9999970245363
26,254,76208,2,0,L|22:319,1,64.9999970245363
120,143,76341,2,0,L|115:207,1,64.9999970245363
105,293,76475,2,0,L|101:358,1,64.9999970245363
201,251,76608,1,0,0:0:0:0:
217,248,76674,1,0,0:0:0:0:
233,245,76741,1,0,0:0:0:0:
249,243,76808,1,0,0:0:0:0:
265,240,76874,6,0,L|282:314,3,64.9999970245363
332,182,77141,2,0,L|349:256,3,64.9999970245363
422,206,77408,2,0,L|439:280,3,64.9999970245363
490,146,77675,2,0,L|507:220,3,64.9999970245363
471,57,77941,5,0,0:0:0:0:
455,45,78007,1,0,0:0:0:0:
437,39,78074,1,0,0:0:0:0:
417,39,78141,1,0,0:0:0:0:
400,47,78207,1,0,0:0:0:0:
386,60,78274,1,0,0:0:0:0:
377,78,78341,1,0,0:0:0:0:
363,100,78407,1,0,0:0:0:0:
345,118,78474,1,0,0:0:0:0:
323,132,78541,1,0,0:0:0:0:
298,140,78607,1,0,0:0:0:0:
273,143,78674,1,0,0:0:0:0:
247,139,78741,1,0,0:0:0:0:
223,129,78807,1,0,0:0:0:0:
202,114,78874,1,0,0:0:0:0:
185,94,78941,1,0,0:0:0:0:
173,71,79008,6,0,L|146:156,3,64.9999970245363
33,177,79274,2,0,L|118:204,1,64.9999970245363
129,278,79408,2,0,L|214:305,1,64.9999970245363
402,180,79541,6,0,L|342:114,3,64.9999970245363
380,6,79807,2,0,L|314:66,1,64.9999970245363
245,39,79941,2,0,L|179:99,1,64.9999970245363
192,324,80074,6,0,L|279:305,3,64.9999970245363
354,392,80340,2,0,L|335:305,1,64.9999970245363
393,258,80474,2,0,L|374:171,1,64.9999970245363
318,111,80608,5,0,0:0:0:0:
285,109,80674,1,0,0:0:0:0:
253,107,80741,1,0,0:0:0:0:
220,105,80808,1,0,0:0:0:0:
190,125,80874,1,0,0:0:0:0:
157,123,80940,1,0,0:0:0:0:
125,121,81007,1,0,0:0:0:0:
92,119,81074,1,0,0:0:0:0:
62,135,81141,6,0,L|34:252,1,100
133,196,81408,2,0,L|250:224,1,100
190,125,81674,2,0,L|218:8,1,100
119,64,81941,2,0,L|2:36,1,100
62,257,82208,5,0,0:0:0:0:
133,196,82341,1,0,0:0:0:0:
190,267,82474,1,0,0:0:0:0:
119,328,82608,1,0,0:0:0:0:
50,176,82741,5,0,0:0:0:0:
220,186,82874,1,0,0:0:0:0:
202,350,83007,1,0,0:0:0:0:
40,338,83141,1,0,0:0:0:0:
140,114,83274,6,0,L|276:105,1,100
372,270,83541,2,0,L|236:279,1,100
334,76,83808,2,0,L|343:212,1,100
178,308,84075,2,0,L|169:172,1,100
340,175,84341,5,0,0:0:0:0:
273,276,84474,1,0,0:0:0:0:
172,209,84608,1,0,0:0:0:0:
239,108,84741,1,0,0:0:0:0:
372,270,84874,5,0,0:0:0:0:
178,308,85008,1,0,0:0:0:0:
140,114,85141,1,0,0:0:0:0:
334,76,85275,1,0,0:0:0:0:
490,285,85408,6,0,L|483:403,1,100
372,270,85674,2,0,L|379:388,1,100
452,91,85941,2,0,L|445:209,1,100
334,76,86207,2,0,L|341:194,1,100
22,285,86474,2,0,L|29:403,1,100
140,270,86740,2,0,L|133:388,1,100
60,91,87007,2,0,L|67:209,1,100
178,76,87273,2,0,L|171:194,1,100
273,28,87541,5,0,0:0:0:0:
301,19,87607,1,0,0:0:0:0:
331,21,87674,1,0,0:0:0:0:
358,33,87741,1,0,0:0:0:0:
380,53,87807,1,0,0:0:0:0:
392,80,87874,1,0,0:0:0:0:
395,110,87941,1,0,0:0:0:0:
387,139,88007,1,0,0:0:0:0:
370,163,88074,2,0,L|377:234,7,50
388,298,88608,5,0,0:0:0:0:
359,288,88674,1,0,0:0:0:0:
329,284,88741,1,0,0:0:0:0:
299,285,88808,1,0,0:0:0:0:
270,290,88874,1,0,0:0:0:0:
242,300,88941,1,0,0:0:0:0:
215,314,89008,1,0,0:0:0:0:
192,333,89074,1,0,0:0:0:0:
172,355,89141,1,0,0:0:0:0:
145,367,89208,1,0,0:0:0:0:
115,367,89275,1,0,0:0:0:0:
88,355,89342,1,0,0:0:0:0:
68,333,89408,1,0,0:0:0:0:
60,304,89475,1,0,0:0:0:0:
64,275,89542,1,0,0:0:0:0:
80,250,89608,1,0,0:0:0:0:
105,233,89674,6,0,L|98:177,3,50
189,202,89941,2,0,L|195:145,3,50
35,144,90208,2,0,L|28:87,3,50
118,112,90475,2,0,L|124:55,3,50
210,13,90741,5,0,0:0:0:0:
244,11,90807,1,0,0:0:0:0:
277,22,90874,1,0,0:0:0:0:
303,45,90941,1,0,0:0:0:0:
320,76,91007,1,0,0:0:0:0:
323,111,91074,1,0,0:0:0:0:
314,144,91141,1,0,0:0:0:0:
292,172,91208,1,0,0:0:0:0:
278,203,91274,1,0,0:0:0:0:
276,238,91341,1,0,0:0:0:0:
286,271,91408,1,0,0:0:0:0:
308,298,91474,1,0,0:0:0:0:
339,315,91541,1,0,0:0:0:0:
373,320,91608,1,0,0:0:0:0:
407,312,91674,1,0,0:0:0:0:
436,292,91741,1,0,0:0:0:0:
457,256,91808,6,0,L|441:128,1,119.999996337891
245,101,92074,2,0,L|156:129,1,59.9999981689454
108,153,92208,1,0,0:0:0:0:
108,153,92274,1,0,0:0:0:0:
108,153,92341,2,0,L|102:224,1,59.9999981689454
184,310,92474,2,0,L|178:250,1,59.9999981689454
245,101,92608,1,0,0:0:0:0:
245,101,92674,1,0,0:0:0:0:
245,101,92741,2,0,L|239:172,1,59.9999981689454
321,258,92874,2,0,L|315:198,1,59.9999981689454
364,38,93008,1,0,0:0:0:0:
364,38,93074,1,0,0:0:0:0:
364,38,93141,2,0,L|358:109,1,59.9999981689454
440,195,93274,2,0,L|434:135,1,59.9999981689454
450,290,93408,6,0,L|376:280,1,59.9999981689454
285,362,93541,2,0,L|344:353,1,59.9999981689454
295,278,93674,2,0,L|221:268,1,59.9999981689454
130,350,93807,2,0,L|189:341,1,59.9999981689454
120,258,93941,6,0,L|105:180,1,59.9999981689454
88,113,94074,1,0,0:0:0:0:
96,69,94140,1,0,0:0:0:0:
125,36,94207,1,0,0:0:0:0:
168,23,94274,1,0,0:0:0:0:
211,33,94341,2,0,L|278:82,1,59.9999981689454
328,130,94474,1,0,0:0:0:0:
370,142,94540,1,0,0:0:0:0:
412,128,94607,1,0,0:0:0:0:
439,93,94674,1,0,0:0:0:0:
442,49,94741,2,0,L|361:22,1,59.9999981689454
216,136,94874,1,0,0:0:0:0:
193,174,94940,1,0,0:0:0:0:
198,217,95007,1,0,0:0:0:0:
229,249,95074,1,0,0:0:0:0:
273,255,95141,6,0,L|366:246,1,59.9999981689454
219,336,95274,2,0,L|126:326,1,59.9999981689454
309,347,95408,1,0,0:0:0:0:
309,347,95474,1,0,0:0:0:0:
309,347,95541,2,0,L|401:337,1,59.9999981689454
503,277,95674,2,0,L|410:267,1,59.9999981689454
273,255,95808,1,0,0:0:0:0:
244,203,95874,1,0,0:0:0:0:
258,147,95941,1,0,0:0:0:0:
308,115,96008,1,0,0:0:0:0:
365,126,96074,6,0,L|375:49,1,59.9999981689454
418,197,96208,2,0,L|453:127,1,59.9999981689454
441,288,96341,2,0,L|498:234,1,59.9999981689454
386,364,96474,1,0,0:0:0:0:
386,364,96541,1,0,0:0:0:0:
386,364,96608,2,0,L|324:357,1,59.9999981689454
356,279,96741,2,0,L|294:272,1,59.9999981689454
253,384,96874,1,0,0:0:0:0:
253,384,96941,1,0,0:0:0:0:
253,384,97008,2,0,L|191:377,1,59.9999981689454
223,299,97141,2,0,L|161:292,1,59.9999981689454
89,380,97274,1,0,0:0:0:0:
89,380,97341,1,0,0:0:0:0:
89,380,97408,6,0,B|52:325|52:325|46:250,1,119.999996337891
164,186,97674,2,0,B|159:239|159:239|122:294,1,119.999996337891
19,92,97941,1,0,0:0:0:0:
48,88,98007,1,0,0:0:0:0:
78,84,98074,1,0,0:0:0:0:
108,80,98141,1,0,0:0:0:0:
138,77,98208,6,0,L|222:117,1,59.9999981689454
203,241,98341,2,0,L|196:146,1,59.9999981689454
316,102,98474,2,0,L|238:155,1,59.9999981689454
233,38,98608,2,0,L|240:132,1,59.9999981689454
123,176,98741,2,0,L|201:123,1,59.9999981689454
300,205,98874,2,0,L|215:164,1,59.9999981689454
397,165,99008,1,0,0:0:0:0:
399,194,99074,1,0,0:0:0:0:
401,224,99141,1,0,0:0:0:0:
403,254,99208,1,0,0:0:0:0:
405,284,99274,5,0,0:0:0:0:
365,274,99340,1,0,0:0:0:0:
323,278,99407,1,0,0:0:0:0:
285,295,99474,1,0,0:0:0:0:
255,324,99540,1,0,0:0:0:0:
222,349,99607,1,0,0:0:0:0:
181,358,99674,1,0,0:0:0:0:
140,349,99741,1,0,0:0:0:0:
108,323,99807,1,0,0:0:0:0:
89,286,99874,1,0,0:0:0:0:
88,244,99941,1,0,0:0:0:0:
105,206,100007,1,0,0:0:0:0:
136,179,100074,1,0,0:0:0:0:
169,154,100140,1,0,0:0:0:0:
183,115,100207,1,0,0:0:0:0:
173,74,100274,1,0,0:0:0:0:
143,46,100341,6,0,L|283:33,1,100
391,111,100608,1,0,0:0:0:0:
391,111,100674,1,0,0:0:0:0:
391,111,100741,1,0,0:0:0:0:
242,347,100874,2,0,L|143:338,1,100
391,273,101141,1,0,0:0:0:0:
391,273,101207,1,0,0:0:0:0:
391,273,101274,1,0,0:0:0:0:
181,156,101408,5,0,0:0:0:0:
142,337,101541,1,0,0:0:0:0:
308,181,101674,1,0,0:0:0:0:
308,181,101741,1,0,0:0:0:0:
308,181,101808,1,0,0:0:0:0:
57,128,101941,1,0,0:0:0:0:
161,248,102074,1,0,0:0:0:0:
219,22,102208,1,0,0:0:0:0:
219,22,102274,1,0,0:0:0:0:
219,22,102341,1,0,0:0:0:0:
343,197,102474,6,0,L|353:330,1,100
256,384,102741,1,0,0:0:0:0:
258,354,102807,1,0,0:0:0:0:
260,324,102874,1,0,0:0:0:0:
153,148,103008,2,0,L|163:281,1,100
66,335,103275,1,0,0:0:0:0:
68,305,103341,1,0,0:0:0:0:
70,275,103408,1,0,0:0:0:0:
89,61,103541,5,0,0:0:0:0:
207,13,103674,1,0,0:0:0:0:
267,156,103808,1,0,0:0:0:0:
267,156,103874,1,0,0:0:0:0:
267,156,103941,1,0,0:0:0:0:
207,13,104074,1,0,0:0:0:0:
255,130,104207,1,0,0:0:0:0:
112,190,104341,1,0,0:0:0:0:
112,190,104407,1,0,0:0:0:0:
112,190,104474,1,0,0:0:0:0:
207,328,104608,6,0,B|253:342|253:342|316:335,1,100
445,262,104874,1,0,0:0:0:0:
445,262,104941,1,0,0:0:0:0:
445,262,105008,1,0,0:0:0:0:
280,155,105141,2,0,L|259:284,1,100
395,132,105408,1,0,0:0:0:0:
390,102,105474,1,0,0:0:0:0:
385,72,105541,1,0,0:0:0:0:
428,299,105674,5,0,0:0:0:0:
255,366,105808,1,0,0:0:0:0:
280,155,105941,1,0,0:0:0:0:
280,155,106008,1,0,0:0:0:0:
280,155,106074,1,0,0:0:0:0:
362,361,106208,1,0,0:0:0:0:
228,244,106341,1,0,0:0:0:0:
445,262,106474,1,0,0:0:0:0:
445,262,106541,1,0,0:0:0:0:
445,262,106608,1,0,0:0:0:0:
218,355,106741,6,0,L|132:344,1,50
82,336,106874,1,0,0:0:0:0:
59,309,106940,1,0,0:0:0:0:
46,277,107007,1,0,0:0:0:0:
43,242,107074,1,0,0:0:0:0:
52,208,107141,6,0,L|39:144,1,50
26,73,107274,1,0,0:0:0:0:
44,43,107340,1,0,0:0:0:0:
73,24,107407,1,0,0:0:0:0:
107,17,107474,1,0,0:0:0:0:
141,23,107541,6,0,L|182:85,1,50
212,146,107674,1,0,0:0:0:0:
212,146,107741,1,0,0:0:0:0:
212,146,107808,6,0,L|197:233,1,50
297,82,107941,2,0,L|312:169,1,50
348,210,108074,2,0,L|333:297,1,50
433,146,108207,2,0,L|448:233,1,50
468,284,108341,1,0,0:0:0:0:
465,308,108407,1,0,0:0:0:0:
455,331,108474,1,0,0:0:0:0:
439,350,108541,1,0,0:0:0:0:
419,364,108607,1,0,0:0:0:0:
395,371,108674,1,0,0:0:0:0:
370,371,108741,1,0,0:0:0:0:
346,364,108807,1,0,0:0:0:0:
325,350,108874,6,0,L|251:358,3,55.0000016784668
204,288,109141,2,0,L|130:296,3,55.0000016784668
276,217,109408,2,0,L|330:210,3,55.0000016784668
155,155,109675,2,0,L|209:148,3,55.0000016784668
253,66,109941,5,0,0:0:0:0:
278,45,110007,1,0,0:0:0:0:
309,34,110074,1,0,0:0:0:0:
342,34,110141,1,0,0:0:0:0:
372,46,110207,1,0,0:0:0:0:
397,67,110274,1,0,0:0:0:0:
410,97,110341,1,0,0:0:0:0:
414,129,110408,1,0,0:0:0:0:
401,159,110474,1,0,0:0:0:0:
383,186,110540,1,0,0:0:0:0:
375,218,110607,1,0,0:0:0:0:
377,251,110674,1,0,0:0:0:0:
388,282,110740,1,0,0:0:0:0:
409,307,110807,1,0,0:0:0:0:
437,325,110874,2,0,L|334:342,1,55.0000016784668
287,352,111008,6,0,L|210:338,3,55.0000016784668
131,275,111274,2,0,L|208:261,3,55.0000016784668
280,201,111541,2,0,L|203:187,3,55.0000016784668
124,124,111807,2,0,L|201:110,3,55.0000016784668
237,29,112074,6,0,L|319:26,1,55.0000016784668
422,115,112208,2,0,L|340:112,1,55.0000016784668
250,40,112341,2,0,L|332:37,1,55.0000016784668
439,143,112474,2,0,L|436:197,1,55.0000016784668
353,328,112608,2,0,L|350:273,1,55.0000016784668
460,168,112741,2,0,L|462:222,1,55.0000016784668
266,162,112874,5,0,0:0:0:0:
264,203,112940,1,0,0:0:0:0:
262,244,113007,1,0,0:0:0:0:
260,285,113074,1,0,0:0:0:0:
235,303,113141,5,0,0:0:0:0:
206,288,113208,1,0,0:0:0:0:
174,282,113275,1,0,0:0:0:0:
141,287,113341,1,0,0:0:0:0:
112,302,113408,1,0,0:0:0:0:
85,322,113474,1,0,0:0:0:0:
53,315,113540,1,0,0:0:0:0:
25,297,113607,1,0,0:0:0:0:
6,271,113674,1,0,0:0:0:0:
0,239,113740,1,0,0:0:0:0:
0,207,113807,1,0,0:0:0:0:
15,177,113874,1,0,0:0:0:0:
39,155,113940,1,0,0:0:0:0:
69,143,114007,1,0,0:0:0:0:
102,143,114074,1,0,0:0:0:0:
133,154,114140,1,0,0:0:0:0:
151,182,114208,6,0,L|248:171,1,55.0000016784668
292,248,114341,1,0,0:0:0:0:
292,248,114408,1,0,0:0:0:0:
292,248,114474,2,0,L|298:165,1,55.0000016784668
403,186,114608,2,0,L|397:103,1,55.0000016784668
306,53,114741,2,0,L|219:37,1,55.0000016784668
139,145,114874,2,0,L|193:135,1,55.0000016784668
285,27,115008,2,0,L|198:11,1,55.0000016784668
118,119,115141,2,0,L|172:109,1,55.0000016784668
48,33,115274,5,0,0:0:0:0:
25,155,115408,2,0,L|14:222,2,55.0000016784668
101,266,115674,2,0,L|93:329,2,55.0000016784668
195,369,115941,1,0,0:0:0:0:
195,369,116008,1,0,0:0:0:0:
195,369,116074,2,0,B|245:353|245:353|309:353,1,110.000003356934
377,201,116341,6,0,B|327:217|327:217|269:217,1,110.000003356934
273,34,116608,1,0,0:0:0:0:
282,59,116674,1,0,0:0:0:0:
291,85,116741,1,0,0:0:0:0:
301,111,116808,1,0,0:0:0:0:
310,136,116874,2,0,L|195:119,1,110.000003356934
56,176,117141,1,0,0:0:0:0:
46,201,117207,1,0,0:0:0:0:
37,227,117274,1,0,0:0:0:0:
27,253,117341,1,0,0:0:0:0:
19,280,117408,5,0,0:0:0:0:
156,350,117541,1,0,0:0:0:0:
125,237,117674,1,0,0:0:0:0:
63,375,117808,1,0,0:0:0:0:
239,221,117941,1,0,0:0:0:0:
47,147,118074,1,0,0:0:0:0:
156,350,118208,1,0,0:0:0:0:
159,38,118341,1,0,0:0:0:0:
63,375,118474,5,0,0:0:0:0:
424,48,118741,6,0,L|435:131,1,55.0000016784668
327,9,118874,2,0,L|316:92,1,55.0000016784668
301,179,119008,1,0,0:0:0:0:
301,179,119074,1,0,0:0:0:0:
301,179,119141,1,0,0:0:0:0:
249,163,119207,1,0,0:0:0:0:
198,183,119274,1,0,0:0:0:0:
0,319,119541,5,0,0:0:0:0:
24,324,119607,1,0,0:0:0:0:
48,329,119674,1,0,0:0:0:0:
73,334,119741,1,0,0:0:0:0:
97,339,119807,1,0,0:0:0:0:
0,220,120074,1,0,0:0:0:0:
24,225,120140,1,0,0:0:0:0:
48,230,120207,1,0,0:0:0:0:
73,235,120274,1,0,0:0:0:0:
97,240,120340,1,0,0:0:0:0:
328,48,120608,5,0,0:0:0:0:
184,48,120741,1,0,0:0:0:0:
256,192,120874,1,0,0:0:0:0:
256,12,121008,1,0,0:0:0:0:
172,144,121141,1,0,0:0:0:0:
339,144,121274,1,0,0:0:0:0:
168,256,121408,2,0,L|44:240,2,100
512,319,121941,5,0,0:0:0:0:
488,324,122007,1,0,0:0:0:0:
464,329,122074,1,0,0:0:0:0:
439,334,122141,1,0,0:0:0:0:
415,339,122207,1,0,0:0:0:0:
512,220,122474,1,0,0:0:0:0:
488,225,122540,1,0,0:0:0:0:
464,230,122607,1,0,0:0:0:0:
439,235,122674,1,0,0:0:0:0:
412,236,122741,6,0,L|284:208,1,100
130,157,123008,2,0,L|258:129,1,100
23,214,123274,1,0,0:0:0:0:
14,355,123408,1,0,0:0:0:0:
130,157,123541,1,0,0:0:0:0:
139,298,123675,1,0,0:0:0:0:
44,33,123808,5,0,0:0:0:0:
68,30,123874,1,0,0:0:0:0:
93,28,123941,1,0,0:0:0:0:
118,26,124008,1,0,0:0:0:0:
143,24,124074,1,0,0:0:0:0:
7,141,124341,1,0,0:0:0:0:
31,138,124407,1,0,0:0:0:0:
56,136,124474,1,0,0:0:0:0:
81,134,124541,1,0,0:0:0:0:
106,132,124607,1,0,0:0:0:0:
325,110,124874,5,0,0:0:0:0:
333,278,125008,1,0,0:0:0:0:
437,186,125141,1,0,0:0:0:0:
274,185,125274,1,0,0:0:0:0:
424,262,125408,1,0,0:0:0:0:
396,126,125541,1,0,0:0:0:0:
296,358,125674,2,0,L|181:370,2,100
84,156,126208,5,0,0:0:0:0:
80,180,126274,1,0,0:0:0:0:
77,205,126341,1,0,0:0:0:0:
74,230,126408,1,0,0:0:0:0:
71,255,126474,1,0,0:0:0:0:
182,87,126741,1,0,0:0:0:0:
178,111,126807,1,0,0:0:0:0:
175,136,126874,1,0,0:0:0:0:
172,161,126941,1,0,0:0:0:0:
169,186,127007,5,0,0:0:0:0:
336,95,127141,1,0,0:0:0:0:
336,95,127274,1,0,0:0:0:0:
148,349,127408,1,0,0:0:0:0:
415,216,127541,1,0,0:0:0:0:
415,216,127674,1,0,0:0:0:0:
182,87,127808,2,0,L|41:79,1,100
167,322,128074,5,0,0:0:0:0:
199,304,128140,1,0,0:0:0:0:
235,294,128207,1,0,0:0:0:0:
273,294,128274,1,0,0:0:0:0:
309,302,128340,1,0,0:0:0:0:
185,223,128608,5,0,0:0:0:0:
152,240,128674,1,0,0:0:0:0:
116,250,128741,1,0,0:0:0:0:
78,250,128808,1,0,0:0:0:0:
42,242,128874,1,0,0:0:0:0:
338,34,129141,5,0,0:0:0:0:
350,227,129274,1,0,0:0:0:0:
338,34,129408,1,0,0:0:0:0:
162,227,129541,5,0,0:0:0:0:
174,34,129675,1,0,0:0:0:0:
162,227,129808,1,0,0:0:0:0:
260,112,129941,5,0,0:0:0:0:
260,272,130074,1,0,0:0:0:0:
260,112,130208,1,0,0:0:0:0:
443,29,130474,5,0,0:0:0:0:
424,61,130540,1,0,0:0:0:0:
417,98,130607,1,0,0:0:0:0:
424,134,130674,1,0,0:0:0:0:
442,167,130740,1,0,0:0:0:0:
338,312,131008,5,0,0:0:0:0:
356,279,131074,1,0,0:0:0:0:
363,242,131141,1,0,0:0:0:0:
356,206,131208,1,0,0:0:0:0:
338,173,131274,2,0,L|211:167,1,100
60,324,131541,2,0,L|187:318,1,100
95,75,131808,1,0,0:0:0:0:
11,238,131941,1,0,0:0:0:0:
217,193,132074,1,0,0:0:0:0:
4,116,132208,1,0,0:0:0:0:
111,229,132341,5,0,0:0:0:0:
132,259,132407,1,0,0:0:0:0:
161,283,132474,1,0,0:0:0:0:
194,300,132540,1,0,0:0:0:0:
231,307,132607,1,0,0:0:0:0:
338,115,132874,1,0,0:0:0:0:
301,122,132941,1,0,0:0:0:0:
267,138,133007,1,0,0:0:0:0:
239,162,133074,1,0,0:0:0:0:
217,193,133140,1,0,0:0:0:0:
421,276,133408,5,0,0:0:0:0:
442,114,133541,1,0,0:0:0:0:
312,208,133674,1,0,0:0:0:0:
454,272,133808,2,0,B|486:229|486:229|501:174,2,100
454,272,134141,1,0,0:0:0:0:
454,272,134208,2,0,L|399:257,1,50
366,135,134341,2,0,L|415:149,1,50
269,111,134474,1,0,0:0:0:0:
260,117,135008,1,0,0:0:0:0:
90,62,135274,5,0,0:0:0:0:
90,62,135341,1,0,0:0:0:0:
90,62,135408,1,0,0:0:0:0:
90,62,135474,1,0,0:0:0:0:
90,62,135541,2,0,L|79:164,1,100
180,118,135808,2,0,L|191:220,1,100
196,241,136008,1,0,0:0:0:0:
201,265,136074,2,0,L|260:285,3,50
316,218,136341,2,0,L|375:238,3,50
445,183,136608,6,0,P|421:126|448:51,1,119.999996337891
297,19,136874,1,0,0:0:0:0:
297,19,136941,1,0,0:0:0:0:
297,19,137008,1,0,0:0:0:0:
160,41,137141,2,0,B|117:88|117:88|95:157,1,119.999996337891
139,289,137408,1,0,0:0:0:0:
139,289,137474,1,0,0:0:0:0:
139,289,137541,1,0,0:0:0:0:
266,218,137674,5,0,0:0:0:0:
322,203,137740,1,0,0:0:0:0:
375,228,137807,1,0,0:0:0:0:
398,282,137873,1,0,0:0:0:0:
379,341,137941,5,0,0:0:0:0:
421,352,138007,1,0,0:0:0:0:
463,337,138074,1,0,0:0:0:0:
489,301,138140,1,0,0:0:0:0:
490,256,138207,5,0,0:0:0:0:
474,231,138274,1,0,0:0:0:0:
459,205,138341,1,0,0:0:0:0:
443,179,138407,1,0,0:0:0:0:
428,154,138474,5,0,0:0:0:0:
431,139,138540,1,0,0:0:0:0:
434,124,138607,1,0,0:0:0:0:
436,110,138673,1,0,0:0:0:0:
439,95,138741,2,0,L|399:48,1,59.9999981689454
379,167,138874,2,0,L|339:120,1,59.9999981689454
279,189,139008,2,0,L|239:142,1,59.9999981689454
219,261,139141,2,0,L|179:214,1,59.9999981689454
110,144,139274,5,0,0:0:0:0:
65,130,139340,1,0,0:0:0:0:
22,149,139407,1,0,0:0:0:0:
4,193,139473,1,0,0:0:0:0:
19,237,139540,1,0,0:0:0:0:
61,259,139608,1,0,0:0:0:0:
107,270,139674,1,0,0:0:0:0:
142,302,139741,1,0,0:0:0:0:
156,347,139807,5,0,0:0:0:0:
204,341,139874,1,0,0:0:0:0:
252,343,139941,1,0,0:0:0:0:
298,354,140007,1,0,0:0:0:0:
340,379,140074,1,0,0:0:0:0:
383,360,140141,1,0,0:0:0:0:
414,324,140208,1,0,0:0:0:0:
425,278,140274,1,0,0:0:0:0:
414,232,140341,5,0,0:0:0:0:
383,196,140408,1,0,0:0:0:0:
339,177,140474,1,0,0:0:0:0:
295,159,140541,1,0,0:0:0:0:
268,119,140608,1,0,0:0:0:0:
268,72,140674,1,0,0:0:0:0:
295,33,140741,1,0,0:0:0:0:
339,15,140808,1,0,0:0:0:0:
385,25,140874,2,0,L|398:93,3,59.9999981689454
462,147,141141,2,0,L|428:207,3,59.9999981689454
442,290,141408,2,0,L|378:314,3,59.9999981689454
290,347,141674,5,0,0:0:0:0:
247,325,141740,1,0,0:0:0:0:
200,314,141807,1,0,0:0:0:0:
152,312,141873,1,0,0:0:0:0:
105,321,141941,1,0,0:0:0:0:
61,341,142008,5,0,0:0:0:0:
48,295,142074,1,0,0:0:0:0:
52,247,142141,1,0,0:0:0:0:
73,204,142207,1,0,0:0:0:0:
108,171,142274,1,0,0:0:0:0:
152,153,142341,1,0,0:0:0:0:
199,152,142407,1,0,0:0:0:0:
243,172,142474,5,0,0:0:0:0:
284,194,142540,1,0,0:0:0:0:
332,192,142607,1,0,0:0:0:0:
372,167,142673,1,0,0:0:0:0:
394,125,142740,1,0,0:0:0:0:
392,77,142807,1,0,0:0:0:0:
366,37,142873,1,0,0:0:0:0:
324,16,142940,1,0,0:0:0:0:
277,18,143008,6,0,L|265:97,1,59.9999981689454
160,45,143141,2,0,L|201:113,1,59.9999981689454
89,141,143274,2,0,L|164:166,1,59.9999981689454,0|0,3:0|3:0,3:0:0:0:
95,260,143408,2,0,L|169:231,1,59.9999981689454,0|0,3:0|3:0,3:0:0:0:
176,347,143541,2,0,L|215:278,1,59.9999981689454
295,361,143674,2,0,L|280:284,1,59.9999981689454
395,296,143808,2,0,L|333:247,1,59.9999981689454,0|0,3:0|3:0,3:0:0:0:
430,182,143941,2,0,L|351:184,1,59.9999981689454,0|0,3:0|3:0,3:0:0:0:
276,187,144074,5,0,0:0:0:0:
215,167,144141,1,0,0:0:0:0:
183,112,144208,1,0,0:0:0:0:
195,49,144274,1,0,0:0:0:0:
245,10,144341,1,0,0:0:0:0:
309,15,144408,1,0,0:0:0:0:
354,60,144474,1,0,0:0:0:0:
340,123,144541,1,0,0:0:0:0:
314,181,144607,1,0,0:0:0:0:
327,244,144674,1,0,0:0:0:0:
374,287,144740,1,0,0:0:0:0:
438,294,144807,1,0,0:0:0:0:
494,263,144874,1,0,0:0:0:0:
512,206,144940,1,0,0:0:0:0:
510,143,145007,1,0,0:0:0:0:
464,98,145074,1,0,0:0:0:0:
404,88,145141,5,0,0:0:0:0:
374,125,145207,1,0,0:0:0:0:
331,146,145274,1,0,0:0:0:0:
283,148,145340,1,0,0:0:0:0:
239,129,145407,1,0,0:0:0:0:
207,94,145474,1,0,0:0:0:0:
176,59,145540,1,0,0:0:0:0:
132,40,145607,1,0,0:0:0:0:
84,35,145674,5,0,0:0:0:0:
38,78,145740,1,0,0:0:0:0:
28,135,145807,1,0,0:0:0:0:
61,184,145873,1,0,0:0:0:0:
118,197,145940,1,0,0:0:0:0:
176,180,146007,1,0,0:0:0:0:
229,208,146074,1,0,0:0:0:0:
231,267,146140,1,0,0:0:0:0:
192,310,146208,5,0,0:0:0:0:
239,310,146274,1,0,0:0:0:0:
286,320,146341,1,0,0:0:0:0:
330,340,146407,1,0,0:0:0:0:
368,369,146474,5,0,0:0:0:0:
344,327,146540,1,0,0:0:0:0:
340,280,146607,1,0,0:0:0:0:
356,235,146673,1,0,0:0:0:0:
390,202,146741,5,0,0:0:0:0:
342,200,146807,1,0,0:0:0:0:
298,182,146874,1,0,0:0:0:0:
262,151,146940,1,0,0:0:0:0:
242,106,147008,1,0,0:0:0:0:
209,71,147074,1,0,0:0:0:0:
165,53,147141,1,0,0:0:0:0:
117,57,147207,1,0,0:0:0:0:
76,81,147274,6,0,L|65:179,1,59.9999981689454
155,178,147408,2,0,L|110:265,1,59.9999981689454
225,115,147541,2,0,L|278:197,1,59.9999981689454
347,138,147675,2,0,L|369:233,1,59.9999981689454
381,297,147808,6,0,L|447:335,3,59.9999981689454
335,369,148074,1,0,0:0:0:0:
304,317,148140,1,0,0:0:0:0:
253,288,148207,1,0,0:0:0:0:
194,287,148273,1,0,0:0:0:0:
141,315,148341,6,0,L|44:331,3,59.9999981689454
28,251,148608,1,0,0:0:0:0:
71,210,148674,1,0,0:0:0:0:
85,153,148741,1,0,0:0:0:0:
66,97,148807,1,0,0:0:0:0:
20,60,148874,5,0,0:0:0:0:
35,59,148941,1,0,0:0:0:0:
50,57,149007,1,0,0:0:0:0:
65,56,149073,1,0,0:0:0:0:
80,54,149140,1,0,0:0:0:0:
95,53,149207,1,0,0:0:0:0:
110,52,149273,1,0,0:0:0:0:
125,50,149341,1,0,0:0:0:0:
140,49,149408,5,0,0:0:0:0:
124,81,149474,1,0,0:0:0:0:
121,116,149541,1,0,0:0:0:0:
132,150,149607,1,0,0:0:0:0:
154,178,149674,1,0,0:0:0:0:
186,195,149741,1,0,0:0:0:0:
221,199,149807,1,0,0:0:0:0:
256,190,149874,1,0,0:0:0:0:
287,171,149941,5,0,0:0:0:0:
300,204,150007,1,0,0:0:0:0:
313,238,150074,1,0,0:0:0:0:
326,271,150140,1,0,0:0:0:0:
339,305,150207,1,0,0:0:0:0:
363,330,150274,1,0,0:0:0:0:
397,341,150341,1,0,0:0:0:0:
432,334,150407,1,0,0:0:0:0:
459,310,150474,5,0,0:0:0:0:
414,272,150540,1,0,0:0:0:0:
399,215,150607,1,0,0:0:0:0:
417,159,150673,1,0,0:0:0:0:
464,122,150741,1,0,0:0:0:0:
420,82,150807,1,0,0:0:0:0:
362,69,150874,1,0,0:0:0:0:
306,87,150940,1,0,0:0:0:0:
266,130,151008,1,0,0:0:0:0:
236,126,151074,1,0,0:0:0:0:
206,122,151141,1,0,0:0:0:0:
176,118,151207,1,0,0:0:0:0:
147,112,151274,6,0,L|118:178,1,59.9999981689454
20,170,151408,2,0,L|49:236,1,59.9999981689454
80,324,151541,5,0,0:0:0:0:
108,331,151607,1,0,0:0:0:0:
138,332,151674,1,0,0:0:0:0:
167,326,151740,1,0,0:0:0:0:
194,312,151807,5,0,0:0:0:0:
239,318,151874,1,0,0:0:0:0:
283,325,151941,1,0,0:0:0:0:
328,331,152007,1,0,0:0:0:0:
372,337,152074,5,0,0:0:0:0:
339,289,152140,1,0,0:0:0:0:
337,230,152207,1,0,0:0:0:0:
367,179,152273,1,0,0:0:0:0:
420,152,152341,5,0,0:0:0:0:
479,112,152407,1,0,0:0:0:0:
467,42,152474,1,0,0:0:0:0:
398,24,152540,1,0,0:0:0:0:
353,78,152608,5,0,0:0:0:0:
275,39,152674,5,0,0:0:0:0:
196,75,152741,5,0,0:0:0:0:
175,159,152807,5,0,0:0:0:0:
227,228,152874,6,0,L|312:208,1,59.9999981689454
352,286,153008,2,0,L|437:266,1,59.9999981689454
190,328,153141,5,0,0:0:0:0:
19,180,153274,1,0,0:0:0:0:
209,298,153408,1,0,0:0:0:0:
135,29,153541,1,0,0:0:0:0:
217,342,153674,6,0,L|325:351,1,100
261,267,153941,2,0,L|369:276,1,100
251,117,154208,2,0,L|151:108,1,100
295,42,154475,2,0,L|195:33,1,100
38,155,154741,1,0,0:0:0:0:
74,20,154874,1,0,0:0:0:0:
159,196,155008,2,0,L|14:175,1,100
258,212,155274,5,0,0:0:0:0:
354,343,155408,1,0,0:0:0:0:
354,181,155541,1,0,0:0:0:0:
258,312,155674,1,0,0:0:0:0:
412,262,155808,6,0,P|443:221|445:147,1,100
417,62,156074,2,0,B|352:51|352:51|301:60,1,100
213,114,156341,2,0,B|179:119|179:119|114:108,1,100
19,56,156608,2,0,L|2:182,1,100
106,322,156874,5,0,0:0:0:0:
296,270,157008,1,0,0:0:0:0:
138,305,157141,1,0,0:0:0:0:
340,372,157274,1,0,0:0:0:0:
165,294,157408,2,0,B|160:249|160:249|174:165,1,100
315,147,157674,2,0,B|323:200|323:200|318:245,1,100
417,127,157941,6,0,L|434:28,2,66.6666666666667
486,204,158208,2,0,L|503:105,2,66.6666666666667
393,268,158474,2,0,L|410:169,2,66.6666666666667
462,345,158741,2,0,L|479:246,2,66.6666666666667
380,368,159008,6,0,B|293:350|293:350|171:349,1,200
367,289,159408,1,0,0:0:0:0:
247,267,159541,2,0,P|201:219|302:130,1,200
274,196,159941,1,0,0:0:0:0:
137,128,160074,6,0,L|128:23,1,100
28,210,160341,2,0,L|37:105,1,100
375,128,160608,6,0,L|384:23,1,100
484,210,160875,2,0,L|475:105,1,100
498,318,161141,2,0,P|441:309|337:361,2,150
276,372,161674,2,0,L|146:355,1,100
49,237,161941,2,0,L|148:249,1,100
319,91,162208,6,0,L|327:215,1,100
330,215,162408,1,0,0:0:0:0:
334,239,162474,2,0,B|395:245|431:299,1,100
429,307,162674,1,0,0:0:0:0:
431,332,162741,2,0,L|304:345,1,100
306,346,162941,1,0,0:0:0:0:
280,348,163008,2,0,B|235:323|235:323|200:270,1,100
208,257,163208,1,0,0:0:0:0:
208,232,163274,5,0,0:0:0:0:
409,112,163452,5,0,0:0:0:0:
288,270,163630,5,0,0:0:0:0:
206,20,163808,5,0,0:0:0:0:
442,278,163985,5,0,0:0:0:0:
20,164,164163,5,0,0:0:0:0:
256,192,164341,12,0,168474,0:0:0:0:
65,55,168608,5,0,0:0:0:0:
68,92,168674,1,0,0:0:0:0:
71,129,168741,1,0,0:0:0:0:
74,167,168807,1,0,0:0:0:0:
77,204,168874,1,0,0:0:0:0:
186,126,169141,5,0,0:0:0:0:
189,163,169207,1,0,0:0:0:0:
192,200,169274,1,0,0:0:0:0:
195,238,169340,1,0,0:0:0:0:
198,275,169407,1,0,0:0:0:0:
427,140,169674,6,0,L|435:66,1,50
425,247,169808,2,0,L|474:191,1,50
363,334,169941,2,0,L|435:317,1,50
261,370,170075,2,0,L|331:397,1,50
158,341,170208,2,0,L|199:403,1,50
90,258,170341,2,0,L|88:333,1,50
81,151,170475,2,0,L|37:211,1,50
136,58,170609,2,0,L|66:83,1,50
234,14,170741,1,0,0:0:0:0:
278,370,171008,5,0,0:0:0:0:
283,332,171074,1,0,0:0:0:0:
288,295,171141,1,0,0:0:0:0:
293,258,171207,1,0,0:0:0:0:
298,221,171274,1,0,0:0:0:0:
234,14,171541,5,0,0:0:0:0:
228,51,171607,1,0,0:0:0:0:
223,88,171674,1,0,0:0:0:0:
218,125,171740,1,0,0:0:0:0:
216,160,171808,5,0,0:0:0:0:
121,335,171941,1,0,0:0:0:0:
119,95,172074,1,0,0:0:0:0:
20,344,172208,1,0,0:0:0:0:
221,265,172341,1,0,0:0:0:0:
10,128,172474,1,0,0:0:0:0:
295,284,172608,5,0,0:0:0:0:
291,235,172675,1,0,0:0:0:0:
258,199,172741,1,0,0:0:0:0:
210,190,172808,1,0,0:0:0:0:
166,212,172874,5,0,0:0:0:0:
427,72,173941,5,0,0:0:0:0:
375,43,174007,1,0,0:0:0:0:
317,52,174074,1,0,0:0:0:0:
276,94,174140,1,0,0:0:0:0:
270,153,174207,1,0,0:0:0:0:
302,203,174274,1,0,0:0:0:0:
357,223,174341,1,0,0:0:0:0:
411,202,174407,1,0,0:0:0:0:
463,228,174474,1,0,0:0:0:0:
478,284,174540,1,0,0:0:0:0:
446,332,174607,1,0,0:0:0:0:
388,341,174674,1,0,0:0:0:0:
344,303,174740,1,0,0:0:0:0:
292,273,174807,1,0,0:0:0:0:
233,268,174874,1,0,0:0:0:0:
176,286,174940,1,0,0:0:0:0:
132,327,175007,1,0,0:0:0:0:
5,51,176074,6,0,L|140:40,1,110.000003356934
114,42,176274,1,0,0:0:0:0:
114,42,176341,2,0,B|95:93|95:93|94:168,1,110.000003356934
144,276,176608,1,0,0:0:0:0:
157,273,176674,1,0,0:0:0:0:
171,270,176741,1,0,0:0:0:0:
184,268,176807,1,0,0:0:0:0:
198,265,176874,2,0,L|335:295,1,110.000003356934
468,328,177141,6,0,L|453:193,1,119.999996337891
441,69,177408,5,0,0:0:0:0:
399,45,177474,1,0,0:0:0:0:
352,47,177541,1,0,0:0:0:0:
312,72,177607,1,0,0:0:0:0:
291,115,177674,1,0,0:0:0:0:
301,162,177741,1,0,0:0:0:0:
320,205,177807,1,0,0:0:0:0:
319,252,177874,1,0,0:0:0:0:
297,295,177940,1,0,0:0:0:0:
259,323,178007,1,0,0:0:0:0:
212,332,178074,1,0,0:0:0:0:
166,320,178140,1,0,0:0:0:0:
130,289,178208,6,0,L|121:207,1,59.9999981689454
43,131,178341,2,0,L|36:190,1,59.9999981689454
223,244,178474,2,0,L|214:162,1,59.9999981689454
136,86,178607,2,0,L|129:145,1,59.9999981689454
313,189,178741,2,0,L|304:107,1,59.9999981689454
226,31,178874,2,0,L|219:90,1,59.9999981689454
446,164,179008,2,0,L|437:82,1,59.9999981689454
359,6,179141,2,0,L|352:65,1,59.9999981689454
337,288,179274,5,0,0:0:0:0:
314,246,179340,1,0,0:0:0:0:
271,228,179407,1,0,0:0:0:0:
226,243,179473,1,0,0:0:0:0:
200,282,179540,1,0,0:0:0:0:
206,329,179607,1,0,0:0:0:0:
240,361,179673,1,0,0:0:0:0:
284,378,179740,1,0,0:0:0:0:
331,372,179807,1,0,0:0:0:0:
370,345,179873,1,0,0:0:0:0:
391,302,179940,1,0,0:0:0:0:
389,254,180007,1,0,0:0:0:0:
362,215,180074,1,0,0:0:0:0:
338,174,180140,1,0,0:0:0:0:
343,127,180207,1,0,0:0:0:0:
375,92,180273,1,0,0:0:0:0:
424,98,180341,6,0,L|439:169,1,59.9999981689454
479,295,180474,2,0,L|491:236,1,59.9999981689454
389,254,180608,2,0,L|374:325,1,59.9999981689454
235,108,180741,6,0,L|250:179,1,59.9999981689454
290,305,180874,2,0,L|302:246,1,59.9999981689454
200,264,181008,2,0,L|185:335,1,59.9999981689454
96,376,181141,5,0,0:0:0:0:
86,316,181207,1,0,0:0:0:0:
76,257,181274,1,0,0:0:0:0:
66,198,181340,1,0,0:0:0:0:
56,139,181408,5,0,0:0:0:0:
83,99,181474,1,0,0:0:0:0:
123,75,181541,1,0,0:0:0:0:
171,70,181607,1,0,0:0:0:0:
216,86,181674,1,0,0:0:0:0:
247,123,181741,1,0,0:0:0:0:
266,164,181808,1,0,0:0:0:0:
279,209,181874,1,0,0:0:0:0:
316,239,181941,1,0,0:0:0:0:
363,241,182007,1,0,0:0:0:0:
403,215,182074,1,0,0:0:0:0:
419,171,182141,1,0,0:0:0:0:
407,125,182207,1,0,0:0:0:0:
370,95,182274,1,0,0:0:0:0:
322,88,182341,1,0,0:0:0:0:
285,119,182408,1,0,0:0:0:0:
279,166,182474,6,0,L|187:175,1,59.9999981689454
175,264,182608,2,0,L|83:273,1,59.9999981689454
61,348,182741,2,0,L|-31:357,1,59.9999981689454
141,375,182874,5,0,0:0:0:0:
155,376,182940,1,0,0:0:0:0:
170,377,183007,1,0,0:0:0:0:
185,378,183073,1,0,0:0:0:0:
216,368,183141,1,0,0:0:0:0:
230,366,183207,1,0,0:0:0:0:
245,365,183274,1,0,0:0:0:0:
260,364,183340,1,0,0:0:0:0:
281,346,183408,2,0,L|297:248,1,59.9999981689454
307,195,183541,5,0,0:0:0:0:
294,12,183674,1,0,0:0:0:0:
412,152,183808,1,0,0:0:0:0:
234,108,183941,1,0,0:0:0:0:
405,39,184074,1,0,0:0:0:0:
322,170,184208,1,0,0:0:0:0:
498,46,184341,1,0,0:0:0:0:
405,249,184474,2,0,L|398:144,1,59.9999981689454
419,358,184608,5,0,0:0:0:0:
367,327,184674,1,0,0:0:0:0:
309,311,184741,1,0,0:0:0:0:
249,310,184807,1,0,0:0:0:0:
191,324,184874,1,0,0:0:0:0:
137,347,184940,1,0,0:0:0:0:
83,327,185007,1,0,0:0:0:0:
58,274,185073,1,0,0:0:0:0:
76,219,185141,6,0,L|129:173,1,59.9999981689454
101,97,185274,2,0,L|170:95,1,59.9999981689454
198,20,185408,2,0,L|252:63,1,59.9999981689454
322,23,185541,2,0,L|335:91,1,59.9999981689454
365,176,185674,6,0,L|346:299,1,100
475,155,185941,1,0,0:0:0:0:
475,155,186008,1,0,0:0:0:0:
475,155,186074,1,0,0:0:0:0:
358,45,186208,1,0,0:0:0:0:
238,280,186341,1,0,0:0:0:0:
365,176,186474,1,0,0:0:0:0:
365,176,186541,1,0,0:0:0:0:
365,176,186607,1,0,0:0:0:0:
183,68,186741,5,0,0:0:0:0:
139,288,186874,1,0,0:0:0:0:
49,154,187008,1,0,0:0:0:0:
268,259,187141,1,0,0:0:0:0:
39,352,187274,1,0,0:0:0:0:
162,179,187408,1,0,0:0:0:0:
206,380,187541,1,0,0:0:0:0:
206,380,187608,1,0,0:0:0:0:
206,380,187674,1,0,0:0:0:0:
295,236,187808,6,0,L|310:354,1,100
277,108,188074,1,0,0:0:0:0:
277,108,188141,1,0,0:0:0:0:
277,108,188208,1,0,0:0:0:0:
460,266,188341,1,0,0:0:0:0:
391,57,188474,1,0,0:0:0:0:
295,236,188608,1,0,0:0:0:0:
295,236,188675,1,0,0:0:0:0:
295,236,188742,1,0,0:0:0:0:
136,165,188874,5,0,0:0:0:0:
55,69,189008,1,0,0:0:0:0:
12,186,189141,1,0,0:0:0:0:
123,93,189274,1,0,0:0:0:0:
0,115,189408,1,0,0:0:0:0:
80,211,189541,1,0,0:0:0:0:
50,40,189674,1,0,0:0:0:0:
50,40,189741,1,0,0:0:0:0:
50,40,189808,1,0,0:0:0:0:
243,77,189941,6,0,L|378:94,1,100
458,259,190208,1,0,0:0:0:0:
452,234,190274,1,0,0:0:0:0:
447,210,190341,1,0,0:0:0:0:
177,150,190474,2,0,L|312:167,1,100
392,332,190741,1,0,0:0:0:0:
386,307,190807,1,0,0:0:0:0:
381,283,190874,1,0,0:0:0:0:
342,80,191008,5,0,0:0:0:0:
255,288,191141,1,0,0:0:0:0:
193,80,191274,1,0,0:0:0:0:
193,80,191341,1,0,0:0:0:0:
193,80,191408,1,0,0:0:0:0:
365,210,191541,1,0,0:0:0:0:
127,281,191674,1,0,0:0:0:0:
271,39,191808,1,0,0:0:0:0:
271,39,191874,1,0,0:0:0:0:
271,39,191941,1,0,0:0:0:0:
466,99,192074,5,0,0:0:0:0:
466,99,192208,2,0,L|472:235,1,100
346,362,192474,2,0,L|350:262,1,100
350,262,192674,1,0,0:0:0:0:
350,262,192741,2,0,L|272:273,1,50
213,356,192874,2,0,L|97:341,1,100
25,251,193141,6,0,L|18:170,3,50
120,203,193408,2,0,L|127:122,3,50
27,109,193674,2,0,L|20:28,3,50
122,12,193941,1,0,0:0:0:0:
122,12,194208,6,0,B|193:27|193:27|250:69,1,129.999994049073
331,178,194474,6,0,L|308:274,1,64.9999970245363
430,186,194608,2,0,L|445:122,1,64.9999970245363
333,185,194741,2,0,L|310:281,1,64.9999970245363
432,193,194875,2,0,L|447:129,1,64.9999970245363
336,192,195008,2,0,L|313:288,1,64.9999970245363
435,200,195142,2,0,L|450:136,1,64.9999970245363
206,134,195274,6,0,L|301:105,1,64.9999970245363
163,44,195408,2,0,L|101:62,1,64.9999970245363
211,128,195541,2,0,L|306:100,1,64.9999970245363
168,39,195675,2,0,L|106:57,1,64.9999970245363
216,122,195808,2,0,L|310:94,1,64.9999970245363
173,32,195942,2,0,L|111:51,1,64.9999970245363
222,117,196074,2,0,L|316:88,1,64.9999970245363
179,27,196208,2,0,L|116:45,1,64.9999970245363
230,263,196341,6,0,L|158:196,1,64.9999970245363
174,345,196475,2,0,L|221:390,1,64.9999970245363
223,262,196608,2,0,L|151:194,1,64.9999970245363
167,343,196742,2,0,L|214:388,1,64.9999970245363
216,261,196875,2,0,L|144:193,1,64.9999970245363
159,343,197009,2,0,L|206:387,1,64.9999970245363
208,258,197141,2,0,L|136:191,1,64.9999970245363
151,341,197275,2,0,L|198:385,1,64.9999970245363
320,348,197408,5,0,0:0:0:0:
308,317,197474,1,0,0:0:0:0:
309,285,197541,1,0,0:0:0:0:
322,256,197607,1,0,0:0:0:0:
346,234,197674,5,0,0:0:0:0:
360,188,197740,1,0,0:0:0:0:
348,141,197807,1,0,0:0:0:0:
315,107,197873,1,0,0:0:0:0:
268,95,197941,2,0,L|194:109,1,64.9999970245363
154,192,198074,2,0,L|90:180,1,64.9999970245363
15,257,198208,1,0,0:0:0:0:
15,305,198274,1,0,0:0:0:0:
41,345,198341,1,0,0:0:0:0:
85,366,198407,1,0,0:0:0:0:
133,361,198474,5,0,0:0:0:0:
155,337,198540,1,0,0:0:0:0:
182,319,198607,1,0,0:0:0:0:
212,306,198673,1,0,0:0:0:0:
243,299,198740,1,0,0:0:0:0:
276,299,198807,1,0,0:0:0:0:
308,305,198873,1,0,0:0:0:0:
338,317,198940,1,0,0:0:0:0:
365,335,199008,1,0,0:0:0:0:
393,350,199074,1,0,0:0:0:0:
426,351,199141,1,0,0:0:0:0:
455,338,199207,1,0,0:0:0:0:
476,313,199274,1,0,0:0:0:0:
485,282,199341,1,0,0:0:0:0:
480,251,199407,1,0,0:0:0:0:
461,224,199474,1,0,0:0:0:0:
433,208,199541,6,0,L|354:222,7,64.9999970245363
263,245,200074,1,0,0:0:0:0:
230,246,200140,1,0,0:0:0:0:
199,237,200207,1,0,0:0:0:0:
173,218,200273,1,0,0:0:0:0:
155,191,200340,1,0,0:0:0:0:
148,160,200407,1,0,0:0:0:0:
151,127,200473,1,0,0:0:0:0:
165,98,200540,1,0,0:0:0:0:
189,76,200608,6,0,L|279:66,3,64.9999970245363
343,119,200874,2,0,L|331:197,1,64.9999970245363
424,162,201008,2,0,L|412:240,1,64.9999970245363
189,308,201141,2,0,L|135:235,3,64.9999970245363
149,153,201407,2,0,L|222:124,1,64.9999970245363
146,61,201541,2,0,L|219:32,1,64.9999970245363
389,191,201674,2,0,L|353:274,3,64.9999970245363
275,303,201940,2,0,L|214:254,1,64.9999970245363
197,352,202074,2,0,L|136:303,1,64.9999970245363
65,247,202208,5,0,0:0:0:0:
60,214,202274,1,0,0:0:0:0:
56,182,202341,1,0,0:0:0:0:
51,150,202407,1,0,0:0:0:0:
82,133,202474,1,0,0:0:0:0:
86,100,202540,1,0,0:0:0:0:
90,68,202607,1,0,0:0:0:0:
95,36,202673,1,0,0:0:0:0:
124,8,202741,6,0,L|259:15,1,100
398,176,203008,2,0,L|298:170,1,100
401,76,203274,6,0,L|396:211,1,100
237,352,203541,2,0,L|240:252,1,100
40,124,203808,5,0,0:0:0:0:
49,219,203941,1,0,0:0:0:0:
145,209,204074,1,0,0:0:0:0:
134,114,204208,1,0,0:0:0:0:
239,29,204341,5,0,0:0:0:0:
230,124,204474,1,0,0:0:0:0:
134,114,204607,1,0,0:0:0:0:
145,19,204741,1,0,0:0:0:0:
230,124,204874,6,0,L|348:104,1,100
291,187,205141,2,0,L|311:305,1,100
227,243,205408,2,0,L|109:263,1,100
166,180,205675,2,0,L|146:62,1,100
328,107,205941,5,0,0:0:0:0:
307,285,206074,1,0,0:0:0:0:
128,259,206208,1,0,0:0:0:0:
149,81,206341,1,0,0:0:0:0:
352,200,206474,5,0,0:0:0:0:
211,310,206607,1,0,0:0:0:0:
103,165,206741,1,0,0:0:0:0:
244,54,206874,1,0,0:0:0:0:
163,353,207008,6,0,L|46:369,1,100
104,208,207274,2,0,L|221:224,1,100
108,290,207541,2,0,L|-9:306,1,100
62,132,207807,2,0,L|179:148,1,100
349,353,208074,6,0,L|466:369,1,100
408,208,208340,2,0,L|291:224,1,100
404,290,208607,2,0,L|521:306,1,100
450,132,208873,2,0,L|333:148,1,100
234,171,209141,5,0,0:0:0:0:
204,169,209207,1,0,0:0:0:0:
178,155,209274,1,0,0:0:0:0:
161,131,209340,1,0,0:0:0:0:
157,101,209407,1,0,0:0:0:0:
167,73,209474,1,0,0:0:0:0:
189,53,209540,1,0,0:0:0:0:
217,44,209607,1,0,0:0:0:0:
246,53,209674,2,0,L|273:101,7,50
324,178,210208,5,0,0:0:0:0:
305,201,210274,1,0,0:0:0:0:
296,229,210341,1,0,0:0:0:0:
297,259,210407,1,0,0:0:0:0:
308,287,210474,1,0,0:0:0:0:
329,308,210541,1,0,0:0:0:0:
355,322,210607,1,0,0:0:0:0:
385,325,210674,1,0,0:0:0:0:
414,317,210741,1,0,0:0:0:0:
438,300,210807,1,0,0:0:0:0:
463,283,210874,5,0,0:0:0:0:
442,261,210940,1,0,0:0:0:0:
427,235,211007,1,0,0:0:0:0:
420,206,211073,1,0,0:0:0:0:
421,176,211140,1,0,0:0:0:0:
429,147,211207,1,0,0:0:0:0:
445,122,211274,6,0,L|376:95,3,50
315,162,211541,2,0,L|245:189,3,50
219,94,211808,2,0,L|149:66,3,50
88,133,212075,2,0,L|18:160,3,50
105,217,212341,5,0,0:0:0:0:
78,246,212407,1,0,0:0:0:0:
72,285,212474,1,0,0:0:0:0:
90,320,212540,1,0,0:0:0:0:
124,340,212607,1,0,0:0:0:0:
163,337,212674,1,0,0:0:0:0:
194,312,212740,1,0,0:0:0:0:
220,282,212807,1,0,0:0:0:0:
257,266,212874,1,0,0:0:0:0:
296,266,212940,1,0,0:0:0:0:
333,282,213007,1,0,0:0:0:0:
360,312,213074,1,0,0:0:0:0:
383,343,213140,1,0,0:0:0:0:
421,350,213207,1,0,0:0:0:0:
454,329,213273,1,0,0:0:0:0:
465,291,213340,1,0,0:0:0:0:
447,257,213408,6,0,B|437:204|437:204|440:124,1,119.999996337891
334,25,213674,1,0,0:0:0:0:
294,13,213740,1,0,0:0:0:0:
252,20,213807,1,0,0:0:0:0:
219,44,213873,1,0,0:0:0:0:
199,80,213940,1,0,0:0:0:0:
196,122,214007,1,0,0:0:0:0:
213,160,214073,1,0,0:0:0:0:
244,188,214141,1,0,0:0:0:0:
274,217,214207,1,0,0:0:0:0:
285,257,214274,1,0,0:0:0:0:
276,297,214340,1,0,0:0:0:0:
248,328,214407,1,0,0:0:0:0:
209,341,214474,1,0,0:0:0:0:
168,333,214540,1,0,0:0:0:0:
136,306,214607,1,0,0:0:0:0:
125,266,214674,1,0,0:0:0:0:
135,226,214741,1,0,0:0:0:0:
163,195,214807,1,0,0:0:0:0:
202,183,214874,1,0,0:0:0:0:
243,191,214941,1,0,0:0:0:0:
274,219,215007,1,0,0:0:0:0:
311,238,215074,1,0,0:0:0:0:
353,238,215141,1,0,0:0:0:0:
390,219,215207,1,0,0:0:0:0:
413,185,215274,1,0,0:0:0:0:
419,143,215341,1,0,0:0:0:0:
404,104,215407,1,0,0:0:0:0:
373,77,215474,1,0,0:0:0:0:
333,66,215541,6,0,L|255:87,1,59.9999981689454
178,115,215674,1,0,0:0:0:0:
161,156,215740,1,0,0:0:0:0:
161,201,215807,1,0,0:0:0:0:
177,242,215873,1,0,0:0:0:0:
208,275,215941,6,0,L|110:268,1,59.9999981689454
231,184,216074,1,0,0:0:0:0:
274,193,216140,1,0,0:0:0:0:
312,217,216207,1,0,0:0:0:0:
338,253,216273,1,0,0:0:0:0:
350,296,216341,6,0,L|418:278,1,59.9999981689454
259,268,216474,1,0,0:0:0:0:
259,312,216540,1,0,0:0:0:0:
233,347,216607,1,0,0:0:0:0:
191,360,216673,1,0,0:0:0:0:
150,344,216741,6,0,L|132:277,1,59.9999981689454
111,200,216874,1,0,0:0:0:0:
107,155,216940,1,0,0:0:0:0:
125,114,217007,1,0,0:0:0:0:
160,87,217073,1,0,0:0:0:0:
204,78,217141,6,0,L|274:88,1,59.9999981689454
424,111,217274,2,0,L|364:103,1,59.9999981689454
295,167,217408,1,0,0:0:0:0:
270,220,217474,1,0,0:0:0:0:
291,274,217541,1,0,0:0:0:0:
344,298,217607,1,0,0:0:0:0:
399,277,217674,6,0,L|425:218,1,59.9999981689454
387,174,217808,2,0,L|425:226,1,59.9999981689454
482,215,217941,2,0,L|417:222,1,59.9999981689454
265,41,218074,5,0,0:0:0:0:
265,41,218141,1,0,0:0:0:0:
265,41,218208,2,0,L|200:48,1,59.9999981689454
181,103,218342,2,0,L|206:43,1,59.9999981689454
169,1,218475,2,0,L|207:53,1,59.9999981689454
120,259,218608,5,0,0:0:0:0:
120,259,218675,1,0,0:0:0:0:
120,259,218742,2,0,L|159:311,1,59.9999981689454
216,301,218876,2,0,L|151:309,1,59.9999981689454
134,362,219009,6,0,L|159:303,1,59.9999981689454
219,172,219141,2,0,L|195:227,1,59.9999981689454
82,263,219274,2,0,L|107:203,1,59.9999981689454
166,72,219406,2,0,L|142:127,1,59.9999981689454
258,34,219541,2,0,B|325:26|325:26|386:37,1,119.999996337891
320,233,219808,5,0,0:0:0:0:
320,102,219941,1,0,0:0:0:0:
432,168,220074,1,0,0:0:0:0:
282,168,220208,5,0,0:0:0:0:
395,102,220341,1,0,0:0:0:0:
394,232,220474,1,0,0:0:0:0:
310,383,220608,5,0,0:0:0:0:
310,252,220741,1,0,0:0:0:0:
198,318,220874,1,0,0:0:0:0:
347,318,221008,5,0,0:0:0:0:
234,252,221141,1,0,0:0:0:0:
235,382,221274,5,0,0:0:0:0:
235,382,221341,1,0,0:0:0:0:
235,382,221408,6,0,L|296:371,1,50
277,2,221674,2,0,L|216:13,1,50
256,192,228229,12,0,232076,0:0:0:0:
68,99,232142,5,0,0:0:0:0:
68,99,232207,1,0,0:0:0:0:
68,99,232272,1,0,0:0:0:0:
68,99,232337,1,0,0:0:0:0:
68,99,232402,2,0,B|148:92|148:92|187:115|187:115|289:107,1,200
204,43,232750,2,0,L|285:37,1,66.6666666666667
352,92,232924,2,0,B|318:164|318:164|278:187|278:187|234:279,1,200
332,237,233272,2,0,L|296:310,1,66.6666666666667
215,339,233446,6,0,B|148:238,1,100
8,167,233707,2,0,B|63:250,1,100
63,29,233968,1,0,0:0:0:0:
63,29,234489,5,0,0:0:0:0:
102,14,234554,1,0,0:0:0:0:
143,13,234619,1,0,0:0:0:0:
183,27,234684,1,0,0:0:0:0:
216,53,234749,1,0,0:0:0:0:
238,88,234815,1,0,0:0:0:0:
246,129,234880,1,0,0:0:0:0:
240,170,234945,1,0,0:0:0:0:
221,207,235010,1,0,0:0:0:0:
199,243,235076,1,0,0:0:0:0:
191,284,235141,1,0,0:0:0:0:
199,325,235206,1,0,0:0:0:0:
221,360,235271,1,0,0:0:0:0:
255,384,235337,1,0,0:0:0:0:
295,394,235402,1,0,0:0:0:0:
337,389,235467,1,0,0:0:0:0:
373,368,235532,1,0,0:0:0:0:
399,336,235597,1,0,0:0:0:0:
412,296,235663,1,0,0:0:0:0:
409,255,235728,1,0,0:0:0:0:
398,214,235794,1,0,0:0:0:0:
401,172,235859,1,0,0:0:0:0:
416,134,235924,1,0,0:0:0:0:
445,103,235989,1,0,0:0:0:0:
486,83,236055,6,0,L|504:165,1,59.9999981689454
368,86,236185,2,0,L|380:27,1,59.9999981689454
280,143,236315,2,0,L|298:225,1,59.9999981689454
162,146,236445,2,0,L|174:87,1,59.9999981689454
39,119,236576,5,0,0:0:0:0:
56,157,236641,1,0,0:0:0:0:
62,198,236706,1,0,0:0:0:0:
58,240,236771,1,0,0:0:0:0:
43,279,236837,2,0,L|129:286,1,59.9999981689454
200,373,236968,2,0,L|140:368,1,59.9999981689454
220,284,237098,5,0,0:0:0:0:
260,292,237163,1,0,0:0:0:0:
300,279,237228,1,0,0:0:0:0:
329,250,237293,1,0,0:0:0:0:
340,210,237359,2,0,L|319:138,1,59.9999981689454
394,54,237489,2,0,L|411:111,1,59.9999981689454
436,198,237620,5,0,0:0:0:0:
452,236,237685,1,0,0:0:0:0:
451,277,237750,1,0,0:0:0:0:
432,314,237815,1,0,0:0:0:0:
398,339,237881,2,0,L|318:349,1,59.9999981689454
269,243,238011,2,0,L|349:252,1,59.9999981689454
184,337,238142,5,0,0:0:0:0:
162,300,238207,1,0,0:0:0:0:
153,260,238272,1,0,0:0:0:0:
156,218,238337,1,0,0:0:0:0:
171,179,238402,1,0,0:0:0:0:
198,147,238467,1,0,0:0:0:0:
205,106,238532,1,0,0:0:0:0:
192,67,238597,1,0,0:0:0:0:
156,36,238663,5,0,0:0:0:0:
199,23,238728,1,0,0:0:0:0:
243,19,238793,1,0,0:0:0:0:
288,26,238858,1,0,0:0:0:0:
330,42,238924,2,0,L|336:136,1,59.9999981689454
436,168,239055,2,0,L|439:108,1,59.9999981689454
336,192,239185,5,0,0:0:0:0:
331,236,239250,1,0,0:0:0:0:
341,279,239315,1,0,0:0:0:0:
367,316,239380,1,0,0:0:0:0:
404,342,239446,2,0,L|308:352,1,59.9999981689454
248,248,239576,2,0,L|344:257,1,59.9999981689454
212,348,239707,5,0,0:0:0:0:
168,337,239772,1,0,0:0:0:0:
134,309,239837,1,0,0:0:0:0:
115,268,239902,1,0,0:0:0:0:
116,223,239968,2,0,L|132:160,1,59.9999981689454
28,96,240098,2,0,L|42:154,1,59.9999981689454
112,56,240229,5,0,0:0:0:0:
147,33,240294,1,0,0:0:0:0:
187,22,240359,1,0,0:0:0:0:
229,22,240424,1,0,0:0:0:0:
269,34,240489,1,0,0:0:0:0:
304,58,240555,1,0,0:0:0:0:
330,90,240620,1,0,0:0:0:0:
347,128,240685,1,0,0:0:0:0:
344,172,240750,5,0,0:0:0:0:
300,161,240815,1,0,0:0:0:0:
258,173,240880,1,0,0:0:0:0:
227,206,240945,1,0,0:0:0:0:
218,249,241011,2,0,L|140:236,1,59.9999981689454
269,335,241142,2,0,L|347:321,1,59.9999981689454
411,305,241272,5,0,0:0:0:0:
396,262,241337,1,0,0:0:0:0:
399,218,241402,1,0,0:0:0:0:
419,178,241467,1,0,0:0:0:0:
454,149,241533,2,0,L|443:67,1,59.9999981689454
373,10,241663,2,0,L|364:69,1,59.9999981689454
305,138,241794,5,0,0:0:0:0:
278,102,241859,1,0,0:0:0:0:
236,88,241924,1,0,0:0:0:0:
194,101,241989,1,0,0:0:0:0:
167,136,242055,2,0,L|157:55,1,59.9999981689454
178,264,242185,1,0,0:0:0:0:
151,228,242250,1,0,0:0:0:0:
109,214,242315,1,0,0:0:0:0:
67,227,242380,1,0,0:0:0:0:
40,262,242446,2,0,L|29:180,1,59.9999981689454
48,362,242576,1,0,0:0:0:0:
58,357,242837,5,0,0:0:0:0:
453,27,243228,5,0,0:0:0:0:
450,39,243881,6,0,L|442:103,1,50
340,176,244011,2,0,L|346:127,1,50
455,46,244142,6,0,L|445:109,1,50
341,179,244272,2,0,L|349:130,1,50
460,53,244402,6,0,L|447:116,1,50
341,182,244532,2,0,L|351:133,1,50
287,37,244663,5,0,0:0:0:0:
239,23,244728,1,0,0:0:0:0:
191,34,244793,1,0,0:0:0:0:
154,67,244858,1,0,0:0:0:0:
137,114,244924,6,0,B|145:168|145:168|128:250,1,100
46,324,245185,2,0,P|92:329|168:371,1,100
281,369,245446,2,0,L|410:349,1,100
440,224,245707,2,0,L|341:239,1,100
307,41,245968,6,0,B|351:29|351:29|427:35,1,100
328,151,246228,2,0,B|273:155|273:155|229:143,1,100
105,40,246489,2,0,B|149:28|149:28|225:34,1,100
126,150,246749,2,0,B|71:154|71:154|27:142,1,100
56,248,247011,6,0,L|43:367,1,100
169,285,247272,2,0,L|182:404,1,100
304,248,247533,2,0,L|291:367,1,100
408,284,247794,2,0,L|421:403,1,100
372,22,248055,5,0,0:0:0:0:
394,187,248185,1,0,0:0:0:0:
359,40,248315,1,0,0:0:0:0:
324,231,248446,1,0,0:0:0:0:
189,171,248576,5,0,0:0:0:0:
189,46,248707,1,0,0:0:0:0:
297,108,248837,2,0,P|291:160|315:243,1,100
181,289,249098,6,0,P|126:277|69:314,1,100
10,201,249359,2,0,L|14:82,1,100
128,21,249620,2,0,B|165:34|165:34|235:28,1,100
297,108,249881,2,0,B|334:95|334:95|404:101,1,100
425,304,250142,6,0,L|409:192,1,100
312,348,250402,2,0,B|303:297|303:297|316:220,1,100
187,372,250663,2,0,L|213:227,1,100
130,159,250924,2,0,L|112:257,1,100
37,71,251185,5,0,0:0:0:0:
76,41,251250,1,0,0:0:0:0:
125,30,251315,1,0,0:0:0:0:
174,38,251380,1,0,0:0:0:0:
215,65,251445,1,0,0:0:0:0:
243,106,251511,1,0,0:0:0:0:
272,146,251576,1,0,0:0:0:0:
316,170,251641,1,0,0:0:0:0:
365,174,251707,6,0,L|363:251,1,50
445,157,251837,2,0,L|443:107,1,50
449,241,251968,1,0,0:0:0:0:
449,290,252033,1,0,0:0:0:0:
422,331,252098,1,0,0:0:0:0:
376,348,252163,1,0,0:0:0:0:
328,337,252228,6,0,B|271:328|271:328|201:343,1,100
111,264,252489,2,0,B|120:207|120:207|105:137,1,100
184,47,252750,2,0,B|241:56|241:56|311:41,1,100
401,120,253011,2,0,B|392:177|392:177|407:247,1,100
229,336,253272,6,0,L|350:345,1,100
93,334,253533,1,0,0:0:0:0:
93,334,253598,1,0,0:0:0:0:
93,334,253663,1,0,0:0:0:0:
237,240,253794,2,0,B|219:293|219:293|232:349,1,100
111,218,254055,1,0,0:0:0:0:
111,218,254120,1,0,0:0:0:0:
111,218,254185,1,0,0:0:0:0:
30,109,254315,6,0,L|46:8,1,100
196,106,254576,1,0,0:0:0:0:
172,115,254641,1,0,0:0:0:0:
149,124,254706,1,0,0:0:0:0:
314,71,254837,2,0,L|432:84,1,100
357,256,255098,1,0,0:0:0:0:
346,233,255163,1,0,0:0:0:0:
336,210,255228,1,0,0:0:0:0:
405,372,255359,6,0,B|337:365|337:365|264:379,1,100
141,272,255620,1,0,0:0:0:0:
141,272,255685,1,0,0:0:0:0:
141,272,255750,1,0,0:0:0:0:
286,336,255881,2,0,L|339:234,1,100
423,127,256142,1,0,0:0:0:0:
423,127,256207,1,0,0:0:0:0:
423,127,256272,1,0,0:0:0:0:
332,25,256402,5,0,0:0:0:0:
242,181,256533,1,0,0:0:0:0:
159,33,256663,1,0,0:0:0:0:
159,33,256728,1,0,0:0:0:0:
159,33,256794,1,0,0:0:0:0:
327,57,256924,2,0,B|336:118|336:118|324:201,1,100
251,283,257185,1,0,0:0:0:0:
244,331,257250,1,0,0:0:0:0:
272,370,257315,1,0,0:0:0:0:
320,378,257380,1,0,0:0:0:0:
360,350,257446,6,0,P|366:301|419:239,1,100
441,330,257707,1,0,0:0:0:0:
441,330,257772,1,0,0:0:0:0:
441,330,257837,1,0,0:0:0:0:
322,194,257968,2,0,L|198:211,1,100
66,246,258228,1,0,0:0:0:0:
66,246,258294,1,0,0:0:0:0:
66,246,258359,1,0,0:0:0:0:
133,82,258489,6,0,B|77:68|77:68|20:78,1,100
206,242,258750,1,0,0:0:0:0:
206,242,258815,1,0,0:0:0:0:
206,242,258881,1,0,0:0:0:0:
284,99,259011,2,0,L|276:-10,1,100
397,99,259272,1,0,0:0:0:0:
398,123,259337,1,0,0:0:0:0:
400,148,259402,1,0,0:0:0:0:
419,273,259533,6,0,B|368:273|368:273|317:298,1,100
399,362,259794,1,0,0:0:0:0:
399,362,259859,1,0,0:0:0:0:
399,362,259924,1,0,0:0:0:0:
315,218,260055,2,0,L|210:209,1,100
51,201,260315,1,0,0:0:0:0:
51,201,260381,1,0,0:0:0:0:
51,201,260446,1,0,0:0:0:0:
135,61,260576,5,0,0:0:0:0:
159,305,260707,1,0,0:0:0:0:
159,305,260772,1,0,0:0:0:0:
159,305,260837,1,0,0:0:0:0:
328,177,260968,1,0,0:0:0:0:
328,177,261033,1,0,0:0:0:0:
328,177,261098,1,0,0:0:0:0:
120,173,261228,1,0,0:0:0:0:
120,173,261294,1,0,0:0:0:0:
120,173,261359,1,0,0:0:0:0:
294,288,261489,1,0,0:0:0:0:
294,288,261555,1,0,0:0:0:0:
294,288,261620,6,0,P|348:280|430:297,1,100
445,168,261881,2,0,L|471:107,2,50
386,34,262142,2,0,L|259:20,1,100
168,68,262402,1,0,0:0:0:0:
168,68,262468,1,0,0:0:0:0:
168,68,262533,1,0,0:0:0:0:
300,213,262663,6,0,L|290:82,1,100
162,276,262924,1,0,0:0:0:0:
182,262,262989,1,0,0:0:0:0:
205,267,263054,1,0,0:0:0:0:
305,367,263185,2,0,L|163:371,1,100
61,302,263446,1,0,0:0:0:0:
61,302,263511,1,0,0:0:0:0:
61,302,263576,1,0,0:0:0:0:
211,166,263707,6,0,L|315:220,1,100
449,310,263968,1,0,0:0:0:0:
449,310,264033,1,0,0:0:0:0:
449,310,264098,1,0,0:0:0:0:
327,94,264228,2,0,B|320:142|320:142|324:213,1,100
449,91,264489,1,0,0:0:0:0:
452,66,264554,1,0,0:0:0:0:
455,41,264619,1,0,0:0:0:0:
430,217,264750,5,0,0:0:0:0:
342,65,264881,1,0,0:0:0:0:
295,264,265011,2,0,L|278:324,2,50
255,19,265272,2,0,B|291:25|291:25|377:91,1,100
135,98,265533,1,0,0:0:0:0:
130,73,265598,1,0,0:0:0:0:
126,48,265663,1,0,0:0:0:0:
46,170,265794,6,0,B|55:214|55:214|45:289,1,100
122,362,266055,1,0,0:0:0:0:
122,362,266120,1,0,0:0:0:0:
122,362,266185,1,0,0:0:0:0:
230,249,266315,2,0,L|116:257,1,100
363,256,266576,1,0,0:0:0:0:
363,256,266642,1,0,0:0:0:0:
363,256,266707,1,0,0:0:0:0:
269,86,266837,5,0,0:0:0:0:
269,86,266902,1,0,0:0:0:0:
269,86,266968,1,0,0:0:0:0:
269,86,267033,1,0,0:0:0:0:
269,86,267098,2,0,B|319:73|319:73|406:84,1,100
157,233,267359,1,0,0:0:0:0:
157,233,267424,1,0,0:0:0:0:
157,233,267489,2,0,B|121:196|121:196|94:108,2,100
246,199,267881,5,0,0:0:0:0:
294,209,267946,1,0,0:0:0:0:
327,245,268011,1,0,0:0:0:0:
332,294,268076,1,0,0:0:0:0:
308,337,268141,1,0,0:0:0:0:
264,358,268207,1,0,0:0:0:0:
216,350,268272,2,0,B|151:344|151:344|90:356,1,100
30,255,268533,5,0,0:0:0:0:
50,209,268598,1,0,0:0:0:0:
53,159,268663,1,0,0:0:0:0:
38,112,268728,1,0,0:0:0:0:
7,73,268794,2,0,L|134:62,1,100
255,281,269055,5,0,0:0:0:0:
436,176,269185,1,0,0:0:0:0:
255,70,269315,1,0,0:0:0:0:
386,345,269446,5,0,0:0:0:0:
425,315,269511,1,0,0:0:0:0:
449,271,269576,1,0,0:0:0:0:
452,222,269641,1,0,0:0:0:0:
436,176,269707,5,0,0:0:0:0:
424,171,269772,1,0,0:0:0:0:
412,167,269837,1,0,0:0:0:0:
400,163,269902,1,0,0:0:0:0:
389,158,269968,6,0,B|340:140|340:140|272:148,1,110.000003356934
168,276,270228,1,0,0:0:0:0:
168,276,270294,1,0,0:0:0:0:
168,276,270359,1,0,0:0:0:0:
36,160,270489,2,0,L|56:36,1,110.000003356934
20,304,270750,1,0,0:0:0:0:
20,304,270815,1,0,0:0:0:0:
20,304,270881,1,0,0:0:0:0:
172,360,271011,6,0,B|220:348|220:348|296:352,1,110.000003356934
444,276,271272,1,0,0:0:0:0:
439,289,271337,1,0,0:0:0:0:
435,302,271402,1,0,0:0:0:0:
320,88,271533,5,0,0:0:0:0:
320,88,271663,2,0,B|340:180|340:180|316:212|316:212|336:320,1,220.000006713867
249,157,272055,6,0,B|185:146|185:146|118:169,1,119.999996337891
397,237,272315,1,0,0:0:0:0:
397,237,272381,1,0,0:0:0:0:
397,237,272446,1,0,0:0:0:0:
285,42,272576,2,0,L|235:197,1,119.999996337891
173,370,272837,1,0,0:0:0:0:
182,341,272902,1,0,0:0:0:0:
191,312,272967,1,0,0:0:0:0:
382,350,273098,6,0,L|245:365,1,119.999996337891
403,255,273359,1,0,0:0:0:0:
432,258,273424,1,0,0:0:0:0:
462,261,273489,1,0,0:0:0:0:
224,234,273620,5,0,0:0:0:0:
224,234,273750,2,0,B|280:120|168:132|234:-5,1,239.999992675781
164,175,274142,6,0,L|46:180,1,110.000003356934
299,78,274402,1,0,0:0:0:0:
299,78,274468,1,0,0:0:0:0:
299,78,274533,1,0,0:0:0:0:
373,185,274663,2,0,B|357:253|357:253|378:303,1,110.000003356934
481,170,274924,1,0,0:0:0:0:
476,142,274989,1,0,0:0:0:0:
472,115,275054,1,0,0:0:0:0:
294,314,275185,2,0,P|237:307|176:280,1,110.000003356934
283,115,275446,1,0,0:0:0:0:
283,115,275511,1,0,0:0:0:0:
283,115,275576,1,0,0:0:0:0:
294,314,275707,5,0,0:0:0:0:
294,314,275837,2,0,B|216:292|216:292|168:320|168:320|64:296,1,220.000006713867
136,40,276228,6,0,L|156:260,1,200
208,72,276576,2,0,L|220:184,1,66.6666666666667
271,22,276750,2,0,L|298:241,1,200
348,62,277098,2,0,L|363:173,1,66.6666666666667
459,86,277272,6,0,L|442:213,1,100
432,322,277533,1,0,0:0:0:0:
395,314,277598,1,0,0:0:0:0:
358,316,277663,1,0,0:0:0:0:
323,329,277728,1,0,0:0:0:0:
292,351,277794,2,0,L|232:331,3,50
288,264,278055,2,0,L|283:203,1,50
213,186,278185,2,0,L|208:125,1,50
121,115,278315,6,0,L|52:215,1,100
203,16,278576,1,0,0:0:0:0:
203,16,278641,1,0,0:0:0:0:
203,16,278706,1,0,0:0:0:0:
213,186,278837,2,0,B|176:143|176:143|121:127,1,100
305,53,279098,1,0,0:0:0:0:
305,53,279163,1,0,0:0:0:0:
305,53,279228,1,0,0:0:0:0:
440,37,279358,6,0,L|520:102,1,100
360,183,279619,1,0,0:0:0:0:
364,157,279684,1,0,0:0:0:0:
368,133,279749,1,0,0:0:0:0:
331,302,279880,2,0,L|261:398,1,100
150,247,280141,1,0,0:0:0:0:
175,249,280206,1,0,0:0:0:0:
200,252,280271,1,0,0:0:0:0:
25,231,280402,6,0,B|65:175|65:175|66:111,1,100
244,52,280663,1,0,0:0:0:0:
244,52,280728,1,0,0:0:0:0:
244,52,280793,1,0,0:0:0:0:
116,145,280924,2,0,L|178:242,1,100
228,369,281185,1,0,0:0:0:0:
228,369,281250,1,0,0:0:0:0:
228,369,281315,1,0,0:0:0:0:
362,341,281445,5,0,0:0:0:0:
272,185,281576,1,0,0:0:0:0:
442,187,281706,1,0,0:0:0:0:
442,187,281771,1,0,0:0:0:0:
442,187,281837,1,0,0:0:0:0:
337,320,281967,2,0,B|280:298|280:298|214:246,1,100
179,142,282228,1,0,0:0:0:0:
141,112,282293,1,0,0:0:0:0:
93,116,282358,1,0,0:0:0:0:
62,154,282423,1,0,0:0:0:0:
67,203,282489,6,0,P|106:232|133:309,1,100
43,283,282750,1,0,0:0:0:0:
43,283,282815,1,0,0:0:0:0:
43,283,282880,1,0,0:0:0:0:
221,248,283011,2,0,L|268:132,1,100
304,0,283271,1,0,0:0:0:0:
304,0,283337,1,0,0:0:0:0:
304,0,283402,1,0,0:0:0:0:
412,140,283532,6,0,B|452:98|452:98|472:44,1,100
237,123,283793,1,0,0:0:0:0:
237,123,283858,1,0,0:0:0:0:
237,123,283924,1,0,0:0:0:0:
322,262,284054,2,0,L|420:310,1,100
266,360,284315,1,0,0:0:0:0:
244,349,284380,1,0,0:0:0:0:
222,338,284445,1,0,0:0:0:0:
104,292,284576,6,0,B|129:248|129:248|133:191,1,100
37,230,284837,1,0,0:0:0:0:
37,230,284902,1,0,0:0:0:0:
37,230,284967,1,0,0:0:0:0:
203,230,285098,2,0,L|264:143,1,100
350,9,285358,1,0,0:0:0:0:
350,9,285424,1,0,0:0:0:0:
350,9,285489,1,0,0:0:0:0:
449,93,285620,5,0,0:0:0:0:
452,130,285685,1,0,0:0:0:0:
455,167,285750,1,0,0:0:0:0:
458,205,285815,1,0,0:0:0:0:
461,242,285881,2,0,L|467:305,3,50
363,186,286142,1,0,0:0:0:0:
359,223,286207,1,0,0:0:0:0:
356,260,286272,1,0,0:0:0:0:
353,298,286337,1,0,0:0:0:0:
350,335,286403,2,0,L|341:398,3,50
218,288,286663,6,0,P|164:280|82:297,1,100
67,168,286924,1,0,0:0:0:0:
57,145,286989,1,0,0:0:0:0:
47,122,287054,1,0,0:0:0:0:
126,34,287185,2,0,L|253:20,1,100
344,68,287445,1,0,0:0:0:0:
344,68,287511,1,0,0:0:0:0:
344,68,287576,1,0,0:0:0:0:
212,213,287706,6,0,L|222:82,1,100
350,276,287967,1,0,0:0:0:0:
350,276,288033,1,0,0:0:0:0:
350,276,288098,1,0,0:0:0:0:
207,367,288228,2,0,L|349:371,1,100
451,302,288489,1,0,0:0:0:0:
451,302,288554,1,0,0:0:0:0:
451,302,288619,1,0,0:0:0:0:
301,166,288750,6,0,L|197:220,1,100
63,310,289011,1,0,0:0:0:0:
63,310,289076,1,0,0:0:0:0:
63,310,289141,1,0,0:0:0:0:
185,94,289271,2,0,B|192:142|192:142|188:213,1,100
63,91,289532,1,0,0:0:0:0:
60,66,289597,1,0,0:0:0:0:
57,41,289662,1,0,0:0:0:0:
82,217,289793,5,0,0:0:0:0:
170,65,289924,1,0,0:0:0:0:
217,264,290054,2,0,L|234:324,2,50
257,19,290315,2,0,B|221:25|221:25|135:91,1,100
377,98,290576,1,0,0:0:0:0:
382,73,290641,1,0,0:0:0:0:
386,48,290706,1,0,0:0:0:0:
466,170,290837,6,0,B|457:214|457:214|467:289,1,100
390,362,291098,1,0,0:0:0:0:
390,362,291163,1,0,0:0:0:0:
390,362,291228,1,0,0:0:0:0:
282,249,291358,2,0,L|396:257,1,100
174,250,291619,1,0,0:0:0:0:
174,250,291685,1,0,0:0:0:0:
174,250,291750,1,0,0:0:0:0:
59,242,291881,5,0,0:0:0:0:
47,193,291946,1,0,0:0:0:0:
58,145,292011,1,0,0:0:0:0:
89,106,292076,1,0,0:0:0:0:
134,85,292142,2,0,L|237:117,1,100
386,180,292402,1,0,0:0:0:0:
386,180,292468,1,0,0:0:0:0:
386,180,292533,2,0,L|481:209,2,100
200,349,292924,5,0,0:0:0:0:
192,308,292989,1,0,0:0:0:0:
206,270,293054,1,0,0:0:0:0:
239,245,293119,1,0,0:0:0:0:
280,241,293184,1,0,0:0:0:0:
317,260,293250,1,0,0:0:0:0:
338,293,293315,2,0,L|457:269,1,100
267,317,293576,1,0,0:0:0:0:
179,199,293707,1,0,0:0:0:0:
179,199,293772,1,0,0:0:0:0:
179,199,293837,2,0,B|170:147|170:147|188:82,1,100
389,235,294098,5,0,0:0:0:0:
391,75,294228,1,0,0:0:0:0:
252,153,294359,1,0,0:0:0:0:
411,271,294489,5,0,0:0:0:0:
422,318,294554,1,0,0:0:0:0:
398,361,294619,1,0,0:0:0:0:
352,376,294684,1,0,0:0:0:0:
307,356,294749,1,0,0:0:0:0:
263,333,294815,1,0,0:0:0:0:
214,330,294880,1,0,0:0:0:0:
168,348,294945,1,0,0:0:0:0:
133,384,295011,6,0,L|19:357,1,110.000003356934
205,243,295272,1,0,0:0:0:0:
205,243,295337,1,0,0:0:0:0:
205,243,295402,1,0,0:0:0:0:
39,202,295533,2,0,B|27:144|27:144|39:83,1,110.000003356934
179,19,295794,2,0,L|247:37,2,55.0000016784668
337,77,296055,2,0,B|317:115|317:115|338:219,1,110.000003356934
479,265,296315,1,0,0:0:0:0:
474,237,296380,1,0,0:0:0:0:
470,210,296445,1,0,0:0:0:0:
232,345,296576,5,0,0:0:0:0:
232,345,296707,2,0,B|290:328|290:328|465:362,1,220.000006713867
218,258,297098,5,0,0:0:0:0:
176,281,297163,1,0,0:0:0:0:
129,286,297228,1,0,0:0:0:0:
83,271,297293,1,0,0:0:0:0:
48,239,297358,1,0,0:0:0:0:
28,196,297424,1,0,0:0:0:0:
28,148,297489,1,0,0:0:0:0:
47,104,297554,1,0,0:0:0:0:
82,72,297619,5,0,0:0:0:0:
127,59,297685,1,0,0:0:0:0:
174,69,297750,1,0,0:0:0:0:
209,100,297815,1,0,0:0:0:0:
226,145,297880,1,0,0:0:0:0:
206,189,297946,1,0,0:0:0:0:
188,233,298011,1,0,0:0:0:0:
191,280,298076,1,0,0:0:0:0:
215,321,298141,5,0,0:0:0:0:
254,348,298206,1,0,0:0:0:0:
301,354,298272,1,0,0:0:0:0:
347,339,298337,1,0,0:0:0:0:
381,306,298402,1,0,0:0:0:0:
396,261,298467,1,0,0:0:0:0:
391,214,298532,1,0,0:0:0:0:
365,174,298598,1,0,0:0:0:0:
320,156,298663,5,0,0:0:0:0:
473,75,298794,2,0,B|495:174|495:174|484:340,1,239.999992675781
352,341,299185,6,0,L|266:318,1,64.9999970245363
192,198,299315,2,0,L|254:214,1,64.9999970245363
341,347,299446,2,0,L|257:318,1,64.9999970245363
191,193,299576,2,0,L|253:214,1,64.9999970245363
330,352,299707,2,0,L|248:318,1,64.9999970245363
191,189,299837,2,0,L|251:214,1,64.9999970245363
318,357,299968,2,0,L|239:317,1,64.9999970245363
192,184,300098,2,0,L|250:214,1,64.9999970245363
307,361,300228,2,0,L|230:315,1,64.9999970245363
192,180,300358,2,0,L|248:213,1,64.9999970245363
295,364,300489,2,0,L|222:313,1,64.9999970245363
193,175,300619,2,0,L|247:213,1,64.9999970245363
72,254,300750,5,0,0:0:0:0:
160,68,300881,2,0,B|272:84|272:84|296:132|296:132|416:152,1,259.999988098145
419,292,301272,6,0,P|359:275|228:349,1,200
154,315,301620,1,0,0:0:0:0:
209,248,301707,1,0,0:0:0:0:
239,330,301794,2,0,P|285:262|221:166,1,200
139,116,302142,1,0,0:0:0:0:
139,223,302228,1,0,0:0:0:0:
231,169,302315,2,0,L|295:186,3,50
289,99,302576,2,0,L|337:86,3,50
413,63,302837,5,0,0:0:0:0:
99,321,303359,5,0,0:0:0:0:
133,292,303424,1,0,0:0:0:0:
152,252,303489,1,0,0:0:0:0:
151,207,303554,1,0,0:0:0:0:
131,167,303620,2,0,L|201:154,1,59.9999981689454
292,243,303750,2,0,L|222:229,1,59.9999981689454
304,153,303881,5,0,0:0:0:0:
346,164,303946,1,0,0:0:0:0:
379,195,304011,1,0,0:0:0:0:
392,238,304076,1,0,0:0:0:0:
384,281,304142,2,0,L|457:277,1,59.9999981689454
339,360,304272,2,0,L|266:355,1,59.9999981689454
183,351,304402,5,0,0:0:0:0:
189,306,304467,1,0,0:0:0:0:
175,264,304532,1,0,0:0:0:0:
144,232,304597,1,0,0:0:0:0:
101,218,304663,2,0,L|90:155,1,59.9999981689454
190,156,304794,2,0,L|201:92,1,59.9999981689454
281,61,304924,5,0,0:0:0:0:
320,46,304989,1,0,0:0:0:0:
361,51,305054,1,0,0:0:0:0:
396,73,305119,1,0,0:0:0:0:
417,109,305184,1,0,0:0:0:0:
420,151,305250,1,0,0:0:0:0:
404,189,305315,1,0,0:0:0:0:
373,217,305380,1,0,0:0:0:0:
331,224,305446,5,0,0:0:0:0:
307,261,305511,1,0,0:0:0:0:
309,305,305576,1,0,0:0:0:0:
336,340,305641,1,0,0:0:0:0:
379,353,305707,2,0,L|446:342,1,59.9999981689454
502,257,305837,2,0,L|442:267,1,59.9999981689454
307,261,305968,5,0,0:0:0:0:
270,236,306033,1,0,0:0:0:0:
246,199,306098,1,0,0:0:0:0:
239,155,306163,1,0,0:0:0:0:
252,112,306228,2,0,L|174:93,1,59.9999981689454
87,190,306359,2,0,L|165:170,1,59.9999981689454
326,180,306489,5,0,0:0:0:0:
363,204,306554,1,0,0:0:0:0:
383,243,306619,1,0,0:0:0:0:
379,288,306684,1,0,0:0:0:0:
353,324,306750,2,0,L|287:312,1,59.9999981689454
177,384,306881,2,0,L|243:371,1,59.9999981689454
106,332,307011,5,0,0:0:0:0:
74,304,307076,1,0,0:0:0:0:
59,266,307141,1,0,0:0:0:0:
64,224,307206,1,0,0:0:0:0:
87,190,307272,1,0,0:0:0:0:
113,158,307337,1,0,0:0:0:0:
122,117,307402,1,0,0:0:0:0:
111,77,307467,1,0,0:0:0:0:
83,46,307533,5,0,0:0:0:0:
126,32,307598,1,0,0:0:0:0:
171,30,307663,1,0,0:0:0:0:
215,40,307728,1,0,0:0:0:0:
254,60,307794,2,0,L|242:137,1,59.9999981689454
334,196,307924,2,0,L|324:136,1,59.9999981689454
248,244,308055,5,0,0:0:0:0:
287,264,308120,1,0,0:0:0:0:
305,304,308185,1,0,0:0:0:0:
295,347,308250,1,0,0:0:0:0:
261,375,308315,2,0,L|200:364,1,59.9999981689454
155,248,308446,2,0,L|213:259,1,59.9999981689454
77,341,308576,5,0,0:0:0:0:
56,300,308641,1,0,0:0:0:0:
50,256,308706,1,0,0:0:0:0:
57,212,308771,1,0,0:0:0:0:
78,172,308837,2,0,L|63:96,1,59.9999981689454
142,20,308968,2,0,L|154:78,1,59.9999981689454
225,166,309098,5,0,0:0:0:0:
266,171,309163,1,0,0:0:0:0:
305,158,309228,1,0,0:0:0:0:
336,129,309293,1,0,0:0:0:0:
351,90,309358,1,0,0:0:0:0:
367,52,309424,1,0,0:0:0:0:
404,35,309489,1,0,0:0:0:0:
443,46,309554,1,0,0:0:0:0:
465,81,309620,5,0,0:0:0:0:
469,125,309685,1,0,0:0:0:0:
473,170,309750,1,0,0:0:0:0:
477,215,309815,1,0,0:0:0:0:
481,260,309881,2,0,L|407:264,1,59.9999981689454
347,347,310011,2,0,L|406:344,1,59.9999981689454
312,258,310142,5,0,0:0:0:0:
268,248,310207,1,0,0:0:0:0:
224,257,310272,1,0,0:0:0:0:
189,285,310337,1,0,0:0:0:0:
169,325,310402,2,0,L|105:311,1,59.9999981689454
128,232,310533,2,0,L|87:179,1,59.9999981689454
140,113,310663,5,0,0:0:0:0:
176,65,310728,1,0,0:0:0:0:
229,38,310793,1,0,0:0:0:0:
288,36,310858,1,0,0:0:0:0:
343,59,310924,5,0,0:0:0:0:
323,99,310989,1,0,0:0:0:0:
329,143,311054,1,0,0:0:0:0:
358,176,311119,1,0,0:0:0:0:
400,189,311185,5,0,0:0:0:0:
379,209,311250,1,0,0:0:0:0:
366,236,311315,1,0,0:0:0:0:
364,266,311380,1,0,0:0:0:0:
372,295,311446,5,0,0:0:0:0:
363,306,311511,1,0,0:0:0:0:
357,320,311576,1,0,0:0:0:0:
354,334,311641,1,0,0:0:0:0:
355,348,311707,6,0,B|290:335|290:335|226:348,1,110.000003356934
52,339,311968,1,0,0:0:0:0:
266,261,312098,1,0,0:0:0:0:
85,358,312228,2,0,L|76:204,1,110.000003356934
175,58,312489,1,0,0:0:0:0:
176,85,312554,1,0,0:0:0:0:
178,112,312619,1,0,0:0:0:0:
288,291,312750,1,0,0:0:0:0:
356,98,312881,1,0,0:0:0:0:
153,265,313011,2,0,L|272:304,1,110.000003356934
409,357,313272,5,0,0:0:0:0:
443,334,313337,1,0,0:0:0:0:
461,298,313402,1,0,0:0:0:0:
457,257,313467,1,0,0:0:0:0:
433,224,313532,1,0,0:0:0:0:
400,201,313598,1,0,0:0:0:0:
383,163,313663,1,0,0:0:0:0:
387,123,313728,1,0,0:0:0:0:
410,90,313794,6,0,L|339:99,1,55.0000016784668
340,23,313924,1,0,0:0:0:0:
340,23,313989,1,0,0:0:0:0:
340,23,314055,2,0,L|269:32,1,55.0000016784668
262,111,314185,1,0,0:0:0:0:
262,111,314250,1,0,0:0:0:0:
262,111,314316,2,0,L|191:120,1,55.0000016784668
139,66,314446,1,0,0:0:0:0:
139,66,314511,1,0,0:0:0:0:
139,66,314577,6,0,L|68:75,1,55.0000016784668
0,140,314707,2,0,L|70:149,1,55.0000016784668
147,174,314837,1,0,0:0:0:0:
147,174,314902,1,0,0:0:0:0:
147,174,314968,2,0,L|155:245,1,55.0000016784668
239,284,315098,2,0,L|232:229,1,55.0000016784668
295,133,315228,2,0,L|301:187,1,55.0000016784668
357,266,315359,5,0,0:0:0:0:
409,254,315424,1,0,0:0:0:0:
442,211,315489,1,0,0:0:0:0:
441,157,315554,1,0,0:0:0:0:
406,117,315619,1,0,0:0:0:0:
446,358,315881,6,0,P|384:349|322:366,1,110.000003356934
170,329,316142,1,0,0:0:0:0:
167,301,316207,1,0,0:0:0:0:
165,274,316272,1,0,0:0:0:0:
295,133,316402,5,0,0:0:0:0:
271,303,316533,1,0,0:0:0:0:
186,110,316663,1,0,0:0:0:0:
186,110,316728,1,0,0:0:0:0:
186,110,316794,1,0,0:0:0:0:
353,258,316924,6,0,B|402:246|402:246|453:207,1,110.000003356934
387,118,317185,1,0,0:0:0:0:
381,144,317250,1,0,0:0:0:0:
375,171,317315,1,0,0:0:0:0:
282,356,317446,5,0,0:0:0:0:
166,197,317576,1,0,0:0:0:0:
353,258,317707,1,0,0:0:0:0:
166,318,317837,1,0,0:0:0:0:
282,160,317968,6,0,P|278:102|223:55,1,110.000003356934
97,51,318228,1,0,0:0:0:0:
81,73,318293,1,0,0:0:0:0:
65,95,318358,1,0,0:0:0:0:
139,225,318489,5,0,0:0:0:0:
177,30,318620,1,0,0:0:0:0:
70,179,318750,2,0,B|58:220|58:220|68:295,1,110.000003356934
186,368,319011,2,0,L|259:358,1,55.0000016784668
222,239,319142,2,0,L|194:307,1,55.0000016784668
313,337,319272,1,0,0:0:0:0:
313,337,319337,1,0,0:0:0:0:
313,337,319402,2,0,L|267:278,1,55.0000016784668
309,199,319533,2,0,L|342:242,1,55.0000016784668
406,311,319663,1,0,0:0:0:0:
406,311,319728,1,0,0:0:0:0:
406,311,319794,1,0,0:0:0:0:
87,49,320055,5,0,0:0:0:0:
425,49,320446,5,0,0:0:0:0:
372,363,321098,5,0,0:0:0:0:
371,324,321163,1,0,0:0:0:0:
353,290,321228,1,0,0:0:0:0:
323,267,321293,1,0,0:0:0:0:
286,259,321358,1,0,0:0:0:0:
250,272,321424,1,0,0:0:0:0:
212,266,321489,1,0,0:0:0:0:
182,243,321554,1,0,0:0:0:0:
166,209,321619,1,0,0:0:0:0:
169,171,321685,1,0,0:0:0:0:
192,141,321750,1,0,0:0:0:0:
192,103,321815,1,0,0:0:0:0:
168,73,321881,2,0,L|108:66,1,55.0000016784668
256,43,322011,2,0,L|310:35,1,55.0000016784668
415,71,322142,6,0,B|397:102|397:102|412:176,1,100
469,270,322402,2,0,L|341:283,1,100
218,296,322663,2,0,P|198:244|237:171,1,100
64,77,322924,2,0,P|84:129|45:202,1,100
176,26,323185,6,0,B|228:16|228:16|293:27,1,100
358,152,323446,2,0,B|306:162|306:162|241:151,1,100
293,252,323707,2,0,L|410:221,1,100
330,353,323968,2,0,L|213:322,1,100
100,288,324228,6,0,B|94:249|94:249|110:177,1,100
6,111,324489,2,0,B|19:170|19:170|13:209,1,100
119,46,324750,2,0,P|166:38|232:58,1,100
337,133,325011,2,0,P|385:144|434:136,1,100
362,289,325272,5,0,0:0:0:0:
116,237,325402,1,0,0:0:0:0:
337,262,325533,1,0,0:0:0:0:
203,110,325663,1,0,0:0:0:0:
246,353,325794,1,0,0:0:0:0:
310,152,325924,1,0,0:0:0:0:
159,339,326055,1,0,0:0:0:0:
159,339,326120,1,0,0:0:0:0:
159,339,326185,1,0,0:0:0:0:
19,203,326315,6,0,P|13:138|39:78,1,100
184,139,326576,2,0,L|69:155,1,100
355,119,326837,2,0,P|361:54|335:-6,1,100
190,55,327098,2,0,L|305:71,1,100
467,136,327359,6,0,L|479:238,1,100
376,300,327620,2,0,L|387:200,1,100
427,371,327881,2,0,B|380:378|380:378|299:369,1,100
207,238,328142,2,0,B|254:231|254:231|306:236,1,100
116,340,328402,6,0,P|118:286|80:235,1,100
227,145,328663,2,0,P|203:188|206:237,1,100
293,40,328924,2,0,L|164:52,1,100
324,140,329185,2,0,L|453:152,1,100
471,238,329446,6,0,L|454:302,1,50
433,369,329576,1,0,0:0:0:0:
393,339,329641,1,0,0:0:0:0:
345,327,329706,1,0,0:0:0:0:
296,336,329771,1,0,0:0:0:0:
254,363,329837,6,0,L|189:326,1,50
136,279,329968,1,0,0:0:0:0:
137,228,330033,1,0,0:0:0:0:
119,183,330098,1,0,0:0:0:0:
84,147,330163,1,0,0:0:0:0:
37,130,330229,6,0,L|29:55,1,50
123,23,330359,2,0,L|118:72,1,50
227,84,330489,6,0,B|209:115|209:115|224:189,1,100
281,283,330750,1,0,0:0:0:0:
281,283,330815,1,0,0:0:0:0:
281,283,330881,1,0,0:0:0:0:
141,366,331010,2,0,P|121:314|160:241,1,100
218,157,331272,1,0,0:0:0:0:
218,157,331337,1,0,0:0:0:0:
218,157,331402,1,0,0:0:0:0:
191,25,331532,6,0,B|243:15|243:15|308:26,1,100
394,115,331794,1,0,0:0:0:0:
394,115,331859,1,0,0:0:0:0:
394,115,331924,1,0,0:0:0:0:
404,225,332054,2,0,L|308:251,1,100
226,343,332315,1,0,0:0:0:0:
250,349,332380,1,0,0:0:0:0:
274,355,332445,1,0,0:0:0:0:
119,317,332576,2,0,B|111:257|111:257|127:193,1,100
40,119,332837,1,0,0:0:0:0:
40,119,332902,1,0,0:0:0:0:
40,119,332968,1,0,0:0:0:0:
134,45,333097,2,0,P|181:37|247:57,1,100
372,154,333358,1,0,0:0:0:0:
348,161,333423,1,0,0:0:0:0:
323,165,333488,1,0,0:0:0:0:
239,286,333620,5,0,0:0:0:0:
475,332,333750,1,0,0:0:0:0:
264,268,333881,1,0,0:0:0:0:
472,160,334011,1,0,0:0:0:0:
351,369,334142,1,0,0:0:0:0:
300,142,334272,1,0,0:0:0:0:
454,364,334402,1,0,0:0:0:0:
454,364,334468,1,0,0:0:0:0:
454,364,334533,1,0,0:0:0:0:
218,384,334663,6,0,B|158:367|158:367|115:337,1,100
52,228,334924,1,0,0:0:0:0:
50,203,334989,1,0,0:0:0:0:
48,178,335054,1,0,0:0:0:0:
180,62,335185,2,0,L|66:48,1,100
223,169,335446,1,0,0:0:0:0:
247,165,335511,1,0,0:0:0:0:
272,162,335576,1,0,0:0:0:0:
435,144,335707,5,0,0:0:0:0:
410,171,335772,1,0,0:0:0:0:
400,207,335837,1,0,0:0:0:0:
408,244,335902,1,0,0:0:0:0:
430,273,335968,2,0,L|357:267,1,50
296,346,336098,2,0,L|369:339,1,50
208,262,336228,1,0,0:0:0:0:
208,262,336294,1,0,0:0:0:0:
208,262,336359,2,0,L|212:323,1,50
121,286,336489,1,0,0:0:0:0:
121,286,336750,5,0,0:0:0:0:
96,252,336815,1,0,0:0:0:0:
88,212,336880,1,0,0:0:0:0:
98,172,336945,1,0,0:0:0:0:
125,140,337010,1,0,0:0:0:0:
162,123,337076,1,0,0:0:0:0:
204,123,337142,2,0,B|252:146|252:146|284:193,1,100
168,210,337402,1,0,0:0:0:0:
115,61,337533,2,0,L|178:42,1,50
243,22,337663,1,0,0:0:0:0:
243,22,337924,5,0,0:0:0:0:
365,190,338055,1,0,0:0:0:0:
361,18,338185,1,0,0:0:0:0:
243,138,338315,1,0,0:0:0:0:
219,166,338380,1,0,0:0:0:0:
209,202,338445,1,0,0:0:0:0:
215,239,338510,1,0,0:0:0:0:
235,270,338575,1,0,0:0:0:0:
199,261,338641,1,0,0:0:0:0:
162,264,338706,1,0,0:0:0:0:
129,281,338771,1,0,0:0:0:0:
103,309,338837,6,0,B|145:339|145:339|230:352,1,110.000003356934
339,321,339098,1,0,0:0:0:0:
341,307,339163,1,0,0:0:0:0:
343,293,339228,1,0,0:0:0:0:
232,111,339359,2,0,B|185:132|185:132|131:199,1,110.000003356934
103,309,339620,1,0,0:0:0:0:
114,317,339685,1,0,0:0:0:0:
125,326,339750,1,0,0:0:0:0:
339,321,339881,2,0,B|343:269|343:269|312:189,1,110.000003356934
232,110,340142,1,0,0:0:0:0:
219,115,340207,1,0,0:0:0:0:
206,120,340272,1,0,0:0:0:0:
36,243,340402,5,0,0:0:0:0:
36,243,340533,2,0,B|50:152|50:152|24:118|24:118|42:20,1,220.000006713867
197,10,340924,6,0,B|266:16|266:16|325:46,1,119.999996337891
381,213,341185,1,0,0:0:0:0:
381,213,341250,1,0,0:0:0:0:
381,213,341315,1,0,0:0:0:0:
167,354,341446,2,0,B|137:291|137:291|134:225,1,119.999996337891
250,93,341707,1,0,0:0:0:0:
250,93,341772,1,0,0:0:0:0:
250,93,341837,1,0,0:0:0:0:
484,215,341968,2,0,B|444:271|444:271|388:307,1,119.999996337891
216,273,342229,1,0,0:0:0:0:
216,273,342294,1,0,0:0:0:0:
216,273,342359,1,0,0:0:0:0:
349,7,342489,5,0,0:0:0:0:
349,7,342620,2,0,B|304:158|415:107|347:260,1,239.999992675781
306,368,343011,6,0,B|239:355|239:355|161:366,1,110.000003356934
79,296,343272,1,0,0:0:0:0:
79,296,343337,1,0,0:0:0:0:
79,296,343402,1,0,0:0:0:0:
209,176,343533,2,0,L|199:292,1,110.000003356934
82,178,343794,1,0,0:0:0:0:
79,150,343859,1,0,0:0:0:0:
77,123,343924,1,0,0:0:0:0:
174,31,344055,2,0,L|299:19,1,110.000003356934
341,163,344315,1,0,0:0:0:0:
313,160,344380,1,0,0:0:0:0:
286,157,344445,1,0,0:0:0:0:
463,149,344576,5,0,0:0:0:0:
463,149,344707,2,0,B|477:242|477:242|455:271|455:271|468:372,1,220.000006713867
322,303,345098,6,0,P|262:292|146:375,1,200
335,236,345446,2,0,P|296:225|237:233,1,66.6666666666667
336,167,345620,2,0,P|276:156|160:239,1,200
349,100,345968,2,0,P|310:89|251:97,1,66.6666666666667
392,27,346142,5,0,0:0:0:0:
256,192,346207,12,0,347185,0:0:0:0:
140,52,354489,5,0,0:0:0:0:
100,69,354554,1,0,0:0:0:0:
74,103,354619,1,0,0:0:0:0:
69,146,354684,1,0,0:0:0:0:
86,186,354749,1,0,0:0:0:0:
121,212,354815,1,0,0:0:0:0:
164,217,354880,1,0,0:0:0:0:
204,199,354945,1,0,0:0:0:0:
229,164,355011,6,0,L|301:157,1,50
278,237,355142,2,0,L|349:229,1,50
260,310,355272,2,0,L|331:302,1,50
302,378,355403,2,0,L|373:370,1,50
440,338,355533,6,0,L|452:283,3,50
471,211,355794,1,0,0:0:0:0:
469,174,355859,1,0,0:0:0:0:
448,143,355924,1,0,0:0:0:0:
414,129,355989,1,0,0:0:0:0:
378,135,356054,1,0,0:0:0:0:
348,157,356120,1,0,0:0:0:0:
312,154,356185,1,0,0:0:0:0:
285,129,356250,1,0,0:0:0:0:
281,93,356315,1,0,0:0:0:0:
279,56,356380,1,0,0:0:0:0:
253,30,356445,1,0,0:0:0:0:
217,27,356510,1,0,0:0:0:0:
187,49,356576,6,0,L|179:123,3,50
174,178,356837,5,0,0:0:0:0:
162,213,356902,1,0,0:0:0:0:
135,238,356967,1,0,0:0:0:0:
98,246,357032,1,0,0:0:0:0:
63,236,357098,6,0,L|39:298,3,50
103,359,357359,1,0,0:0:0:0:
103,359,357424,1,0,0:0:0:0:
103,359,357489,6,0,L|186:351,5,50
247,346,357881,5,0,0:0:0:0:
229,316,357946,1,0,0:0:0:0:
223,281,358011,1,0,0:0:0:0:
231,248,358076,1,0,0:0:0:0:
251,219,358141,1,0,0:0:0:0:
281,201,358207,1,0,0:0:0:0:
315,195,358272,1,0,0:0:0:0:
349,202,358337,1,0,0:0:0:0:
383,194,358402,1,0,0:0:0:0:
411,174,358467,1,0,0:0:0:0:
430,145,358532,1,0,0:0:0:0:
435,110,358597,1,0,0:0:0:0:
427,77,358663,6,0,L|373:47,3,50
304,20,358924,1,0,0:0:0:0:
267,15,358989,1,0,0:0:0:0:
231,26,359054,1,0,0:0:0:0:
203,51,359119,1,0,0:0:0:0:
188,85,359185,6,0,L|124:69,3,50
50,100,359446,1,0,0:0:0:0:
50,100,359511,1,0,0:0:0:0:
50,100,359576,6,0,L|52:175,5,50
54,236,359968,1,0,0:0:0:0:
87,227,360033,1,0,0:0:0:0:
121,232,360098,1,0,0:0:0:0:
151,250,360163,1,0,0:0:0:0:
171,278,360228,1,0,0:0:0:0:
178,312,360294,1,0,0:0:0:0:
190,345,360359,1,0,0:0:0:0:
215,369,360424,1,0,0:0:0:0:
247,382,360489,1,0,0:0:0:0:
282,381,360554,1,0,0:0:0:0:
313,366,360620,1,0,0:0:0:0:
336,339,360685,1,0,0:0:0:0:
346,306,360750,6,0,L|294:289,3,50
430,264,361011,2,0,L|445:200,1,50
349,209,361142,2,0,L|334:145,1,50
417,100,361272,2,0,L|488:111,3,50
369,29,361533,2,0,L|319:36,1,50
218,61,361663,6,0,B|139:38|139:38|99:68|99:68|22:48,1,200
173,217,362055,1,0,0:0:0:0:
164,167,362120,1,0,0:0:0:0:
155,118,362185,1,0,0:0:0:0:
32,228,362315,1,0,0:0:0:0:
23,277,362380,1,0,0:0:0:0:
14,326,362445,1,0,0:0:0:0:
171,381,362576,2,0,L|284:375,1,100
468,333,362837,5,0,0:0:0:0:
369,29,363359,5,0,0:0:0:0:
108,69,363620,5,0,0:0:0:0:
108,69,363750,2,0,B|85:125|85:125|91:198,1,100
160,291,364011,1,0,0:0:0:0:
199,151,364142,1,0,0:0:0:0:
7,193,364272,1,0,0:0:0:0:
361,287,364402,1,0,0:0:0:0:
262,0,364533,1,0,0:0:0:0:
250,383,364663,1,0,0:0:0:0:
512,181,364794,1,0,0:0:0:0:
195,74,364924,5,0,0:0:0:0:
170,79,364989,1,0,0:0:0:0:
149,92,365054,1,0,0:0:0:0:
132,111,365119,1,0,0:0:0:0:
122,133,365185,5,0,0:0:0:0:
139,165,365250,1,0,0:0:0:0:
143,202,365315,1,0,0:0:0:0:
131,238,365380,1,0,0:0:0:0:
106,265,365445,5,0,0:0:0:0:
155,274,365511,1,0,0:0:0:0:
198,299,365576,1,0,0:0:0:0:
231,337,365641,1,0,0:0:0:0:
250,383,365707,5,0,0:0:0:0:
309,368,365772,1,0,0:0:0:0:
340,316,365837,1,0,0:0:0:0:
324,257,365902,1,0,0:0:0:0:
272,227,365968,5,0,0:0:0:0:
245,191,366033,1,0,0:0:0:0:
242,147,366098,1,0,0:0:0:0:
263,108,366163,1,0,0:0:0:0:
302,86,366228,1,0,0:0:0:0:
346,85,366293,1,0,0:0:0:0:
383,110,366358,1,0,0:0:0:0:
397,152,366423,1,0,0:0:0:0:
385,195,366489,5,0,0:0:0:0:
350,222,366554,1,0,0:0:0:0:
306,223,366619,1,0,0:0:0:0:
262,231,366685,1,0,0:0:0:0:
229,261,366750,1,0,0:0:0:0:
217,303,366815,1,0,0:0:0:0:
230,346,366880,1,0,0:0:0:0:
264,375,366946,1,0,0:0:0:0:
308,381,367011,5,0,0:0:0:0:
348,363,367076,1,0,0:0:0:0:
373,326,367141,1,0,0:0:0:0:
386,284,367207,1,0,0:0:0:0:
372,242,367272,1,0,0:0:0:0:
337,215,367337,1,0,0:0:0:0:
307,183,367402,1,0,0:0:0:0:
299,139,367467,1,0,0:0:0:0:
317,99,367533,5,0,0:0:0:0:
354,75,367597,1,0,0:0:0:0:
399,76,367663,1,0,0:0:0:0:
435,101,367728,1,0,0:0:0:0:
454,141,367793,1,0,0:0:0:0:
450,186,367858,1,0,0:0:0:0:
425,222,367923,1,0,0:0:0:0:
385,241,367988,1,0,0:0:0:0:
341,238,368054,5,0,0:0:0:0:
311,206,368120,1,0,0:0:0:0:
270,188,368185,1,0,0:0:0:0:
225,187,368250,1,0,0:0:0:0:
183,203,368315,1,0,0:0:0:0:
151,233,368381,1,0,0:0:0:0:
132,274,368446,1,0,0:0:0:0:
117,315,368511,1,0,0:0:0:0:
79,336,368576,5,0,0:0:0:0:
36,325,368641,1,0,0:0:0:0:
13,288,368706,1,0,0:0:0:0:
21,245,368772,1,0,0:0:0:0:
54,215,368837,5,0,0:0:0:0:
93,181,368902,1,0,0:0:0:0:
110,132,368967,1,0,0:0:0:0:
99,81,369032,1,0,0:0:0:0:
63,41,369098,6,0,L|176:30,1,75.0000028610231
292,21,369228,2,0,L|217:28,1,75.0000028610231
110,132,369359,2,0,L|223:121,1,75.0000028610231
339,112,369489,2,0,L|264:119,1,75.0000028610231
112,220,369620,5,0,0:0:0:0:
65,254,369685,1,0,0:0:0:0:
58,312,369750,1,0,0:0:0:0:
96,357,369815,1,0,0:0:0:0:
154,359,369881,1,0,0:0:0:0:
184,308,369946,1,0,0:0:0:0:
240,286,370011,1,0,0:0:0:0:
298,297,370076,1,0,0:0:0:0:
334,344,370142,5,0,0:0:0:0:
369,370,370207,1,0,0:0:0:0:
413,373,370272,1,0,0:0:0:0:
452,352,370337,1,0,0:0:0:0:
474,313,370402,1,0,0:0:0:0:
471,268,370468,1,0,0:0:0:0:
444,233,370533,1,0,0:0:0:0:
411,203,370598,1,0,0:0:0:0:
398,161,370663,5,0,0:0:0:0:
410,118,370728,1,0,0:0:0:0:
439,86,370793,1,0,0:0:0:0:
435,43,370858,1,0,0:0:0:0:
400,17,370923,1,0,0:0:0:0:
357,26,370988,1,0,0:0:0:0:
335,64,371055,1,0,0:0:0:0:
311,102,371120,1,0,0:0:0:0:
273,125,371185,5,0,0:0:0:0:
229,128,371250,1,0,0:0:0:0:
189,106,371315,1,0,0:0:0:0:
158,77,371381,1,0,0:0:0:0:
127,46,371446,1,0,0:0:0:0:
83,41,371511,1,0,0:0:0:0:
45,64,371576,1,0,0:0:0:0:
30,106,371641,1,0,0:0:0:0:
44,148,371707,5,0,0:0:0:0:
81,172,371772,1,0,0:0:0:0:
118,197,371837,1,0,0:0:0:0:
139,236,371902,1,0,0:0:0:0:
140,281,371967,1,0,0:0:0:0:
120,320,372032,1,0,0:0:0:0:
83,346,372098,1,0,0:0:0:0:
39,338,372163,1,0,0:0:0:0:
22,296,372228,6,0,L|9:210,1,75.0000028610231
69,97,372359,2,0,L|80:171,1,75.0000028610231
169,286,372489,2,0,L|156:200,1,75.0000028610231
216,87,372620,2,0,L|227:161,1,75.0000028610231
281,234,372750,5,0,0:0:0:0:
291,285,372815,1,0,0:0:0:0:
326,311,372880,1,0,0:0:0:0:
370,313,372945,1,0,0:0:0:0:
407,289,373010,1,0,0:0:0:0:
423,248,373075,1,0,0:0:0:0:
412,205,373142,2,0,L|323:166,5,75.0000028610231
255,113,373533,6,0,B|210:100|210:100|147:109,1,75.0000028610231
162,233,373663,2,0,B|195:200|195:200|219:141,1,75.0000028610231
103,92,373794,2,0,B|114:137|114:137|153:187,1,75.0000028610231
55,206,373924,6,0,L|34:309,3,75.0000028610231
20,366,374185,2,0,P|58:357|118:367,1,75.0000028610231
181,371,374315,5,0,0:0:0:0:
224,380,374380,1,0,0:0:0:0:
267,369,374445,1,0,0:0:0:0:
301,339,374510,1,0,0:0:0:0:
317,298,374575,1,0,0:0:0:0:
313,253,374641,1,0,0:0:0:0:
289,216,374706,1,0,0:0:0:0:
262,180,374772,1,0,0:0:0:0:
253,137,374837,1,0,0:0:0:0:
262,93,374902,1,0,0:0:0:0:
290,58,374967,1,0,0:0:0:0:
329,37,375033,1,0,0:0:0:0:
374,35,375098,1,0,0:0:0:0:
415,52,375163,1,0,0:0:0:0:
445,85,375228,1,0,0:0:0:0:
458,128,375293,1,0,0:0:0:0:
446,172,375359,5,0,0:0:0:0:
390,165,375424,1,0,0:0:0:0:
339,187,375489,1,0,0:0:0:0:
307,232,375554,1,0,0:0:0:0:
302,288,375619,5,0,0:0:0:0:
270,269,375685,1,0,0:0:0:0:
233,262,375750,1,0,0:0:0:0:
196,268,375815,1,0,0:0:0:0:
164,286,375881,5,0,0:0:0:0:
157,304,375946,1,0,0:0:0:0:
150,321,376011,1,0,0:0:0:0:
143,339,376076,1,0,0:0:0:0:
135,354,376142,5,0,0:0:0:0:
126,351,376207,1,0,0:0:0:0:
117,348,376272,1,0,0:0:0:0:
108,346,376337,1,0,0:0:0:0:
99,343,376402,5,0,0:0:0:0:
85,330,376467,1,0,0:0:0:0:
76,314,376532,1,0,0:0:0:0:
72,296,376597,1,0,0:0:0:0:
73,277,376662,5,0,0:0:0:0:
98,248,376728,1,0,0:0:0:0:
110,213,376793,1,0,0:0:0:0:
108,176,376858,1,0,0:0:0:0:
92,142,376923,5,0,0:0:0:0:
75,91,376989,1,0,0:0:0:0:
106,46,377054,1,0,0:0:0:0:
160,44,377119,1,0,0:0:0:0:
198,82,377185,5,0,0:0:0:0:
235,77,377250,1,0,0:0:0:0:
272,72,377315,1,0,0:0:0:0:
313,68,377381,1,0,0:0:0:0:
353,88,377446,5,0,0:0:0:0:
379,128,377511,1,0,0:0:0:0:
378,180,377576,1,0,0:0:0:0:
341,223,377642,1,0,0:0:0:0:
281,223,377707,5,0,0:0:0:0:
245,170,377772,1,0,0:0:0:0:
179,156,377837,1,0,0:0:0:0:
123,200,377902,1,0,0:0:0:0:
134,275,377968,6,0,L|230:288,1,75.0000028610231
296,384,378098,2,0,L|221:373,1,75.0000028610231
92,361,378228,2,0,B|35:300|35:300|17:208,1,150.000005722046
71,65,378489,5,0,0:0:0:0:
116,39,378554,1,0,0:0:0:0:
168,38,378619,1,0,0:0:0:0:
214,62,378684,1,0,0:0:0:0:
244,105,378749,1,0,0:0:0:0:
249,157,378815,1,0,0:0:0:0:
226,203,378880,1,0,0:0:0:0:
234,254,378945,1,0,0:0:0:0:
270,291,379010,5,0,0:0:0:0:
321,301,379075,1,0,0:0:0:0:
368,279,379141,1,0,0:0:0:0:
396,234,379206,1,0,0:0:0:0:
390,183,379271,1,0,0:0:0:0:
363,140,379337,1,0,0:0:0:0:
315,119,379402,1,0,0:0:0:0:
265,128,379467,1,0,0:0:0:0:
228,164,379533,5,0,0:0:0:0:
189,198,379598,1,0,0:0:0:0:
138,203,379663,1,0,0:0:0:0:
93,177,379728,1,0,0:0:0:0:
73,130,379793,1,0,0:0:0:0:
84,79,379859,1,0,0:0:0:0:
123,46,379924,1,0,0:0:0:0:
175,41,379989,1,0,0:0:0:0:
222,62,380054,5,0,0:0:0:0:
245,108,380119,1,0,0:0:0:0:
232,158,380184,1,0,0:0:0:0:
191,188,380249,1,0,0:0:0:0:
157,231,380315,1,0,0:0:0:0:
154,283,380380,1,0,0:0:0:0:
180,327,380445,1,0,0:0:0:0:
227,349,380510,1,0,0:0:0:0:
277,337,380576,6,0,B|347:302|347:302|393:204,1,150.000005722046
397,102,380837,2,0,L|410:22,3,75.0000028610231
321,120,381098,2,0,L|334:40,3,75.0000028610231
242,131,381359,2,0,L|255:51,1,75.0000028610231
165,148,381489,1,0,0:0:0:0:
165,148,381555,1,0,0:0:0:0:
165,148,381620,6,0,B|94:180|94:180|34:243,1,150.000005722046
467,232,381881,2,0,B|418:180|418:180|347:148,1,150.000005722046
148,235,382142,2,0,L|160:398,1,150.000005722046
352,384,382402,2,0,L|364:235,1,150.000005722046
375,57,382663,5,0,0:0:0:0:
256,192,382794,1,0,0:0:0:0:
455,158,382924,1,0,0:0:0:0:
455,158,382989,1,0,0:0:0:0:
455,158,383055,1,0,0:0:0:0:
301,26,383185,1,0,0:0:0:0:
260,342,383315,1,0,0:0:0:0:
223,117,383446,5,0,0:0:0:0:
397,306,383576,1,0,0:0:0:0:
174,246,383707,1,0,0:0:0:0:
332,132,383837,1,0,0:0:0:0:
281,371,383968,1,0,0:0:0:0:
204,91,384098,1,0,0:0:0:0:
56,371,384228,1,0,0:0:0:0:
304,248,384359,1,0,0:0:0:0:
23,155,384489,1,0,0:0:0:0:
23,155,384555,1,0,0:0:0:0:
23,155,384620,1,0,0:0:0:0:
173,364,384750,6,0,B|182:302|182:302|169:215,1,119.999996337891
30,340,385011,1,0,0:0:0:0:
30,340,385076,1,0,0:0:0:0:
30,340,385142,1,0,0:0:0:0:
273,377,385272,1,0,0:0:0:0:
120,164,385402,1,0,0:0:0:0:
173,364,385533,1,0,0:0:0:0:
270,102,385663,1,0,0:0:0:0:
451,304,385794,5,0,0:0:0:0:
439,96,385924,1,0,0:0:0:0:
451,304,386055,1,0,0:0:0:0:
439,96,386185,1,0,0:0:0:0:
266,258,386315,5,0,0:0:0:0:
448,199,386446,1,0,0:0:0:0:
448,199,386511,1,0,0:0:0:0:
448,199,386576,1,0,0:0:0:0:
248,81,386707,1,0,0:0:0:0:
361,338,386837,2,0,L|354:197,1,119.999996337891
236,364,387098,1,0,0:0:0:0:
236,364,387163,1,0,0:0:0:0:
236,364,387228,1,0,0:0:0:0:
93,299,387359,5,0,0:0:0:0:
68,261,387424,1,0,0:0:0:0:
67,217,387489,1,0,0:0:0:0:
90,179,387554,1,0,0:0:0:0:
129,159,387619,1,0,0:0:0:0:
172,149,387685,1,0,0:0:0:0:
196,112,387750,1,0,0:0:0:0:
187,69,387815,1,0,0:0:0:0:
151,44,387881,5,0,0:0:0:0:
177,28,387946,1,0,0:0:0:0:
206,20,388011,1,0,0:0:0:0:
235,22,388076,1,0,0:0:0:0:
263,32,388142,5,0,0:0:0:0:
275,75,388207,1,0,0:0:0:0:
286,119,388272,1,0,0:0:0:0:
298,163,388337,1,0,0:0:0:0:
309,206,388402,5,0,0:0:0:0:
348,249,388467,1,0,0:0:0:0:
406,249,388532,1,0,0:0:0:0:
445,206,388597,1,0,0:0:0:0:
439,148,388663,5,0,0:0:0:0:
402,86,388728,1,0,0:0:0:0:
330,81,388793,1,0,0:0:0:0:
284,136,388858,1,0,0:0:0:0:
302,206,388924,1,0,0:0:0:0:
181,48,389055,1,0,0:0:0:0:
239,351,389185,1,0,0:0:0:0:
239,351,389250,1,0,0:0:0:0:
239,351,389315,1,0,0:0:0:0:
53,114,389446,1,0,0:0:0:0:
245,322,389576,1,0,0:0:0:0:
181,48,389707,1,0,0:0:0:0:
181,48,389772,1,0,0:0:0:0:
181,48,389837,1,0,0:0:0:0:
113,277,389968,5,0,0:0:0:0:
123,323,390033,1,0,0:0:0:0:
155,358,390098,1,0,0:0:0:0:
200,371,390163,1,0,0:0:0:0:
246,358,390228,1,0,0:0:0:0:
279,325,390294,1,0,0:0:0:0:
290,278,390359,1,0,0:0:0:0:
297,232,390424,1,0,0:0:0:0:
327,194,390489,1,0,0:0:0:0:
371,176,390554,1,0,0:0:0:0:
418,183,390619,1,0,0:0:0:0:
456,211,390685,1,0,0:0:0:0:
474,255,390750,1,0,0:0:0:0:
469,302,390815,1,0,0:0:0:0:
441,340,390881,2,0,L|395:284,1,59.9999981689454
270,129,391011,6,0,L|196:135,7,50
247,54,391533,2,0,L|278:-13,3,50
325,77,391794,2,0,L|367:138,7,50
417,202,392315,5,0,0:0:0:0:
377,194,392380,1,0,0:0:0:0:
338,202,392445,1,0,0:0:0:0:
305,223,392510,1,0,0:0:0:0:
281,255,392575,1,0,0:0:0:0:
270,293,392642,1,0,0:0:0:0:
244,323,392707,1,0,0:0:0:0:
207,337,392772,1,0,0:0:0:0:
169,324,392837,2,0,L|138:268,3,50
99,202,393098,5,0,0:0:0:0:
77,158,393163,1,0,0:0:0:0:
88,110,393228,1,0,0:0:0:0:
127,80,393293,1,0,0:0:0:0:
176,82,393358,5,0,0:0:0:0:
217,99,393424,1,0,0:0:0:0:
261,93,393489,1,0,0:0:0:0:
296,66,393554,1,0,0:0:0:0:
314,25,393620,5,0,0:0:0:0:
348,45,393685,1,0,0:0:0:0:
369,79,393750,1,0,0:0:0:0:
373,118,393815,1,0,0:0:0:0:
359,155,393881,5,0,0:0:0:0:
362,180,393946,1,0,0:0:0:0:
364,205,394011,1,0,0:0:0:0:
367,230,394076,1,0,0:0:0:0:
369,255,394142,1,0,0:0:0:0:
360,264,394207,1,0,0:0:0:0:
352,273,394272,1,0,0:0:0:0:
343,282,394337,1,0,0:0:0:0:
335,292,394402,6,0,B|261:246|217:255|159:314|159:314|120:282|51:286,1,300
267,356,394924,1,0,0:0:0:0:
267,356,394989,1,0,0:0:0:0:
267,356,395055,1,0,0:0:0:0:
267,356,395120,1,0,0:0:0:0:
267,356,395185,6,0,B|314:351|314:351|383:366,1,100
442,288,395446,2,0,B|395:293|395:293|326:278,1,100
380,84,395707,1,0,0:0:0:0:
392,216,395837,1,0,0:0:0:0:
283,126,395968,1,0,0:0:0:0:
416,114,396098,1,0,0:0:0:0:
281,215,396228,6,0,L|141:203,1,100
9,312,396489,2,0,L|149:300,1,100
12,104,396750,2,0,B|-7:151|-7:151|3:223,1,100
156,117,397011,2,0,B|162:68|162:68|143:21,1,100
421,142,397272,5,0,0:0:0:0:
237,108,397402,1,0,0:0:0:0:
408,3,397533,1,0,0:0:0:0:
397,172,397663,1,0,0:0:0:0:
429,22,397794,1,0,0:0:0:0:
274,190,397924,1,0,0:0:0:0:
509,157,398055,1,0,0:0:0:0:
334,41,398185,1,0,0:0:0:0:
391,307,398315,6,0,L|380:252,1,50
264,140,398446,2,0,L|273:189,1,50
398,297,398576,2,0,L|383:243,1,50
260,139,398707,2,0,L|273:187,1,50
235,32,398837,1,0,0:0:0:0:
195,27,398902,1,0,0:0:0:0:
157,37,398967,1,0,0:0:0:0:
126,62,399032,1,0,0:0:0:0:
107,98,399097,1,0,0:0:0:0:
81,126,399163,1,0,0:0:0:0:
43,121,399228,1,0,0:0:0:0:
25,87,399293,1,0,0:0:0:0:
41,41,399359,6,0,L|133:33,3,59.9999981689454
195,108,399620,2,0,L|254:113,3,59.9999981689454
311,210,399881,1,0,0:0:0:0:
283,241,399946,1,0,0:0:0:0:
282,282,400011,1,0,0:0:0:0:
307,314,400076,1,0,0:0:0:0:
347,324,400142,1,0,0:0:0:0:
386,312,400207,1,0,0:0:0:0:
408,277,400272,1,0,0:0:0:0:
404,236,400337,5,0,0:0:0:0:
374,208,400402,1,0,0:0:0:0:
351,167,400467,1,0,0:0:0:0:
357,120,400532,1,0,0:0:0:0:
391,88,400597,1,0,0:0:0:0:
438,83,400663,5,0,0:0:0:0:
408,54,400728,1,0,0:0:0:0:
369,37,400793,1,0,0:0:0:0:
328,33,400858,1,0,0:0:0:0:
287,44,400924,5,0,0:0:0:0:
243,62,400989,1,0,0:0:0:0:
196,69,401054,1,0,0:0:0:0:
148,63,401119,1,0,0:0:0:0:
103,46,401184,5,0,0:0:0:0:
75,17,401250,1,0,0:0:0:0:
36,25,401315,1,0,0:0:0:0:
20,62,401380,1,0,0:0:0:0:
43,96,401446,5,0,0:0:0:0:
76,130,401511,1,0,0:0:0:0:
88,176,401576,1,0,0:0:0:0:
77,223,401641,1,0,0:0:0:0:
46,258,401707,5,0,0:0:0:0:
87,266,401772,1,0,0:0:0:0:
123,288,401837,1,0,0:0:0:0:
148,321,401902,1,0,0:0:0:0:
160,361,401967,5,0,0:0:0:0:
207,352,402033,1,0,0:0:0:0:
243,322,402098,1,0,0:0:0:0:
261,278,402163,1,0,0:0:0:0:
254,230,402228,5,0,0:0:0:0:
236,194,402293,1,0,0:0:0:0:
246,154,402358,1,0,0:0:0:0:
279,129,402423,1,0,0:0:0:0:
320,132,402489,5,0,0:0:0:0:
367,139,402554,1,0,0:0:0:0:
406,113,402619,1,0,0:0:0:0:
418,67,402684,1,0,0:0:0:0:
399,22,402750,5,0,0:0:0:0:
360,8,402815,1,0,0:0:0:0:
321,21,402880,1,0,0:0:0:0:
299,56,402945,1,0,0:0:0:0:
303,97,403011,6,0,B|314:152|314:152|287:241,1,119.999996337891
74,111,403272,1,0,0:0:0:0:
74,111,403337,1,0,0:0:0:0:
74,111,403402,1,0,0:0:0:0:
176,38,403533,5,0,0:0:0:0:
200,64,403598,1,0,0:0:0:0:
213,97,403663,1,0,0:0:0:0:
214,133,403728,1,0,0:0:0:0:
203,166,403794,5,0,0:0:0:0:
171,202,403859,1,0,0:0:0:0:
166,249,403924,1,0,0:0:0:0:
188,291,403989,1,0,0:0:0:0:
226,322,404055,5,0,0:0:0:0:
266,314,404120,1,0,0:0:0:0:
297,296,404185,1,0,0:0:0:0:
314,266,404250,1,0,0:0:0:0:
313,230,404315,5,0,0:0:0:0:
297,186,404380,1,0,0:0:0:0:
318,144,404445,1,0,0:0:0:0:
362,130,404510,1,0,0:0:0:0:
403,153,404575,5,0,0:0:0:0:
457,172,404641,1,0,0:0:0:0:
501,134,404706,1,0,0:0:0:0:
490,78,404771,1,0,0:0:0:0:
436,59,404837,6,0,L|353:84,3,59.9999981689454
318,144,405098,2,0,L|260:127,3,59.9999981689454
190,63,405359,2,0,L|106:87,3,59.9999981689454
46,102,405620,2,0,B|28:188|28:188|60:234|60:234|41:342,1,239.999992675781
134,363,405968,5,0,0:0:0:0:
150,268,406055,1,0,0:0:0:0:
218,335,406142,2,0,B|343:292|327:380|478:340,1,239.999992675781
496,260,406489,1,0,0:0:0:0:
401,279,406576,1,0,0:0:0:0:
431,187,406663,2,0,L|409:31,1,119.999996337891
308,204,406924,2,0,L|324:322,1,119.999996337891
292,86,407185,1,0,0:0:0:0:
25,266,407707,5,0,0:0:0:0:
32,262,408228,1,0,0:0:0:0:
331,34,408750,6,0,L|322:100,1,50
307,174,408881,1,0,0:0:0:0:
307,202,408946,1,0,0:0:0:0:
317,229,409011,1,0,0:0:0:0:
335,250,409076,1,0,0:0:0:0:
360,265,409141,1,0,0:0:0:0:
388,271,409207,1,0,0:0:0:0:
416,262,409272,1,0,0:0:0:0:
417,274,409337,1,0,0:0:0:0:
419,286,409402,1,0,0:0:0:0:
421,299,409467,1,0,0:0:0:0:
423,311,409533,2,0,L|431:367,3,50
342,352,409794,6,0,B|290:340|290:340|226:352,1,100
168,269,410055,2,0,B|220:281|220:281|284:269,1,100
232,104,410315,2,0,L|218:212,1,100
81,120,410576,2,0,L|93:20,1,100
65,244,410837,5,0,0:0:0:0:
71,267,411881,6,0,L|134:275,1,59.9999981689454
214,291,412011,1,0,0:0:0:0:
249,284,412076,1,0,0:0:0:0:
277,262,412141,1,0,0:0:0:0:
293,231,412206,1,0,0:0:0:0:
294,195,412271,1,0,0:0:0:0:
279,163,412337,1,0,0:0:0:0:
251,140,412402,1,0,0:0:0:0:
228,113,412467,1,0,0:0:0:0:
222,79,412532,1,0,0:0:0:0:
234,45,412597,1,0,0:0:0:0:
263,24,412662,1,0,0:0:0:0:
298,20,412728,1,0,0:0:0:0:
330,35,412793,1,0,0:0:0:0:
350,65,412859,1,0,0:0:0:0:
349,100,412924,6,0,L|452:113,1,59.9999981689454
453,177,413055,1,0,0:0:0:0:
424,197,413120,1,0,0:0:0:0:
407,229,413185,1,0,0:0:0:0:
408,265,413250,1,0,0:0:0:0:
425,296,413315,1,0,0:0:0:0:
454,316,413381,1,0,0:0:0:0:
489,308,413446,1,0,0:0:0:0:
478,341,413511,1,0,0:0:0:0:
453,368,413576,1,0,0:0:0:0:
420,381,413641,1,0,0:0:0:0:
385,380,413706,1,0,0:0:0:0:
353,363,413772,1,0,0:0:0:0:
331,334,413837,1,0,0:0:0:0:
301,313,413902,1,0,0:0:0:0:
264,317,413968,6,0,L|180:333,1,59.9999981689454
101,348,414098,1,0,0:0:0:0:
70,329,414163,1,0,0:0:0:0:
49,300,414228,1,0,0:0:0:0:
43,265,414293,1,0,0:0:0:0:
50,230,414358,1,0,0:0:0:0:
71,201,414424,1,0,0:0:0:0:
102,182,414489,1,0,0:0:0:0:
135,171,414554,1,0,0:0:0:0:
160,145,414619,1,0,0:0:0:0:
168,110,414684,1,0,0:0:0:0:
159,76,414749,1,0,0:0:0:0:
134,50,414815,1,0,0:0:0:0:
100,40,414880,1,0,0:0:0:0:
65,47,414945,1,0,0:0:0:0:
38,70,415011,6,0,L|34:137,5,59.9999981689454
116,168,415402,2,0,L|120:234,5,59.9999981689454
37,285,415794,2,0,B|70:336|70:336|133:375,1,119.999996337891
236,333,416055,1,0,0:0:0:0:
271,329,416120,1,0,0:0:0:0:
299,308,416185,1,0,0:0:0:0:
311,274,416250,1,0,0:0:0:0:
302,240,416315,1,0,0:0:0:0:
277,215,416381,1,0,0:0:0:0:
246,196,416446,1,0,0:0:0:0:
222,169,416511,1,0,0:0:0:0:
211,135,416576,1,0,0:0:0:0:
216,100,416641,1,0,0:0:0:0:
234,70,416706,1,0,0:0:0:0:
264,50,416772,1,0,0:0:0:0:
299,44,416837,1,0,0:0:0:0:
334,54,416902,1,0,0:0:0:0:
361,77,416967,1,0,0:0:0:0:
376,110,417032,1,0,0:0:0:0:
376,145,417098,5,0,0:0:0:0:
360,177,417163,1,0,0:0:0:0:
333,200,417228,1,0,0:0:0:0:
298,209,417293,1,0,0:0:0:0:
263,202,417358,1,0,0:0:0:0:
234,182,417424,1,0,0:0:0:0:
216,151,417489,1,0,0:0:0:0:
190,126,417554,1,0,0:0:0:0:
158,111,417619,1,0,0:0:0:0:
122,106,417684,1,0,0:0:0:0:
87,113,417749,1,0,0:0:0:0:
56,131,417815,1,0,0:0:0:0:
32,157,417880,1,0,0:0:0:0:
17,190,417945,1,0,0:0:0:0:
13,225,418010,1,0,0:0:0:0:
20,261,418075,1,0,0:0:0:0:
38,292,418142,6,0,L|117:308,3,59.9999981689454
190,321,418402,2,0,L|260:282,3,59.9999981689454
322,251,418663,2,0,L|351:176,3,59.9999981689454
376,106,418923,2,0,L|350:30,3,59.9999981689454
264,12,419185,6,0,L|156:16,1,59.9999981689454
216,144,419315,2,0,L|266:48,1,59.9999981689454
124,36,419446,2,0,L|181:127,1,59.9999981689454,0|0,3:0|3:0,3:0:0:0:
80,116,419576,2,0,L|102:221,1,59.9999981689454,0|0,3:0|3:0,3:0:0:0:
32,232,419707,5,0,0:0:0:0:
42,289,419772,1,0,0:0:0:0:
92,318,419837,1,0,0:0:0:0:
147,300,419902,1,0,0:0:0:0:
168,245,419967,1,0,0:0:0:0:
211,206,420033,1,0,0:0:0:0:
269,212,420098,1,0,0:0:0:0:
305,258,420163,1,0,0:0:0:0:
294,316,420228,5,0,0:0:0:0:
318,342,420293,1,0,0:0:0:0:
352,355,420358,1,0,0:0:0:0:
387,351,420423,1,0,0:0:0:0:
417,332,420488,1,0,0:0:0:0:
436,302,420554,1,0,0:0:0:0:
439,266,420619,1,0,0:0:0:0:
425,233,420684,1,0,0:0:0:0:
398,210,420750,1,0,0:0:0:0:
367,191,420815,1,0,0:0:0:0:
352,159,420880,1,0,0:0:0:0:
358,124,420945,1,0,0:0:0:0:
381,98,421010,1,0,0:0:0:0:
416,89,421076,1,0,0:0:0:0:
449,101,421141,1,0,0:0:0:0:
472,128,421207,1,0,0:0:0:0:
468,164,421272,6,0,L|408:184,3,59.9999981689454
319,206,421533,2,0,L|262:187,3,59.9999981689454
166,158,421794,1,0,0:0:0:0:
119,165,421859,1,0,0:0:0:0:
89,201,421924,1,0,0:0:0:0:
91,248,421989,1,0,0:0:0:0:
128,279,422055,1,0,0:0:0:0:
128,279,422315,5,0,0:0:0:0:
162,267,422380,1,0,0:0:0:0:
197,267,422445,1,0,0:0:0:0:
231,279,422510,1,0,0:0:0:0:
260,300,422575,1,0,0:0:0:0:
281,329,422641,1,0,0:0:0:0:
291,364,422707,2,0,L|435:344,1,119.999996337891
265,199,422968,5,0,0:0:0:0:
344,279,423098,1,0,0:0:0:0:
364,239,423163,1,0,0:0:0:0:
368,194,423228,2,0,P|352:140|415:81,1,119.999996337891
130,8,423489,1,0,0:0:0:0:
165,273,423620,1,0,0:0:0:0:
237,62,423750,1,0,0:0:0:0:
80,266,423881,5,0,0:0:0:0:
86,295,423946,1,0,0:0:0:0:
100,321,424011,1,0,0:0:0:0:
122,341,424076,1,0,0:0:0:0:
150,353,424141,1,0,0:0:0:0:
179,356,424207,1,0,0:0:0:0:
209,350,424272,1,0,0:0:0:0:
232,331,424337,1,0,0:0:0:0:
243,306,424402,6,0,B|236:260|236:260|274:185,1,110.000003356934
371,111,424663,1,0,0:0:0:0:
374,138,424728,1,0,0:0:0:0:
377,165,424793,1,0,0:0:0:0:
270,46,424924,2,0,B|214:38|214:38|140:49,1,110.000003356934
52,188,425185,1,0,0:0:0:0:
48,160,425250,1,0,0:0:0:0:
45,133,425315,1,0,0:0:0:0:
73,327,425446,2,0,P|127:309|212:342,1,110.000003356934
421,253,425707,1,0,0:0:0:0:
421,253,425772,1,0,0:0:0:0:
421,253,425837,1,0,0:0:0:0:
270,46,425968,5,0,0:0:0:0:
270,46,426098,2,0,B|254:132|254:132|280:155|280:155|265:255,1,220.000006713867
173,349,426489,6,0,L|95:335,3,59.9999981689454
59,274,426750,2,0,L|137:260,3,59.9999981689454
174,201,427011,2,0,L|96:187,3,59.9999981689454
60,126,427272,2,0,L|138:112,3,59.9999981689454
212,97,427533,1,0,0:0:0:0:
259,91,427598,1,0,0:0:0:0:
302,110,427663,1,0,0:0:0:0:
328,149,427728,1,0,0:0:0:0:
330,197,427793,1,0,0:0:0:0:
306,238,427859,1,0,0:0:0:0:
295,284,427924,1,0,0:0:0:0:
314,327,427989,1,0,0:0:0:0:
356,348,428054,5,0,0:0:0:0:
249,177,428185,2,0,B|136:208|150:132|-4:186,1,239.999992675781
101,307,428576,6,0,L|89:228,1,64.9999970245363
186,316,428707,2,0,L|195:380,1,64.9999970245363
171,233,428837,2,0,L|159:154,1,64.9999970245363
256,242,428968,2,0,L|265:306,1,64.9999970245363
241,157,429098,2,0,L|229:78,1,64.9999970245363
326,166,429229,2,0,L|335:230,1,64.9999970245363
311,83,429359,2,0,L|299:4,1,64.9999970245363
396,92,429490,2,0,L|405:156,1,64.9999970245363
421,265,429620,5,0,0:0:0:0:
388,295,429685,1,0,0:0:0:0:
344,304,429750,1,0,0:0:0:0:
302,288,429815,1,0,0:0:0:0:
275,252,429881,1,0,0:0:0:0:
247,218,429946,1,0,0:0:0:0:
204,206,430011,1,0,0:0:0:0:
162,220,430076,1,0,0:0:0:0:
136,257,430141,5,0,0:0:0:0:
336,0,430272,2,0,B|299:50|299:50|375:85|350:232,1,259.999988098145
199,368,430663,6,0,L|-7:333,1,200
73,262,431011,1,0,0:0:0:0:
73,161,431098,1,0,0:0:0:0:
156,216,431185,2,0,P|205:162|117:69,1,200
245,69,431533,1,0,0:0:0:0:
245,169,431620,1,0,0:0:0:0:
328,113,431707,2,0,L|344:195,3,50
413,207,431968,2,0,L|397:289,3,50
384,338,432228,1,0,0:0:0:0:
199,367,432750,5,0,0:0:0:0:
166,337,432815,1,0,0:0:0:0:
153,294,432880,1,0,0:0:0:0:
163,251,432945,1,0,0:0:0:0:
193,219,433011,2,0,L|185:149,1,59.9999981689454
265,73,433142,2,0,L|271:132,1,59.9999981689454
281,220,433272,5,0,0:0:0:0:
310,252,433337,1,0,0:0:0:0:
354,256,433402,1,0,0:0:0:0:
388,229,433467,1,0,0:0:0:0:
394,186,433533,2,0,L|470:199,1,59.9999981689454
407,100,433663,2,0,L|331:112,1,59.9999981689454
265,73,433794,5,0,0:0:0:0:
225,53,433859,1,0,0:0:0:0:
180,54,433924,1,0,0:0:0:0:
142,77,433989,1,0,0:0:0:0:
119,115,434055,2,0,L|35:98,1,59.9999981689454
80,192,434185,2,0,L|-4:174,1,59.9999981689454
70,297,434315,5,0,0:0:0:0:
111,279,434380,1,0,0:0:0:0:
156,278,434445,1,0,0:0:0:0:
198,293,434510,1,0,0:0:0:0:
231,323,434575,1,0,0:0:0:0:
268,346,434641,1,0,0:0:0:0:
308,333,434706,1,0,0:0:0:0:
331,297,434772,1,0,0:0:0:0:
324,255,434837,5,0,0:0:0:0:
323,210,434902,1,0,0:0:0:0:
344,171,434967,1,0,0:0:0:0:
383,149,435032,1,0,0:0:0:0:
427,149,435098,2,0,L|437:72,1,59.9999981689454
423,232,435228,2,0,L|415:291,1,59.9999981689454
246,238,435359,5,0,0:0:0:0:
214,206,435424,1,0,0:0:0:0:
205,162,435489,1,0,0:0:0:0:
219,121,435554,1,0,0:0:0:0:
254,92,435620,2,0,L|164:86,1,59.9999981689454
59,155,435750,2,0,L|149:149,1,59.9999981689454
46,244,435881,5,0,0:0:0:0:
38,287,435946,1,0,0:0:0:0:
58,326,436011,1,0,0:0:0:0:
98,345,436076,1,0,0:0:0:0:
141,336,436142,2,0,L|219:353,1,59.9999981689454
246,238,436272,2,0,L|168:254,1,59.9999981689454
311,317,436402,5,0,0:0:0:0:
342,285,436467,1,0,0:0:0:0:
357,243,436532,1,0,0:0:0:0:
352,199,436597,1,0,0:0:0:0:
324,168,436663,1,0,0:0:0:0:
309,122,436728,1,0,0:0:0:0:
325,82,436793,1,0,0:0:0:0:
366,66,436858,1,0,0:0:0:0:
405,86,436924,5,0,0:0:0:0:
419,128,436989,1,0,0:0:0:0:
433,171,437054,1,0,0:0:0:0:
448,213,437119,1,0,0:0:0:0:
462,256,437185,2,0,L|435:322,1,59.9999981689454
338,356,437315,2,0,L|361:300,1,59.9999981689454
276,234,437446,5,0,0:0:0:0:
232,227,437511,1,0,0:0:0:0:
188,237,437576,1,0,0:0:0:0:
153,265,437641,1,0,0:0:0:0:
132,304,437707,2,0,L|43:286,1,59.9999981689454
0,221,437837,2,0,L|58:208,1,59.9999981689454
123,135,437968,5,0,0:0:0:0:
157,106,438033,1,0,0:0:0:0:
199,91,438098,1,0,0:0:0:0:
244,94,438163,1,0,0:0:0:0:
284,112,438228,2,0,L|348:104,1,59.9999981689454
298,211,438359,2,0,L|234:202,1,59.9999981689454
403,225,438489,5,0,0:0:0:0:
430,255,438554,1,0,0:0:0:0:
433,296,438619,1,0,0:0:0:0:
410,330,438684,1,0,0:0:0:0:
371,347,438750,1,0,0:0:0:0:
330,337,438815,1,0,0:0:0:0:
292,319,438880,1,0,0:0:0:0:
250,316,438945,1,0,0:0:0:0:
208,328,439011,5,0,0:0:0:0:
163,331,439076,1,0,0:0:0:0:
125,310,439141,1,0,0:0:0:0:
105,270,439206,1,0,0:0:0:0:
111,226,439272,2,0,L|188:212,1,59.9999981689454
60,148,439402,2,0,L|-16:133,1,59.9999981689454
140,96,439533,5,0,0:0:0:0:
182,84,439598,1,0,0:0:0:0:
225,96,439663,1,0,0:0:0:0:
255,128,439728,1,0,0:0:0:0:
264,172,439794,2,0,L|344:176,1,59.9999981689454
412,256,439924,2,0,L|332:259,1,59.9999981689454
460,344,440055,5,0,0:0:0:0:
482,323,440120,1,0,0:0:0:0:
497,298,440185,1,0,0:0:0:0:
503,269,440250,1,0,0:0:0:0:
501,239,440315,1,0,0:0:0:0:
490,211,440381,1,0,0:0:0:0:
470,188,440446,1,0,0:0:0:0:
445,172,440511,1,0,0:0:0:0:
416,165,440576,1,0,0:0:0:0:
388,155,440641,1,0,0:0:0:0:
369,132,440706,1,0,0:0:0:0:
365,103,440771,1,0,0:0:0:0:
376,75,440836,1,0,0:0:0:0:
400,57,440902,1,0,0:0:0:0:
429,54,440967,1,0,0:0:0:0:
456,67,441032,1,0,0:0:0:0:
473,91,441098,6,0,B|481:145|481:145|407:312,1,220.000006713867
413,296,441424,1,0,0:0:0:0:
413,296,441489,1,0,0:0:0:0:
260,139,441620,2,0,L|394:130,1,110.000003356934
56,165,441881,1,0,0:0:0:0:
56,165,441946,1,0,0:0:0:0:
56,165,442011,1,0,0:0:0:0:
241,35,442142,1,0,0:0:0:0:
187,304,442272,1,0,0:0:0:0:
118,67,442402,2,0,L|97:8,2,55.0000016784668
12,242,442663,5,0,0:0:0:0:
4,273,442728,1,0,0:0:0:0:
11,305,442793,1,0,0:0:0:0:
33,329,442858,1,0,0:0:0:0:
64,340,442923,1,0,0:0:0:0:
96,330,442989,1,0,0:0:0:0:
122,311,443054,1,0,0:0:0:0:
154,302,443119,1,0,0:0:0:0:
187,304,443185,6,0,L|225:344,3,55.0000016784668
234,228,443446,2,0,L|272:268,3,55.0000016784668
275,153,443707,2,0,L|313:193,3,55.0000016784668
322,77,443968,2,0,L|360:117,1,55.0000016784668
453,31,444098,2,0,L|399:43,1,55.0000016784668
431,168,444228,1,0,0:0:0:0:
431,168,444294,1,0,0:0:0:0:
431,168,444359,6,0,L|446:115,1,55.0000016784668
405,286,444489,2,0,L|451:255,1,55.0000016784668
310,360,444620,2,0,L|364:366,1,55.0000016784668
226,351,444750,1,0,0:0:0:0:
187,337,444815,1,0,0:0:0:0:
162,304,444880,1,0,0:0:0:0:
158,264,444945,1,0,0:0:0:0:
176,227,445011,2,0,P|204:180|160:112,1,110.000003356934
81,35,445272,6,0,B|65:120|65:120|34:144|34:144|19:253,1,220.000006713867
21,237,445598,1,0,0:0:0:0:
21,237,445663,1,0,0:0:0:0:
150,370,445794,6,0,B|140:321|140:321|161:251,1,110.000003356934
266,158,446055,1,0,0:0:0:0:
266,158,446120,1,0,0:0:0:0:
266,158,446185,1,0,0:0:0:0:
369,287,446315,5,0,0:0:0:0:
217,321,446446,1,0,0:0:0:0:
359,190,446576,1,0,0:0:0:0:
359,190,446642,1,0,0:0:0:0:
359,190,446707,1,0,0:0:0:0:
114,80,446837,5,0,0:0:0:0:
79,266,446968,1,0,0:0:0:0:
234,132,447098,1,0,0:0:0:0:
17,179,447228,1,0,0:0:0:0:
206,293,447359,6,0,B|259:296|259:296|425:264,1,220.000006713867
422,264,447685,1,0,0:0:0:0:
422,264,447750,1,0,0:0:0:0:
248,110,447881,6,0,L|257:237,1,110.000003356934
361,35,448142,1,0,0:0:0:0:
361,35,448207,1,0,0:0:0:0:
361,35,448272,1,0,0:0:0:0:
188,2,448402,5,0,0:0:0:0:
134,3,448467,1,0,0:0:0:0:
93,38,448532,1,0,0:0:0:0:
85,92,448597,1,0,0:0:0:0:
112,138,448663,2,0,L|95:207,1,55.0000016784668
75,286,448794,5,0,0:0:0:0:
127,272,448859,1,0,0:0:0:0:
179,288,448924,1,0,0:0:0:0:
215,329,448989,1,0,0:0:0:0:
224,382,449055,2,0,L|299:363,1,55.0000016784668
352,347,449185,1,0,0:0:0:0:
361,35,449446,5,0,0:0:0:0:
133,353,449837,5,0,0:0:0:0:
57,37,450489,5,0,0:0:0:0:
53,50,450554,1,0,0:0:0:0:
50,63,450619,1,0,0:0:0:0:
47,77,450684,1,0,0:0:0:0:
44,90,450749,5,0,0:0:0:0:
67,104,450815,1,0,0:0:0:0:
85,124,450880,1,0,0:0:0:0:
97,149,450945,1,0,0:0:0:0:
102,176,451010,5,0,0:0:0:0:
140,162,451076,1,0,0:0:0:0:
180,169,451141,1,0,0:0:0:0:
212,195,451206,1,0,0:0:0:0:
227,233,451271,5,0,0:0:0:0:
276,253,451337,1,0,0:0:0:0:
297,302,451402,1,0,0:0:0:0:
278,352,451467,1,0,0:0:0:0:
229,373,451533,6,0,L|119:346,1,100
11,163,451794,1,0,0:0:0:0:
239,82,451924,1,0,0:0:0:0:
111,260,452055,1,0,0:0:0:0:
53,0,452185,1,0,0:0:0:0:
297,302,452315,1,0,0:0:0:0:
346,11,452446,1,0,0:0:0:0:
11,163,452576,5,0,0:0:0:0:
86,89,460077,6,0,L|229:106,1,100
445,145,460337,1,0,0:0:0:0:
286,15,460468,1,0,0:0:0:0:
286,15,460533,1,0,0:0:0:0:
286,15,460598,2,0,L|269:158,1,100
249,312,460859,2,0,L|260:212,1,100
21,332,461120,5,0,0:0:0:0:
19,323,461642,1,0,0:0:0:0:
16,316,462685,1,0,0:0:0:0:
13,308,463207,6,0,L|21:219,1,50
103,215,463337,2,0,L|99:265,1,50
166,340,463468,2,0,L|174:251,1,50
256,247,463598,2,0,L|251:296,1,50
178,208,463729,2,0,L|186:119,1,50
268,115,463859,2,0,L|263:164,1,50
331,240,463990,2,0,L|339:151,1,50
421,147,464120,2,0,L|416:196,1,50
432,63,464250,5,0,0:0:0:0:
403,36,464315,1,0,0:0:0:0:
364,31,464380,1,0,0:0:0:0:
330,51,464445,1,0,0:0:0:0:
314,87,464510,1,0,0:0:0:0:
322,125,464576,1,0,0:0:0:0:
317,164,464642,1,0,0:0:0:0:
291,194,464707,1,0,0:0:0:0:
253,206,464772,1,0,0:0:0:0:
80,352,465294,5,0,0:0:0:0:
57,325,465359,1,0,0:0:0:0:
41,294,465424,1,0,0:0:0:0:
35,259,465489,1,0,0:0:0:0:
38,225,465554,1,0,0:0:0:0:
49,192,465620,1,0,0:0:0:0:
69,163,465685,1,0,0:0:0:0:
96,140,465750,1,0,0:0:0:0:
127,126,465816,6,0,L|184:144,1,50
272,176,465946,1,0,0:0:0:0:
304,187,466011,1,0,0:0:0:0:
337,178,466076,1,0,0:0:0:0:
359,152,466141,1,0,0:0:0:0:
362,118,466206,1,0,0:0:0:0:
345,88,466272,1,0,0:0:0:0:
312,72,466337,6,0,L|256:88,1,50
176,144,466468,1,0,0:0:0:0:
158,174,466533,1,0,0:0:0:0:
151,208,466598,1,0,0:0:0:0:
157,242,466663,1,0,0:0:0:0:
173,273,466728,1,0,0:0:0:0:
199,296,466794,1,0,0:0:0:0:
232,304,466859,6,0,L|340:276,1,100
492,248,467120,1,0,0:0:0:0:
492,248,467185,1,0,0:0:0:0:
492,248,467250,1,0,0:0:0:0:
370,60,467381,6,0,L|292:64,1,50
223,73,467511,1,0,0:0:0:0:
197,96,467576,1,0,0:0:0:0:
187,129,467641,1,0,0:0:0:0:
197,162,467706,1,0,0:0:0:0:
222,185,467771,1,0,0:0:0:0:
256,192,467837,1,0,0:0:0:0:
288,179,467903,6,0,L|298:260,1,50
299,321,468033,1,0,0:0:0:0:
267,305,468098,1,0,0:0:0:0:
233,301,468163,1,0,0:0:0:0:
199,308,468228,1,0,0:0:0:0:
169,326,468293,1,0,0:0:0:0:
147,353,468359,1,0,0:0:0:0:
127,384,468424,6,0,L|30:341,1,100
0,200,468685,1,0,0:0:0:0:
0,200,468750,1,0,0:0:0:0:
0,200,468816,1,0,0:0:0:0:
115,108,468946,2,0,L|128:225,1,100
246,148,469207,2,0,L|234:48,1,100
405,23,469468,5,0,0:0:0:0:
439,23,469533,1,0,0:0:0:0:
471,37,469598,1,0,0:0:0:0:
496,62,469663,1,0,0:0:0:0:
509,94,469728,1,0,0:0:0:0:
508,129,469794,1,0,0:0:0:0:
495,161,469859,1,0,0:0:0:0:
471,185,469924,1,0,0:0:0:0:
439,199,469990,6,0,L|368:176,1,50
303,158,470120,1,0,0:0:0:0:
272,152,470185,1,0,0:0:0:0:
237,173,470250,1,0,0:0:0:0:
219,202,470315,1,0,0:0:0:0:
217,236,470380,1,0,0:0:0:0:
232,267,470446,1,0,0:0:0:0:
261,287,470511,6,0,L|173:294,1,50
123,300,470642,1,0,0:0:0:0:
94,279,470707,1,0,0:0:0:0:
75,250,470772,1,0,0:0:0:0:
67,216,470837,1,0,0:0:0:0:
73,182,470902,1,0,0:0:0:0:
90,152,470968,1,0,0:0:0:0:
117,130,471033,6,0,B|174:144|174:144|233:137,1,100
353,33,471294,1,0,0:0:0:0:
353,33,471359,1,0,0:0:0:0:
353,33,471424,1,0,0:0:0:0:
189,22,471555,6,0,L|173:75,1,50
144,184,471685,1,0,0:0:0:0:
149,218,471750,1,0,0:0:0:0:
168,246,471815,1,0,0:0:0:0:
198,264,471880,1,0,0:0:0:0:
233,269,471945,1,0,0:0:0:0:
265,253,472011,1,0,0:0:0:0:
284,223,472077,6,0,L|268:170,1,50
251,84,472207,1,0,0:0:0:0:
256,50,472272,1,0,0:0:0:0:
275,22,472337,1,0,0:0:0:0:
305,4,472402,1,0,0:0:0:0:
340,2,472467,1,0,0:0:0:0:
372,15,472533,1,0,0:0:0:0:
392,44,472598,5,0,0:0:0:0:
432,244,472729,1,0,0:0:0:0:
472,104,472859,1,0,0:0:0:0:
348,296,472990,1,0,0:0:0:0:
316,84,473120,2,0,L|336:216,1,100
164,100,473381,2,0,L|178:1,1,100
146,209,473642,5,0,0:0:0:0:
185,207,473707,1,0,0:0:0:0:
219,226,473772,1,0,0:0:0:0:
239,261,473837,1,0,0:0:0:0:
237,300,473902,1,0,0:0:0:0:
214,332,473968,1,0,0:0:0:0:
178,348,474033,1,0,0:0:0:0:
139,342,474098,1,0,0:0:0:0:
106,318,474163,2,0,B|32:218,1,100
164,100,474424,1,0,0:0:0:0:
160,75,474489,1,0,0:0:0:0:
156,50,474554,1,0,0:0:0:0:
334,127,474685,5,0,0:0:0:0:
301,150,474750,1,0,0:0:0:0:
282,184,474815,1,0,0:0:0:0:
280,224,474880,1,0,0:0:0:0:
295,261,474945,1,0,0:0:0:0:
324,287,475011,1,0,0:0:0:0:
354,312,475076,1,0,0:0:0:0:
360,351,475141,1,0,0:0:0:0:
337,383,475207,2,0,L|208:373,1,100
51,287,475468,1,0,0:0:0:0:
48,262,475533,1,0,0:0:0:0:
46,237,475598,1,0,0:0:0:0:
155,86,475729,5,0,0:0:0:0:
190,68,475794,1,0,0:0:0:0:
230,62,475859,1,0,0:0:0:0:
266,78,475924,1,0,0:0:0:0:
297,103,475989,1,0,0:0:0:0:
334,117,476055,1,0,0:0:0:0:
374,116,476120,1,0,0:0:0:0:
413,105,476185,1,0,0:0:0:0:
438,75,476250,2,0,B|459:118|459:118|454:197,1,100
373,298,476511,1,0,0:0:0:0:
397,302,476576,1,0,0:0:0:0:
422,306,476641,1,0,0:0:0:0:
73,243,476772,5,0,0:0:0:0:
73,57,476903,1,0,0:0:0:0:
233,150,477033,1,0,0:0:0:0:
439,141,477294,5,0,0:0:0:0:
439,327,477425,1,0,0:0:0:0:
279,234,477555,2,0,L|284:306,1,50
194,368,477685,2,0,L|197:318,1,50
117,285,477816,6,0,B|104:235|104:235|115:171,1,100
153,125,478011,1,0,0:0:0:0:
177,130,478076,1,0,0:0:0:0:
202,130,478141,1,0,0:0:0:0:
226,126,478207,2,0,B|258:93|258:93|341:75,1,100
382,108,478403,1,0,0:0:0:0:
368,129,478468,1,0,0:0:0:0:
366,153,478533,1,0,0:0:0:0:
374,177,478598,2,0,L|388:294,1,100
397,351,478794,1,0,0:0:0:0:
397,351,478859,6,0,B|320:340|320:340|279:351,1,100
226,368,479055,1,0,0:0:0:0:
209,349,479120,1,0,0:0:0:0:
188,336,479185,1,0,0:0:0:0:
163,329,479250,2,0,L|152:264,1,50
139,206,479381,2,0,P|165:165|157:123,1,66.6666666666667
62,95,479555,2,0,P|84:138|124:152,1,66.6666666666667
194,81,479729,2,0,P|145:78|113:106,1,66.6666666666667
378,151,479903,6,0,B|370:183|370:183|394:247,1,100
463,273,480098,1,0,0:0:0:0:
476,252,480163,1,0,0:0:0:0:
483,228,480228,1,0,0:0:0:0:
482,202,480294,2,0,B|467:137|467:137|476:78,1,100
492,30,480490,1,0,0:0:0:0:
468,21,480555,1,0,0:0:0:0:
443,18,480620,1,0,0:0:0:0:
418,19,480685,2,0,B|369:37|369:37|327:78,1,100
327,145,480881,1,0,0:0:0:0:
327,145,480946,6,0,P|283:166|195:138,1,133.333333333333
160,67,481207,2,0,L|90:57,2,66.6666666666667
124,197,481468,2,0,B|141:243|141:243|126:315,1,100
238,362,481729,5,0,0:0:0:0:
268,340,481794,1,0,0:0:0:0:
303,326,481859,1,0,0:0:0:0:
340,321,481924,1,0,0:0:0:0:
377,324,481990,6,0,B|366:275|366:275|384:213,1,100
436,179,482185,1,0,0:0:0:0:
443,155,482250,1,0,0:0:0:0:
441,130,482315,1,0,0:0:0:0:
430,106,482381,2,0,L|314:96,1,100
254,93,482577,1,0,0:0:0:0:
234,107,482642,1,0,0:0:0:0:
213,121,482707,1,0,0:0:0:0:
193,136,482772,2,0,B|202:180|202:180|191:253,1,100
159,302,482968,1,0,0:0:0:0:
159,302,483033,6,0,B|94:280|94:280|48:248,1,100
68,186,483229,1,0,0:0:0:0:
77,162,483294,1,0,0:0:0:0:
78,138,483359,1,0,0:0:0:0:
70,114,483424,2,0,L|109:80,1,50
169,37,483555,2,0,L|256:55,1,66.6666666666667
255,113,483729,2,0,L|227:28,1,66.6666666666667
278,0,483903,2,0,L|218:66,1,66.6666666666667
161,137,484077,5,0,0:0:0:0:
146,168,484142,1,0,0:0:0:0:
149,203,484207,1,0,0:0:0:0:
169,231,484272,1,0,0:0:0:0:
200,247,484337,1,0,0:0:0:0:
234,245,484403,1,0,0:0:0:0:
268,239,484468,1,0,0:0:0:0:
301,250,484533,1,0,0:0:0:0:
324,276,484598,1,0,0:0:0:0:
331,310,484663,1,0,0:0:0:0:
320,343,484729,1,0,0:0:0:0:
294,366,484794,1,0,0:0:0:0:
260,373,484859,1,0,0:0:0:0:
227,363,484924,1,0,0:0:0:0:
195,349,484989,1,0,0:0:0:0:
161,355,485054,1,0,0:0:0:0:
130,372,485120,6,0,L|108:304,7,50
89,249,485642,1,0,0:0:0:0:
96,236,485707,1,0,0:0:0:0:
101,222,485772,1,0,0:0:0:0:
104,207,485837,1,0,0:0:0:0:
104,192,485902,1,0,0:0:0:0:
102,177,485968,1,0,0:0:0:0:
98,163,486033,2,0,L|116:103,1,50
137,33,486163,6,0,B|198:26|198:26|264:32,1,100
294,78,486359,1,0,0:0:0:0:
301,101,486424,1,0,0:0:0:0:
308,125,486489,1,0,0:0:0:0:
315,149,486555,2,0,B|381:161|381:161|432:188,1,100
463,229,486750,1,0,0:0:0:0:
471,252,486815,1,0,0:0:0:0:
479,276,486880,1,0,0:0:0:0:
487,300,486946,2,0,P|440:303|388:343,1,100
331,370,487142,1,0,0:0:0:0:
331,370,487207,6,0,L|217:343,1,100
160,328,487403,1,0,0:0:0:0:
167,304,487468,1,0,0:0:0:0:
165,279,487533,1,0,0:0:0:0:
156,256,487598,2,0,L|168:193,1,50
199,132,487729,6,0,P|231:120|267:129,1,66.6666666666667
330,124,487903,2,0,P|324:157|298:184,1,66.6666666666667
274,244,488076,2,0,P|247:222|237:186,1,66.6666666666667
351,242,488250,6,0,L|366:374,1,100
435,361,488446,1,0,0:0:0:0:
432,336,488511,1,0,0:0:0:0:
429,311,488576,1,0,0:0:0:0:
426,286,488642,2,0,L|414:186,1,100
483,157,488837,1,0,0:0:0:0:
485,181,488902,1,0,0:0:0:0:
488,206,488967,1,0,0:0:0:0:
492,232,489033,2,0,L|503:331,1,100
432,336,489229,1,0,0:0:0:0:
432,336,489294,6,0,B|388:320|388:320|320:319,1,100
270,359,489490,2,0,P|244:324|251:252,1,100
218,198,489685,2,0,L|143:215,1,50
97,232,489816,2,0,B|69:190|69:190|57:126,1,100
190,18,490076,1,0,0:0:0:0:
226,9,490141,1,0,0:0:0:0:
263,14,490206,1,0,0:0:0:0:
295,32,490271,1,0,0:0:0:0:
319,61,490337,6,0,P|306:104|339:186,1,100
379,200,490533,1,0,0:0:0:0:
399,214,490598,1,0,0:0:0:0:
413,235,490663,1,0,0:0:0:0:
418,259,490729,2,0,L|294:279,1,100
253,240,490924,1,0,0:0:0:0:
232,226,490989,1,0,0:0:0:0:
218,205,491054,1,0,0:0:0:0:
224,180,491120,2,0,L|125:195,1,100
50,207,491316,1,0,0:0:0:0:
50,207,491381,6,0,B|32:257|32:257|41:317,1,100
93,354,491576,1,0,0:0:0:0:
112,338,491641,1,0,0:0:0:0:
135,328,491706,1,0,0:0:0:0:
160,326,491772,2,0,L|229:346,1,50
278,376,491903,5,0,0:0:0:0:
326,366,491968,1,0,0:0:0:0:
358,329,492033,1,0,0:0:0:0:
362,280,492098,1,0,0:0:0:0:
335,238,492163,1,0,0:0:0:0:
304,218,492228,1,0,0:0:0:0:
288,185,492293,1,0,0:0:0:0:
291,148,492358,1,0,0:0:0:0:
312,118,492423,1,0,0:0:0:0:
65,24,492685,6,0,L|58:100,1,50
136,124,492816,2,0,L|140:74,1,50
27,286,492946,1,0,0:0:0:0:
288,185,493076,1,0,0:0:0:0:
57,305,493207,1,0,0:0:0:0:
326,366,493337,1,0,0:0:0:0:
89,323,493468,6,0,L|150:355,1,55.0000016784668
209,382,493598,1,0,0:0:0:0:
220,345,493663,1,0,0:0:0:0:
242,314,493728,1,0,0:0:0:0:
273,291,493793,1,0,0:0:0:0:
310,279,493858,1,0,0:0:0:0:
348,279,493924,1,0,0:0:0:0:
384,291,493990,6,0,L|370:211,1,55.0000016784668
357,164,494120,1,0,0:0:0:0:
338,130,494185,1,0,0:0:0:0:
309,105,494250,1,0,0:0:0:0:
273,92,494315,1,0,0:0:0:0:
235,93,494380,1,0,0:0:0:0:
200,107,494446,1,0,0:0:0:0:
172,134,494511,6,0,L|179:194,1,55.0000016784668
193,263,494642,1,0,0:0:0:0:
186,300,494707,1,0,0:0:0:0:
164,331,494772,1,0,0:0:0:0:
130,349,494837,1,0,0:0:0:0:
92,350,494902,1,0,0:0:0:0:
57,334,494968,1,0,0:0:0:0:
33,305,495033,5,0,0:0:0:0:
82,89,495163,1,0,0:0:0:0:
110,271,495294,1,0,0:0:0:0:
110,271,495359,1,0,0:0:0:0:
110,271,495424,2,0,B|157:291|157:291|234:293,1,110.000003356934
408,218,495685,5,0,0:0:0:0:
443,230,495750,1,0,0:0:0:0:
464,262,495815,1,0,0:0:0:0:
461,300,495880,1,0,0:0:0:0:
436,328,495945,1,0,0:0:0:0:
399,336,496011,1,0,0:0:0:0:
365,320,496076,6,0,L|341:258,1,55.0000016784668
322,197,496207,1,0,0:0:0:0:
322,158,496272,1,0,0:0:0:0:
338,124,496337,1,0,0:0:0:0:
368,99,496402,1,0,0:0:0:0:
404,89,496467,1,0,0:0:0:0:
442,96,496533,1,0,0:0:0:0:
474,117,496598,5,0,0:0:0:0:
436,328,496729,1,0,0:0:0:0:
408,174,496859,1,0,0:0:0:0:
408,174,496924,1,0,0:0:0:0:
408,174,496990,1,0,0:0:0:0:
265,353,497120,2,0,L|250:228,1,110.000003356934
232,96,497381,2,0,L|141:86,1,55.0000016784668
107,173,497511,2,0,L|198:163,1,55.0000016784668
28,193,497642,6,0,B|19:253,1,55.0000016784668
8,328,497772,1,0,0:0:0:0:
43,314,497837,1,0,0:0:0:0:
82,311,497902,1,0,0:0:0:0:
119,320,497967,1,0,0:0:0:0:
153,338,498032,1,0,0:0:0:0:
192,344,498098,1,0,0:0:0:0:
224,324,498163,6,0,L|240:264,1,55.0000016784668
256,188,498294,1,0,0:0:0:0:
267,151,498359,1,0,0:0:0:0:
294,124,498424,1,0,0:0:0:0:
330,114,498489,1,0,0:0:0:0:
368,122,498554,1,0,0:0:0:0:
397,146,498620,1,0,0:0:0:0:
411,182,498685,6,0,L|400:248,1,55.0000016784668
355,305,498816,1,0,0:0:0:0:
322,285,498881,1,0,0:0:0:0:
285,275,498946,1,0,0:0:0:0:
246,276,499011,1,0,0:0:0:0:
210,287,499076,1,0,0:0:0:0:
178,309,499142,1,0,0:0:0:0:
153,338,499207,6,0,L|40:316,1,110.000003356934
112,144,499468,1,0,0:0:0:0:
112,144,499533,1,0,0:0:0:0:
112,144,499598,2,0,B|124:208|124:208|124:260,1,110.000003356934
32,64,499859,5,0,0:0:0:0:
67,50,499924,1,0,0:0:0:0:
105,44,499989,1,0,0:0:0:0:
143,52,500054,1,0,0:0:0:0:
175,73,500119,1,0,0:0:0:0:
210,87,500185,1,0,0:0:0:0:
249,84,500250,6,0,L|264:156,1,55.0000016784668
280,220,500381,1,0,0:0:0:0:
278,257,500446,1,0,0:0:0:0:
257,289,500511,1,0,0:0:0:0:
222,305,500576,1,0,0:0:0:0:
184,301,500641,1,0,0:0:0:0:
154,278,500707,1,0,0:0:0:0:
152,240,500772,5,0,0:0:0:0:
128,197,500837,1,0,0:0:0:0:
82,182,500902,1,0,0:0:0:0:
38,203,500967,1,0,0:0:0:0:
19,247,501033,2,0,L|24:316,1,55.0000016784668
106,295,501163,2,0,L|101:363,1,55.0000016784668
283,239,501294,2,0,L|290:359,1,110.000003356934
433,275,501555,1,0,0:0:0:0:
426,384,501685,1,0,0:0:0:0:
447,150,501816,6,0,B|424:103|424:103|375:61,1,100,0|0,0:0|0:0,0:0:0:0:
315,49,502011,1,0,0:0:0:0:
300,69,502076,1,0,0:0:0:0:
281,85,502141,1,0,0:0:0:0:
260,97,502207,2,0,B|214:92|214:92|139:131,1,100,0|0,0:0|0:0,0:0:0:0:
129,183,502403,1,0,0:0:0:0:
153,191,502468,1,0,0:0:0:0:
170,208,502533,1,0,0:0:0:0:
180,231,502598,2,0,B|225:264|225:264|244:329,1,100,0|0,0:0|0:0,0:0:0:0:
274,379,502794,1,0,0:0:0:0:
274,379,502859,6,0,B|325:321|325:321|364:303,1,100,0|0,0:0|0:0,0:0:0:0:
416,282,503055,1,0,0:0:0:0:
417,257,503120,1,0,0:0:0:0:
424,233,503185,1,0,0:0:0:0:
439,210,503250,2,0,L|405:153,1,50,0|0,0:0|0:0,0:0:0:0:
340,210,503381,2,0,P|293:195|272:157,1,66.6666666666667,0|0,0:0|0:0,0:0:0:0:
327,75,503555,2,0,P|337:122|316:158,1,66.6666666666667,0|0,0:0|0:0,0:0:0:0:
211,148,503729,2,0,P|246:114|289:115,1,66.6666666666667,0|0,0:0|0:0,0:0:0:0:
220,241,503903,6,0,L|95:223,1,100
55,262,504098,1,0,0:0:0:0:
45,284,504163,1,0,0:0:0:0:
47,309,504228,1,0,0:0:0:0:
60,331,504294,2,0,L|185:349,1,100
225,310,504489,1,0,0:0:0:0:
234,287,504554,1,0,0:0:0:0:
233,262,504619,1,0,0:0:0:0:
220,241,504685,2,0,P|201:181|237:118,1,100
268,98,504881,1,0,0:0:0:0:
268,98,504946,6,0,B|374:112|374:112|435:94,1,150
480,60,505207,2,0,B|492:116|492:116,1,50
455,223,505337,2,0,B|456:230|444:174,1,50
481,350,505468,2,0,B|432:341|432:341|370:351,1,100
244,382,505729,1,0,0:0:0:0:
207,375,505794,1,0,0:0:0:0:
181,349,505859,1,0,0:0:0:0:
173,313,505924,1,0,0:0:0:0:
187,279,505990,6,0,B|185:226|185:226|161:175,1,100
106,137,506185,1,0,0:0:0:0:
97,113,506250,1,0,0:0:0:0:
99,88,506315,1,0,0:0:0:0:
111,66,506381,2,0,B|161:53|161:53|235:57,1,100
269,99,506576,1,0,0:0:0:0:
277,122,506641,1,0,0:0:0:0:
285,146,506706,1,0,0:0:0:0:
293,169,506772,2,0,L|326:273,1,100
341,338,506968,1,0,0:0:0:0:
341,338,507033,6,0,P|290:335|220:362,1,100
170,369,507229,1,0,0:0:0:0:
158,346,507294,1,0,0:0:0:0:
141,329,507359,1,0,0:0:0:0:
118,318,507424,2,0,L|48:326,1,50
28,251,507555,2,0,P|12:197|39:153,1,66.6666666666667
132,158,507729,2,0,P|93:198|41:197,1,66.6666666666667
4,116,507903,2,0,P|58:129|83:174,1,66.6666666666667
152,241,508076,5,0,0:0:0:0:
182,260,508141,1,0,0:0:0:0:
216,267,508206,1,0,0:0:0:0:
250,261,508271,1,0,0:0:0:0:
280,243,508336,1,0,0:0:0:0:
301,215,508402,1,0,0:0:0:0:
310,181,508467,1,0,0:0:0:0:
306,147,508532,1,0,0:0:0:0:
290,116,508598,1,0,0:0:0:0:
269,89,508663,1,0,0:0:0:0:
266,54,508728,1,0,0:0:0:0:
282,24,508793,1,0,0:0:0:0:
312,7,508858,1,0,0:0:0:0:
347,10,508924,1,0,0:0:0:0:
374,30,508989,1,0,0:0:0:0:
386,63,509054,1,0,0:0:0:0:
377,97,509120,6,0,L|389:161,7,50
463,206,509642,1,0,0:0:0:0:
438,209,509707,1,0,0:0:0:0:
415,218,509772,1,0,0:0:0:0:
395,234,509837,1,0,0:0:0:0:
380,254,509902,1,0,0:0:0:0:
372,277,509968,1,0,0:0:0:0:
369,302,510033,1,0,0:0:0:0:
373,326,510098,1,0,0:0:0:0:
386,345,510163,6,0,B|325:352|325:352|259:346,1,100
229,300,510359,1,0,0:0:0:0:
222,277,510424,1,0,0:0:0:0:
215,253,510489,1,0,0:0:0:0:
208,229,510555,2,0,B|142:217|142:217|91:190,1,100
60,149,510750,1,0,0:0:0:0:
52,126,510815,1,0,0:0:0:0:
44,102,510880,1,0,0:0:0:0:
36,78,510946,2,0,P|83:75|135:35,1,100
192,8,511142,1,0,0:0:0:0:
192,8,511207,6,0,L|306:35,1,100
363,50,511403,1,0,0:0:0:0:
356,74,511468,1,0,0:0:0:0:
358,99,511533,1,0,0:0:0:0:
367,122,511598,2,0,L|355:185,1,50
324,246,511729,6,0,P|292:258|256:249,1,66.6666666666667
193,254,511903,2,0,P|199:221|225:194,1,66.6666666666667
249,134,512076,2,0,P|276:156|286:192,1,66.6666666666667
172,136,512250,6,0,L|157:4,1,100
88,17,512446,1,0,0:0:0:0:
91,42,512511,1,0,0:0:0:0:
94,67,512576,1,0,0:0:0:0:
97,92,512642,2,0,L|109:192,1,100
40,221,512837,1,0,0:0:0:0:
38,197,512902,1,0,0:0:0:0:
35,172,512967,1,0,0:0:0:0:
31,146,513033,2,0,L|20:47,1,100
91,42,513229,1,0,0:0:0:0:
91,42,513294,6,0,B|135:58|135:58|203:59,1,100
253,19,513490,2,0,P|279:54|272:126,1,100
305,180,513685,2,0,L|380:163,1,50
426,146,513816,2,0,B|454:188|454:188|466:252,1,100
333,360,514076,1,0,0:0:0:0:
297,369,514141,1,0,0:0:0:0:
260,364,514206,1,0,0:0:0:0:
228,346,514271,1,0,0:0:0:0:
204,317,514337,6,0,P|217:274|184:192,1,100
144,178,514533,1,0,0:0:0:0:
124,164,514598,1,0,0:0:0:0:
110,143,514663,1,0,0:0:0:0:
105,119,514729,2,0,L|229:99,1,100
270,138,514924,1,0,0:0:0:0:
291,152,514989,1,0,0:0:0:0:
305,173,515054,1,0,0:0:0:0:
299,198,515120,2,0,L|398:183,1,100
473,171,515316,1,0,0:0:0:0:
473,171,515381,6,0,L|476:102,1,50
469,255,515511,2,0,L|466:304,1,50
392,145,515642,2,0,L|395:76,1,50
388,229,515772,2,0,L|385:278,1,50
316,123,515903,1,0,0:0:0:0:
316,98,515968,1,0,0:0:0:0:
307,74,516033,1,0,0:0:0:0:
290,56,516098,1,0,0:0:0:0:
268,45,516163,1,0,0:0:0:0:
243,43,516229,1,0,0:0:0:0:
219,51,516294,1,0,0:0:0:0:
200,66,516359,1,0,0:0:0:0:
188,88,516424,6,0,B|197:143,1,50
266,178,516554,1,0,0:0:0:0:
279,216,516619,1,0,0:0:0:0:
311,239,516684,1,0,0:0:0:0:
349,242,516750,1,0,0:0:0:0:
385,225,516815,1,0,0:0:0:0:
405,191,516880,1,0,0:0:0:0:
408,150,516945,2,0,B|410:104|410:104|378:29,1,100
167,29,517206,1,0,0:0:0:0:
183,48,517271,1,0,0:0:0:0:
200,66,517336,1,0,0:0:0:0:
115,202,517467,5,0,0:0:0:0:
154,191,517532,1,0,0:0:0:0:
192,199,517597,1,0,0:0:0:0:
225,224,517662,1,0,0:0:0:0:
243,259,517727,1,0,0:0:0:0:
244,297,517793,1,0,0:0:0:0:
245,336,517858,1,0,0:0:0:0:
270,367,517923,1,0,0:0:0:0:
310,369,517989,2,0,P|364:328|385:263,1,100
420,88,518250,1,0,0:0:0:0:
403,70,518315,1,0,0:0:0:0:
385,52,518380,1,0,0:0:0:0:
199,39,518511,5,0,0:0:0:0:
163,54,518576,1,0,0:0:0:0:
132,81,518641,1,0,0:0:0:0:
122,118,518706,1,0,0:0:0:0:
120,158,518771,1,0,0:0:0:0:
108,196,518837,1,0,0:0:0:0:
82,226,518902,1,0,0:0:0:0:
47,249,518967,1,0,0:0:0:0:
9,248,519032,2,0,B|28:291|28:291|92:338,1,100
221,343,519293,1,0,0:0:0:0:
209,363,519358,1,0,0:0:0:0:
196,384,519423,1,0,0:0:0:0:
299,218,519555,6,0,L|430:211,2,100
207,112,520076,2,0,L|76:105,2,100
15,230,520598,6,0,B|11:291|11:291|77:376,1,160
214,340,520990,1,0,0:0:0:0:
214,340,521120,2,0,P|207:297|236:242,1,80
94,187,521381,2,0,P|101:230|72:285,1,80
208,135,521642,2,0,B|303:118|303:118|387:124,1,160
334,266,522033,1,0,0:0:0:0:
334,266,522163,2,0,L|302:173,1,80
434,283,522424,2,0,L|460:358,1,80
296,365,522685,6,0,P|254:348|142:382,1,160
28,317,523076,2,0,L|21:215,2,80
127,223,523468,2,0,L|134:121,1,80
252,34,523729,1,0,0:0:0:0:
308,90,523859,1,0,0:0:0:0:
330,167,523990,1,0,0:0:0:0:
303,242,524120,1,0,0:0:0:0:
226,265,524250,2,0,L|110:245,1,80
306,361,524511,2,0,L|422:341,1,80
468,243,524772,6,0,B|447:186|447:186|468:66,1,160
291,28,525163,1,0,0:0:0:0:
291,28,525294,2,0,B|343:37|343:37|383:18,1,80
228,101,525555,2,0,B|176:92|176:92|136:111,1,80
21,237,525816,2,0,B|88:225|88:225|121:248|121:248|186:235,1,160
42,377,526207,1,0,0:0:0:0:
42,377,526337,2,0,L|77:287,1,80
139,361,526598,2,0,L|223:314,1,80
318,258,526859,6,0,B|285:167|357:180|300:78,1,160
413,22,527250,2,0,L|405:107,2,80
499,143,527642,2,0,L|507:228,1,80
431,347,527903,1,0,0:0:0:0:
393,278,528033,1,0,0:0:0:0:
318,258,528163,1,0,0:0:0:0:
251,299,528294,1,0,0:0:0:0:
234,375,528424,2,0,B|191:364|191:364|125:364,1,80
72,273,528685,2,0,B|115:284|115:284|181:284,1,80
111,131,528946,6,0,L|127:234,1,80
183,76,529207,2,0,L|199:179,1,80
329,76,529468,2,0,L|316:155,1,80
401,129,529729,2,0,L|389:209,1,80
375,288,529990,1,0,0:0:0:0:
375,288,530120,1,0,0:0:0:0:
305,235,530250,1,0,0:0:0:0:
305,235,530380,1,0,0:0:0:0:
207,235,530511,1,0,0:0:0:0:
207,235,530641,1,0,0:0:0:0:
137,288,530771,1,0,0:0:0:0:
137,288,530901,1,0,0:0:0:0:
256,360,531033,6,0,L|368:352,1,80
296,264,531294,2,0,L|408:256,1,80
296,120,531555,2,0,L|375:125,1,80
256,24,531816,2,0,L|335:29,1,80
256,360,532076,2,0,L|144:352,1,80
216,264,532337,2,0,L|104:256,1,80
216,120,532598,2,0,L|136:125,1,80
256,24,532859,2,0,L|176:29,1,80
323,115,533120,6,0,B|308:177|308:177|321:294,1,160
462,171,533511,1,0,0:0:0:0:
462,171,533642,2,0,P|416:166|375:186,1,80
395,309,533903,2,0,P|422:271|425:226,1,80
394,104,534163,2,0,B|327:90|327:90|303:109|303:109|226:94,1,160
125,73,534555,1,0,0:0:0:0:
42,160,534685,2,0,B|32:212|32:212|37:266,1,80
170,316,534946,2,0,B|172:289|172:289|162:237,1,80
237,376,535207,6,0,L|420:350,1,160
258,273,535598,1,0,0:0:0:0:
258,273,535729,2,0,L|344:261,1,80
287,182,535990,2,0,L|373:170,1,80
235,52,536250,5,0,0:0:0:0:
207,56,536315,1,0,0:0:0:0:
181,66,536380,1,0,0:0:0:0:
157,81,536445,1,0,0:0:0:0:
138,101,536510,1,0,0:0:0:0:
123,124,536576,1,0,0:0:0:0:
113,151,536641,1,0,0:0:0:0:
109,178,536706,1,0,0:0:0:0:
111,206,536771,1,0,0:0:0:0:
119,233,536836,1,0,0:0:0:0:
132,258,536903,1,0,0:0:0:0:
140,284,536968,1,0,0:0:0:0:
134,311,537033,1,0,0:0:0:0:
114,330,537098,1,0,0:0:0:0:
87,335,537163,1,0,0:0:0:0:
61,326,537229,1,0,0:0:0:0:
45,304,537294,1,0,0:0:0:0:
414,54,538859,5,0,0:0:0:0:
414,54,538990,1,0,0:0:0:0:
327,111,539120,1,0,0:0:0:0:
328,135,539185,1,0,0:0:0:0:
330,160,539250,1,0,0:0:0:0:
332,185,539315,1,0,0:0:0:0:
334,209,539381,2,0,P|269:196|161:295,1,200
275,370,539903,2,0,L|260:262,1,100
368,384,540163,1,0,0:0:0:0:
354,284,540293,1,0,0:0:0:0:
457,368,540424,6,0,L|463:299,1,50
476,189,540555,2,0,L|471:238,1,50
388,313,540685,2,0,L|394:244,1,50
407,134,540816,2,0,L|402:183,1,50
312,271,540946,1,0,0:0:0:0:
286,255,541011,1,0,0:0:0:0:
267,232,541076,1,0,0:0:0:0:
257,204,541141,1,0,0:0:0:0:
257,174,541206,1,0,0:0:0:0:
267,145,541272,1,0,0:0:0:0:
273,116,541337,1,0,0:0:0:0:
263,89,541402,1,0,0:0:0:0:
240,70,541468,6,0,L|162:73,1,50
92,81,541598,1,0,0:0:0:0:
67,104,541663,1,0,0:0:0:0:
56,138,541728,1,0,0:0:0:0:
65,170,541793,1,0,0:0:0:0:
91,193,541858,1,0,0:0:0:0:
125,201,541924,1,0,0:0:0:0:
157,187,541990,6,0,L|166:268,1,50
168,330,542120,1,0,0:0:0:0:
136,313,542185,1,0,0:0:0:0:
103,309,542250,1,0,0:0:0:0:
68,316,542315,1,0,0:0:0:0:
39,334,542380,1,0,0:0:0:0:
16,362,542446,1,0,0:0:0:0:
6,328,542511,6,0,L|1:244,1,50
32,187,542642,1,0,0:0:0:0:
47,155,542707,1,0,0:0:0:0:
76,135,542772,1,0,0:0:0:0:
110,127,542837,1,0,0:0:0:0:
144,130,542902,1,0,0:0:0:0:
175,150,542968,1,0,0:0:0:0:
195,176,543033,6,0,B|158:189|158:189|124:256,1,100
233,366,543294,1,0,0:0:0:0:
233,366,543359,1,0,0:0:0:0:
233,366,543424,1,0,0:0:0:0:
343,297,543555,6,0,L|330:238,1,50
313,146,543685,1,0,0:0:0:0:
307,113,543750,1,0,0:0:0:0:
283,89,543815,1,0,0:0:0:0:
249,83,543880,1,0,0:0:0:0:
218,97,543945,1,0,0:0:0:0:
201,127,544011,1,0,0:0:0:0:
203,163,544076,6,0,L|244:203,1,50
332,248,544207,1,0,0:0:0:0:
367,249,544272,1,0,0:0:0:0:
400,238,544337,1,0,0:0:0:0:
426,216,544402,1,0,0:0:0:0:
445,186,544467,1,0,0:0:0:0:
452,152,544533,1,0,0:0:0:0:
440,119,544598,6,0,P|417:73|429:22,1,100
203,163,544859,1,0,0:0:0:0:
341,39,544990,1,0,0:0:0:0:
301,274,545120,2,0,L|179:266,1,100
375,372,545381,1,0,0:0:0:0:
399,370,545446,1,0,0:0:0:0:
424,368,545511,1,0,0:0:0:0:
460,236,545642,5,0,0:0:0:0:
465,201,545707,1,0,0:0:0:0:
458,167,545772,1,0,0:0:0:0:
441,137,545837,1,0,0:0:0:0:
415,114,545902,1,0,0:0:0:0:
382,101,545968,1,0,0:0:0:0:
347,100,546033,1,0,0:0:0:0:
314,111,546098,1,0,0:0:0:0:
286,131,546163,2,0,L|297:188,1,50
314,264,546294,5,0,0:0:0:0:
295,293,546359,1,0,0:0:0:0:
268,314,546424,1,0,0:0:0:0:
236,326,546489,1,0,0:0:0:0:
201,327,546554,1,0,0:0:0:0:
168,316,546620,1,0,0:0:0:0:
140,294,546685,2,0,L|130:235,1,50
119,163,546816,5,0,0:0:0:0:
149,147,546881,1,0,0:0:0:0:
166,117,546946,1,0,0:0:0:0:
164,82,547011,1,0,0:0:0:0:
144,54,547076,1,0,0:0:0:0:
112,42,547142,1,0,0:0:0:0:
78,49,547207,2,0,B|50:106|50:106|46:163,1,100
214,245,547468,1,0,0:0:0:0:
214,245,547533,1,0,0:0:0:0:
214,245,547598,1,0,0:0:0:0:
323,152,547729,6,0,L|401:142,1,50
461,127,547859,1,0,0:0:0:0:
445,158,547924,1,0,0:0:0:0:
440,192,547989,1,0,0:0:0:0:
445,227,548054,1,0,0:0:0:0:
461,258,548119,1,0,0:0:0:0:
485,283,548185,1,0,0:0:0:0:
477,316,548250,6,0,L|408:324,1,50
337,337,548381,1,0,0:0:0:0:
314,310,548446,1,0,0:0:0:0:
285,291,548511,1,0,0:0:0:0:
251,284,548576,1,0,0:0:0:0:
216,287,548641,1,0,0:0:0:0:
184,302,548707,1,0,0:0:0:0:
157,324,548772,6,0,B|130:262|130:262|144:198,1,100
136,230,548968,1,0,0:0:0:0:
136,230,549033,2,0,L|129:158,1,50
220,80,549163,2,0,L|225:129,1,50
82,68,549294,1,0,0:0:0:0:
354,326,549816,6,0,B|384:284|384:284|395:220,1,100
375,164,550011,1,0,0:0:0:0:
351,160,550076,1,0,0:0:0:0:
327,152,550141,1,0,0:0:0:0:
306,140,550207,2,0,B|287:98|287:98|216:52,1,100
166,69,550403,1,0,0:0:0:0:
172,94,550468,1,0,0:0:0:0:
165,117,550533,1,0,0:0:0:0:
150,137,550598,2,0,L|97:242,1,100
69,293,550794,1,0,0:0:0:0:
69,293,550859,6,0,B|145:309|145:309|180:333,1,100
223,367,551055,1,0,0:0:0:0:
246,355,551120,1,0,0:0:0:0:
270,350,551185,1,0,0:0:0:0:
296,352,551250,2,0,L|329:295,1,50
361,245,551381,2,0,P|350:197|372:161,1,66.6666666666667
471,167,551555,2,0,P|436:200|393:199,1,66.6666666666667
352,108,551729,2,0,P|399:122|419:160,1,66.6666666666667
150,152,551903,6,0,B|146:184|146:184|102:236,1,100
28,237,552098,1,0,0:0:0:0:
23,213,552163,1,0,0:0:0:0:
24,188,552228,1,0,0:0:0:0:
34,164,552294,2,0,B|70:108|70:108|82:49,1,100
84,0,552490,1,0,0:0:0:0:
109,0,552555,1,0,0:0:0:0:
134,4,552620,1,0,0:0:0:0:
157,14,552685,2,0,B|196:47|196:47|222:100,1,100
199,163,552881,1,0,0:0:0:0:
199,163,552946,6,0,P|233:197|325:201,1,133.333333333333
383,147,553207,2,0,L|452:161,2,66.6666666666667
406,228,553468,2,0,B|374:265|374:265|363:338,1,100
214,357,553729,5,0,0:0:0:0:
194,326,553794,1,0,0:0:0:0:
166,301,553859,1,0,0:0:0:0:
132,284,553924,1,0,0:0:0:0:
97,274,553990,6,0,B|124:232|124:232|128:167,1,100
91,118,554185,1,0,0:0:0:0:
92,93,554250,1,0,0:0:0:0:
103,70,554315,1,0,0:0:0:0:
121,51,554381,2,0,L|234:81,1,100
291,99,554577,1,0,0:0:0:0:
305,119,554642,1,0,0:0:0:0:
320,139,554707,1,0,0:0:0:0:
334,160,554772,2,0,B|310:199|310:199|296:271,1,100
309,328,554968,1,0,0:0:0:0:
309,328,555033,6,0,B|378:330|378:330|432:315,1,100
434,250,555229,1,0,0:0:0:0:
434,225,555294,1,0,0:0:0:0:
441,202,555359,1,0,0:0:0:0:
457,182,555424,2,0,L|432:137,1,50
390,76,555555,2,0,L|302:63,1,66.6666666666667
283,118,555729,2,0,L|339:47,1,66.6666666666667
300,4,555903,2,0,L|334:86,1,66.6666666666667
321,197,556076,5,0,0:0:0:0:
296,192,556141,1,0,0:0:0:0:
271,196,556206,1,0,0:0:0:0:
250,208,556271,1,0,0:0:0:0:
233,226,556337,5,0,0:0:0:0:
216,207,556402,1,0,0:0:0:0:
195,194,556467,1,0,0:0:0:0:
171,189,556532,1,0,0:0:0:0:
146,191,556598,5,0,0:0:0:0:
145,165,556663,1,0,0:0:0:0:
137,142,556728,1,0,0:0:0:0:
122,122,556793,1,0,0:0:0:0:
101,108,556859,5,0,0:0:0:0:
116,87,556924,1,0,0:0:0:0:
125,64,556989,1,0,0:0:0:0:
126,39,557054,1,0,0:0:0:0:
119,15,557120,6,0,L|187:17,1,50
204,89,557250,2,0,L|253:87,1,50
250,0,557381,2,0,L|318:2,1,50
335,74,557511,2,0,L|384:72,1,50
466,126,557642,1,0,0:0:0:0:
438,147,557707,1,0,0:0:0:0:
419,176,557772,1,0,0:0:0:0:
410,210,557837,1,0,0:0:0:0:
413,245,557902,1,0,0:0:0:0:
427,276,557968,1,0,0:0:0:0:
423,311,558033,2,0,L|358:342,1,50
309,364,558163,6,0,B|249:349|249:349|189:321,1,100
168,271,558359,1,0,0:0:0:0:
170,247,558424,1,0,0:0:0:0:
171,222,558489,1,0,0:0:0:0:
173,197,558555,2,0,B|115:163|115:163|76:120,1,100
52,81,558750,1,0,0:0:0:0:
61,57,558815,1,0,0:0:0:0:
70,34,558880,1,0,0:0:0:0:
79,12,558946,2,0,P|116:39|182:42,1,100
243,14,559142,1,0,0:0:0:0:
243,14,559207,6,0,L|340:78,1,100
390,112,559403,1,0,0:0:0:0:
375,133,559468,1,0,0:0:0:0:
368,157,559533,1,0,0:0:0:0:
369,181,559598,2,0,L|336:236,1,50
286,283,559729,6,0,P|251:283|221:262,1,66.6666666666667
160,246,559903,2,0,P|176:217|210:200,1,66.6666666666667
254,152,560076,2,0,P|271:181|268:219,1,66.6666666666667
194,350,560250,6,0,L|75:335,1,100
41,283,560446,1,0,0:0:0:0:
50,260,560511,1,0,0:0:0:0:
53,235,560576,1,0,0:0:0:0:
48,211,560642,2,0,B|45:162|45:162|68:109,1,100
132,82,560837,1,0,0:0:0:0:
155,88,560902,1,0,0:0:0:0:
180,89,560967,1,0,0:0:0:0:
205,83,561033,2,0,L|317:93,1,100
380,100,561229,1,0,0:0:0:0:
380,100,561294,6,0,B|379:159|379:159|306:224,1,150
228,230,561555,2,0,L|194:291,2,66.6666666666667
296,300,561816,2,0,P|343:298|407:337,1,100
232,377,562076,1,0,0:0:0:0:
195,369,562141,1,0,0:0:0:0:
158,362,562206,1,0,0:0:0:0:
121,355,562271,1,0,0:0:0:0:
84,348,562337,6,0,B|97:299|97:299|86:242,1,100
55,181,562533,1,0,0:0:0:0:
42,159,562598,1,0,0:0:0:0:
39,134,562663,1,0,0:0:0:0:
45,111,562729,2,0,L|154:97,1,100
219,92,562924,1,0,0:0:0:0:
243,95,562989,1,0,0:0:0:0:
265,108,563054,1,0,0:0:0:0:
280,127,563120,2,0,B|268:178|268:178|283:250,1,100
340,309,563316,1,0,0:0:0:0:
340,309,563381,6,0,L|466:292,1,100
439,295,563576,1,0,0:0:0:0:
439,295,563642,1,0,0:0:0:0:
439,295,563707,1,0,0:0:0:0:
439,295,563772,2,0,P|431:227|466:191,1,100
448,203,563968,1,0,0:0:0:0:
448,203,564033,2,0,L|454:140,1,50
382,67,564163,2,0,L|377:116,1,50
295,156,564294,1,0,0:0:0:0:
295,156,564359,1,0,0:0:0:0:
295,156,564424,6,0,B|236:146|236:146|175:155,1,100
44,273,564685,1,0,0:0:0:0:
39,235,564750,1,0,0:0:0:0:
35,198,564815,1,0,0:0:0:0:
31,161,564880,1,0,0:0:0:0:
27,123,564945,1,0,0:0:0:0:
262,8,565076,1,0,0:0:0:0:
287,314,565207,1,0,0:0:0:0:
122,179,565337,1,0,0:0:0:0:
352,92,565468,6,0,L|430:109,1,55.0000016784668
490,126,565598,1,0,0:0:0:0:
493,164,565663,1,0,0:0:0:0:
481,200,565728,1,0,0:0:0:0:
455,228,565793,1,0,0:0:0:0:
419,242,565858,1,0,0:0:0:0:
381,241,565924,1,0,0:0:0:0:
347,225,565990,6,0,L|286:238,1,55.0000016784668
212,257,566120,1,0,0:0:0:0:
174,249,566185,1,0,0:0:0:0:
147,223,566250,1,0,0:0:0:0:
138,186,566315,1,0,0:0:0:0:
151,150,566380,1,0,0:0:0:0:
181,127,566446,1,0,0:0:0:0:
218,123,566511,6,0,L|266:152,1,55.0000016784668
346,151,566642,1,0,0:0:0:0:
365,118,566707,1,0,0:0:0:0:
369,80,566772,1,0,0:0:0:0:
356,44,566837,1,0,0:0:0:0:
329,17,566902,1,0,0:0:0:0:
292,5,566968,1,0,0:0:0:0:
260,26,567033,6,0,L|134:41,1,110.000003356934
34,114,567294,1,0,0:0:0:0:
34,114,567359,1,0,0:0:0:0:
34,114,567424,2,0,B|41:150|41:150|20:237,1,110.000003356934
75,358,567685,1,0,0:0:0:0:
94,324,567750,1,0,0:0:0:0:
122,298,567815,1,0,0:0:0:0:
155,280,567880,1,0,0:0:0:0:
193,271,567945,1,0,0:0:0:0:
231,273,568011,1,0,0:0:0:0:
267,285,568076,6,0,L|285:347,1,55.0000016784668
359,382,568207,1,0,0:0:0:0:
397,379,568272,1,0,0:0:0:0:
431,361,568337,1,0,0:0:0:0:
454,332,568402,1,0,0:0:0:0:
464,295,568467,1,0,0:0:0:0:
458,257,568533,1,0,0:0:0:0:
437,225,568598,6,0,L|303:243,1,110.000003356934
454,107,568859,1,0,0:0:0:0:
454,107,568924,1,0,0:0:0:0:
454,107,568990,1,0,0:0:0:0:
339,32,569120,2,0,L|326:160,1,110.000003356934
236,5,569381,2,0,L|245:133,1,110.000003356934
117,0,569642,6,0,L|138:84,1,55.0000016784668
155,133,569772,1,0,0:0:0:0:
164,169,569837,1,0,0:0:0:0:
152,205,569902,1,0,0:0:0:0:
122,229,569967,1,0,0:0:0:0:
84,232,570032,1,0,0:0:0:0:
51,214,570098,1,0,0:0:0:0:
35,179,570163,6,0,L|44:124,1,55.0000016784668
116,88,570294,1,0,0:0:0:0:
151,102,570359,1,0,0:0:0:0:
189,105,570424,1,0,0:0:0:0:
226,96,570489,1,0,0:0:0:0:
259,76,570554,1,0,0:0:0:0:
283,46,570620,1,0,0:0:0:0:
298,11,570685,6,0,L|369:22,1,55.0000016784668
428,40,570816,1,0,0:0:0:0:
442,75,570881,1,0,0:0:0:0:
442,113,570946,1,0,0:0:0:0:
427,148,571011,1,0,0:0:0:0:
400,174,571076,1,0,0:0:0:0:
364,188,571142,1,0,0:0:0:0:
326,186,571207,2,0,P|307:236|337:318,1,110.000003356934
216,360,571468,1,0,0:0:0:0:
216,360,571533,1,0,0:0:0:0:
216,360,571598,2,0,L|99:346,1,110.000003356934
35,256,571859,5,0,0:0:0:0:
58,226,571924,1,0,0:0:0:0:
71,189,571989,1,0,0:0:0:0:
72,151,572054,1,0,0:0:0:0:
60,115,572119,1,0,0:0:0:0:
36,84,572185,1,0,0:0:0:0:
43,47,572250,6,0,L|115:36,1,55.0000016784668
181,30,572381,1,0,0:0:0:0:
199,63,572446,1,0,0:0:0:0:
227,90,572511,1,0,0:0:0:0:
261,108,572576,1,0,0:0:0:0:
298,116,572641,1,0,0:0:0:0:
336,114,572707,1,0,0:0:0:0:
372,101,572772,5,0,0:0:0:0:
414,88,572837,1,0,0:0:0:0:
457,96,572902,1,0,0:0:0:0:
490,125,572967,1,0,0:0:0:0:
505,166,573032,1,0,0:0:0:0:
498,209,573098,1,0,0:0:0:0:
471,243,573163,1,0,0:0:0:0:
431,259,573228,1,0,0:0:0:0:
387,254,573294,6,0,L|293:318,1,110.000003356934
125,288,573555,1,0,0:0:0:0:
216,227,573685,1,0,0:0:0:0:
83,74,573816,5,0,0:0:0:0:
113,46,573881,1,0,0:0:0:0:
154,45,573946,1,0,0:0:0:0:
187,70,574011,1,0,0:0:0:0:
195,111,574076,1,0,0:0:0:0:
176,147,574142,1,0,0:0:0:0:
147,177,574207,1,0,0:0:0:0:
136,217,574272,1,0,0:0:0:0:
145,257,574337,5,0,0:0:0:0:
172,289,574402,1,0,0:0:0:0:
211,303,574468,1,0,0:0:0:0:
252,298,574533,1,0,0:0:0:0:
285,273,574598,1,0,0:0:0:0:
320,250,574663,1,0,0:0:0:0:
361,252,574728,1,0,0:0:0:0:
393,279,574793,1,0,0:0:0:0:
403,319,574858,5,0,0:0:0:0:
387,357,574924,1,0,0:0:0:0:
352,378,574989,1,0,0:0:0:0:
311,374,575054,1,0,0:0:0:0:
279,346,575120,1,0,0:0:0:0:
262,308,575185,1,0,0:0:0:0:
263,267,575250,1,0,0:0:0:0:
280,229,575315,1,0,0:0:0:0:
313,203,575381,5,0,0:0:0:0:
337,169,575446,1,0,0:0:0:0:
345,128,575511,1,0,0:0:0:0:
335,88,575576,1,0,0:0:0:0:
309,55,575641,1,0,0:0:0:0:
271,37,575707,1,0,0:0:0:0:
229,36,575772,1,0,0:0:0:0:
191,53,575837,1,0,0:0:0:0:
164,85,575903,2,0,B|178:146|178:146|161:230,1,119.999996337891
112,300,576163,6,0,L|190:309,1,59.9999981689454
276,381,576294,2,0,L|216:374,1,59.9999981689454
145,224,576424,2,0,L|223:233,1,59.9999981689454
309,305,576555,2,0,L|249:298,1,59.9999981689454
176,151,576685,2,0,L|254:160,1,59.9999981689454
340,232,576816,2,0,L|280:225,1,59.9999981689454
209,75,576946,2,0,L|287:84,1,59.9999981689454
373,156,577077,2,0,L|313:149,1,59.9999981689454
475,57,577207,6,0,L|479:143,1,59.9999981689454
375,96,577337,2,0,L|371:182,1,59.9999981689454
497,204,577468,2,0,L|501:290,1,59.9999981689454
397,243,577598,2,0,L|393:329,1,59.9999981689454
473,362,577729,1,0,0:0:0:0:
213,353,577990,5,0,0:0:0:0:
205,326,578055,1,0,0:0:0:0:
197,300,578120,1,0,0:0:0:0:
189,273,578185,1,0,0:0:0:0:
182,247,578250,2,0,L|218:200,3,55.0000016784668
196,113,578511,1,0,0:0:0:0:
177,132,578576,1,0,0:0:0:0:
158,152,578641,1,0,0:0:0:0:
139,172,578706,1,0,0:0:0:0:
119,192,578771,2,0,L|60:184,3,55.0000016784668
2,244,579033,1,0,0:0:0:0:
28,250,579098,1,0,0:0:0:0:
55,257,579163,1,0,0:0:0:0:
81,263,579228,1,0,0:0:0:0:
109,271,579293,2,0,L|131:325,3,55.0000016784668
215,376,579555,5,0,0:0:0:0:
238,362,579620,1,0,0:0:0:0:
264,354,579685,1,0,0:0:0:0:
292,352,579750,1,0,0:0:0:0:
319,356,579816,2,0,L|305:278,1,55.0000016784668
290,221,579946,6,0,B|288:171|288:171|318:107,1,110.000003356934
437,274,580207,1,0,0:0:0:0:
437,274,580272,1,0,0:0:0:0:
437,274,580337,1,0,0:0:0:0:
367,185,580468,1,0,0:0:0:0:
348,297,580598,1,0,0:0:0:0:
348,297,580663,1,0,0:0:0:0:
348,297,580729,1,0,0:0:0:0:
456,174,580859,1,0,0:0:0:0:
456,174,580924,1,0,0:0:0:0:
456,174,580990,2,0,L|446:102,1,55.0000016784668
437,40,581120,5,0,0:0:0:0:
383,30,581185,1,0,0:0:0:0:
332,47,581250,1,0,0:0:0:0:
295,87,581315,1,0,0:0:0:0:
283,140,581381,2,0,L|200:123,1,55.0000016784668
118,216,581511,2,0,L|201:198,1,55.0000016784668
59,93,581642,1,0,0:0:0:0:
54,120,581707,1,0,0:0:0:0:
50,147,581772,1,0,0:0:0:0:
20,297,581903,1,0,0:0:0:0:
20,297,582163,6,0,B|84:317|84:317|189:317,1,160
276,222,582555,1,0,0:0:0:0:
276,222,582685,2,0,L|268:327,1,80
387,192,582946,2,0,L|395:297,1,80
482,170,583207,6,0,L|467:-5,1,160
316,102,583598,1,0,0:0:0:0:
316,102,583729,2,0,L|411:114,1,80
280,19,583990,2,0,L|185:31,1,80
95,69,584250,6,0,B|105:142|105:142|90:166|90:166|101:239,1,160
133,333,584642,1,0,0:0:0:0:
133,333,584772,2,0,P|81:328|38:340,1,80
205,255,585033,2,0,P|257:260|300:248,1,80
377,157,585294,6,0,L|372:273,1,80
480,219,585555,2,0,L|485:335,1,80
483,127,585816,1,0,0:0:0:0:
483,127,585946,1,0,0:0:0:0:
385,62,586076,1,0,0:0:0:0:
385,62,586206,1,0,0:0:0:0:
273,151,586337,6,0,L|86:129,1,160
218,237,586729,1,0,0:0:0:0:
218,237,586859,2,0,L|117:225,1,80
158,320,587120,2,0,L|57:308,1,80
260,334,587381,6,0,B|314:308|314:308|426:308,1,160
305,152,587772,1,0,0:0:0:0:
305,152,587903,2,0,L|298:236,1,80
394,110,588163,2,0,L|401:194,1,80
319,26,588424,6,0,B|272:20|272:20|221:35,1,80
109,152,588685,2,0,B|140:161|140:161|187:155,1,80
146,4,588946,2,0,B|140:51|140:51|155:102,1,80
278,174,589207,2,0,B|287:142|287:142|281:95,1,80
184,232,589468,5,0,0:0:0:0:
184,232,589598,1,0,0:0:0:0:
312,287,589729,1,0,0:0:0:0:
312,287,589859,1,0,0:0:0:0:
146,329,589990,1,0,0:0:0:0:
146,329,590120,1,0,0:0:0:0:
274,384,590251,1,0,0:0:0:0:
274,384,590381,1,0,0:0:0:0:
339,268,590511,6,0,P|332:212|394:120,1,160
282,15,590903,1,0,0:0:0:0:
229,120,591033,2,0,L|123:107,1,80
23,215,591294,2,0,L|129:202,1,80
234,357,591555,6,0,B|142:342|142:342|68:360,1,160
287,287,591946,1,0,0:0:0:0:
287,287,592076,2,0,B|195:272,1,80
332,212,592337,2,0,B|240:197,1,80
454,83,592598,6,0,B|417:165|480:144|439:264,1,160
304,51,592990,1,0,0:0:0:0:
304,51,593120,2,0,L|407:47,1,80
209,56,593381,2,0,L|129:59,1,80
38,249,593642,6,0,L|34:169,1,80
141,333,593903,2,0,L|144:253,1,80
255,251,594163,1,0,0:0:0:0:
251,171,594293,1,0,0:0:0:0:
357,334,594424,1,0,0:0:0:0:
360,254,594554,1,0,0:0:0:0:
469,274,594685,6,0,L|455:106,1,160
348,48,595076,1,0,0:0:0:0:
348,48,595207,2,0,L|356:145,1,80
248,12,595468,2,0,L|256:109,1,80
271,215,595729,6,0,B|207:206|207:206|180:232|180:232|105:223,1,160
232,316,596120,1,0,0:0:0:0:
232,316,596250,2,0,L|346:312,1,80
475,308,596511,2,0,L|395:310,1,80
257,198,596772,6,0,L|248:100,1,80
352,242,597033,2,0,L|361:144,1,80
197,335,597294,2,0,L|188:237,1,80
292,379,597555,2,0,L|301:281,1,80
310,189,597816,5,0,0:0:0:0:
307,157,597881,1,0,0:0:0:0:
295,127,597946,1,0,0:0:0:0:
275,103,598011,1,0,0:0:0:0:
248,86,598076,1,0,0:0:0:0:
217,79,598142,1,0,0:0:0:0:
185,81,598207,1,0,0:0:0:0:
156,94,598272,1,0,0:0:0:0:
132,115,598337,1,0,0:0:0:0:
105,132,598402,1,0,0:0:0:0:
73,132,598467,1,0,0:0:0:0:
47,115,598532,1,0,0:0:0:0:
33,87,598597,1,0,0:0:0:0:
36,55,598663,1,0,0:0:0:0:
56,31,598728,1,0,0:0:0:0:
85,20,598793,1,0,0:0:0:0:
116,27,598858,1,0,0:0:0:0:
155,104,603033,5,0,0:0:0:0:
171,303,603293,1,0,0:0:0:0:
164,93,603555,5,0,0:0:0:0:
160,293,603815,1,0,0:0:0:0:
175,84,604076,1,0,0:0:0:0:
150,283,604336,1,0,0:0:0:0:
187,77,604598,1,0,0:0:0:0:
141,271,604858,1,0,0:0:0:0:
372,345,605120,5,0,0:0:0:0:
348,146,605380,1,0,0:0:0:0:
382,351,605642,5,0,0:0:0:0:
348,130,605902,1,0,0:0:0:0:
390,360,606163,5,0,0:0:0:0:
348,114,606424,1,0,0:0:0:0:
400,370,606685,5,0,0:0:0:0:
348,97,606946,1,0,0:0:0:0:
