osu file format v14

[General]
AudioFilename: Seven Colors.mp3
AudioLeadIn: 0
PreviewTime: 60370
Countdown: 0
SampleSet: None
StackLeniency: 0.7
Mode: 3
LetterboxInBreaks: 0
SpecialStyle: 0
WidescreenStoryboard: 1

[Editor]
Bookmarks: 2770,12370,21970,31570,41170,50770,60370,79570,89470,103570,117970,134770,144370,163570,185170,204370
DistanceSpacing: 1.3
BeatDivisor: 4
GridSize: 32
TimelineZoom: 2.399999

[Metadata]
Title:Seven Colors
TitleUnicode:Seven Colors
Artist:UNDEAD CORPORATION
ArtistUnicode:UNDEAD CORPORATION
Creator:Nwolf
Version:LordRaika's 7K HD
Source:東方Project
Tags:LordRaika _underjoy puxtu LTL Lost The Lights Dainesl Touhou 幽霊楽団 Ghostly Band Phantom Ensemble Prismriver Sister th07 Perfect Cherry Blossom 東方妖々夢 ZUN Team Shanghai Alice パインツリー 朱美 Tyrant 暴君 窪田道元 Pinetree Akemi
BeatmapID:1215701
BeatmapSetID:288138

[Difficulty]
HPDrainRate:8
CircleSize:7
OverallDifficulty:7.8
ApproachRate:8
SliderMultiplier:1.4
SliderTickRate:1

[Events]
//Background and Video events
0,0,"Prismriver.Sisters.full.847599.jpg",0,0
//Break Periods
//Storyboard Layer 0 (Background)
//Storyboard Layer 1 (Fail)
//Storyboard Layer 2 (Pass)
//Storyboard Layer 3 (Foreground)
//Storyboard Sound Samples

[TimingPoints]
370,300,4,1,23,55,1,0
595,-71.4285714285714,4,1,23,55,0,0
670,-166.666666666667,4,1,23,55,0,0
745,-100,4,1,23,55,0,0
1045,-71.4285714285714,4,1,23,55,0,0
1120,-166.666666666667,4,1,23,55,0,0
1195,-100,4,1,23,55,0,0
2470,-71.4285714285714,4,1,23,55,0,0
2545,-166.666666666667,4,1,23,55,0,0
2620,-100,4,1,23,55,0,0
2770,-100,4,1,23,55,0,0
4870,-71.4285714285714,4,1,23,55,0,0
4945,-166.666666666667,4,1,23,55,0,0
5020,-100,4,1,23,55,0,0
7270,-71.4285714285714,4,1,23,55,0,0
7345,-166.666666666667,4,1,23,55,0,0
7420,-100,4,1,23,55,0,0
9670,-71.4285714285714,4,1,23,55,0,0
9745,-166.666666666667,4,1,23,55,0,0
9820,-100,4,1,23,55,0,0
11320,-74.0740740740741,4,1,23,55,0,0
11395,-153.846153846154,4,1,23,55,0,0
11470,-74.0740740740741,4,1,23,55,0,0
11545,-153.846153846154,4,1,23,55,0,0
11620,-74.0740740740741,4,1,23,55,0,0
11695,-153.846153846154,4,1,23,55,0,0
11770,-74.0740740740741,4,1,23,55,0,0
11845,-153.846153846154,4,1,23,55,0,0
11920,-74.0740740740741,4,1,23,55,0,0
11995,-153.846153846154,4,1,23,55,0,0
12070,-74.0740740740741,4,1,23,55,0,0
12145,-153.846153846154,4,1,23,55,0,0
12220,-74.0740740740741,4,1,23,55,0,0
12295,-153.846153846154,4,1,23,55,0,0
12370,-100,4,1,23,55,0,0
14470,-71.4285714285714,4,1,23,55,0,0
14545,-166.666666666667,4,1,23,55,0,0
14620,-100,4,1,23,55,0,0
16870,-71.4285714285714,4,1,23,55,0,0
16945,-166.666666666667,4,1,23,55,0,0
17020,-100,4,1,23,55,0,0
19270,-71.4285714285714,4,1,23,55,0,0
19345,-166.666666666667,4,1,23,55,0,0
19420,-100,4,1,23,55,0,0
21970,-71.4285714285714,4,1,23,55,0,0
22045,-166.666666666667,4,1,23,55,0,0
22120,-100,4,1,23,55,0,0
23020,-71.4285714285714,4,1,23,55,0,0
23095,-166.666666666667,4,1,23,55,0,0
23170,-100,4,1,23,55,0,0
24220,-71.4285714285714,4,1,23,55,0,0
24295,-166.666666666667,4,1,23,55,0,0
24370,-100,4,1,23,55,0,0
25420,-71.4285714285714,4,1,23,55,0,0
25495,-166.666666666667,4,1,23,55,0,0
25570,-100,4,1,23,55,0,0
27820,-71.4285714285714,4,1,23,55,0,0
27895,-166.666666666667,4,1,23,55,0,0
27970,-100,4,1,23,55,0,0
29020,-71.4285714285714,4,1,23,55,0,0
29095,-166.666666666667,4,1,23,55,0,0
29170,-100,4,1,23,55,0,0
30220,-71.4285714285714,4,1,23,55,0,0
30295,-166.666666666667,4,1,23,55,0,0
30370,-100,4,1,23,55,0,0
30520,-74.0740740740741,4,1,23,55,0,0
30595,-153.846153846154,4,1,23,55,0,0
30670,-74.0740740740741,4,1,23,55,0,0
30745,-153.846153846154,4,1,23,55,0,0
30820,-74.0740740740741,4,1,23,55,0,0
30895,-153.846153846154,4,1,23,55,0,0
30970,-100,4,1,23,55,0,0
32620,-71.4285714285714,4,1,23,55,0,0
32695,-166.666666666667,4,1,23,55,0,0
32770,-100,4,1,23,55,0,0
33820,-71.4285714285714,4,1,23,55,0,0
33895,-166.666666666667,4,1,23,55,0,0
33970,-100,4,1,23,55,0,0
35020,-71.4285714285714,4,1,23,55,0,0
35095,-166.666666666667,4,1,23,55,0,0
35170,-100,4,1,23,55,0,0
37420,-71.4285714285714,4,1,23,55,0,0
37495,-166.666666666667,4,1,23,55,0,0
37570,-100,4,1,23,55,0,0
38620,-71.4285714285714,4,1,23,55,0,0
38695,-166.666666666667,4,1,23,55,0,0
38770,-100,4,1,23,55,0,0
39820,-71.4285714285714,4,1,23,55,0,0
39895,-166.666666666667,4,1,23,55,0,0
39970,-100,4,1,23,55,0,0
41170,-71.4285714285714,4,1,23,55,0,0
41245,-166.666666666667,4,1,23,55,0,0
41320,-100,4,1,23,55,0,0
42220,-71.4285714285714,4,1,23,55,0,0
42295,-166.666666666667,4,1,23,55,0,0
42370,-100,4,1,23,55,0,0
43420,-71.4285714285714,4,1,23,55,0,0
43495,-166.666666666667,4,1,23,55,0,0
43570,-100,4,1,23,55,0,0
44620,-71.4285714285714,4,1,23,55,0,0
44695,-166.666666666667,4,1,23,55,0,0
44770,-100,4,1,23,55,0,0
47020,-71.4285714285714,4,1,23,55,0,0
47095,-166.666666666667,4,1,23,55,0,0
47170,-100,4,1,23,55,0,0
48220,-71.4285714285714,4,1,23,55,0,0
48295,-166.666666666667,4,1,23,55,0,0
48370,-100,4,1,23,55,0,0
49720,-62.5,4,1,23,55,0,0
49757,-250,4,1,23,55,0,0
49795,-100,4,1,23,55,0,0
49870,-62.5,4,1,23,55,0,0
49907,-250,4,1,23,55,0,0
49945,-100,4,1,23,55,0,0
51370,-71.4285714285714,4,1,23,55,0,0
51445,-166.666666666667,4,1,23,55,0,0
51520,-100,4,1,23,55,0,0
52570,-71.4285714285714,4,1,23,55,0,0
52645,-166.666666666667,4,1,23,55,0,0
52720,-100,4,1,23,55,0,0
53770,-71.4285714285714,4,1,23,55,0,0
53845,-166.666666666667,4,1,23,55,0,0
53920,-100,4,1,23,55,0,0
54970,-71.4285714285714,4,1,23,55,0,0
55045,-166.666666666667,4,1,23,55,0,0
55120,-100,4,1,23,55,0,0
56170,-71.4285714285714,4,1,23,55,0,0
56245,-166.666666666667,4,1,23,55,0,0
56320,-100,4,1,23,55,0,0
58570,-71.4285714285714,4,1,23,55,0,0
58645,-166.666666666667,4,1,23,55,0,0
58720,-100,4,1,23,55,0,0
58870,-81.9672131147541,4,1,23,55,0,0
58920,-128.205128205128,4,1,23,55,0,0
58970,-81.9672131147541,4,1,23,55,0,0
59020,-128.205128205128,4,1,23,55,0,0
59070,-81.9672131147541,4,1,23,55,0,0
59120,-128.205128205128,4,1,23,55,0,0
59170,-62.5,4,1,23,55,0,0
59220,-250,4,1,23,55,0,0
59270,-62.5,4,1,23,55,0,0
59320,-100,4,1,23,55,0,0
59470,-81.9672131147541,4,1,23,55,0,0
59520,-128.205128205128,4,1,23,55,0,0
59570,-81.9672131147541,4,1,23,55,0,0
59620,-128.205128205128,4,1,23,55,0,0
59670,-81.9672131147541,4,1,23,55,0,0
59720,-128.205128205128,4,1,23,55,0,0
59770,-62.5,4,1,23,55,0,0
59820,-250,4,1,23,55,0,0
59870,-100,4,1,23,55,0,0
60070,-76.9230769230769,4,1,23,55,0,0
60120,-142.857142857143,4,1,23,55,0,0
60170,-76.9230769230769,4,1,23,55,0,0
60220,-142.857142857143,4,1,23,55,0,0
60270,-76.9230769230769,4,1,23,55,0,0
60320,-142.857142857143,4,1,23,55,0,0
60370,-100,4,1,23,55,0,1
67870,-71.4285714285714,4,1,23,55,0,1
67945,-166.666666666667,4,1,23,55,0,1
68020,-100,4,1,23,55,0,1
68320,-71.4285714285714,4,1,23,55,0,1
68395,-166.666666666667,4,1,23,55,0,1
68470,-100,4,1,23,55,0,1
68620,-166.666666666667,4,1,23,55,0,1
68695,-71.4285714285714,4,1,23,55,0,1
68770,-100,4,1,23,55,0,1
68920,-71.4285714285714,4,1,23,55,0,1
68995,-166.666666666667,4,1,23,55,0,1
69070,-71.4285714285714,4,1,23,55,0,1
69145,-166.666666666667,4,1,23,55,0,1
69220,-100,4,1,23,55,0,1
77470,-71.4285714285714,4,1,23,55,0,1
77545,-166.666666666667,4,1,23,55,0,1
77620,-100,4,1,23,55,0,1
77920,-71.4285714285714,4,1,23,55,0,1
77995,-166.666666666667,4,1,23,55,0,1
78070,-100,4,1,23,55,0,1
78220,-166.666666666667,4,1,23,55,0,1
78295,-71.4285714285714,4,1,23,55,0,1
78370,-100,4,1,23,55,0,1
79570,-74.0740740740741,4,1,23,55,0,0
79607,-153.846153846154,4,1,23,55,0,0
79645,-74.0740740740741,4,1,23,55,0,0
79682,-153.846153846154,4,1,23,55,0,0
79720,-74.0740740740741,4,1,23,55,0,0
79757,-153.846153846154,4,1,23,55,0,0
79795,-74.0740740740741,4,1,23,55,0,0
79832,-153.846153846154,4,1,23,55,0,0
79870,-100,4,1,23,55,0,0
80020,-74.0740740740741,4,1,23,55,0,0
80057,-153.846153846154,4,1,23,55,0,0
80095,-74.0740740740741,4,1,23,55,0,0
80132,-153.846153846154,4,1,23,55,0,0
80170,-74.0740740740741,4,1,23,55,0,0
80207,-153.846153846154,4,1,23,55,0,0
80245,-74.0740740740741,4,1,23,55,0,0
80282,-153.846153846154,4,1,23,55,0,0
80320,-100,4,1,23,55,0,0
80470,-74.0740740740741,4,1,23,55,0,0
80507,-153.846153846154,4,1,23,55,0,0
80545,-74.0740740740741,4,1,23,55,0,0
80582,-153.846153846154,4,1,23,55,0,0
80620,-74.0740740740741,4,1,23,55,0,0
80657,-153.846153846154,4,1,23,55,0,0
80695,-74.0740740740741,4,1,23,55,0,0
80732,-153.846153846154,4,1,23,55,0,0
80770,-100,4,1,23,55,0,0
80920,-74.0740740740741,4,1,23,55,0,0
80957,-153.846153846154,4,1,23,55,0,0
80995,-74.0740740740741,4,1,23,55,0,0
81032,-153.846153846154,4,1,23,55,0,0
81070,-74.0740740740741,4,1,23,55,0,0
81107,-153.846153846154,4,1,23,55,0,0
81145,-74.0740740740741,4,1,23,55,0,0
81182,-153.846153846154,4,1,23,55,0,0
81220,-100,4,1,23,55,0,0
81670,-153.846153846154,4,1,23,55,0,0
81745,-74.0740740740741,4,1,23,55,0,0
81820,-100,4,1,23,55,0,0
81970,-74.0740740740741,4,1,23,55,0,0
82007,-153.846153846154,4,1,23,55,0,0
82045,-74.0740740740741,4,1,23,55,0,0
82082,-153.846153846154,4,1,23,55,0,0
82120,-74.0740740740741,4,1,23,55,0,0
82157,-153.846153846154,4,1,23,55,0,0
82195,-74.0740740740741,4,1,23,55,0,0
82232,-153.846153846154,4,1,23,55,0,0
82270,-100,4,1,23,55,0,0
82420,-74.0740740740741,4,1,23,55,0,0
82457,-153.846153846154,4,1,23,55,0,0
82495,-74.0740740740741,4,1,23,55,0,0
82532,-153.846153846154,4,1,23,55,0,0
82570,-74.0740740740741,4,1,23,55,0,0
82607,-153.846153846154,4,1,23,55,0,0
82645,-74.0740740740741,4,1,23,55,0,0
82682,-153.846153846154,4,1,23,55,0,0
82720,-100,4,1,23,55,0,0
82870,-74.0740740740741,4,1,23,55,0,0
82907,-153.846153846154,4,1,23,55,0,0
82945,-74.0740740740741,4,1,23,55,0,0
82982,-153.846153846154,4,1,23,55,0,0
83020,-74.0740740740741,4,1,23,55,0,0
83057,-153.846153846154,4,1,23,55,0,0
83095,-74.0740740740741,4,1,23,55,0,0
83132,-153.846153846154,4,1,23,55,0,0
83170,-100,4,1,23,55,0,0
83320,-74.0740740740741,4,1,23,55,0,0
83357,-153.846153846154,4,1,23,55,0,0
83395,-74.0740740740741,4,1,23,55,0,0
83432,-153.846153846154,4,1,23,55,0,0
83470,-74.0740740740741,4,1,23,55,0,0
83507,-153.846153846154,4,1,23,55,0,0
83545,-74.0740740740741,4,1,23,55,0,0
83582,-153.846153846154,4,1,23,55,0,0
83620,-100,4,1,23,55,0,0
84070,-153.846153846154,4,1,23,55,0,0
84145,-74.0740740740741,4,1,23,55,0,0
84220,-100,4,1,23,55,0,0
84370,-74.0740740740741,4,1,23,55,0,0
84407,-153.846153846154,4,1,23,55,0,0
84445,-74.0740740740741,4,1,23,55,0,0
84482,-153.846153846154,4,1,23,55,0,0
84520,-74.0740740740741,4,1,23,55,0,0
84557,-153.846153846154,4,1,23,55,0,0
84595,-74.0740740740741,4,1,23,55,0,0
84632,-153.846153846154,4,1,23,55,0,0
84670,-100,4,1,23,55,0,0
84820,-74.0740740740741,4,1,23,55,0,0
84857,-153.846153846154,4,1,23,55,0,0
84895,-74.0740740740741,4,1,23,55,0,0
84932,-153.846153846154,4,1,23,55,0,0
84970,-74.0740740740741,4,1,23,55,0,0
85007,-153.846153846154,4,1,23,55,0,0
85045,-74.0740740740741,4,1,23,55,0,0
85082,-153.846153846154,4,1,23,55,0,0
85120,-100,4,1,23,55,0,0
85270,-74.0740740740741,4,1,23,55,0,0
85307,-153.846153846154,4,1,23,55,0,0
85345,-74.0740740740741,4,1,23,55,0,0
85382,-153.846153846154,4,1,23,55,0,0
85420,-74.0740740740741,4,1,23,55,0,0
85457,-153.846153846154,4,1,23,55,0,0
85495,-74.0740740740741,4,1,23,55,0,0
85532,-153.846153846154,4,1,23,55,0,0
85570,-100,4,1,23,55,0,0
85720,-74.0740740740741,4,1,23,55,0,0
85757,-153.846153846154,4,1,23,55,0,0
85795,-74.0740740740741,4,1,23,55,0,0
85832,-153.846153846154,4,1,23,55,0,0
85870,-74.0740740740741,4,1,23,55,0,0
85907,-153.846153846154,4,1,23,55,0,0
85945,-74.0740740740741,4,1,23,55,0,0
85982,-153.846153846154,4,1,23,55,0,0
86020,-100,4,1,23,55,0,0
86470,-153.846153846154,4,1,23,55,0,0
86545,-74.0740740740741,4,1,23,55,0,0
86620,-100,4,1,23,55,0,0
89170,-153.846153846154,4,1,23,55,0,0
89245,-74.0740740740741,4,1,23,55,0,0
89320,-100,4,1,23,55,0,0
90220,-71.4285714285714,4,1,23,55,0,0
90295,-166.666666666667,4,1,23,55,0,0
90370,-100,4,1,23,55,0,0
91420,-71.4285714285714,4,1,23,55,0,0
91495,-166.666666666667,4,1,23,55,0,0
91570,-100,4,1,23,55,0,0
92620,-71.4285714285714,4,1,23,55,0,0
92695,-166.666666666667,4,1,23,55,0,0
92770,-100,4,1,23,55,0,0
95020,-71.4285714285714,4,1,23,55,0,0
95095,-166.666666666667,4,1,23,55,0,0
95170,-100,4,1,23,55,0,0
96220,-71.4285714285714,4,1,23,55,0,0
96295,-166.666666666667,4,1,23,55,0,0
96370,-100,4,1,23,55,0,0
97420,-71.4285714285714,4,1,23,55,0,0
97495,-166.666666666667,4,1,23,55,0,0
97570,-100,4,1,23,55,0,0
99820,-71.4285714285714,4,1,23,55,0,0
99895,-166.666666666667,4,1,23,55,0,0
99970,-100,4,1,23,55,0,0
101020,-71.4285714285714,4,1,23,55,0,0
101095,-166.666666666667,4,1,23,55,0,0
101170,-100,4,1,23,55,0,0
102220,-71.4285714285714,4,1,23,55,0,0
102295,-166.666666666667,4,1,23,55,0,0
102370,-100,4,1,23,55,0,0
104620,-71.4285714285714,4,1,23,55,0,0
104695,-166.666666666667,4,1,23,55,0,0
104770,-100,4,1,23,55,0,0
105820,-71.4285714285714,4,1,23,55,0,0
105895,-166.666666666667,4,1,23,55,0,0
105970,-100,4,1,23,55,0,0
107020,-71.4285714285714,4,1,23,55,0,0
107095,-166.666666666667,4,1,23,55,0,0
107170,-100,4,1,23,55,0,0
108970,-66.6666666666667,4,1,23,55,0,0
109007,-200,4,1,23,55,0,0
109045,-100,4,1,23,55,0,0
110170,-66.6666666666667,4,1,23,55,0,0
110207,-200,4,1,23,55,0,0
110245,-100,4,1,23,55,0,0
111370,-66.6666666666667,4,1,23,55,0,0
111407,-200,4,1,23,55,0,0
111445,-100,4,1,23,55,0,0
112570,-66.6666666666667,4,1,23,55,0,0
112607,-200,4,1,23,55,0,0
112645,-100,4,1,23,55,0,0
113770,-66.6666666666667,4,1,23,55,0,0
113807,-200,4,1,23,55,0,0
113845,-100,4,1,23,55,0,0
116170,-71.4285714285714,4,1,23,55,0,0
116245,-166.666666666667,4,1,23,55,0,0
116320,-100,4,1,23,55,0,0
116470,-74.0740740740741,4,1,23,55,0,0
116520,-153.846153846154,4,1,23,55,0,0
116570,-74.0740740740741,4,1,23,55,0,0
116620,-153.846153846154,4,1,23,55,0,0
116670,-74.0740740740741,4,1,23,55,0,0
116720,-153.846153846154,4,1,23,55,0,0
116770,-74.0740740740741,4,1,23,55,0,0
116820,-153.846153846154,4,1,23,55,0,0
116870,-100,4,1,23,55,0,0
116970,-74.0740740740741,4,1,23,55,0,0
117020,-153.846153846154,4,1,23,55,0,0
117070,-100,4,1,23,55,0,0
117170,-74.0740740740741,4,1,23,55,0,0
117220,-153.846153846154,4,1,23,55,0,0
117270,-100,4,1,23,55,0,0
117370,-74.0740740740741,4,1,23,55,0,0
117420,-153.846153846154,4,1,23,55,0,0
117470,-100,4,1,23,55,0,0
117570,-74.0740740740741,4,1,23,55,0,0
117620,-153.846153846154,4,1,23,55,0,0
117670,-100,4,1,23,55,0,0
117770,-74.0740740740741,4,1,23,55,0,0
117820,-153.846153846154,4,1,23,55,0,0
117870,-100,4,1,23,55,0,0
117970,-100,4,1,23,55,0,1
125470,-71.4285714285714,4,1,23,55,0,1
125545,-166.666666666667,4,1,23,55,0,1
125620,-100,4,1,23,55,0,1
125920,-71.4285714285714,4,1,23,55,0,1
125995,-166.666666666667,4,1,23,55,0,1
126070,-100,4,1,23,55,0,1
126220,-166.666666666667,4,1,23,55,0,1
126295,-71.4285714285714,4,1,23,55,0,1
126370,-100,4,1,23,55,0,1
131770,-66.6666666666667,4,1,23,55,0,0
131845,-200,4,1,23,55,0,0
131920,-100,4,1,23,55,0,0
131995,-66.6666666666667,4,1,23,55,0,0
132070,-200,4,1,23,55,0,0
132145,-100,4,1,23,55,0,0
132220,-66.6666666666667,4,1,23,55,0,0
132295,-200,4,1,23,55,0,0
132370,-100,4,1,23,55,0,0
134170,-76.9230769230769,4,1,23,55,0,0
134245,-142.857142857143,4,1,23,55,0,0
134320,-100,4,1,23,55,0,0
134470,-142.857142857143,4,1,23,55,0,0
134545,-76.9230769230769,4,1,23,55,0,0
134620,-100,4,1,23,55,0,0
134770,-100,4,1,23,55,0,0
163570,-76.9230769230769,4,1,23,55,0,0
163682,-142.857142857143,4,1,23,55,0,0
163795,-100,4,1,23,55,0,0
163870,-76.9230769230769,4,1,23,55,0,0
163982,-142.857142857143,4,1,23,55,0,0
164095,-100,4,1,23,55,0,0
164170,-76.9230769230769,4,1,23,55,0,0
164282,-142.857142857143,4,1,23,55,0,0
164395,-100,4,1,23,55,0,0
164470,-76.9230769230769,4,1,23,55,0,0
164582,-142.857142857143,4,1,23,55,0,0
164695,-100,4,1,23,55,0,0
166270,-71.4285714285714,4,1,23,55,0,0
166345,-166.666666666667,4,1,23,55,0,0
166420,-100,4,1,23,55,0,0
166720,-71.4285714285714,4,1,23,55,0,0
166795,-166.666666666667,4,1,23,55,0,0
166870,-100,4,1,23,55,0,0
167470,-71.4285714285714,4,1,23,55,0,0
167545,-166.666666666667,4,1,23,55,0,0
167620,-100,4,1,23,55,0,0
168370,-100,4,1,23,55,0,1
175870,-71.4285714285714,4,1,23,55,0,1
175945,-166.666666666667,4,1,23,55,0,1
176020,-100,4,1,23,55,0,1
176320,-71.4285714285714,4,1,23,55,0,1
176395,-166.666666666667,4,1,23,55,0,1
176470,-100,4,1,23,55,0,1
182170,-66.6666666666667,4,1,23,55,0,1
182207,-200,4,1,23,55,0,1
182245,-100,4,1,23,55,0,1
182395,-66.6666666666667,4,1,23,55,0,1
182432,-200,4,1,23,55,0,1
182470,-100,4,1,23,55,0,1
182620,-66.6666666666667,4,1,23,55,0,1
182657,-200,4,1,23,55,0,1
182695,-100,4,1,23,55,0,1
184570,-66.6666666666667,4,1,23,55,0,0
184607,-200,4,1,23,55,0,0
184645,-100,4,1,23,55,0,0
184720,-58.8235294117647,4,1,23,55,0,0
184795,-333.333333333333,4,1,23,55,0,0
184870,-100,4,1,23,55,0,0
185170,-100,4,1,23,55,0,1
192070,-66.6666666666667,4,1,23,55,0,1
192107,-200,4,1,23,55,0,1
192145,-100,4,1,23,55,0,1
192220,-66.6666666666667,4,1,23,55,0,1
192257,-200,4,1,23,55,0,1
192295,-100,4,1,23,55,0,1
193120,-66.6666666666667,4,1,23,55,0,1
193157,-200,4,1,23,55,0,1
193195,-100,4,1,23,55,0,1
193270,-66.6666666666667,4,1,23,55,0,1
193307,-200,4,1,23,55,0,1
193345,-100,4,1,23,55,0,1
193720,-68.9655172413793,4,1,23,55,0,1
193757,-181.818181818182,4,1,23,55,0,1
193795,-100,4,1,23,55,0,1
193870,-68.9655172413793,4,1,23,55,0,1
193907,-181.818181818182,4,1,23,55,0,1
193945,-100,4,1,23,55,0,1
194020,-68.9655172413793,4,1,23,55,0,1
194057,-181.818181818182,4,1,23,55,0,1
194095,-100,4,1,23,55,0,1
194170,-68.9655172413793,4,1,23,55,0,1
194207,-181.818181818182,4,1,23,55,0,1
194245,-100,4,1,23,55,0,1
194320,-68.9655172413793,4,1,23,55,0,1
194357,-181.818181818182,4,1,23,55,0,1
194395,-100,4,1,23,55,0,1
194470,-68.9655172413793,4,1,23,55,0,1
194507,-181.818181818182,4,1,23,55,0,1
194545,-100,4,1,23,55,0,1
194620,-68.9655172413793,4,1,23,55,0,1
194657,-181.818181818182,4,1,23,55,0,1
194695,-100,4,1,23,55,0,1
196870,-71.4285714285714,4,1,23,55,0,1
196945,-166.666666666667,4,1,23,55,0,1
197020,-100,4,1,23,55,0,1
199270,-71.4285714285714,4,1,23,55,0,1
199307,-166.666666666667,4,1,23,55,0,1
199345,-100,4,1,23,55,0,1
199420,-71.4285714285714,4,1,23,55,0,1
199457,-166.666666666667,4,1,23,55,0,1
199495,-100,4,1,23,55,0,1
201220,-68.9655172413793,4,1,23,55,0,1
201257,-181.818181818182,4,1,23,55,0,1
201295,-100,4,1,23,55,0,1
201370,-68.9655172413793,4,1,23,55,0,1
201407,-181.818181818182,4,1,23,55,0,1
201445,-100,4,1,23,55,0,1
201670,-68.9655172413793,4,1,23,55,0,1
201707,-181.818181818182,4,1,23,55,0,1
201745,-100,4,1,23,55,0,1
201820,-68.9655172413793,4,1,23,55,0,1
201857,-181.818181818182,4,1,23,55,0,1
201895,-100,4,1,23,55,0,1
202270,-68.9655172413793,4,1,23,55,0,1
202307,-181.818181818182,4,1,23,55,0,1
202345,-100,4,1,23,55,0,1
202720,-68.9655172413793,4,1,23,55,0,1
202757,-181.818181818182,4,1,23,55,0,1
202795,-100,4,1,23,55,0,1
203170,-68.9655172413793,4,1,23,55,0,1
203207,-181.818181818182,4,1,23,55,0,1
203245,-100,4,1,23,55,0,1
203470,-68.9655172413793,4,1,23,55,0,1
203507,-181.818181818182,4,1,23,55,0,1
203545,-100,4,1,23,55,0,1
203770,-76.9230769230769,4,1,23,55,0,1
203845,-142.857142857143,4,1,23,55,0,1
203920,-76.9230769230769,4,1,23,55,0,1
203995,-142.857142857143,4,1,23,55,0,1
204070,-76.9230769230769,4,1,23,55,0,1
204145,-142.857142857143,4,1,23,55,0,1
204220,-76.9230769230769,4,1,23,55,0,1
204295,-142.857142857143,4,1,23,55,0,1
204370,-100,4,1,23,55,0,0

[HitObjects]
182,192,370,5,4,3:0:0:0:
256,192,445,1,0,0:0:0:0:
329,192,520,1,0,0:0:0:0:
402,192,595,1,0,0:0:0:0:
109,192,595,1,8,0:0:0:0:
329,192,820,1,0,0:0:0:0:
256,192,895,1,0,0:0:0:0:
182,192,970,1,0,0:0:0:0:
109,192,1045,1,0,0:0:0:0:
402,192,1045,1,8,0:0:0:0:
36,192,1270,128,8,1795:3:0:0:0:
475,192,1345,1,0,0:0:0:0:
329,192,1420,1,0,0:0:0:0:
182,192,1495,1,0,0:0:0:0:
256,192,1570,1,0,0:0:0:0:
329,192,1645,1,8,3:0:0:0:
475,192,1720,128,0,2170:0:0:0:0:
182,192,1795,1,4,3:0:0:0:
329,192,1870,1,0,0:0:0:0:
256,192,1945,1,0,0:0:0:0:
182,192,2020,1,0,0:0:0:0:
36,192,2095,128,4,2395:3:0:0:0:
329,192,2170,1,0,0:0:0:0:
182,192,2245,1,0,0:0:0:0:
256,192,2320,1,0,0:0:0:0:
329,192,2395,1,4,3:0:0:0:
36,192,2470,1,2,0:0:0:0:
475,192,2470,1,0,0:0:0:0:
402,192,2770,1,4,0:0:0:0:
329,192,2845,1,0,0:0:0:0:
182,192,2920,1,0,0:0:0:0:
109,192,2995,1,0,0:0:0:0:
475,192,3070,1,8,0:0:0:0:
36,192,3070,1,0,0:0:0:0:
109,192,3220,1,0,0:0:0:0:
182,192,3295,1,0,0:0:0:0:
329,192,3370,1,0,0:0:0:0:
402,192,3445,1,0,0:0:0:0:
36,192,3520,1,2,0:0:0:0:
475,192,3520,1,0,0:0:0:0:
402,192,3670,1,0,0:0:0:0:
329,192,3745,1,0,0:0:0:0:
182,192,3820,1,0,0:0:0:0:
109,192,3895,1,0,0:0:0:0:
475,192,3970,1,8,0:0:0:0:
36,192,3970,1,0,0:0:0:0:
109,192,4120,1,0,0:0:0:0:
182,192,4195,1,0,0:0:0:0:
329,192,4270,1,0,0:0:0:0:
402,192,4345,1,0,0:0:0:0:
36,192,4420,1,2,0:0:0:0:
475,192,4420,1,0,0:0:0:0:
402,192,4570,1,0,0:0:0:0:
329,192,4645,1,0,0:0:0:0:
109,192,4720,1,0,0:0:0:0:
182,192,4795,1,0,0:0:0:0:
475,192,4870,1,8,0:0:0:0:
36,192,4870,1,0,0:0:0:0:
256,192,4870,1,0,0:0:0:0:
182,192,5170,1,8,3:0:0:0:
109,192,5245,1,8,3:0:0:0:
329,192,5320,1,8,3:0:0:0:
402,192,5395,1,8,3:0:0:0:
475,192,5470,1,8,0:0:0:0:
182,192,5470,1,0,0:0:0:0:
329,192,5620,1,0,0:0:0:0:
402,192,5695,1,0,0:0:0:0:
182,192,5770,1,0,0:0:0:0:
109,192,5845,1,0,0:0:0:0:
36,192,5920,1,2,0:0:0:0:
329,192,5920,1,0,0:0:0:0:
182,192,6070,1,0,0:0:0:0:
109,192,6145,1,0,0:0:0:0:
329,192,6220,1,0,0:0:0:0:
402,192,6295,1,0,0:0:0:0:
475,192,6370,1,8,0:0:0:0:
182,192,6370,1,0,0:0:0:0:
329,192,6520,1,0,0:0:0:0:
402,192,6595,1,0,0:0:0:0:
182,192,6670,1,0,0:0:0:0:
109,192,6745,1,0,0:0:0:0:
36,192,6820,1,2,0:0:0:0:
329,192,6820,1,0,0:0:0:0:
182,192,6970,1,0,0:0:0:0:
109,192,7045,1,0,0:0:0:0:
402,192,7120,1,0,0:0:0:0:
329,192,7195,1,0,0:0:0:0:
475,192,7270,1,8,0:0:0:0:
256,192,7270,1,8,0:0:0:0:
36,192,7270,1,0,0:0:0:0:
329,192,7570,1,4,0:0:0:0:
256,192,7645,1,4,3:0:0:0:
182,192,7720,1,4,3:0:0:0:
109,192,7795,1,4,3:0:0:0:
402,192,7870,1,8,0:0:0:0:
36,192,7870,1,0,0:0:0:0:
182,192,8020,1,0,0:0:0:0:
256,192,8095,1,0,0:0:0:0:
329,192,8170,1,0,0:0:0:0:
402,192,8245,1,0,0:0:0:0:
109,192,8320,1,2,0:0:0:0:
475,192,8320,1,0,0:0:0:0:
329,192,8470,1,0,0:0:0:0:
256,192,8545,1,0,0:0:0:0:
182,192,8620,1,0,0:0:0:0:
109,192,8695,1,0,0:0:0:0:
402,192,8770,1,8,0:0:0:0:
36,192,8770,1,0,0:0:0:0:
182,192,8920,1,0,0:0:0:0:
256,192,8995,1,0,0:0:0:0:
329,192,9070,1,0,0:0:0:0:
402,192,9145,1,0,0:0:0:0:
109,192,9220,1,2,0:0:0:0:
475,192,9220,1,0,0:0:0:0:
329,192,9370,1,0,0:0:0:0:
182,192,9445,1,0,0:0:0:0:
109,192,9520,1,0,0:0:0:0:
256,192,9595,1,0,0:0:0:0:
402,192,9670,1,8,0:0:0:0:
475,192,9670,1,8,0:0:0:0:
36,192,9670,1,0,0:0:0:0:
182,192,9970,1,8,3:0:0:0:
256,192,10045,1,8,3:0:0:0:
329,192,10120,1,8,3:0:0:0:
402,192,10195,1,8,3:0:0:0:
475,192,10270,1,8,0:0:0:0:
36,192,10270,1,0,0:0:0:0:
329,192,10420,1,4,0:0:0:0:
256,192,10495,1,0,0:0:0:0:
182,192,10570,1,0,0:0:0:0:
109,192,10645,1,0,0:0:0:0:
36,192,10720,1,2,0:0:0:0:
475,192,10720,1,0,0:0:0:0:
182,192,10870,1,0,0:0:0:0:
256,192,10945,1,0,0:0:0:0:
329,192,11020,1,0,0:0:0:0:
402,192,11095,1,0,0:0:0:0:
36,192,11170,1,8,0:0:0:0:
475,192,11170,1,0,0:0:0:0:
109,192,11320,1,0,0:0:0:0:
182,192,11320,1,4,0:0:0:25:
109,192,11470,1,0,0:0:0:0:
182,192,11470,1,4,0:0:0:25:
402,192,11620,1,0,0:0:0:0:
329,192,11620,1,4,0:0:0:25:
329,192,11770,1,0,0:0:0:0:
402,192,11770,1,4,0:0:0:25:
109,192,11920,1,0,0:0:0:0:
182,192,11920,1,4,0:0:0:25:
109,192,12070,1,0,0:0:0:0:
182,192,12070,1,4,0:0:0:25:
329,192,12220,1,4,0:0:0:25:
402,192,12220,1,0,0:0:0:0:
329,192,12370,1,4,3:0:0:0:
402,192,12370,1,0,0:0:0:0:
182,192,12445,1,4,3:0:0:0:
36,192,12520,1,4,3:0:0:0:
182,192,12595,1,4,3:0:0:0:
475,192,12670,1,8,0:0:0:0:
329,192,12670,1,0,0:0:0:0:
182,192,12820,1,0,0:0:0:0:
329,192,12895,1,0,0:0:0:0:
475,192,12970,1,0,0:0:0:0:
329,192,13045,1,0,0:0:0:0:
182,192,13120,1,2,0:0:0:0:
36,192,13120,1,0,0:0:0:0:
329,192,13270,1,0,0:0:0:0:
182,192,13345,1,0,0:0:0:0:
36,192,13420,1,0,0:0:0:0:
182,192,13495,1,0,0:0:0:0:
475,192,13570,1,8,0:0:0:0:
329,192,13570,1,0,0:0:0:0:
182,192,13720,1,0,0:0:0:0:
329,192,13795,1,0,0:0:0:0:
475,192,13870,1,0,0:0:0:0:
329,192,13945,1,0,0:0:0:0:
182,192,14020,1,2,0:0:0:0:
36,192,14020,1,0,0:0:0:0:
329,192,14170,1,0,0:0:0:0:
182,192,14245,1,0,0:0:0:0:
109,192,14320,1,0,0:0:0:0:
182,192,14395,1,0,0:0:0:0:
402,192,14470,1,4,0:0:0:0:
256,192,14470,1,8,0:0:0:0:
36,192,14470,1,0,0:0:0:0:
475,192,14770,1,8,3:0:0:0:
329,192,14845,1,8,3:0:0:0:
182,192,14920,1,8,3:0:0:0:
36,192,14995,1,8,3:0:0:0:
475,192,15070,1,8,0:0:0:0:
402,192,15070,1,0,0:0:0:0:
109,192,15220,1,0,0:0:0:0:
182,192,15295,1,0,0:0:0:0:
329,192,15370,1,0,0:0:0:0:
402,192,15445,1,0,0:0:0:0:
36,192,15520,1,2,0:0:0:0:
109,192,15520,1,0,0:0:0:0:
475,192,15670,1,0,0:0:0:0:
329,192,15745,1,0,0:0:0:0:
182,192,15820,1,0,0:0:0:0:
36,192,15895,1,0,0:0:0:0:
402,192,15970,1,8,0:0:0:0:
329,192,15970,1,0,0:0:0:0:
109,192,16120,1,0,0:0:0:0:
182,192,16195,1,0,0:0:0:0:
329,192,16270,1,0,0:0:0:0:
402,192,16345,1,0,0:0:0:0:
109,192,16420,1,2,0:0:0:0:
182,192,16420,1,0,0:0:0:0:
475,192,16570,1,0,0:0:0:0:
329,192,16645,1,0,0:0:0:0:
182,192,16720,1,0,0:0:0:0:
36,192,16795,1,0,0:0:0:0:
256,192,16870,5,8,0:0:0:0:
402,192,16870,1,8,0:0:0:0:
109,192,16870,1,0,0:0:0:0:
36,192,17170,5,4,0:0:0:0:
109,192,17170,1,0,0:0:0:0:
182,192,17170,1,0,0:0:0:0:
329,192,17245,1,0,0:0:0:0:
475,192,17320,1,0,0:0:0:0:
109,192,17470,1,8,0:0:0:0:
256,192,17470,1,0,0:0:0:0:
475,192,17620,1,4,0:0:0:0:
402,192,17620,1,0,0:0:0:0:
329,192,17620,1,0,0:0:0:0:
182,192,17695,1,0,0:0:0:0:
36,192,17770,1,0,0:0:0:0:
256,192,17920,1,2,0:0:0:0:
402,192,17920,1,0,0:0:0:0:
36,192,18070,1,4,0:0:0:0:
109,192,18070,1,0,0:0:0:0:
182,192,18070,1,0,0:0:0:0:
329,192,18145,1,0,0:0:0:0:
475,192,18220,1,0,0:0:0:0:
256,192,18370,1,8,0:0:0:0:
109,192,18370,1,0,0:0:0:0:
475,192,18520,1,4,0:0:0:0:
329,192,18520,1,0,0:0:0:0:
402,192,18520,1,0,0:0:0:0:
182,192,18595,1,0,0:0:0:0:
36,192,18670,1,0,0:0:0:0:
256,192,18820,1,2,0:0:0:0:
402,192,18820,1,0,0:0:0:0:
36,192,18970,1,4,0:0:0:0:
109,192,18970,1,0,0:0:0:0:
182,192,18970,1,0,0:0:0:0:
329,192,19045,1,0,0:0:0:0:
475,192,19120,1,0,0:0:0:0:
402,192,19270,1,8,0:0:0:0:
256,192,19270,1,8,0:0:0:0:
109,192,19270,1,0,0:0:0:0:
329,192,19570,1,4,0:0:0:0:
182,192,19645,1,8,3:0:0:0:
402,192,19720,1,8,3:0:0:0:
256,192,19795,1,8,3:0:0:0:
475,192,19870,1,8,0:0:0:0:
109,192,19870,1,0,0:0:0:0:
182,192,20020,1,8,3:0:0:0:
329,192,20095,1,8,3:0:0:0:
109,192,20170,1,8,3:0:0:0:
256,192,20245,1,8,3:0:0:0:
36,192,20320,1,8,0:0:0:0:
402,192,20320,1,0,0:0:0:0:
329,192,20470,1,4,3:0:0:0:
182,192,20545,1,4,3:0:0:0:
402,192,20620,1,4,3:0:0:0:
256,192,20695,1,4,3:0:0:0:
475,192,20770,1,8,0:0:0:0:
109,192,20770,1,0,0:0:0:0:
329,192,20845,1,2,0:0:0:0:
182,192,20920,1,4,3:0:0:0:
36,192,20995,1,8,3:0:0:0:
402,192,21070,1,8,0:0:0:0:
256,192,21070,1,0,0:0:0:0:
109,192,21145,1,0,0:0:0:0:
329,192,21220,1,0,0:0:0:0:
182,192,21295,1,8,3:0:0:0:
475,192,21370,1,8,0:0:0:0:
36,192,21370,1,0,0:0:0:0:
36,192,21520,1,2,0:0:0:0:
475,192,21520,1,0,0:0:0:0:
329,192,21670,1,8,3:0:0:0:
182,192,21670,1,0,0:0:0:0:
109,192,21745,1,8,3:0:0:0:
36,192,21820,1,8,3:0:0:0:
475,192,21820,1,0,0:0:0:0:
402,192,21895,1,8,3:0:0:0:
329,192,21970,128,0,22270:0:0:0:0:
109,192,21970,1,4,0:0:0:0:
182,192,21970,128,0,22270:0:0:0:0:
36,192,22270,1,8,0:0:0:0:
475,192,22270,1,0,0:0:0:0:
109,192,22420,1,0,0:0:0:0:
402,192,22420,1,0,0:0:0:0:
182,192,22570,1,0,0:0:0:0:
329,192,22570,1,0,0:0:0:0:
402,192,22720,1,0,0:0:0:0:
109,192,22720,1,0,0:0:0:0:
182,192,22870,1,0,0:0:0:0:
329,192,22870,1,8,0:0:0:0:
402,192,23020,128,4,23320:0:0:0:0:
109,192,23020,128,0,23320:0:0:0:0:
256,192,23020,1,0,0:0:0:0:
182,192,23320,1,0,0:0:0:0:
329,192,23320,1,0,0:0:0:0:
402,192,23470,1,0,0:0:0:0:
109,192,23470,1,8,0:0:0:0:
36,192,23620,1,0,0:0:0:0:
475,192,23620,1,0,0:0:0:0:
109,192,23770,1,0,0:0:0:0:
402,192,23770,1,0,0:0:0:0:
182,192,23920,1,0,0:0:0:0:
329,192,23920,1,0,0:0:0:0:
109,192,24070,1,8,0:0:0:0:
402,192,24070,1,0,0:0:0:0:
36,192,24220,128,4,24520:0:0:0:0:
475,192,24220,128,0,24520:0:0:0:0:
256,192,24220,1,0,0:0:0:0:
182,192,24520,1,0,0:0:0:0:
329,192,24520,1,0,0:0:0:0:
402,192,24670,1,0,0:0:0:0:
109,192,24670,1,8,0:0:0:0:
182,192,24820,1,0,0:0:0:0:
329,192,24820,1,0,0:0:0:0:
109,192,24970,1,0,0:0:0:0:
402,192,24970,1,0,0:0:0:0:
475,192,25120,1,0,0:0:0:0:
36,192,25120,1,0,0:0:0:0:
402,192,25270,1,8,0:0:0:0:
109,192,25270,1,0,0:0:0:0:
182,192,25420,128,4,25720:0:0:0:0:
329,192,25420,128,0,25720:0:0:0:0:
256,192,25420,1,0,0:0:0:0:
36,192,25720,1,0,0:0:0:0:
475,192,25720,1,0,0:0:0:0:
402,192,25870,1,8,0:0:0:0:
109,192,25870,1,0,0:0:0:0:
256,192,26020,128,4,26170:3:0:0:0:
36,192,26020,128,0,26770:0:0:0:0:
182,192,26170,128,2,26320:0:0:0:0:
329,192,26320,128,0,26470:0:0:0:0:
109,192,26320,128,0,26770:0:0:0:0:
256,192,26470,128,2,26620:0:0:0:0:
402,192,26620,128,4,26770:3:0:0:0:
182,192,26620,128,0,26770:0:0:0:0:
475,192,26770,1,4,0:0:0:0:
329,192,26770,1,0,0:0:0:0:
475,192,26920,1,0,0:0:0:0:
329,192,26920,1,0,0:0:0:0:
182,192,27070,1,0,0:0:0:0:
36,192,27070,1,8,0:0:0:0:
329,192,27220,1,0,0:0:0:0:
475,192,27220,1,0,0:0:0:0:
475,192,27370,1,0,0:0:0:0:
329,192,27370,1,0,0:0:0:0:
182,192,27520,1,0,0:0:0:0:
36,192,27520,1,0,0:0:0:0:
329,192,27670,1,8,0:0:0:0:
475,192,27670,1,0,0:0:0:0:
109,192,27820,128,0,28120:0:0:0:0:
402,192,27820,1,4,0:0:0:0:
256,192,27820,128,0,28120:0:0:0:0:
182,192,28120,1,0,0:0:0:0:
36,192,28120,1,0,0:0:0:0:
475,192,28270,1,0,0:0:0:0:
329,192,28270,1,8,0:0:0:0:
36,192,28420,1,0,0:0:0:0:
182,192,28420,1,0,0:0:0:0:
36,192,28570,1,0,0:0:0:0:
182,192,28570,1,0,0:0:0:0:
475,192,28720,1,0,0:0:0:0:
329,192,28720,1,0,0:0:0:0:
36,192,28870,1,8,0:0:0:0:
182,192,28870,1,0,0:0:0:0:
256,192,29020,128,4,29320:0:0:0:0:
402,192,29020,128,0,29320:0:0:0:0:
109,192,29020,1,0,0:0:0:0:
329,192,29320,1,8,0:0:0:0:
182,192,29320,1,0,0:0:0:0:
402,192,29470,1,2,0:0:0:0:
36,192,29470,1,0,0:0:0:0:
182,192,29545,1,8,0:0:0:0:
329,192,29620,1,0,0:0:0:0:
475,192,29695,1,0,0:0:0:0:
256,192,29770,1,0,0:0:0:0:
109,192,29770,1,0,0:0:0:0:
329,192,29920,1,0,0:0:0:0:
36,192,29920,128,8,30820:0:0:0:0:
402,192,30070,1,0,0:0:0:0:
475,192,30220,128,4,30820:0:0:0:0:
182,192,30220,128,0,30820:0:0:0:0:
329,192,30520,1,4,0:0:0:0:
329,192,30670,1,4,0:0:0:0:
329,192,30820,1,4,0:0:0:0:
256,192,30970,128,0,31570:0:0:0:0:
109,192,30970,1,8,0:0:0:0:
182,192,31045,1,2,0:0:0:0:
329,192,31120,1,4,3:0:0:0:
402,192,31195,1,4,3:0:0:0:
329,192,31270,1,8,3:0:0:0:
182,192,31345,1,8,3:0:0:0:
109,192,31420,1,8,3:0:0:0:
182,192,31495,1,8,3:0:0:0:
329,192,31570,5,4,0:0:0:0:
36,192,31570,1,0,0:0:0:0:
475,192,31570,1,0,0:0:0:0:
182,192,31720,1,0,0:0:0:0:
109,192,31870,1,8,0:0:0:0:
402,192,31870,1,0,0:0:0:0:
329,192,32020,1,0,0:0:0:0:
109,192,32170,1,0,0:0:0:0:
402,192,32170,1,0,0:0:0:0:
182,192,32320,1,0,0:0:0:0:
109,192,32470,1,2,0:0:0:0:
402,192,32470,1,0,0:0:0:0:
36,192,32620,128,0,32770:0:0:0:0:
256,192,32620,128,4,32770:0:0:0:0:
475,192,32620,128,0,32770:0:0:0:0:
402,192,32920,1,0,0:0:0:0:
182,192,33070,1,8,0:0:0:0:
329,192,33070,1,0,0:0:0:0:
109,192,33220,1,0,0:0:0:0:
329,192,33370,1,0,0:0:0:0:
182,192,33370,1,0,0:0:0:0:
402,192,33520,1,0,0:0:0:0:
182,192,33670,1,2,0:0:0:0:
329,192,33670,1,0,0:0:0:0:
36,192,33820,128,4,33970:0:0:0:0:
256,192,33820,128,0,33970:0:0:0:0:
475,192,33820,128,0,33970:0:0:0:0:
256,192,34120,1,0,0:0:0:0:
475,192,34270,1,8,0:0:0:0:
329,192,34270,1,0,0:0:0:0:
256,192,34420,1,0,0:0:0:0:
36,192,34570,1,0,0:0:0:0:
182,192,34570,1,0,0:0:0:0:
256,192,34720,1,0,0:0:0:0:
329,192,34870,1,2,0:0:0:0:
475,192,34870,1,0,0:0:0:0:
36,192,35020,128,4,35170:0:0:0:0:
182,192,35020,128,0,35170:0:0:0:0:
402,192,35020,128,0,35170:0:0:0:0:
256,192,35320,1,0,0:0:0:0:
475,192,35470,1,8,0:0:0:0:
36,192,35470,1,0,0:0:0:0:
329,192,35620,128,8,35770:3:0:0:0:
109,192,35620,128,0,36370:0:0:0:0:
256,192,35770,128,8,35920:0:0:0:0:
182,192,35920,128,8,36370:3:0:0:0:
402,192,35920,128,0,36070:0:0:0:0:
329,192,36070,128,8,36220:0:0:0:0:
256,192,36220,128,8,36370:3:0:0:0:
475,192,36220,128,0,36370:0:0:0:0:
36,192,36370,1,4,0:0:0:0:
329,192,36370,1,0,0:0:0:0:
402,192,36370,1,0,0:0:0:0:
475,192,36520,1,0,0:0:0:0:
256,192,36670,1,8,0:0:0:0:
109,192,36670,1,0,0:0:0:0:
36,192,36820,1,0,0:0:0:0:
182,192,36970,1,0,0:0:0:0:
329,192,36970,1,0,0:0:0:0:
109,192,37120,1,0,0:0:0:0:
256,192,37270,1,2,0:0:0:0:
402,192,37270,1,0,0:0:0:0:
475,192,37420,128,0,37570:0:0:0:0:
329,192,37420,128,4,37570:0:0:0:0:
182,192,37420,128,0,37570:0:0:0:0:
36,192,37720,1,0,0:0:0:0:
402,192,37870,1,8,0:0:0:0:
256,192,37870,1,0,0:0:0:0:
475,192,38020,1,0,0:0:0:0:
182,192,38170,1,0,0:0:0:0:
329,192,38170,1,0,0:0:0:0:
402,192,38320,1,0,0:0:0:0:
109,192,38470,1,2,0:0:0:0:
256,192,38470,1,0,0:0:0:0:
182,192,38620,128,0,38770:0:0:0:0:
36,192,38620,128,0,38770:0:0:0:0:
329,192,38620,128,4,38770:0:0:0:0:
256,192,38920,1,0,0:0:0:0:
475,192,39070,1,8,0:0:0:0:
36,192,39070,1,0,0:0:0:0:
256,192,39220,1,0,0:0:0:0:
109,192,39370,1,0,0:0:0:0:
402,192,39370,1,0,0:0:0:0:
256,192,39520,1,0,0:0:0:0:
182,192,39670,1,2,0:0:0:0:
329,192,39670,1,0,0:0:0:0:
36,192,39820,128,0,39970:0:0:0:0:
256,192,39820,128,0,39970:0:0:0:0:
475,192,39820,128,4,39970:0:0:0:0:
182,192,40120,1,0,0:0:0:0:
36,192,40270,1,8,0:0:0:0:
329,192,40270,1,0,0:0:0:0:
402,192,40345,1,4,3:0:0:0:
475,192,40420,5,8,3:0:0:0:
182,192,40495,5,4,3:0:0:0:
256,192,40570,1,8,3:0:0:0:
329,192,40645,1,4,3:0:0:0:
36,192,40720,1,8,3:0:0:0:
109,192,40795,1,4,3:0:0:0:
182,192,40870,5,2,0:0:0:0:
402,192,40870,1,0,0:0:0:0:
329,192,40945,1,8,3:0:0:0:
109,192,41020,1,4,3:0:0:0:
182,192,41095,1,8,3:0:0:0:
256,192,41170,128,4,41320:0:0:0:0:
36,192,41170,128,0,41320:0:0:0:0:
475,192,41170,128,0,41320:0:0:0:0:
475,192,41470,1,8,0:0:0:0:
402,192,41470,1,0,0:0:0:0:
109,192,41620,1,0,0:0:0:0:
402,192,41770,1,0,0:0:0:0:
329,192,41770,1,0,0:0:0:0:
36,192,41920,1,0,0:0:0:0:
256,192,42070,1,2,0:0:0:0:
329,192,42070,1,0,0:0:0:0:
109,192,42220,128,0,42370:0:0:0:0:
475,192,42220,128,4,42370:0:0:0:0:
182,192,42220,128,0,42370:0:0:0:0:
329,192,42520,1,0,0:0:0:0:
109,192,42670,1,8,0:0:0:0:
36,192,42670,1,0,0:0:0:0:
402,192,42820,1,0,0:0:0:0:
109,192,42970,1,0,0:0:0:0:
182,192,42970,1,0,0:0:0:0:
475,192,43120,1,0,0:0:0:0:
182,192,43270,1,2,0:0:0:0:
256,192,43270,1,0,0:0:0:0:
36,192,43420,128,0,43570:0:0:0:0:
329,192,43420,128,0,43570:0:0:0:0:
402,192,43420,128,4,43570:0:0:0:0:
182,192,43720,1,0,0:0:0:0:
475,192,43870,1,8,0:0:0:0:
329,192,43870,1,0,0:0:0:0:
109,192,44020,1,0,0:0:0:0:
402,192,44170,1,0,0:0:0:0:
256,192,44170,1,0,0:0:0:0:
36,192,44320,1,0,0:0:0:0:
182,192,44470,1,2,0:0:0:0:
329,192,44470,1,0,0:0:0:0:
109,192,44620,128,0,44770:0:0:0:0:
256,192,44620,128,0,44770:0:0:0:0:
402,192,44620,128,4,44770:0:0:0:0:
182,192,44920,1,0,0:0:0:0:
402,192,45070,1,8,0:0:0:0:
109,192,45070,1,0,0:0:0:0:
329,192,45220,128,0,45370:0:0:0:0:
36,192,45220,128,8,45670:3:0:0:0:
402,192,45370,128,8,45520:0:0:0:0:
182,192,45370,128,8,45520:3:0:0:0:
475,192,45520,128,0,45970:0:0:0:0:
256,192,45520,128,8,45670:0:0:0:0:
329,192,45670,128,8,45970:3:0:0:0:
109,192,45670,128,0,45820:0:0:0:0:
182,192,45820,128,0,45970:0:0:0:0:
36,192,45970,1,4,0:0:0:0:
256,192,45970,1,0,0:0:0:0:
402,192,45970,1,0,0:0:0:0:
109,192,46120,1,0,0:0:0:0:
329,192,46270,1,8,0:0:0:0:
182,192,46270,1,0,0:0:0:0:
402,192,46420,1,0,0:0:0:0:
329,192,46570,1,0,0:0:0:0:
182,192,46570,1,0,0:0:0:0:
109,192,46720,1,0,0:0:0:0:
182,192,46870,1,2,0:0:0:0:
329,192,46870,1,0,0:0:0:0:
256,192,47020,128,0,47170:0:0:0:0:
475,192,47020,128,0,47170:0:0:0:0:
36,192,47020,128,4,47170:0:0:0:0:
182,192,47320,1,0,0:0:0:0:
475,192,47470,1,8,0:0:0:0:
109,192,47470,1,0,0:0:0:0:
329,192,47620,1,0,0:0:0:0:
402,192,47770,1,0,0:0:0:0:
36,192,47770,1,0,0:0:0:0:
182,192,47920,1,0,0:0:0:0:
109,192,48070,1,2,0:0:0:0:
475,192,48070,1,0,0:0:0:0:
402,192,48220,128,4,48370:0:0:0:0:
182,192,48220,128,0,48370:0:0:0:0:
329,192,48220,128,0,48370:0:0:0:0:
256,192,48520,1,0,0:0:0:0:
402,192,48670,1,8,0:0:0:0:
36,192,48670,1,0,0:0:0:0:
182,192,48820,1,8,3:0:0:0:
329,192,48895,1,8,3:0:0:0:
475,192,48970,1,8,0:0:0:0:
109,192,48970,1,0,0:0:0:0:
256,192,49045,1,4,3:0:0:0:
36,192,49120,1,8,3:0:0:0:
182,192,49195,1,8,3:0:0:0:
475,192,49270,1,2,0:0:0:0:
329,192,49270,1,0,0:0:0:0:
256,192,49420,1,4,0:0:0:0:
109,192,49420,1,0,0:0:0:0:
402,192,49420,1,0,0:0:0:0:
329,192,49720,1,8,0:0:0:0:
475,192,49720,1,0,0:0:0:0:
36,192,49720,1,0,0:0:0:0:
475,192,49870,1,8,0:0:0:0:
329,192,49870,1,0,0:0:0:0:
36,192,49870,1,0,0:0:0:0:
109,192,50020,5,8,3:0:0:0:
182,192,50095,1,0,0:0:0:0:
402,192,50170,1,8,0:0:0:0:
329,192,50245,1,8,0:0:0:0:
36,192,50320,1,8,3:0:0:0:
475,192,50320,1,0,0:0:0:0:
109,192,50470,5,2,0:0:0:0:
182,192,50545,1,8,3:0:0:0:
475,192,50620,1,4,3:0:0:0:
36,192,50620,1,0,0:0:0:0:
109,192,50770,5,4,0:0:0:0:
402,192,50770,1,0,0:0:0:0:
256,192,50770,1,0,0:0:0:0:
182,192,50920,1,0,0:0:0:0:
329,192,50995,1,0,0:0:0:0:
109,192,51070,1,0,0:0:0:0:
402,192,51145,1,0,0:0:0:0:
182,192,51220,1,0,0:0:0:0:
329,192,51295,1,0,0:0:0:0:
475,192,51370,1,8,0:0:0:0:
36,192,51370,1,2,0:0:0:0:
182,192,51520,1,0,0:0:0:0:
329,192,51595,1,0,0:0:0:0:
109,192,51670,1,0,0:0:0:0:
402,192,51745,1,0,0:0:0:0:
182,192,51820,1,0,0:0:0:0:
329,192,51895,1,0,0:0:0:0:
109,192,51970,1,0,0:0:0:0:
402,192,52045,1,0,0:0:0:0:
182,192,52120,1,0,0:0:0:0:
109,192,52195,1,0,0:0:0:0:
402,192,52270,1,0,0:0:0:0:
329,192,52345,1,0,0:0:0:0:
109,192,52420,1,0,0:0:0:0:
182,192,52495,1,0,0:0:0:0:
475,192,52570,1,8,0:0:0:0:
36,192,52570,1,2,0:0:0:0:
402,192,52720,1,0,0:0:0:0:
182,192,52795,1,0,0:0:0:0:
402,192,52870,1,0,0:0:0:0:
109,192,52945,1,0,0:0:0:0:
329,192,53020,1,0,0:0:0:0:
182,192,53095,1,0,0:0:0:0:
402,192,53170,1,0,0:0:0:0:
182,192,53245,1,0,0:0:0:0:
329,192,53320,1,0,0:0:0:0:
109,192,53395,1,0,0:0:0:0:
402,192,53470,1,0,0:0:0:0:
182,192,53545,1,0,0:0:0:0:
402,192,53620,1,0,0:0:0:0:
109,192,53695,1,0,0:0:0:0:
475,192,53770,1,8,0:0:0:0:
36,192,53770,1,2,0:0:0:0:
329,192,53920,1,0,0:0:0:0:
109,192,53995,1,0,0:0:0:0:
402,192,54070,1,0,0:0:0:0:
109,192,54145,1,0,0:0:0:0:
182,192,54220,1,0,0:0:0:0:
329,192,54295,1,0,0:0:0:0:
109,192,54370,1,0,0:0:0:0:
329,192,54445,1,0,0:0:0:0:
182,192,54520,1,0,0:0:0:0:
402,192,54595,1,0,0:0:0:0:
182,192,54670,1,0,0:0:0:0:
109,192,54745,1,0,0:0:0:0:
402,192,54820,1,0,0:0:0:0:
329,192,54895,1,0,0:0:0:0:
36,192,54970,1,2,0:0:0:0:
475,192,54970,1,8,0:0:0:0:
182,192,55120,1,0,0:0:0:0:
402,192,55195,1,0,0:0:0:0:
109,192,55270,1,0,0:0:0:0:
329,192,55345,1,0,0:0:0:0:
182,192,55420,1,0,0:0:0:0:
402,192,55495,1,0,0:0:0:0:
182,192,55570,1,0,0:0:0:0:
329,192,55645,1,0,0:0:0:0:
109,192,55720,1,0,0:0:0:0:
182,192,55795,1,0,0:0:0:0:
329,192,55870,1,0,0:0:0:0:
109,192,55945,1,0,0:0:0:0:
329,192,56020,1,0,0:0:0:0:
182,192,56095,1,0,0:0:0:0:
475,192,56170,1,8,0:0:0:0:
36,192,56170,1,2,0:0:0:0:
109,192,56320,1,0,0:0:0:0:
402,192,56395,1,0,0:0:0:0:
182,192,56470,1,0,0:0:0:0:
329,192,56545,1,0,0:0:0:0:
109,192,56620,1,0,0:0:0:0:
402,192,56695,1,0,0:0:0:0:
182,192,56770,1,0,0:0:0:0:
402,192,56845,1,0,0:0:0:0:
109,192,56920,1,0,0:0:0:0:
329,192,56995,1,0,0:0:0:0:
182,192,57070,1,0,0:0:0:0:
402,192,57145,1,8,3:0:0:0:
109,192,57220,1,0,0:0:0:0:
329,192,57295,1,8,3:0:0:0:
475,192,57370,1,2,0:0:0:0:
182,192,57370,1,8,0:0:0:0:
402,192,57445,1,4,0:0:0:0:
109,192,57520,1,0,0:0:0:0:
329,192,57595,1,4,0:0:0:0:
182,192,57670,1,0,0:0:0:0:
256,192,57745,1,0,0:0:0:0:
109,192,57820,1,0,0:0:0:0:
329,192,57820,1,0,0:0:0:0:
182,192,57895,1,0,0:0:0:0:
36,192,57970,128,0,58420:0:0:0:0:
256,192,57970,128,0,58420:0:0:0:0:
475,192,57970,128,0,58420:0:0:0:0:
182,192,58420,1,0,0:0:0:0:
475,192,58570,1,8,0:0:0:0:
256,192,58570,1,2,0:0:0:0:
36,192,58570,1,0,0:0:0:0:
402,192,58870,1,8,3:0:0:0:
329,192,58870,1,0,0:0:0:0:
182,192,58970,1,8,3:0:0:0:
109,192,58970,1,0,0:0:0:0:
329,192,59070,1,8,3:0:0:0:
402,192,59070,1,0,0:0:0:0:
109,192,59170,1,8,3:0:0:0:
182,192,59170,1,0,0:0:0:0:
36,192,59170,1,0,0:0:0:0:
36,192,59470,1,8,3:0:0:0:
109,192,59470,1,0,0:0:0:0:
402,192,59570,1,8,3:0:0:0:
329,192,59570,1,0,0:0:0:0:
36,192,59670,5,8,3:0:0:0:
109,192,59670,1,0,0:0:0:0:
475,192,59770,5,8,0:0:0:0:
402,192,59770,1,2,0:0:0:0:
329,192,59770,1,0,0:0:0:0:
475,192,60070,1,8,0:0:0:0:
36,192,60070,1,0,0:0:0:0:
402,192,60170,1,8,0:0:0:0:
109,192,60170,1,0,0:0:0:0:
329,192,60270,1,8,0:0:0:0:
182,192,60270,1,0,0:0:0:0:
36,192,60370,5,4,0:0:0:0:
256,192,60370,1,0,0:0:0:0:
475,192,60370,1,0,0:0:0:0:
109,192,60520,1,0,0:0:0:0:
402,192,60520,1,0,0:0:0:0:
36,192,60670,128,0,61570:0:0:0:0:
329,192,60670,1,0,0:0:0:0:
182,192,60970,128,8,61570:0:0:0:0:
475,192,60970,128,2,61570:0:0:0:0:
329,192,61270,128,0,61570:0:0:0:0:
109,192,61570,1,0,0:0:0:0:
402,192,61570,1,0,0:0:0:0:
109,192,61720,1,0,0:0:0:0:
402,192,61720,1,0,0:0:0:0:
329,192,61870,128,0,62770:0:0:0:0:
182,192,61870,1,0,0:0:0:0:
109,192,62170,128,8,62770:0:0:0:0:
402,192,62170,128,2,62770:0:0:0:0:
182,192,62470,128,0,62770:0:0:0:0:
36,192,62770,1,0,0:0:0:0:
475,192,62770,1,0,0:0:0:0:
36,192,62920,1,0,0:0:0:0:
475,192,62920,1,0,0:0:0:0:
402,192,63070,128,0,63970:0:0:0:0:
109,192,63070,1,0,0:0:0:0:
36,192,63370,128,2,63970:0:0:0:0:
329,192,63370,128,8,63970:0:0:0:0:
182,192,63670,128,0,63970:0:0:0:0:
109,192,63970,1,0,0:0:0:0:
475,192,63970,1,0,0:0:0:0:
109,192,64120,1,0,0:0:0:0:
475,192,64120,1,0,0:0:0:0:
329,192,64270,128,0,65170:0:0:0:0:
36,192,64270,1,0,0:0:0:0:
109,192,64570,128,2,65170:0:0:0:0:
402,192,64570,128,8,65170:0:0:0:0:
36,192,64870,128,0,65170:0:0:0:0:
182,192,65170,1,0,0:0:0:0:
475,192,65170,1,0,0:0:0:0:
182,192,65320,1,0,0:0:0:0:
475,192,65320,1,0,0:0:0:0:
36,192,65470,128,0,66370:0:0:0:0:
402,192,65470,1,0,0:0:0:0:
109,192,65770,128,2,66370:0:0:0:0:
329,192,65770,128,8,66370:0:0:0:0:
475,192,66070,128,0,66370:0:0:0:0:
182,192,66370,1,0,0:0:0:0:
402,192,66370,1,0,0:0:0:0:
402,192,66520,1,0,0:0:0:0:
182,192,66520,1,0,0:0:0:0:
36,192,66670,128,0,66970:0:0:0:0:
475,192,66670,128,0,66970:0:0:0:0:
182,192,66970,128,2,67570:0:0:0:0:
329,192,66970,128,8,67570:0:0:0:0:
36,192,67270,128,0,67570:0:0:0:0:
475,192,67270,128,0,67570:0:0:0:0:
109,192,67570,1,8,3:0:0:0:
256,192,67645,1,8,3:0:0:0:
182,192,67720,1,8,3:0:0:0:
329,192,67795,1,8,3:0:0:0:
36,192,67870,128,2,68170:0:0:0:0:
475,192,67870,128,0,68095:0:0:0:0:
182,192,68170,1,8,3:0:0:0:
329,192,68245,1,8,3:0:0:0:
36,192,68320,128,0,68620:0:0:0:0:
475,192,68320,128,8,68620:0:0:0:0:
256,192,68620,1,4,0:0:0:0:
109,192,68620,1,0,0:0:0:0:
402,192,68620,1,0,0:0:0:0:
36,192,68920,1,8,0:0:0:0:
329,192,68920,1,0,0:0:0:0:
182,192,68920,1,0,0:0:0:0:
109,192,69070,1,8,0:0:0:0:
256,192,69070,1,0,0:0:0:0:
402,192,69070,1,0,0:0:0:0:
182,192,69220,1,8,0:0:0:0:
329,192,69220,1,0,0:0:0:0:
475,192,69220,1,0,0:0:0:0:
36,192,69370,1,8,3:0:0:0:
109,192,69445,1,8,3:0:0:0:
402,192,69520,1,8,3:0:0:0:
182,192,69520,1,0,0:0:0:0:
329,192,69670,1,8,3:0:0:0:
402,192,69745,1,8,3:0:0:0:
475,192,69820,1,8,3:0:0:0:
109,192,69820,1,0,0:0:0:0:
256,192,69895,1,8,3:0:0:0:
36,192,69970,1,4,3:0:0:0:
182,192,70045,1,4,3:0:0:0:
329,192,70120,1,4,3:0:0:0:
475,192,70195,1,4,3:0:0:0:
256,192,70270,1,4,0:0:0:0:
109,192,70270,1,0,0:0:0:0:
402,192,70270,1,0,0:0:0:0:
182,192,70420,1,0,0:0:0:0:
329,192,70495,1,0,0:0:0:0:
109,192,70570,1,0,0:0:0:0:
256,192,70645,1,0,0:0:0:0:
402,192,70720,1,0,0:0:0:0:
182,192,70795,1,0,0:0:0:0:
329,192,70870,1,8,0:0:0:0:
475,192,70870,1,0,0:0:0:0:
36,192,71020,1,0,0:0:0:0:
182,192,71095,1,0,0:0:0:0:
402,192,71170,1,12,3:0:0:0:
256,192,71245,1,0,0:0:0:0:
109,192,71320,1,0,0:0:0:0:
329,192,71395,1,0,0:0:0:0:
36,192,71470,1,8,0:0:0:0:
182,192,71470,1,0,0:0:0:0:
475,192,71620,1,0,0:0:0:0:
329,192,71695,1,0,0:0:0:0:
109,192,71770,1,0,0:0:0:0:
256,192,71845,1,0,0:0:0:0:
402,192,71920,1,0,0:0:0:0:
182,192,71995,1,0,0:0:0:0:
475,192,72070,1,8,0:0:0:0:
329,192,72070,1,0,0:0:0:0:
36,192,72220,1,0,0:0:0:0:
182,192,72295,1,0,0:0:0:0:
402,192,72370,1,12,3:0:0:0:
256,192,72445,1,0,0:0:0:0:
475,192,72520,1,0,0:0:0:0:
329,192,72595,1,0,0:0:0:0:
36,192,72670,1,8,0:0:0:0:
182,192,72670,1,0,0:0:0:0:
402,192,72820,1,0,0:0:0:0:
182,192,72895,1,0,0:0:0:0:
329,192,72970,1,0,0:0:0:0:
109,192,73045,1,0,0:0:0:0:
256,192,73120,1,0,0:0:0:0:
36,192,73195,1,0,0:0:0:0:
475,192,73270,1,8,0:0:0:0:
182,192,73270,1,0,0:0:0:0:
109,192,73420,1,0,0:0:0:0:
329,192,73495,1,0,0:0:0:0:
182,192,73570,1,12,3:0:0:0:
402,192,73645,1,0,0:0:0:0:
256,192,73720,1,0,0:0:0:0:
475,192,73795,1,0,0:0:0:0:
329,192,73870,1,8,0:0:0:0:
36,192,73870,1,0,0:0:0:0:
256,192,74020,1,0,0:0:0:0:
475,192,74095,1,0,0:0:0:0:
329,192,74170,1,0,0:0:0:0:
182,192,74245,1,0,0:0:0:0:
36,192,74320,1,0,0:0:0:0:
182,192,74395,1,0,0:0:0:0:
475,192,74470,1,8,0:0:0:0:
329,192,74470,1,0,0:0:0:0:
402,192,74620,1,0,0:0:0:0:
256,192,74695,1,0,0:0:0:0:
475,192,74770,1,8,3:0:0:0:
109,192,74770,1,4,0:0:0:0:
36,192,74770,1,0,0:0:0:0:
182,192,74920,1,0,0:0:0:0:
329,192,74995,1,0,0:0:0:0:
402,192,75070,1,8,0:0:0:0:
109,192,75070,1,0,0:0:0:0:
182,192,75220,1,0,0:0:0:0:
329,192,75295,1,0,0:0:0:0:
109,192,75370,1,0,0:0:0:0:
402,192,75445,1,0,0:0:0:0:
182,192,75520,1,0,0:0:0:0:
256,192,75595,1,0,0:0:0:0:
402,192,75670,1,8,0:0:0:0:
109,192,75670,1,0,0:0:0:0:
329,192,75820,1,0,0:0:0:0:
182,192,75895,1,0,0:0:0:0:
402,192,75970,1,12,3:0:0:0:
109,192,76045,1,0,0:0:0:0:
329,192,76120,1,0,0:0:0:0:
256,192,76195,1,0,0:0:0:0:
402,192,76270,1,8,0:0:0:0:
109,192,76270,1,0,0:0:0:0:
182,192,76420,1,0,0:0:0:0:
329,192,76495,1,0,0:0:0:0:
182,192,76570,1,0,0:0:0:0:
402,192,76645,1,0,0:0:0:0:
329,192,76720,1,0,0:0:0:0:
182,192,76795,1,0,0:0:0:0:
402,192,76870,1,8,0:0:0:0:
256,192,76870,1,0,0:0:0:0:
109,192,76870,1,0,0:0:0:0:
329,192,77020,1,0,0:0:0:0:
182,192,77170,1,8,3:0:0:0:
109,192,77245,1,8,3:0:0:0:
36,192,77320,1,8,3:0:0:0:
256,192,77320,1,0,0:0:0:0:
329,192,77395,1,8,3:0:0:0:
402,192,77470,128,8,77770:0:0:0:0:
475,192,77470,128,0,77770:0:0:0:0:
256,192,77770,1,8,3:0:0:0:
329,192,77770,1,0,0:0:0:0:
182,192,77845,1,8,3:0:0:0:
109,192,77920,128,4,78220:0:0:0:0:
36,192,77920,128,8,78220:0:0:0:0:
402,192,77920,1,0,0:0:0:0:
182,192,78220,1,0,0:0:0:0:
329,192,78220,1,0,0:0:0:0:
475,192,78220,1,0,0:0:0:0:
182,192,78520,1,0,0:0:0:0:
329,192,78595,1,0,0:0:0:0:
36,192,78670,1,8,0:0:0:0:
475,192,78670,1,0,0:0:0:0:
402,192,78820,1,2,2:0:0:0:
109,192,78895,5,4,0:0:0:0:
329,192,78970,1,2,2:0:0:0:
182,192,79045,5,4,0:0:0:0:
329,192,79120,1,4,0:0:0:0:
182,192,79195,1,4,0:0:0:0:
256,192,79270,128,0,79570:0:0:0:0:
36,192,79570,1,4,3:0:0:0:
475,192,79570,1,4,0:0:0:0:
109,192,79645,1,4,3:0:0:0:
182,192,79720,1,4,3:0:0:0:
256,192,79795,1,4,3:0:0:0:
329,192,79870,1,0,0:0:0:0:
109,192,80020,1,4,3:0:0:0:
182,192,80095,1,4,3:0:0:0:
256,192,80170,1,4,3:0:0:0:
36,192,80170,1,0,0:0:0:0:
329,192,80245,1,4,3:0:0:0:
402,192,80320,1,0,0:0:0:0:
182,192,80470,1,4,3:0:0:0:
256,192,80545,1,4,3:0:0:0:
329,192,80620,1,4,3:0:0:0:
402,192,80695,1,4,3:0:0:0:
475,192,80770,1,0,0:0:0:0:
109,192,80920,1,4,3:0:0:0:
182,192,80995,1,4,3:0:0:0:
256,192,81070,1,4,3:0:0:0:
329,192,81145,1,4,3:0:0:0:
402,192,81220,1,0,0:0:0:0:
182,192,81370,1,8,0:0:0:0:
475,192,81370,1,2,0:0:0:0:
109,192,81445,1,0,0:0:0:0:
256,192,81520,1,0,0:0:0:0:
182,192,81595,1,0,0:0:0:0:
36,192,81670,128,4,81970:0:0:0:0:
329,192,81670,128,0,81970:0:0:0:0:
475,192,81970,1,8,3:0:0:0:
109,192,81970,1,0,0:0:0:0:
402,192,82045,1,4,3:0:0:0:
329,192,82120,1,8,3:0:0:0:
256,192,82195,1,4,3:0:0:0:
182,192,82270,1,0,0:0:0:0:
402,192,82420,1,8,3:0:0:0:
329,192,82495,1,4,3:0:0:0:
256,192,82570,1,8,3:0:0:0:
475,192,82570,1,0,0:0:0:0:
182,192,82645,1,4,3:0:0:0:
109,192,82720,1,0,0:0:0:0:
329,192,82870,1,8,3:0:0:0:
256,192,82945,1,4,3:0:0:0:
182,192,83020,1,8,3:0:0:0:
109,192,83095,1,4,3:0:0:0:
36,192,83170,1,0,0:0:0:0:
402,192,83320,1,8,3:0:0:0:
329,192,83395,1,4,3:0:0:0:
256,192,83470,1,8,3:0:0:0:
182,192,83545,1,4,3:0:0:0:
109,192,83620,1,0,0:0:0:0:
36,192,83770,1,2,0:0:0:0:
329,192,83770,1,8,0:0:0:0:
402,192,83845,1,0,0:0:0:0:
256,192,83920,1,0,0:0:0:0:
329,192,83995,1,0,0:0:0:0:
182,192,84070,128,4,84370:0:0:0:0:
475,192,84070,128,0,84370:0:0:0:0:
36,192,84370,1,4,3:0:0:0:
256,192,84445,1,4,3:0:0:0:
109,192,84520,1,4,3:0:0:0:
329,192,84595,1,4,3:0:0:0:
182,192,84670,1,0,0:0:0:0:
109,192,84820,1,4,3:0:0:0:
329,192,84895,1,4,3:0:0:0:
182,192,84970,1,4,3:0:0:0:
475,192,84970,1,0,0:0:0:0:
36,192,84970,1,0,0:0:0:0:
402,192,85045,1,4,3:0:0:0:
256,192,85120,1,0,0:0:0:0:
182,192,85270,1,4,3:0:0:0:
402,192,85345,1,4,3:0:0:0:
256,192,85420,1,4,3:0:0:0:
475,192,85495,5,4,3:0:0:0:
329,192,85570,1,0,0:0:0:0:
256,192,85720,1,4,3:0:0:0:
402,192,85795,1,4,3:0:0:0:
182,192,85870,1,4,3:0:0:0:
329,192,85945,1,4,3:0:0:0:
109,192,86020,1,0,0:0:0:0:
36,192,86170,5,2,0:0:0:0:
256,192,86170,1,8,0:0:0:0:
402,192,86245,1,0,0:0:0:0:
182,192,86320,1,0,0:0:0:0:
329,192,86395,1,0,0:0:0:0:
109,192,86470,128,0,86770:0:0:0:0:
402,192,86470,128,4,86770:0:0:0:0:
182,192,86770,1,8,3:0:0:0:
329,192,86845,1,4,3:0:0:0:
109,192,86920,1,8,3:0:0:0:
256,192,86995,1,4,3:0:0:0:
475,192,87070,1,8,0:0:0:0:
402,192,87070,1,0,0:0:0:0:
109,192,87145,1,8,0:0:0:0:
182,192,87220,1,8,3:0:0:0:
256,192,87295,1,4,3:0:0:0:
402,192,87370,1,8,0:0:0:0:
329,192,87370,1,8,3:0:0:0:
182,192,87445,1,12,3:0:0:0:
109,192,87445,1,8,0:0:0:0:
402,192,87595,1,4,3:0:0:0:
256,192,87670,1,4,3:0:0:0:
109,192,87745,1,4,3:0:0:0:
182,192,87820,1,4,3:0:0:0:
329,192,87895,1,4,3:0:0:0:
36,192,87970,1,4,0:0:0:0:
475,192,87970,1,8,0:0:0:0:
402,192,87970,1,0,0:0:0:0:
109,192,88120,1,8,3:0:0:0:
329,192,88120,1,0,0:0:0:0:
182,192,88195,1,4,3:0:0:0:
402,192,88270,1,8,3:0:0:0:
256,192,88345,1,4,3:0:0:0:
182,192,88420,1,4,3:0:0:0:
329,192,88495,1,8,0:0:0:0:
402,192,88570,1,8,0:0:0:0:
109,192,88570,1,0,0:0:0:0:
182,192,88720,1,4,3:0:0:0:
329,192,88720,1,0,0:0:0:0:
109,192,88870,1,8,0:0:0:0:
402,192,88870,1,0,0:0:0:0:
182,192,89020,1,4,3:0:0:0:
329,192,89020,1,0,0:0:0:0:
109,192,89095,1,0,0:0:0:0:
402,192,89095,1,0,0:0:0:0:
36,192,89170,5,4,3:0:0:0:
475,192,89170,1,4,3:0:0:0:
256,192,89170,1,0,0:0:0:0:
182,192,89470,5,4,0:0:0:0:
36,192,89470,1,0,0:0:0:0:
329,192,89470,1,0,0:0:0:0:
402,192,89620,128,0,89770:0:0:0:0:
182,192,89770,128,0,89920:0:0:0:0:
329,192,89920,128,0,90070:0:0:0:0:
475,192,90070,1,8,0:0:0:0:
109,192,90070,1,0,0:0:0:0:
182,192,90220,1,4,0:0:0:0:
36,192,90220,1,0,0:0:0:0:
402,192,90220,1,0,0:0:0:0:
256,192,90520,128,0,90670:0:0:0:0:
402,192,90670,128,8,90820:0:0:0:0:
36,192,90670,128,0,90820:0:0:0:0:
182,192,90820,128,0,90970:0:0:0:0:
329,192,90970,128,0,91120:0:0:0:0:
109,192,91120,128,0,91270:0:0:0:0:
182,192,91270,1,8,0:0:0:0:
402,192,91270,1,0,0:0:0:0:
329,192,91420,1,4,0:0:0:0:
475,192,91420,1,0,0:0:0:0:
109,192,91420,1,0,0:0:0:0:
256,192,91720,1,0,0:0:0:0:
329,192,91870,128,8,92020:0:0:0:0:
182,192,91870,128,0,92020:0:0:0:0:
36,192,92020,128,0,92170:0:0:0:0:
402,192,92170,128,0,92320:0:0:0:0:
109,192,92320,128,0,92470:0:0:0:0:
329,192,92470,1,8,0:0:0:0:
182,192,92470,1,0,0:0:0:0:
256,192,92620,1,4,0:0:0:0:
36,192,92620,1,0,0:0:0:0:
475,192,92620,1,0,0:0:0:0:
329,192,92920,1,0,0:0:0:0:
402,192,93070,1,8,0:0:0:0:
182,192,93070,1,0,0:0:0:0:
36,192,93070,1,0,0:0:0:0:
475,192,93220,128,0,93970:0:0:0:0:
256,192,93220,128,8,93520:3:0:0:0:
109,192,93370,128,0,93520:0:0:0:0:
402,192,93520,128,0,93970:0:0:0:0:
182,192,93520,128,8,93820:3:0:0:0:
36,192,93670,128,8,93820:0:0:0:0:
329,192,93820,128,0,93970:0:0:0:0:
109,192,93820,128,8,93970:3:0:0:0:
256,192,93970,1,4,0:0:0:0:
36,192,93970,1,0,0:0:0:0:
182,192,94120,128,0,94270:0:0:0:0:
109,192,94270,128,0,94420:0:0:0:0:
402,192,94270,128,8,94420:0:0:0:0:
256,192,94420,128,0,94570:0:0:0:0:
182,192,94570,128,0,94720:0:0:0:0:
329,192,94720,128,0,94870:0:0:0:0:
256,192,94870,1,8,0:0:0:0:
36,192,94870,1,0,0:0:0:0:
329,192,95020,1,4,0:0:0:0:
475,192,95020,1,0,0:0:0:0:
109,192,95020,1,0,0:0:0:0:
329,192,95320,128,0,95470:0:0:0:0:
109,192,95470,128,0,95620:0:0:0:0:
402,192,95470,128,8,95620:0:0:0:0:
256,192,95620,128,0,95770:0:0:0:0:
329,192,95770,128,0,95920:0:0:0:0:
182,192,95920,128,0,96070:0:0:0:0:
256,192,96070,1,8,0:0:0:0:
402,192,96070,1,0,0:0:0:0:
329,192,96220,1,4,0:0:0:0:
36,192,96220,1,0,0:0:0:0:
182,192,96220,1,0,0:0:0:0:
475,192,96520,128,0,96670:0:0:0:0:
329,192,96670,128,8,96820:0:0:0:0:
36,192,96670,128,0,96820:0:0:0:0:
182,192,96820,128,0,96970:0:0:0:0:
402,192,96970,128,0,97120:0:0:0:0:
109,192,97120,128,0,97270:0:0:0:0:
329,192,97270,1,8,0:0:0:0:
182,192,97270,1,0,0:0:0:0:
475,192,97420,1,4,0:0:0:0:
256,192,97420,1,0,0:0:0:0:
36,192,97420,1,0,0:0:0:0:
329,192,97720,1,4,3:0:0:0:
182,192,97795,1,4,3:0:0:0:
475,192,97870,1,8,0:0:0:0:
402,192,97870,1,0,0:0:0:0:
36,192,97870,1,0,0:0:0:0:
329,192,98020,1,4,3:0:0:0:
182,192,98095,1,4,3:0:0:0:
36,192,98170,1,0,0:0:0:0:
182,192,98245,1,8,3:0:0:0:
329,192,98320,1,8,3:0:0:0:
475,192,98395,1,8,3:0:0:0:
109,192,98470,1,8,0:0:0:0:
329,192,98470,1,0,0:0:0:0:
36,192,98470,1,0,0:0:0:0:
182,192,98620,1,8,3:0:0:0:
329,192,98695,1,8,3:0:0:0:
402,192,98770,1,4,0:0:0:0:
475,192,98770,1,0,0:0:0:0:
109,192,98770,1,0,0:0:0:0:
36,192,98770,1,0,0:0:0:0:
256,192,98920,128,0,99070:0:0:0:0:
109,192,99070,128,0,99220:0:0:0:0:
475,192,99070,128,8,99220:0:0:0:0:
329,192,99220,128,0,99370:0:0:0:0:
36,192,99370,128,0,99520:0:0:0:0:
256,192,99520,128,0,99670:0:0:0:0:
109,192,99670,1,8,0:0:0:0:
402,192,99670,1,0,0:0:0:0:
182,192,99820,1,4,0:0:0:0:
329,192,99820,1,0,0:0:0:0:
475,192,99820,1,0,0:0:0:0:
256,192,100120,128,0,100270:0:0:0:0:
109,192,100270,128,0,100420:0:0:0:0:
475,192,100270,128,8,100420:0:0:0:0:
329,192,100420,128,0,100570:0:0:0:0:
36,192,100570,128,0,100720:0:0:0:0:
256,192,100720,128,0,100870:0:0:0:0:
402,192,100870,1,8,0:0:0:0:
182,192,100870,1,0,0:0:0:0:
475,192,101020,1,4,0:0:0:0:
36,192,101020,1,0,0:0:0:0:
109,192,101020,1,0,0:0:0:0:
329,192,101320,128,0,101470:0:0:0:0:
475,192,101470,128,0,101620:0:0:0:0:
36,192,101470,128,8,101620:0:0:0:0:
182,192,101620,128,0,101770:0:0:0:0:
329,192,101770,128,0,101920:0:0:0:0:
109,192,101920,128,0,102070:0:0:0:0:
256,192,102070,1,8,0:0:0:0:
402,192,102070,1,0,0:0:0:0:
475,192,102220,1,4,0:0:0:0:
36,192,102220,1,0,0:0:0:0:
182,192,102220,1,0,0:0:0:0:
329,192,102520,1,0,0:0:0:0:
402,192,102670,1,0,0:0:0:0:
256,192,102670,1,0,0:0:0:0:
109,192,102670,1,0,0:0:0:0:
36,192,102820,128,8,103270:3:0:0:0:
182,192,102970,128,2,103270:0:0:0:0:
329,192,102970,128,0,103270:0:0:0:0:
475,192,103120,128,8,103420:3:0:0:0:
109,192,103270,128,0,103570:0:0:0:0:
256,192,103270,128,0,103570:0:0:0:0:
402,192,103420,128,8,103570:3:0:0:0:
329,192,103570,1,4,0:0:0:0:
36,192,103570,1,0,0:0:0:0:
182,192,103570,1,0,0:0:0:0:
256,192,103720,128,0,103870:0:0:0:0:
36,192,103870,128,0,104020:0:0:0:0:
475,192,103870,128,8,104020:0:0:0:0:
182,192,104020,128,0,104170:0:0:0:0:
402,192,104170,128,0,104320:0:0:0:0:
109,192,104320,128,0,104470:0:0:0:0:
329,192,104320,128,0,104470:0:0:0:0:
182,192,104470,1,8,0:0:0:0:
475,192,104470,1,0,0:0:0:0:
256,192,104620,1,4,0:0:0:0:
36,192,104620,1,0,0:0:0:0:
402,192,104620,1,0,0:0:0:0:
182,192,104920,128,0,105070:0:0:0:0:
36,192,105070,128,0,105220:0:0:0:0:
329,192,105070,128,8,105220:0:0:0:0:
475,192,105220,128,0,105370:0:0:0:0:
182,192,105370,128,0,105520:0:0:0:0:
329,192,105520,128,0,105670:0:0:0:0:
36,192,105670,1,8,0:0:0:0:
475,192,105670,1,0,0:0:0:0:
402,192,105820,1,4,0:0:0:0:
109,192,105820,1,0,0:0:0:0:
256,192,105820,1,0,0:0:0:0:
256,192,106120,128,0,106270:0:0:0:0:
109,192,106270,128,8,106420:0:0:0:0:
402,192,106270,128,0,106420:0:0:0:0:
329,192,106420,1,0,0:0:0:0:
182,192,106420,1,0,0:0:0:0:
109,192,106570,1,8,3:0:0:0:
402,192,106570,1,0,0:0:0:0:
182,192,106645,1,8,3:0:0:0:
256,192,106720,1,8,3:0:0:0:
329,192,106795,1,4,3:0:0:0:
109,192,106870,1,0,0:0:0:0:
402,192,106870,1,8,0:0:0:0:
256,192,107020,1,4,0:0:0:0:
36,192,107020,1,0,0:0:0:0:
475,192,107020,1,0,0:0:0:0:
182,192,107245,1,8,3:0:0:0:
329,192,107320,1,8,0:0:0:0:
109,192,107320,1,0,0:0:0:0:
402,192,107470,1,8,3:0:0:0:
182,192,107470,1,0,0:0:0:0:
256,192,107620,1,0,0:0:0:0:
329,192,107770,1,8,3:0:0:0:
109,192,107770,1,0,0:0:0:0:
182,192,107920,1,0,0:0:0:0:
109,192,107995,1,0,0:0:0:0:
36,192,108070,1,0,0:0:0:0:
402,192,108070,1,0,0:0:0:0:
256,192,108220,1,0,0:0:0:0:
182,192,108295,1,0,0:0:0:0:
475,192,108370,1,2,2:0:0:0:
109,192,108370,1,0,0:0:0:0:
256,192,108520,1,0,0:0:0:0:
329,192,108595,1,0,0:0:0:0:
182,192,108670,1,0,0:0:0:0:
402,192,108670,1,0,0:0:0:0:
475,192,108820,1,0,0:0:0:0:
329,192,108895,1,0,0:0:0:0:
36,192,108970,1,2,0:0:0:0:
109,192,108970,1,8,0:0:0:0:
182,192,108970,1,0,0:0:0:0:
329,192,109120,1,0,0:0:0:0:
402,192,109195,1,0,0:0:0:0:
475,192,109270,1,0,0:0:0:0:
182,192,109270,1,0,0:0:0:0:
256,192,109420,1,0,0:0:0:0:
182,192,109495,1,0,0:0:0:0:
109,192,109570,1,4,0:0:0:0:
329,192,109570,1,0,0:0:0:0:
182,192,109720,1,0,0:0:0:0:
256,192,109795,1,0,0:0:0:0:
329,192,109870,1,0,0:0:0:0:
36,192,109870,1,0,0:0:0:0:
475,192,110020,1,0,0:0:0:0:
329,192,110095,1,0,0:0:0:0:
36,192,110170,1,8,0:0:0:0:
109,192,110170,1,2,0:0:0:0:
182,192,110170,1,0,0:0:0:0:
402,192,110320,1,0,0:0:0:0:
256,192,110395,1,0,0:0:0:0:
475,192,110470,1,0,0:0:0:0:
109,192,110470,1,0,0:0:0:0:
36,192,110620,1,0,0:0:0:0:
182,192,110695,1,0,0:0:0:0:
329,192,110770,1,4,0:0:0:0:
109,192,110770,1,0,0:0:0:0:
475,192,110920,1,0,0:0:0:0:
329,192,110995,1,0,0:0:0:0:
182,192,111070,1,0,0:0:0:0:
402,192,111070,1,0,0:0:0:0:
36,192,111220,1,0,0:0:0:0:
182,192,111295,1,0,0:0:0:0:
402,192,111370,1,2,0:0:0:0:
329,192,111370,1,8,0:0:0:0:
475,192,111370,1,0,0:0:0:0:
109,192,111520,1,0,0:0:0:0:
256,192,111595,1,0,0:0:0:0:
402,192,111670,1,0,0:0:0:0:
36,192,111670,1,0,0:0:0:0:
475,192,111820,1,0,0:0:0:0:
329,192,111895,1,0,0:0:0:0:
402,192,111970,1,4,0:0:0:0:
182,192,111970,1,0,0:0:0:0:
36,192,112120,1,0,0:0:0:0:
182,192,112195,1,0,0:0:0:0:
329,192,112270,1,0,0:0:0:0:
109,192,112270,1,0,0:0:0:0:
475,192,112420,1,0,0:0:0:0:
329,192,112495,1,0,0:0:0:0:
182,192,112570,1,8,0:0:0:0:
109,192,112570,1,2,0:0:0:0:
36,192,112570,1,0,0:0:0:0:
329,192,112720,1,0,0:0:0:0:
402,192,112795,1,0,0:0:0:0:
182,192,112870,1,0,0:0:0:0:
475,192,112870,1,0,0:0:0:0:
256,192,113020,1,0,0:0:0:0:
329,192,113095,1,0,0:0:0:0:
109,192,113170,1,0,0:0:0:0:
402,192,113170,1,2,2:0:0:0:
182,192,113320,1,0,0:0:0:0:
256,192,113395,1,0,0:0:0:0:
36,192,113470,1,0,0:0:0:0:
329,192,113470,1,0,0:0:0:0:
109,192,113620,1,0,0:0:0:0:
182,192,113695,1,0,0:0:0:0:
402,192,113770,1,2,0:0:0:0:
256,192,113770,1,8,0:0:0:0:
329,192,113770,1,0,0:0:0:0:
182,192,113920,1,0,0:0:0:0:
109,192,113995,1,0,0:0:0:0:
329,192,114070,1,0,0:0:0:0:
36,192,114070,1,0,0:0:0:0:
256,192,114220,1,0,0:0:0:0:
182,192,114295,1,0,0:0:0:0:
402,192,114370,1,4,0:0:0:0:
109,192,114370,1,0,0:0:0:0:
329,192,114520,1,0,0:0:0:0:
256,192,114595,1,0,0:0:0:0:
475,192,114670,1,0,0:0:0:0:
182,192,114670,1,0,0:0:0:0:
329,192,114820,1,0,0:0:0:0:
182,192,114895,1,0,0:0:0:0:
402,192,114970,1,2,2:0:0:0:
109,192,115045,1,4,0:0:0:0:
329,192,115120,1,2,2:0:0:0:
182,192,115195,1,4,0:0:0:0:
475,192,115270,1,8,0:0:0:0:
36,192,115270,1,0,0:0:0:0:
402,192,115345,1,8,3:0:0:0:
182,192,115420,1,4,3:0:0:0:
329,192,115420,1,0,0:0:0:0:
109,192,115495,1,8,3:0:0:0:
36,192,115570,128,4,116095:0:0:0:0:
475,192,115570,128,8,116095:0:0:0:0:
256,192,115570,128,0,116095:0:0:0:0:
475,192,116170,1,8,0:0:0:0:
256,192,116170,1,0,0:0:0:0:
36,192,116170,1,0,0:0:0:0:
182,192,116320,1,0,0:0:0:0:
475,192,116470,1,4,3:0:0:0:
36,192,116470,1,0,0:0:0:0:
402,192,116570,1,4,3:0:0:0:
109,192,116570,1,0,0:0:0:0:
329,192,116670,1,4,3:0:0:0:
182,192,116670,1,0,0:0:0:0:
256,192,116770,1,0,0:0:0:0:
36,192,116770,128,0,116970:0:0:0:0:
475,192,116770,128,8,116970:0:0:0:0:
182,192,116970,128,0,117170:0:0:0:0:
329,192,116970,128,4,117170:3:0:0:0:
36,192,117170,128,0,117370:0:0:0:0:
475,192,117170,128,8,117370:0:0:0:0:
182,192,117370,128,0,117870:0:0:0:0:
329,192,117370,128,4,117870:3:0:0:0:
475,192,117570,128,8,117670:0:0:0:0:
36,192,117570,128,0,117670:0:0:0:0:
36,192,117770,128,2,117870:0:0:0:0:
475,192,117770,128,8,117870:0:0:0:0:
182,192,117970,1,4,0:0:0:0:
36,192,117970,1,0,0:0:0:0:
329,192,117970,1,0,0:0:0:0:
475,192,117970,1,0,0:0:0:0:
109,192,118120,1,0,0:0:0:0:
402,192,118120,1,0,0:0:0:0:
182,192,118270,128,0,119170:0:0:0:0:
329,192,118270,128,0,119170:0:0:0:0:
402,192,118570,1,8,0:0:0:0:
109,192,118570,1,2,0:0:0:0:
109,192,118870,128,0,119170:0:0:0:0:
402,192,118870,128,0,119170:0:0:0:0:
36,192,119170,1,0,0:0:0:0:
475,192,119170,1,0,0:0:0:0:
182,192,119320,1,0,0:0:0:0:
329,192,119320,1,0,0:0:0:0:
36,192,119470,128,0,120370:0:0:0:0:
475,192,119470,128,0,120370:0:0:0:0:
182,192,119770,1,2,0:0:0:0:
329,192,119770,1,8,0:0:0:0:
182,192,120070,128,0,120370:0:0:0:0:
329,192,120070,128,0,120370:0:0:0:0:
109,192,120370,1,0,0:0:0:0:
402,192,120370,1,0,0:0:0:0:
329,192,120520,1,0,0:0:0:0:
182,192,120520,1,0,0:0:0:0:
109,192,120670,128,0,121570:0:0:0:0:
402,192,120670,128,0,121570:0:0:0:0:
182,192,120970,1,2,0:0:0:0:
329,192,120970,1,8,0:0:0:0:
182,192,121270,128,0,121570:0:0:0:0:
329,192,121270,128,0,121570:0:0:0:0:
36,192,121570,1,0,0:0:0:0:
475,192,121570,1,0,0:0:0:0:
182,192,121720,1,0,0:0:0:0:
329,192,121720,1,0,0:0:0:0:
402,192,121870,128,0,122770:0:0:0:0:
109,192,121870,128,0,122770:0:0:0:0:
36,192,122170,1,2,0:0:0:0:
475,192,122170,1,8,0:0:0:0:
36,192,122470,128,0,122770:0:0:0:0:
475,192,122470,128,0,122770:0:0:0:0:
182,192,122770,1,0,0:0:0:0:
329,192,122770,1,0,0:0:0:0:
109,192,122920,1,0,0:0:0:0:
402,192,122920,1,0,0:0:0:0:
182,192,123070,128,0,123970:0:0:0:0:
329,192,123070,128,0,123970:0:0:0:0:
36,192,123370,1,8,0:0:0:0:
475,192,123370,1,2,0:0:0:0:
475,192,123670,128,0,123970:0:0:0:0:
36,192,123670,128,0,123970:0:0:0:0:
402,192,123970,1,0,0:0:0:0:
109,192,123970,1,0,0:0:0:0:
182,192,124120,1,0,0:0:0:0:
329,192,124120,1,0,0:0:0:0:
402,192,124270,128,0,124570:0:0:0:0:
109,192,124270,128,0,124570:0:0:0:0:
182,192,124570,128,2,125170:0:0:0:0:
329,192,124570,128,8,125170:0:0:0:0:
36,192,124870,128,0,125170:0:0:0:0:
475,192,124870,128,0,125170:0:0:0:0:
109,192,125170,1,8,3:0:0:0:
182,192,125245,1,8,3:0:0:0:
256,192,125320,1,8,3:0:0:0:
329,192,125395,1,8,3:0:0:0:
402,192,125470,128,2,125770:0:0:0:0:
36,192,125470,128,8,125770:0:0:0:0:
256,192,125770,1,8,3:0:0:0:
182,192,125845,1,8,3:0:0:0:
475,192,125920,128,2,126220:0:0:0:0:
109,192,125920,128,8,126220:0:0:0:0:
402,192,126220,1,8,3:0:0:0:
256,192,126220,1,0,0:0:0:0:
36,192,126220,1,0,0:0:0:0:
182,192,126520,1,8,3:0:0:0:
329,192,126595,1,8,3:0:0:0:
475,192,126670,1,8,0:0:0:0:
109,192,126670,1,0,0:0:0:0:
329,192,126820,1,8,3:0:0:0:
182,192,126895,1,8,3:0:0:0:
36,192,126970,1,4,3:0:0:0:
402,192,126970,1,0,0:0:0:0:
182,192,127120,1,8,3:0:0:0:
329,192,127195,1,8,3:0:0:0:
109,192,127270,1,8,0:0:0:0:
475,192,127270,1,0,0:0:0:0:
329,192,127420,1,8,3:0:0:0:
182,192,127495,1,8,3:0:0:0:
475,192,127570,1,4,0:0:0:0:
36,192,127570,1,0,0:0:0:0:
256,192,127570,1,0,0:0:0:0:
329,192,127720,1,0,0:0:0:0:
256,192,127795,1,0,0:0:0:0:
36,192,127870,1,8,0:0:0:0:
182,192,127870,1,0,0:0:0:0:
402,192,127870,1,0,0:0:0:0:
329,192,128020,1,0,0:0:0:0:
182,192,128095,1,0,0:0:0:0:
36,192,128170,1,12,3:0:0:0:
402,192,128320,1,0,0:0:0:0:
256,192,128395,1,0,0:0:0:0:
109,192,128470,1,8,0:0:0:0:
182,192,128470,1,0,0:0:0:0:
475,192,128470,1,0,0:0:0:0:
36,192,128620,1,0,0:0:0:0:
182,192,128695,1,0,0:0:0:0:
329,192,128770,1,0,0:0:0:0:
109,192,128920,1,0,0:0:0:0:
256,192,128995,1,0,0:0:0:0:
475,192,129070,1,8,0:0:0:0:
36,192,129070,1,0,0:0:0:0:
402,192,129070,1,0,0:0:0:0:
182,192,129220,1,0,0:0:0:0:
329,192,129295,1,0,0:0:0:0:
475,192,129370,1,12,3:0:0:0:
109,192,129520,1,0,0:0:0:0:
256,192,129595,1,0,0:0:0:0:
402,192,129670,1,8,0:0:0:0:
182,192,129670,1,0,0:0:0:0:
36,192,129670,1,0,0:0:0:0:
475,192,129820,1,0,0:0:0:0:
329,192,129895,1,0,0:0:0:0:
182,192,129970,1,0,0:0:0:0:
402,192,130120,1,0,0:0:0:0:
256,192,130195,1,0,0:0:0:0:
109,192,130270,1,8,0:0:0:0:
475,192,130270,1,0,0:0:0:0:
36,192,130270,1,0,0:0:0:0:
329,192,130420,1,0,0:0:0:0:
182,192,130495,1,0,0:0:0:0:
36,192,130570,1,12,3:0:0:0:
402,192,130720,1,0,0:0:0:0:
256,192,130795,1,0,0:0:0:0:
109,192,130870,1,8,0:0:0:0:
36,192,130870,1,0,0:0:0:0:
475,192,130870,1,0,0:0:0:0:
329,192,131020,1,0,0:0:0:0:
182,192,131095,1,0,0:0:0:0:
36,192,131170,1,0,0:0:0:0:
109,192,131320,1,0,0:0:0:0:
256,192,131395,1,0,0:0:0:0:
402,192,131470,1,8,0:0:0:0:
475,192,131470,1,0,0:0:0:0:
36,192,131470,1,0,0:0:0:0:
109,192,131620,1,0,0:0:0:0:
256,192,131695,1,0,0:0:0:0:
182,192,131770,1,4,0:0:0:0:
475,192,131770,1,8,0:0:0:0:
329,192,131770,1,0,0:0:0:0:
256,192,131995,1,4,0:0:0:0:
402,192,131995,1,8,0:0:0:0:
109,192,131995,1,0,0:0:0:0:
329,192,132220,1,4,0:0:0:0:
182,192,132220,1,8,0:0:0:0:
36,192,132220,1,0,0:0:0:0:
475,192,132370,1,0,0:0:0:0:
402,192,132370,1,0,0:0:0:0:
182,192,132445,1,0,0:0:0:0:
109,192,132520,1,0,0:0:0:0:
36,192,132595,1,0,0:0:0:0:
256,192,132670,1,0,0:0:0:0:
182,192,132745,1,0,0:0:0:0:
109,192,132820,1,0,0:0:0:0:
329,192,132895,1,0,0:0:0:0:
256,192,132970,1,0,0:0:0:0:
182,192,133045,1,0,0:0:0:0:
402,192,133120,1,0,0:0:0:0:
329,192,133195,1,0,0:0:0:0:
256,192,133270,1,8,0:0:0:0:
475,192,133345,1,0,0:0:0:0:
402,192,133420,1,0,0:0:0:0:
329,192,133495,1,0,0:0:0:0:
475,192,133570,1,8,0:0:0:0:
36,192,133570,1,0,0:0:0:0:
256,192,133645,1,0,0:0:0:0:
402,192,133720,1,0,0:0:0:0:
182,192,133795,1,0,0:0:0:0:
329,192,133870,1,0,0:0:0:0:
109,192,133945,1,0,0:0:0:0:
256,192,134020,1,0,0:0:0:0:
402,192,134095,1,0,0:0:0:0:
36,192,134170,5,4,0:0:0:0:
475,192,134170,1,0,0:0:0:0:
182,192,134170,1,0,0:0:0:0:
256,192,134470,1,8,0:0:0:0:
402,192,134470,1,0,0:0:0:0:
109,192,134470,1,0,0:0:0:0:
475,192,134770,5,4,2:0:0:0:
256,192,134770,128,0,138370:0:0:0:0:
36,192,134770,1,0,0:0:0:0:
329,192,135370,1,4,0:0:0:0:
475,192,135370,1,0,0:0:0:0:
109,192,135670,1,0,0:0:0:0:
182,192,135970,1,4,2:0:0:0:
36,192,135970,1,0,0:0:0:0:
329,192,136570,1,4,0:0:0:0:
475,192,136570,1,0,0:0:0:0:
109,192,136870,1,0,0:0:0:0:
36,192,137170,1,4,2:0:0:0:
182,192,137170,1,0,0:0:0:0:
402,192,137470,1,0,0:0:0:0:
475,192,137770,1,4,0:0:0:0:
329,192,137770,1,0,0:0:0:0:
109,192,138070,1,8,3:0:0:0:
329,192,138170,1,8,3:0:0:0:
182,192,138270,1,8,3:0:0:0:
109,192,138370,128,4,138970:2:0:0:0:
402,192,138370,128,8,138970:0:0:0:0:
182,192,138970,1,4,0:0:0:0:
329,192,139070,1,8,3:0:0:0:
402,192,139170,1,8,3:0:0:0:
256,192,139270,1,4,3:0:0:0:
109,192,139370,1,0,0:0:0:0:
182,192,139470,1,0,0:0:0:0:
329,192,139570,1,4,2:0:0:0:
36,192,139570,128,0,143170:0:0:0:0:
475,192,139570,128,0,143170:0:0:0:0:
329,192,140170,1,4,0:0:0:0:
402,192,140170,1,0,0:0:0:0:
329,192,140470,1,0,0:0:0:0:
256,192,140620,1,8,3:0:0:0:
109,192,140770,1,4,2:0:0:0:
182,192,140770,1,0,0:0:0:0:
256,192,141070,1,8,3:0:0:0:
329,192,141370,1,4,0:0:0:0:
402,192,141370,1,0,0:0:0:0:
256,192,141520,1,8,3:0:0:0:
182,192,141970,1,4,2:0:0:0:
109,192,141970,1,0,0:0:0:0:
402,192,142270,1,8,3:0:0:0:
256,192,142345,1,4,3:0:0:0:
109,192,142420,1,8,3:0:0:0:
182,192,142495,1,4,3:0:0:0:
402,192,142570,1,4,0:0:0:0:
329,192,142570,1,0,0:0:0:0:
256,192,142870,1,0,0:0:0:0:
329,192,143020,1,8,0:0:0:0:
182,192,143020,1,0,0:0:0:0:
109,192,143170,1,4,0:0:0:0:
402,192,143170,1,0,0:0:0:0:
256,192,143320,1,2,0:0:0:0:
329,192,143395,1,8,0:0:0:0:
402,192,143470,1,2,0:0:0:0:
182,192,143470,1,0,0:0:0:0:
329,192,143620,1,8,0:0:0:0:
109,192,143620,1,0,0:0:0:0:
402,192,143695,1,0,0:0:0:0:
36,192,143770,1,0,0:0:0:0:
475,192,143770,128,0,144370:0:0:0:0:
109,192,143845,1,0,0:0:0:0:
182,192,143920,1,0,0:0:0:0:
256,192,143995,1,0,0:0:0:0:
329,192,144070,1,4,0:0:0:0:
36,192,144070,128,8,144520:0:0:0:0:
329,192,144370,1,8,0:0:0:0:
402,192,144370,1,0,0:0:0:0:
256,192,144445,1,2,0:0:0:0:
109,192,144520,1,0,0:0:0:0:
182,192,144520,1,8,0:0:0:0:
402,192,144670,1,0,0:0:0:0:
329,192,144670,1,0,0:0:0:0:
109,192,144820,128,0,145270:0:0:0:0:
182,192,144820,128,0,145270:0:0:0:0:
36,192,145270,1,8,0:0:0:0:
475,192,145270,1,0,0:0:0:0:
182,192,145345,1,2,0:0:0:0:
329,192,145420,1,8,0:0:0:0:
402,192,145420,1,0,0:0:0:0:
109,192,145570,1,0,0:0:0:0:
182,192,145570,1,8,0:0:0:0:
329,192,145720,128,8,146170:0:0:0:0:
402,192,145720,128,0,146170:0:0:0:0:
475,192,146170,1,8,0:0:0:0:
36,192,146170,1,0,0:0:0:0:
329,192,146245,1,2,0:0:0:0:
182,192,146320,1,8,0:0:0:0:
109,192,146320,1,0,0:0:0:0:
256,192,146470,1,4,0:0:0:0:
402,192,146470,1,0,0:0:0:0:
36,192,146470,1,0,0:0:0:0:
109,192,146620,1,4,0:0:0:0:
329,192,146620,1,0,0:0:0:0:
182,192,146770,1,2,2:0:0:0:
475,192,146770,1,0,0:0:0:0:
402,192,146845,1,2,2:0:0:0:
329,192,146920,1,2,2:0:0:0:
36,192,146920,1,0,0:0:0:0:
109,192,146995,1,0,0:0:0:0:
475,192,147070,1,0,0:0:0:0:
182,192,147070,1,4,0:0:0:0:
402,192,147145,1,0,0:0:0:0:
36,192,147220,128,0,147670:0:0:0:0:
329,192,147220,128,4,147670:0:0:0:0:
182,192,147670,1,2,2:0:0:0:
475,192,147670,1,0,0:0:0:0:
402,192,147745,1,0,0:0:0:0:
329,192,147820,1,0,0:0:0:0:
36,192,147820,1,2,2:0:0:0:
109,192,147895,1,0,0:0:0:0:
182,192,147970,1,0,0:0:0:0:
475,192,147970,1,4,0:0:0:0:
402,192,148045,1,0,0:0:0:0:
329,192,148120,128,4,148570:0:0:0:0:
36,192,148120,128,0,148570:0:0:0:0:
182,192,148570,1,0,0:0:0:0:
475,192,148570,1,0,0:0:0:0:
402,192,148645,1,0,0:0:0:0:
329,192,148720,1,0,0:0:0:0:
36,192,148720,1,0,0:0:0:0:
109,192,148795,1,0,0:0:0:0:
182,192,148870,1,0,0:0:0:0:
475,192,148870,1,0,0:0:0:0:
402,192,149020,1,0,0:0:0:0:
109,192,149020,1,0,0:0:0:0:
256,192,149170,1,4,0:0:0:0:
475,192,149170,1,0,0:0:0:0:
36,192,149170,1,0,0:0:0:0:
402,192,149245,1,0,0:0:0:0:
329,192,149320,1,0,0:0:0:0:
182,192,149320,1,0,0:0:0:0:
109,192,149395,1,0,0:0:0:0:
36,192,149470,1,0,0:0:0:0:
475,192,149470,1,0,0:0:0:0:
402,192,149620,128,0,150070:0:0:0:0:
109,192,149620,128,0,150070:0:0:0:0:
256,192,149770,1,4,0:0:0:0:
36,192,150070,1,0,0:0:0:0:
475,192,150070,1,0,0:0:0:0:
109,192,150145,1,0,0:0:0:0:
182,192,150220,1,0,0:0:0:0:
329,192,150220,1,0,0:0:0:0:
402,192,150295,1,0,0:0:0:0:
475,192,150370,1,4,0:0:0:0:
36,192,150370,1,0,0:0:0:0:
256,192,150370,1,0,0:0:0:0:
109,192,150520,128,0,150970:0:0:0:0:
402,192,150520,128,0,150970:0:0:0:0:
256,192,150970,1,0,0:0:0:0:
36,192,150970,1,0,0:0:0:0:
329,192,150970,1,4,0:0:0:0:
109,192,151045,1,0,0:0:0:0:
182,192,151120,1,0,0:0:0:0:
475,192,151120,1,0,0:0:0:0:
402,192,151195,1,0,0:0:0:0:
329,192,151270,1,0,0:0:0:0:
182,192,151270,1,0,0:0:0:0:
109,192,151345,1,0,0:0:0:0:
36,192,151420,1,0,0:0:0:0:
402,192,151420,1,0,0:0:0:0:
329,192,151495,1,0,0:0:0:0:
109,192,151570,1,4,0:0:0:0:
475,192,151570,1,0,0:0:0:0:
256,192,151570,1,0,0:0:0:0:
402,192,151645,1,0,0:0:0:0:
329,192,151720,1,0,0:0:0:0:
182,192,151720,1,0,0:0:0:0:
402,192,151870,1,0,0:0:0:0:
109,192,151870,1,0,0:0:0:0:
182,192,152020,128,0,152470:0:0:0:0:
329,192,152020,128,0,152470:0:0:0:0:
256,192,152170,1,4,0:0:0:0:
36,192,152470,1,0,0:0:0:0:
475,192,152470,1,0,0:0:0:0:
109,192,152545,1,0,0:0:0:0:
329,192,152620,1,0,0:0:0:0:
182,192,152620,1,0,0:0:0:0:
256,192,152770,1,4,0:0:0:0:
36,192,152770,1,0,0:0:0:0:
475,192,152770,1,0,0:0:0:0:
182,192,152920,128,0,153370:0:0:0:0:
329,192,152920,128,0,153370:0:0:0:0:
36,192,153370,1,2,2:0:0:0:
475,192,153370,1,0,0:0:0:0:
402,192,153445,1,0,0:0:0:0:
329,192,153520,1,0,0:0:0:0:
182,192,153520,1,0,0:0:0:0:
402,192,153670,1,4,0:0:0:0:
109,192,153670,1,0,0:0:0:0:
256,192,153670,1,0,0:0:0:0:
329,192,153820,1,0,0:0:0:0:
182,192,153820,1,0,0:0:0:0:
475,192,153970,1,4,2:0:0:0:
36,192,153970,1,0,0:0:0:0:
256,192,153970,1,0,0:0:0:0:
109,192,154045,1,0,0:0:0:0:
182,192,154120,1,0,0:0:0:0:
402,192,154120,1,0,0:0:0:0:
329,192,154120,1,0,0:0:0:0:
109,192,154270,1,0,0:0:0:0:
36,192,154270,1,0,0:0:0:0:
402,192,154420,1,0,0:0:0:0:
329,192,154420,1,0,0:0:0:0:
36,192,154570,1,0,0:0:0:0:
109,192,154570,128,4,154645:0:0:0:0:
256,192,154645,128,0,154720:0:0:0:0:
402,192,154720,128,0,154795:0:0:0:0:
329,192,154870,1,0,0:0:0:0:
182,192,154945,1,0,0:0:0:0:
36,192,155020,1,0,0:0:0:0:
475,192,155020,1,0,0:0:0:0:
402,192,155170,1,4,0:0:0:0:
109,192,155170,1,0,0:0:0:0:
256,192,155170,1,0,0:0:0:0:
329,192,155320,128,0,155770:0:0:0:0:
182,192,155320,128,0,155770:0:0:0:0:
475,192,155770,1,0,0:0:0:0:
402,192,155770,128,4,155845:0:0:0:0:
256,192,155845,128,0,155920:0:0:0:0:
109,192,155920,128,0,155995:0:0:0:0:
182,192,156070,1,0,0:0:0:0:
329,192,156145,1,0,0:0:0:0:
475,192,156220,1,0,0:0:0:0:
36,192,156220,1,0,0:0:0:0:
256,192,156370,1,4,0:0:0:0:
109,192,156370,1,0,0:0:0:0:
182,192,156370,1,0,0:0:0:0:
402,192,156520,1,0,0:0:0:0:
329,192,156520,1,0,0:0:0:0:
109,192,156670,1,0,0:0:0:0:
182,192,156670,1,0,0:0:0:0:
402,192,156820,1,0,0:0:0:0:
329,192,156820,1,0,0:0:0:0:
109,192,156970,128,4,157270:0:0:0:0:
182,192,157045,128,0,157270:0:0:0:0:
36,192,157270,1,0,0:0:0:0:
329,192,157270,1,0,0:0:0:0:
402,192,157345,1,0,0:0:0:0:
475,192,157420,1,0,0:0:0:0:
182,192,157420,1,0,0:0:0:0:
329,192,157570,1,0,0:0:0:0:
36,192,157570,1,0,0:0:0:0:
256,192,157645,1,0,0:0:0:0:
475,192,157720,1,0,0:0:0:0:
182,192,157720,1,0,0:0:0:0:
402,192,157870,128,0,158170:0:0:0:0:
109,192,157870,128,0,158170:0:0:0:0:
182,192,158170,1,4,0:0:0:0:
256,192,158170,1,0,0:0:0:0:
475,192,158170,1,0,0:0:0:0:
109,192,158245,1,0,0:0:0:0:
36,192,158320,1,0,0:0:0:0:
329,192,158320,1,0,0:0:0:0:
402,192,158395,1,0,0:0:0:0:
475,192,158470,1,0,0:0:0:0:
182,192,158470,1,0,0:0:0:0:
256,192,158545,1,0,0:0:0:0:
109,192,158620,1,0,0:0:0:0:
329,192,158620,1,0,0:0:0:0:
36,192,158770,1,0,0:0:0:0:
256,192,158770,1,0,0:0:0:0:
475,192,158770,1,4,2:0:0:0:
182,192,158920,1,0,0:0:0:0:
109,192,158920,1,0,0:0:0:0:
329,192,159070,1,0,0:0:0:0:
402,192,159070,1,0,0:0:0:0:
109,192,159220,1,0,0:0:0:0:
182,192,159220,1,0,0:0:0:0:
402,192,159370,128,4,159670:0:0:0:0:
36,192,159370,1,0,0:0:0:0:
329,192,159445,128,0,159670:0:0:0:0:
36,192,159670,1,0,0:0:0:0:
475,192,159670,1,0,0:0:0:0:
109,192,159745,1,0,0:0:0:0:
182,192,159820,1,0,0:0:0:0:
329,192,159820,1,0,0:0:0:0:
36,192,159970,1,4,0:0:0:0:
256,192,159970,1,0,0:0:0:0:
475,192,159970,1,0,0:0:0:0:
329,192,160120,128,0,160570:0:0:0:0:
182,192,160120,128,0,160570:0:0:0:0:
475,192,160570,1,0,0:0:0:0:
109,192,160570,1,0,0:0:0:0:
402,192,160645,1,0,0:0:0:0:
182,192,160720,1,0,0:0:0:0:
329,192,160720,1,0,0:0:0:0:
36,192,160870,1,0,0:0:0:0:
402,192,160870,1,0,0:0:0:0:
109,192,160945,1,0,0:0:0:0:
329,192,161020,1,0,0:0:0:0:
182,192,161020,1,0,0:0:0:0:
256,192,161170,1,0,0:0:0:0:
475,192,161170,1,0,0:0:0:0:
36,192,161170,1,4,2:0:0:0:
182,192,161245,1,0,0:0:0:0:
329,192,161320,1,0,0:0:0:0:
109,192,161320,1,0,0:0:0:0:
402,192,161470,1,0,0:0:0:0:
182,192,161470,1,0,0:0:0:0:
256,192,161545,1,0,0:0:0:0:
329,192,161620,1,0,0:0:0:0:
109,192,161620,1,0,0:0:0:0:
475,192,161770,1,4,0:0:0:0:
402,192,161770,1,0,0:0:0:0:
36,192,161770,1,0,0:0:0:0:
329,192,161845,1,0,0:0:0:0:
182,192,161920,1,0,0:0:0:0:
109,192,161995,1,0,0:0:0:0:
36,192,162070,1,0,0:0:0:0:
256,192,162070,128,0,162220:0:0:0:0:
329,192,162145,128,0,162295:0:0:0:0:
402,192,162220,128,0,162370:0:0:0:0:
475,192,162295,128,0,162445:0:0:0:0:
182,192,162370,128,8,162520:0:0:0:0:
256,192,162445,128,0,162595:0:0:0:0:
329,192,162520,128,8,162670:3:0:0:0:
402,192,162595,128,0,162745:0:0:0:0:
109,192,162670,128,4,162820:3:0:0:0:
182,192,162745,128,0,162895:0:0:0:0:
256,192,162820,128,0,162970:0:0:0:0:
329,192,162895,128,0,163045:0:0:0:0:
402,192,162970,1,8,0:0:0:0:
109,192,162970,1,0,0:0:0:0:
475,192,163045,128,0,163570:0:0:0:0:
36,192,163045,128,0,163570:0:0:0:0:
329,192,163270,128,4,163570:0:0:0:0:
182,192,163420,128,8,163570:3:0:0:0:
402,192,163570,128,0,164770:0:0:0:0:
109,192,163570,128,0,164770:0:0:0:0:
256,192,163570,128,4,163795:2:0:0:0:
256,192,163870,128,4,164095:0:0:0:0:
256,192,164170,128,4,164395:0:0:0:0:
256,192,164470,128,4,164770:0:0:0:0:
329,192,164770,1,8,0:0:0:0:
182,192,164770,1,0,0:0:0:0:
109,192,164845,1,2,0:0:0:0:
402,192,164920,1,8,0:0:0:0:
36,192,164920,1,0,0:0:0:0:
109,192,165070,1,8,0:0:0:0:
329,192,165070,1,0,0:0:0:0:
256,192,165145,1,8,3:0:0:0:
182,192,165220,1,4,3:0:0:0:
475,192,165220,1,0,0:0:0:0:
329,192,165370,1,8,0:0:0:0:
109,192,165370,1,0,0:0:0:0:
402,192,165445,1,8,3:0:0:0:
475,192,165520,1,4,3:0:0:0:
36,192,165520,1,0,0:0:0:0:
402,192,165670,1,8,0:0:0:0:
109,192,165670,1,4,0:0:0:0:
256,192,165670,1,0,0:0:0:0:
256,192,165970,1,8,0:0:0:0:
36,192,165970,1,0,0:0:0:0:
182,192,166045,1,2,0:0:0:0:
109,192,166120,1,8,0:0:0:0:
329,192,166120,1,0,0:0:0:0:
256,192,166195,1,2,0:0:0:0:
182,192,166270,128,0,166570:0:0:0:0:
402,192,166270,128,4,166570:0:0:0:0:
109,192,166570,1,8,0:0:0:0:
329,192,166570,1,0,0:0:0:0:
256,192,166645,1,2,0:0:0:0:
182,192,166720,128,0,167320:0:0:0:0:
402,192,166720,128,4,167320:0:0:0:0:
109,192,167020,128,0,167320:0:0:0:0:
329,192,167020,128,4,167320:3:0:0:0:
256,192,167320,1,8,3:0:0:0:
109,192,167470,1,4,0:0:0:0:
402,192,167470,1,8,0:0:0:0:
182,192,167470,1,0,0:0:0:0:
329,192,167470,1,0,0:0:0:0:
256,192,167620,1,0,0:0:0:0:
329,192,167695,1,0,0:0:0:0:
402,192,167770,1,8,0:0:0:0:
109,192,167770,1,0,0:0:0:0:
182,192,167845,1,8,3:0:0:0:
256,192,167920,1,8,0:0:0:0:
329,192,167995,1,8,3:0:0:0:
109,192,168070,128,0,168220:0:0:0:0:
402,192,168070,128,4,168220:0:0:0:0:
329,192,168370,1,0,0:0:0:0:
36,192,168370,1,0,0:0:0:0:
182,192,168370,1,0,0:0:0:0:
475,192,168370,1,0,0:0:0:0:
256,192,168520,1,0,0:0:0:0:
109,192,168520,1,0,0:0:0:0:
329,192,168670,1,8,0:0:0:0:
402,192,168670,1,0,0:0:0:0:
475,192,168670,1,0,0:0:0:0:
182,192,168820,1,0,0:0:0:0:
109,192,168895,1,0,0:0:0:0:
36,192,168970,1,12,3:0:0:0:
402,192,168970,1,0,0:0:0:0:
256,192,169120,1,0,0:0:0:0:
109,192,169195,1,0,0:0:0:0:
402,192,169270,1,8,0:0:0:0:
475,192,169270,1,0,0:0:0:0:
329,192,169270,1,0,0:0:0:0:
36,192,169420,1,0,0:0:0:0:
109,192,169495,1,0,0:0:0:0:
329,192,169570,1,4,0:0:0:0:
182,192,169570,1,0,0:0:0:0:
402,192,169720,1,0,0:0:0:0:
256,192,169720,1,0,0:0:0:0:
182,192,169870,1,8,0:0:0:0:
109,192,169870,1,0,0:0:0:0:
36,192,169870,1,0,0:0:0:0:
329,192,170020,1,0,0:0:0:0:
402,192,170095,1,0,0:0:0:0:
109,192,170170,1,12,3:0:0:0:
475,192,170170,1,0,0:0:0:0:
256,192,170320,1,0,0:0:0:0:
402,192,170395,1,0,0:0:0:0:
109,192,170470,1,8,0:0:0:0:
182,192,170470,1,0,0:0:0:0:
36,192,170470,1,0,0:0:0:0:
329,192,170620,1,0,0:0:0:0:
256,192,170695,1,0,0:0:0:0:
402,192,170770,1,4,0:0:0:0:
182,192,170770,1,0,0:0:0:0:
109,192,170920,1,0,0:0:0:0:
329,192,170920,1,0,0:0:0:0:
475,192,171070,1,8,0:0:0:0:
36,192,171070,1,0,0:0:0:0:
256,192,171070,1,0,0:0:0:0:
182,192,171220,1,0,0:0:0:0:
256,192,171295,1,0,0:0:0:0:
109,192,171370,1,12,3:0:0:0:
329,192,171370,1,0,0:0:0:0:
182,192,171520,1,0,0:0:0:0:
109,192,171595,1,0,0:0:0:0:
475,192,171670,1,8,0:0:0:0:
36,192,171670,1,0,0:0:0:0:
256,192,171670,1,0,0:0:0:0:
329,192,171820,1,0,0:0:0:0:
402,192,171895,1,0,0:0:0:0:
475,192,171970,1,4,0:0:0:0:
182,192,171970,1,0,0:0:0:0:
109,192,172120,1,0,0:0:0:0:
402,192,172120,1,0,0:0:0:0:
256,192,172270,1,8,0:0:0:0:
329,192,172270,1,0,0:0:0:0:
36,192,172270,1,0,0:0:0:0:
182,192,172420,1,0,0:0:0:0:
109,192,172495,1,0,0:0:0:0:
36,192,172570,1,12,3:0:0:0:
402,192,172570,1,0,0:0:0:0:
109,192,172720,1,0,0:0:0:0:
182,192,172795,1,0,0:0:0:0:
329,192,172870,1,8,0:0:0:0:
36,192,172870,1,0,0:0:0:0:
256,192,172870,1,0,0:0:0:0:
475,192,173020,1,0,0:0:0:0:
402,192,173095,1,0,0:0:0:0:
109,192,173170,1,4,0:0:0:0:
329,192,173170,1,0,0:0:0:0:
182,192,173320,1,0,0:0:0:0:
402,192,173320,1,0,0:0:0:0:
329,192,173470,1,8,0:0:0:0:
109,192,173470,1,0,0:0:0:0:
36,192,173470,1,0,0:0:0:0:
256,192,173620,1,0,0:0:0:0:
329,192,173695,1,0,0:0:0:0:
182,192,173770,1,12,3:0:0:0:
402,192,173770,1,0,0:0:0:0:
256,192,173920,1,0,0:0:0:0:
182,192,173995,1,0,0:0:0:0:
36,192,174070,1,8,0:0:0:0:
109,192,174070,1,0,0:0:0:0:
329,192,174070,1,0,0:0:0:0:
256,192,174220,1,0,0:0:0:0:
329,192,174295,1,0,0:0:0:0:
182,192,174370,1,4,0:0:0:0:
402,192,174370,1,0,0:0:0:0:
329,192,174520,1,0,0:0:0:0:
109,192,174520,1,0,0:0:0:0:
402,192,174670,1,8,0:0:0:0:
182,192,174670,1,0,0:0:0:0:
475,192,174670,1,0,0:0:0:0:
256,192,174820,1,0,0:0:0:0:
182,192,174895,1,0,0:0:0:0:
329,192,174970,1,12,3:0:0:0:
109,192,174970,1,0,0:0:0:0:
256,192,175120,1,0,0:0:0:0:
329,192,175195,1,0,0:0:0:0:
182,192,175270,1,8,0:0:0:0:
402,192,175270,1,0,0:0:0:0:
475,192,175270,1,0,0:0:0:0:
256,192,175420,1,0,0:0:0:0:
182,192,175495,1,0,0:0:0:0:
109,192,175570,1,8,3:0:0:0:
475,192,175570,1,0,0:0:0:0:
402,192,175645,1,8,3:0:0:0:
182,192,175720,1,8,3:0:0:0:
329,192,175795,1,8,3:0:0:0:
256,192,175870,1,0,0:0:0:0:
109,192,175870,128,8,176170:0:0:0:0:
402,192,175870,128,4,176170:0:0:0:0:
182,192,176170,1,8,3:0:0:0:
329,192,176245,1,8,3:0:0:0:
256,192,176320,1,4,0:0:0:0:
402,192,176320,128,8,176620:0:0:0:0:
109,192,176320,128,0,176620:0:0:0:0:
475,192,176620,128,0,177670:0:0:0:0:
36,192,176620,128,4,177670:3:0:0:0:
256,192,176620,1,4,0:0:0:0:
182,192,176920,1,4,3:0:0:0:
329,192,176995,1,4,3:0:0:0:
109,192,177070,1,8,0:0:0:0:
182,192,177145,1,8,0:0:0:0:
256,192,177220,1,8,3:0:0:0:
329,192,177295,5,8,3:0:0:0:
182,192,177370,1,4,0:0:0:0:
402,192,177445,1,2,2:0:0:0:
256,192,177520,1,4,0:0:0:0:
109,192,177595,1,2,2:0:0:0:
402,192,177670,1,8,0:0:0:0:
182,192,177670,1,0,0:0:0:0:
329,192,177745,1,8,0:0:0:0:
256,192,177820,1,4,3:0:0:0:
182,192,177895,1,8,3:0:0:0:
36,192,177970,5,4,0:0:0:0:
109,192,177970,1,0,0:0:0:0:
402,192,177970,1,0,0:0:0:0:
475,192,177970,1,0,0:0:0:0:
182,192,178120,1,0,0:0:0:0:
329,192,178120,1,0,0:0:0:0:
109,192,178270,128,0,179170:0:0:0:0:
475,192,178270,1,0,0:0:0:0:
402,192,178570,128,2,179170:0:0:0:0:
329,192,178570,128,8,179170:0:0:0:0:
182,192,178870,128,0,179170:0:0:0:0:
36,192,179170,1,0,0:0:0:0:
475,192,179170,1,0,0:0:0:0:
182,192,179320,1,0,0:0:0:0:
402,192,179320,1,0,0:0:0:0:
475,192,179470,128,0,180370:0:0:0:0:
109,192,179470,1,0,0:0:0:0:
36,192,179770,128,2,180370:0:0:0:0:
182,192,179770,128,8,180370:0:0:0:0:
329,192,180070,128,0,180370:0:0:0:0:
109,192,180370,1,0,0:0:0:0:
402,192,180370,1,0,0:0:0:0:
475,192,180520,1,0,0:0:0:0:
36,192,180520,1,0,0:0:0:0:
329,192,180670,128,0,180970:0:0:0:0:
182,192,180670,128,0,180970:0:0:0:0:
402,192,180970,128,8,181570:0:0:0:0:
109,192,180970,128,2,181570:0:0:0:0:
256,192,181270,128,0,181570:0:0:0:0:
36,192,181570,1,0,0:0:0:0:
475,192,181570,1,0,0:0:0:0:
109,192,181720,1,0,0:0:0:0:
402,192,181720,1,0,0:0:0:0:
182,192,181870,1,0,0:0:0:0:
329,192,181870,1,0,0:0:0:0:
256,192,182020,1,8,3:0:0:0:
182,192,182095,1,8,3:0:0:0:
402,192,182170,1,8,0:0:0:0:
109,192,182170,1,2,0:0:0:0:
256,192,182245,1,8,3:0:0:0:
329,192,182320,1,8,3:0:0:0:
109,192,182395,1,8,0:0:0:0:
402,192,182395,1,4,0:0:0:0:
256,192,182470,1,8,3:0:0:0:
182,192,182545,1,8,3:0:0:0:
402,192,182620,1,2,0:0:0:0:
109,192,182620,1,8,0:0:0:0:
475,192,182770,1,0,0:0:0:0:
256,192,182770,1,0,0:0:0:0:
36,192,182770,1,0,0:0:0:0:
182,192,182920,1,0,0:0:0:0:
109,192,182995,1,0,0:0:0:0:
36,192,183070,1,0,0:0:0:0:
329,192,183070,1,0,0:0:0:0:
256,192,183220,1,0,0:0:0:0:
182,192,183295,1,0,0:0:0:0:
402,192,183370,1,0,0:0:0:0:
109,192,183370,1,8,0:0:0:0:
329,192,183520,1,0,0:0:0:0:
256,192,183595,1,0,0:0:0:0:
182,192,183670,1,0,0:0:0:0:
475,192,183670,1,2,0:0:0:0:
402,192,183820,1,0,0:0:0:0:
329,192,183895,1,0,0:0:0:0:
109,192,183970,1,0,0:0:0:0:
256,192,183970,1,8,0:0:0:0:
475,192,184120,1,0,0:0:0:0:
402,192,184195,1,0,0:0:0:0:
329,192,184270,1,0,0:0:0:0:
36,192,184270,1,0,0:0:0:0:
256,192,184345,1,0,0:0:0:0:
182,192,184420,1,0,0:0:0:0:
109,192,184495,1,0,0:0:0:0:
36,192,184570,1,0,0:0:0:0:
329,192,184570,1,8,0:0:0:0:
475,192,184570,1,4,0:0:0:0:
475,192,184720,1,4,0:0:0:0:
329,192,184720,1,8,0:0:0:0:
36,192,184720,1,0,0:0:0:0:
402,192,185170,1,0,0:0:0:0:
36,192,185170,1,0,0:0:0:0:
475,192,185170,1,0,0:0:0:0:
256,192,185245,1,0,0:0:0:0:
109,192,185320,1,0,0:0:0:0:
182,192,185395,1,0,0:0:0:0:
475,192,185470,1,8,0:0:0:0:
329,192,185470,1,0,0:0:0:0:
109,192,185620,1,0,0:0:0:0:
256,192,185695,1,0,0:0:0:0:
402,192,185770,1,0,0:0:0:0:
329,192,185845,1,0,0:0:0:0:
182,192,185920,1,2,0:0:0:0:
36,192,185920,1,0,0:0:0:0:
402,192,186070,1,0,0:0:0:0:
256,192,186145,1,0,0:0:0:0:
109,192,186220,1,0,0:0:0:0:
182,192,186295,1,0,0:0:0:0:
475,192,186370,1,8,0:0:0:0:
329,192,186370,1,0,0:0:0:0:
109,192,186520,1,0,0:0:0:0:
256,192,186595,1,0,0:0:0:0:
402,192,186670,1,0,0:0:0:0:
329,192,186745,1,0,0:0:0:0:
36,192,186820,1,0,0:0:0:0:
182,192,186820,1,2,0:0:0:0:
402,192,186970,1,0,0:0:0:0:
109,192,187045,1,0,0:0:0:0:
329,192,187120,1,0,0:0:0:0:
182,192,187195,1,0,0:0:0:0:
256,192,187270,1,8,0:0:0:0:
36,192,187270,128,0,187570:0:0:0:0:
475,192,187270,128,8,187570:0:0:0:0:
402,192,187570,1,8,3:0:0:0:
182,192,187645,1,8,3:0:0:0:
329,192,187720,1,8,3:0:0:0:
109,192,187795,1,8,3:0:0:0:
36,192,187870,1,8,0:0:0:0:
256,192,187870,1,0,0:0:0:0:
109,192,188020,1,0,0:0:0:0:
329,192,188095,1,0,0:0:0:0:
182,192,188170,1,0,0:0:0:0:
402,192,188245,1,0,0:0:0:0:
475,192,188320,1,2,0:0:0:0:
256,192,188320,1,0,0:0:0:0:
402,192,188470,1,0,0:0:0:0:
182,192,188545,1,0,0:0:0:0:
329,192,188620,1,0,0:0:0:0:
109,192,188695,1,0,0:0:0:0:
36,192,188770,1,8,0:0:0:0:
256,192,188770,1,0,0:0:0:0:
109,192,188920,1,0,0:0:0:0:
329,192,188995,1,0,0:0:0:0:
182,192,189070,1,0,0:0:0:0:
402,192,189145,1,0,0:0:0:0:
256,192,189220,1,2,0:0:0:0:
475,192,189220,1,0,0:0:0:0:
402,192,189370,1,0,0:0:0:0:
182,192,189445,1,0,0:0:0:0:
329,192,189520,1,0,0:0:0:0:
109,192,189595,1,0,0:0:0:0:
256,192,189670,1,8,0:0:0:0:
475,192,189670,1,0,0:0:0:0:
36,192,189670,1,0,0:0:0:0:
329,192,189820,1,0,0:0:0:0:
109,192,189820,1,0,0:0:0:0:
402,192,189895,1,0,0:0:0:0:
182,192,189970,1,8,3:0:0:0:
475,192,189970,1,0,0:0:0:0:
256,192,190045,1,4,3:0:0:0:
329,192,190120,1,8,3:0:0:0:
402,192,190195,1,4,3:0:0:0:
36,192,190270,1,8,0:0:0:0:
109,192,190270,1,0,0:0:0:0:
329,192,190420,1,0,0:0:0:0:
256,192,190495,1,0,0:0:0:0:
182,192,190570,1,0,0:0:0:0:
109,192,190645,1,0,0:0:0:0:
475,192,190720,1,2,0:0:0:0:
402,192,190720,1,0,0:0:0:0:
182,192,190870,1,0,0:0:0:0:
256,192,190945,1,0,0:0:0:0:
329,192,191020,1,0,0:0:0:0:
402,192,191095,1,0,0:0:0:0:
36,192,191170,1,8,0:0:0:0:
109,192,191170,1,0,0:0:0:0:
329,192,191320,1,0,0:0:0:0:
256,192,191395,1,0,0:0:0:0:
182,192,191470,1,0,0:0:0:0:
109,192,191545,1,0,0:0:0:0:
402,192,191620,1,2,0:0:0:0:
475,192,191620,1,0,0:0:0:0:
182,192,191770,1,0,0:0:0:0:
329,192,191845,1,0,0:0:0:0:
109,192,191920,1,0,0:0:0:0:
402,192,191995,1,0,0:0:0:0:
36,192,192070,1,8,0:0:0:0:
475,192,192070,1,8,0:0:0:0:
402,192,192220,1,8,0:0:0:0:
109,192,192220,1,0,0:0:0:0:
329,192,192295,1,2,0:0:0:0:
182,192,192370,1,0,0:0:0:0:
402,192,192445,1,4,3:0:0:0:
109,192,192520,1,8,3:0:0:0:
329,192,192595,1,4,3:0:0:0:
109,192,192670,1,0,0:0:0:0:
402,192,192745,1,0,0:0:0:0:
329,192,192820,1,0,0:0:0:0:
182,192,192820,1,0,0:0:0:0:
109,192,192970,1,0,0:0:0:0:
402,192,192970,1,0,0:0:0:0:
475,192,193120,5,8,0:0:0:0:
256,192,193120,1,0,0:0:0:0:
36,192,193120,1,0,0:0:0:0:
475,192,193270,1,8,0:0:0:0:
256,192,193270,1,0,0:0:0:0:
36,192,193270,1,0,0:0:0:0:
109,192,193345,1,4,3:0:0:0:
182,192,193420,1,4,3:0:0:0:
256,192,193495,1,4,3:0:0:0:
329,192,193570,1,4,3:0:0:0:
475,192,193570,1,0,0:0:0:0:
36,192,193720,1,0,0:0:0:0:
182,192,193720,1,2,2:0:0:0:
36,192,193870,1,0,0:0:0:0:
182,192,193870,1,4,0:0:0:0:
329,192,194020,1,0,0:0:0:0:
475,192,194020,1,4,0:0:0:0:
329,192,194170,1,0,0:0:0:0:
475,192,194170,1,4,0:0:0:0:
182,192,194320,1,0,0:0:0:0:
36,192,194320,1,4,0:0:0:0:
182,192,194470,1,0,0:0:0:0:
36,192,194470,1,4,0:0:0:0:
329,192,194620,1,0,0:0:0:0:
475,192,194620,1,4,0:0:0:0:
329,192,194770,1,4,0:0:0:0:
475,192,194770,1,4,3:0:0:0:
256,192,194845,1,4,3:0:0:0:
182,192,194920,1,4,3:0:0:0:
109,192,194995,1,4,3:0:0:0:
402,192,195070,1,0,0:0:0:0:
36,192,195070,1,2,0:0:0:0:
475,192,195220,1,4,3:0:0:0:
182,192,195220,1,0,0:0:0:0:
256,192,195295,1,4,3:0:0:0:
329,192,195370,1,4,3:0:0:0:
402,192,195445,1,4,3:0:0:0:
475,192,195520,1,0,0:0:0:0:
109,192,195520,1,8,0:0:0:0:
36,192,195670,1,4,3:0:0:0:
329,192,195670,1,0,0:0:0:0:
256,192,195745,1,4,3:0:0:0:
182,192,195820,1,4,3:0:0:0:
109,192,195895,5,4,3:0:0:0:
36,192,195970,1,0,0:0:0:0:
402,192,195970,1,2,0:0:0:0:
182,192,196120,1,4,3:0:0:0:
475,192,196120,1,0,0:0:0:0:
256,192,196195,1,4,3:0:0:0:
329,192,196270,1,4,3:0:0:0:
402,192,196345,1,4,3:0:0:0:
475,192,196420,1,0,0:0:0:0:
109,192,196420,1,8,0:0:0:0:
36,192,196570,1,4,3:0:0:0:
402,192,196570,1,0,0:0:0:0:
256,192,196645,1,4,3:0:0:0:
109,192,196720,1,4,3:0:0:0:
329,192,196795,1,4,3:0:0:0:
475,192,196870,128,0,197170:0:0:0:0:
182,192,196870,128,0,197170:0:0:0:0:
36,192,196870,1,2,0:0:0:0:
402,192,197170,1,8,3:0:0:0:
36,192,197170,1,0,0:0:0:0:
329,192,197245,1,4,3:0:0:0:
109,192,197320,1,8,3:0:0:0:
182,192,197395,1,4,3:0:0:0:
36,192,197470,1,0,0:0:0:0:
402,192,197470,1,2,0:0:0:0:
109,192,197620,1,8,3:0:0:0:
475,192,197620,1,0,0:0:0:0:
182,192,197695,1,4,3:0:0:0:
402,192,197770,1,8,3:0:0:0:
329,192,197845,1,4,3:0:0:0:
475,192,197920,1,0,0:0:0:0:
109,192,197920,1,8,0:0:0:0:
402,192,198070,1,8,3:0:0:0:
36,192,198070,1,0,0:0:0:0:
329,192,198145,1,4,3:0:0:0:
109,192,198220,1,8,3:0:0:0:
182,192,198295,1,4,3:0:0:0:
402,192,198370,1,2,0:0:0:0:
36,192,198370,1,0,0:0:0:0:
109,192,198520,1,8,3:0:0:0:
475,192,198520,1,0,0:0:0:0:
182,192,198595,1,4,3:0:0:0:
402,192,198670,1,8,3:0:0:0:
329,192,198745,1,4,3:0:0:0:
475,192,198820,1,0,0:0:0:0:
109,192,198820,1,8,0:0:0:0:
402,192,198970,1,8,3:0:0:0:
36,192,198970,1,0,0:0:0:0:
256,192,199045,1,4,3:0:0:0:
109,192,199120,1,8,3:0:0:0:
329,192,199195,1,4,3:0:0:0:
182,192,199270,1,0,0:0:0:0:
475,192,199270,1,2,0:0:0:0:
256,192,199420,1,0,0:0:0:0:
402,192,199570,1,0,0:0:0:0:
475,192,199570,1,8,3:0:0:0:
36,192,199570,1,4,0:0:0:0:
329,192,199645,1,4,3:0:0:0:
182,192,199720,1,4,3:0:0:0:
36,192,199795,1,4,3:0:0:0:
329,192,199870,1,0,0:0:0:0:
182,192,199870,1,2,0:0:0:0:
109,192,200020,1,4,3:0:0:0:
182,192,200095,1,4,3:0:0:0:
329,192,200170,1,4,3:0:0:0:
475,192,200245,1,4,3:0:0:0:
182,192,200320,1,0,0:0:0:0:
329,192,200320,1,8,0:0:0:0:
402,192,200470,1,4,3:0:0:0:
329,192,200545,1,4,3:0:0:0:
182,192,200620,1,4,3:0:0:0:
36,192,200695,5,4,3:0:0:0:
329,192,200770,1,2,0:0:0:0:
182,192,200770,1,0,0:0:0:0:
109,192,200920,1,4,3:0:0:0:
182,192,200995,1,4,3:0:0:0:
329,192,201070,1,4,3:0:0:0:
475,192,201145,1,4,3:0:0:0:
182,192,201220,1,0,0:0:0:0:
329,192,201220,1,8,0:0:0:0:
402,192,201370,1,8,0:0:0:0:
109,192,201370,1,0,0:0:0:0:
256,192,201445,1,8,0:0:0:0:
36,192,201520,1,8,3:0:0:0:
475,192,201520,1,0,0:0:0:0:
402,192,201595,1,4,3:0:0:0:
329,192,201670,1,8,0:0:0:0:
182,192,201670,1,0,0:0:0:0:
329,192,201820,1,8,0:0:0:0:
182,192,201820,1,0,0:0:0:0:
109,192,201970,1,4,3:0:0:0:
402,192,201970,1,0,0:0:0:0:
182,192,202045,1,8,3:0:0:0:
256,192,202120,1,4,3:0:0:0:
329,192,202195,1,8,3:0:0:0:
36,192,202270,1,2,0:0:0:0:
475,192,202270,1,0,0:0:0:0:
109,192,202420,1,4,3:0:0:0:
402,192,202420,1,0,0:0:0:0:
329,192,202495,1,8,3:0:0:0:
256,192,202570,1,4,3:0:0:0:
182,192,202645,1,8,3:0:0:0:
475,192,202720,1,2,0:0:0:0:
36,192,202720,1,0,0:0:0:0:
109,192,202870,1,4,3:0:0:0:
402,192,202870,1,0,0:0:0:0:
182,192,202945,1,8,3:0:0:0:
256,192,203020,1,4,3:0:0:0:
329,192,203095,1,8,3:0:0:0:
475,192,203170,1,8,0:0:0:0:
36,192,203170,1,0,0:0:0:0:
402,192,203320,1,4,3:0:0:0:
182,192,203320,1,0,0:0:0:0:
109,192,203395,1,8,3:0:0:0:
475,192,203470,1,0,0:0:0:0:
36,192,203470,1,0,0:0:0:0:
109,192,203620,1,4,3:0:0:0:
329,192,203620,1,0,0:0:0:0:
402,192,203695,5,2,0:0:0:0:
36,192,203770,1,0,0:0:0:0:
256,192,203770,1,0,0:0:0:0:
475,192,203770,128,8,204370:0:0:0:0:
329,192,203920,128,8,204370:0:0:0:0:
109,192,203920,1,0,0:0:0:0:
182,192,204070,128,2,204370:0:0:0:0:
36,192,204220,128,8,204370:0:0:0:0:
256,192,204370,5,12,3:0:0:40:
