osu file format v14

[General]
AudioFilename: Seven Colors.mp3
AudioLeadIn: 0
PreviewTime: 60370
Countdown: 0
SampleSet: Normal
StackLeniency: 0.7
Mode: 3
LetterboxInBreaks: 0
SpecialStyle: 0
WidescreenStoryboard: 1

[Editor]
Bookmarks: 31570,89470
DistanceSpacing: 1.3
BeatDivisor: 4
GridSize: 32
TimelineZoom: 3.099999

[Metadata]
Title:Seven Colors
TitleUnicode:Seven Colors
Artist:UNDEAD CORPORATION
ArtistUnicode:UNDEAD CORPORATION
Creator:Nwolf
Version:Arzenvald's 7K NM
Source:東方Project
Tags:LordRaika _underjoy puxtu LTL Lost The Lights Dainesl Touhou 幽霊楽団 Ghostly Band Phantom Ensemble Prismriver Sister th07 Perfect Cherry Blossom 東方妖々夢 ZUN Team Shanghai Alice パインツリー 朱美 Tyrant 暴君 窪田道元 Pinetree Akemi
BeatmapID:1311954
BeatmapSetID:288138

[Difficulty]
HPDrainRate:7.5
CircleSize:7
OverallDifficulty:7.5
ApproachRate:8
SliderMultiplier:1.4
SliderTickRate:1

[Events]
//Background and Video events
0,0,"Prismriver.Sisters.full.847599.jpg",0,0
//Break Periods
//Storyboard Layer 0 (Background)
//Storyboard Layer 1 (Fail)
//Storyboard Layer 2 (Pass)
//Storyboard Layer 3 (Foreground)
//Storyboard Sound Samples

[TimingPoints]
370,300,4,1,1,50,1,0
60370,-100,4,1,1,50,0,1
79570,-100,4,1,1,50,0,0
117970,-100,4,1,1,50,0,1
134770,-100,4,1,1,50,0,0
168370,-100,4,1,1,50,0,1
184570,-100,4,1,1,50,0,0
185170,-100,4,1,1,50,0,1
204220,-100,4,1,1,50,0,0

[HitObjects]
109,192,370,5,0,0:0:0:0:
256,192,595,1,0,0:0:0:0:
109,192,820,1,0,0:0:0:0:
256,192,1045,1,0,0:0:0:0:
475,192,1270,1,0,0:0:0:0:
329,192,1570,128,0,2470:0:0:0:0:
182,192,2470,1,0,0:0:0:0:
36,192,2770,1,0,0:0:0:0:
475,192,2770,1,0,0:0:0:0:
182,192,2920,1,0,0:0:0:0:
256,192,3070,1,0,0:0:0:0:
36,192,3220,1,0,0:0:0:0:
182,192,3370,1,0,0:0:0:0:
256,192,3520,1,0,0:0:0:0:
475,192,3670,1,0,0:0:0:0:
329,192,3820,1,0,0:0:0:0:
256,192,3970,1,0,0:0:0:0:
475,192,4120,1,0,0:0:0:0:
329,192,4270,1,0,0:0:0:0:
256,192,4420,1,0,0:0:0:0:
36,192,4570,1,0,0:0:0:0:
475,192,4720,1,0,0:0:0:0:
256,192,4870,128,0,5170:0:0:0:0:
182,192,5170,1,0,0:0:0:0:
109,192,5320,1,0,0:0:0:0:
256,192,5470,1,0,0:0:0:0:
182,192,5620,1,0,0:0:0:0:
109,192,5770,1,0,0:0:0:0:
256,192,5920,1,0,0:0:0:0:
329,192,6070,1,0,0:0:0:0:
402,192,6220,1,0,0:0:0:0:
256,192,6370,1,0,0:0:0:0:
329,192,6520,1,0,0:0:0:0:
402,192,6670,1,0,0:0:0:0:
256,192,6820,1,0,0:0:0:0:
109,192,6970,1,0,0:0:0:0:
402,192,7120,1,0,0:0:0:0:
329,192,7270,128,0,7570:0:0:0:0:
36,192,7570,1,0,0:0:0:0:
402,192,7720,1,0,0:0:0:0:
256,192,7870,1,0,0:0:0:0:
36,192,8020,1,0,0:0:0:0:
402,192,8170,1,0,0:0:0:0:
256,192,8320,1,0,0:0:0:0:
109,192,8470,1,0,0:0:0:0:
475,192,8620,1,0,0:0:0:0:
256,192,8770,1,0,0:0:0:0:
109,192,8920,1,0,0:0:0:0:
402,192,9070,1,0,0:0:0:0:
256,192,9220,1,0,0:0:0:0:
109,192,9370,1,0,0:0:0:0:
329,192,9520,1,0,0:0:0:0:
182,192,9670,128,0,9970:0:0:0:0:
475,192,9970,1,0,0:0:0:0:
36,192,10120,1,0,0:0:0:0:
182,192,10270,1,0,0:0:0:0:
402,192,10420,1,0,0:0:0:0:
182,192,10570,1,0,0:0:0:0:
36,192,10720,1,0,0:0:0:0:
475,192,10870,1,0,0:0:0:0:
329,192,11020,1,0,0:0:0:0:
182,192,11170,1,0,0:0:0:0:
36,192,11320,1,0,0:0:0:0:
402,192,11470,1,0,0:0:0:0:
402,192,11620,1,0,0:0:0:0:
256,192,11770,1,0,0:0:0:0:
256,192,11920,1,0,0:0:0:0:
109,192,12070,1,0,0:0:0:0:
109,192,12220,1,0,0:0:0:0:
329,192,12370,1,0,0:0:0:0:
402,192,12520,1,0,0:0:0:0:
475,192,12670,1,0,0:0:0:0:
256,192,12820,1,0,0:0:0:0:
329,192,12970,1,0,0:0:0:0:
402,192,13120,1,0,0:0:0:0:
182,192,13270,1,0,0:0:0:0:
256,192,13420,1,0,0:0:0:0:
329,192,13570,1,0,0:0:0:0:
109,192,13720,1,0,0:0:0:0:
182,192,13870,1,0,0:0:0:0:
256,192,14020,1,0,0:0:0:0:
36,192,14170,1,0,0:0:0:0:
109,192,14320,1,0,0:0:0:0:
182,192,14470,128,0,14770:0:0:0:0:
329,192,14770,1,0,0:0:0:0:
109,192,14920,1,0,0:0:0:0:
475,192,15070,1,0,0:0:0:0:
329,192,15220,1,0,0:0:0:0:
109,192,15370,1,0,0:0:0:0:
402,192,15520,1,0,0:0:0:0:
329,192,15670,1,0,0:0:0:0:
109,192,15820,1,0,0:0:0:0:
475,192,15970,1,0,0:0:0:0:
402,192,16120,1,0,0:0:0:0:
109,192,16270,1,0,0:0:0:0:
475,192,16420,1,0,0:0:0:0:
329,192,16570,1,0,0:0:0:0:
109,192,16720,1,0,0:0:0:0:
256,192,16870,128,0,17170:0:0:0:0:
402,192,17170,1,0,0:0:0:0:
109,192,17320,1,0,0:0:0:0:
36,192,17470,1,0,0:0:0:0:
402,192,17620,1,0,0:0:0:0:
182,192,17770,1,0,0:0:0:0:
109,192,17920,1,0,0:0:0:0:
402,192,18070,1,0,0:0:0:0:
182,192,18220,1,0,0:0:0:0:
36,192,18370,1,0,0:0:0:0:
402,192,18520,1,0,0:0:0:0:
182,192,18670,1,0,0:0:0:0:
109,192,18820,1,0,0:0:0:0:
402,192,18970,1,0,0:0:0:0:
182,192,19120,1,0,0:0:0:0:
329,192,19270,128,0,19570:0:0:0:0:
475,192,19570,1,0,0:0:0:0:
402,192,19720,1,0,0:0:0:0:
329,192,19870,1,0,0:0:0:0:
182,192,20020,1,0,0:0:0:0:
256,192,20170,1,0,0:0:0:0:
329,192,20320,1,0,0:0:0:0:
182,192,20470,1,0,0:0:0:0:
109,192,20620,1,0,0:0:0:0:
36,192,20770,1,0,0:0:0:0:
182,192,20920,1,0,0:0:0:0:
256,192,21070,1,0,0:0:0:0:
402,192,21220,1,0,0:0:0:0:
475,192,21370,1,0,0:0:0:0:
329,192,21520,1,0,0:0:0:0:
256,192,21670,1,0,0:0:0:0:
109,192,21820,1,0,0:0:0:0:
36,192,21970,128,0,22270:0:0:0:0:
329,192,22270,1,0,0:0:0:0:
329,192,22420,1,0,0:0:0:0:
182,192,22570,1,0,0:0:0:0:
402,192,22720,1,0,0:0:0:0:
182,192,22870,1,0,0:0:0:0:
329,192,23020,128,0,23320:0:0:0:0:
109,192,23320,1,0,0:0:0:0:
402,192,23470,1,0,0:0:0:0:
109,192,23620,1,0,0:0:0:0:
109,192,23770,1,0,0:0:0:0:
329,192,23920,1,0,0:0:0:0:
109,192,24070,1,0,0:0:0:0:
256,192,24220,128,0,24520:0:0:0:0:
182,192,24520,1,0,0:0:0:0:
402,192,24670,1,0,0:0:0:0:
182,192,24820,1,0,0:0:0:0:
182,192,24970,1,0,0:0:0:0:
329,192,25120,1,0,0:0:0:0:
109,192,25270,1,0,0:0:0:0:
256,192,25420,128,0,25720:0:0:0:0:
36,192,25720,1,0,0:0:0:0:
109,192,25870,1,0,0:0:0:0:
329,192,26020,1,0,0:0:0:0:
475,192,26170,1,0,0:0:0:0:
256,192,26320,1,0,0:0:0:0:
182,192,26470,1,0,0:0:0:0:
109,192,26620,1,0,0:0:0:0:
36,192,26770,1,0,0:0:0:0:
36,192,26920,1,0,0:0:0:0:
329,192,27070,1,0,0:0:0:0:
182,192,27220,1,0,0:0:0:0:
182,192,27370,1,0,0:0:0:0:
329,192,27520,1,0,0:0:0:0:
109,192,27670,1,0,0:0:0:0:
402,192,27820,128,0,28120:0:0:0:0:
36,192,28120,1,0,0:0:0:0:
182,192,28270,1,0,0:0:0:0:
36,192,28420,1,0,0:0:0:0:
36,192,28570,1,0,0:0:0:0:
256,192,28720,1,0,0:0:0:0:
475,192,28870,1,0,0:0:0:0:
329,192,29020,128,0,29320:0:0:0:0:
109,192,29320,1,0,0:0:0:0:
256,192,29470,1,0,0:0:0:0:
109,192,29620,1,0,0:0:0:0:
109,192,29770,1,0,0:0:0:0:
475,192,29920,1,0,0:0:0:0:
329,192,30070,1,0,0:0:0:0:
182,192,30220,128,0,31570:0:0:0:0:
329,192,30970,128,0,31570:0:0:0:0:
36,192,31570,1,0,0:0:0:0:
475,192,31570,1,0,0:0:0:0:
329,192,31870,1,0,0:0:0:0:
182,192,32020,1,0,0:0:0:0:
36,192,32170,1,0,0:0:0:0:
256,192,32320,1,0,0:0:0:0:
109,192,32470,1,0,0:0:0:0:
475,192,32620,128,0,32920:0:0:0:0:
182,192,32920,1,0,0:0:0:0:
329,192,33070,1,0,0:0:0:0:
109,192,33220,1,0,0:0:0:0:
402,192,33370,1,0,0:0:0:0:
256,192,33520,1,0,0:0:0:0:
109,192,33670,1,0,0:0:0:0:
329,192,33820,128,0,34120:0:0:0:0:
109,192,34120,1,0,0:0:0:0:
402,192,34270,1,0,0:0:0:0:
36,192,34420,1,0,0:0:0:0:
182,192,34570,1,0,0:0:0:0:
329,192,34720,1,0,0:0:0:0:
109,192,34870,1,0,0:0:0:0:
256,192,35020,128,0,35320:0:0:0:0:
36,192,35320,1,0,0:0:0:0:
36,192,35470,1,0,0:0:0:0:
329,192,35620,1,0,0:0:0:0:
475,192,35770,1,0,0:0:0:0:
256,192,35920,1,0,0:0:0:0:
402,192,36070,1,0,0:0:0:0:
182,192,36220,1,0,0:0:0:0:
329,192,36370,1,0,0:0:0:0:
109,192,36520,1,0,0:0:0:0:
256,192,36670,1,0,0:0:0:0:
36,192,36820,1,0,0:0:0:0:
36,192,36970,1,0,0:0:0:0:
475,192,37120,1,0,0:0:0:0:
329,192,37270,1,0,0:0:0:0:
256,192,37420,128,0,37720:0:0:0:0:
36,192,37720,1,0,0:0:0:0:
329,192,37870,1,0,0:0:0:0:
109,192,38020,1,0,0:0:0:0:
256,192,38170,1,0,0:0:0:0:
402,192,38320,1,0,0:0:0:0:
36,192,38470,1,0,0:0:0:0:
329,192,38620,128,0,38920:0:0:0:0:
109,192,38920,1,0,0:0:0:0:
256,192,39070,1,0,0:0:0:0:
475,192,39220,1,0,0:0:0:0:
329,192,39370,1,0,0:0:0:0:
182,192,39520,1,0,0:0:0:0:
402,192,39670,1,0,0:0:0:0:
256,192,39820,128,0,40120:0:0:0:0:
36,192,40120,1,0,0:0:0:0:
329,192,40270,1,0,0:0:0:0:
36,192,40420,1,0,0:0:0:0:
182,192,40570,1,0,0:0:0:0:
36,192,40720,1,0,0:0:0:0:
329,192,40870,1,0,0:0:0:0:
36,192,41020,1,0,0:0:0:0:
402,192,41170,128,0,41470:0:0:0:0:
182,192,41470,1,0,0:0:0:0:
36,192,41620,1,0,0:0:0:0:
36,192,41770,1,0,0:0:0:0:
329,192,41920,1,0,0:0:0:0:
182,192,42070,1,0,0:0:0:0:
402,192,42220,128,0,42520:0:0:0:0:
36,192,42520,1,0,0:0:0:0:
182,192,42670,1,0,0:0:0:0:
402,192,42820,1,0,0:0:0:0:
402,192,42970,1,0,0:0:0:0:
182,192,43120,1,0,0:0:0:0:
475,192,43270,1,0,0:0:0:0:
36,192,43420,128,0,43720:0:0:0:0:
329,192,43720,1,0,0:0:0:0:
475,192,43870,1,0,0:0:0:0:
109,192,44020,1,0,0:0:0:0:
109,192,44170,1,0,0:0:0:0:
329,192,44320,1,0,0:0:0:0:
182,192,44470,1,0,0:0:0:0:
36,192,44620,128,0,44920:0:0:0:0:
256,192,44920,1,0,0:0:0:0:
182,192,45070,1,0,0:0:0:0:
329,192,45070,1,0,0:0:0:0:
109,192,45370,1,0,0:0:0:0:
402,192,45370,1,0,0:0:0:0:
475,192,45670,1,0,0:0:0:0:
36,192,45670,1,0,0:0:0:0:
256,192,45970,1,0,0:0:0:0:
256,192,46120,1,0,0:0:0:0:
475,192,46270,1,0,0:0:0:0:
109,192,46420,1,0,0:0:0:0:
109,192,46570,1,0,0:0:0:0:
475,192,46720,1,0,0:0:0:0:
109,192,46870,1,0,0:0:0:0:
402,192,47020,128,0,47320:0:0:0:0:
36,192,47320,1,0,0:0:0:0:
402,192,47470,1,0,0:0:0:0:
36,192,47620,1,0,0:0:0:0:
36,192,47770,1,0,0:0:0:0:
402,192,47920,1,0,0:0:0:0:
36,192,48070,1,0,0:0:0:0:
182,192,48220,128,0,48520:0:0:0:0:
475,192,48520,1,0,0:0:0:0:
182,192,48670,1,0,0:0:0:0:
475,192,48820,1,0,0:0:0:0:
475,192,48970,1,0,0:0:0:0:
36,192,49120,1,0,0:0:0:0:
182,192,49270,1,0,0:0:0:0:
36,192,49420,1,0,0:0:0:0:
475,192,49420,1,0,0:0:0:0:
256,192,49720,1,0,0:0:0:0:
256,192,49870,1,0,0:0:0:0:
475,192,50170,1,0,0:0:0:0:
36,192,50470,1,0,0:0:0:0:
402,192,50770,1,0,0:0:0:0:
402,192,50920,1,0,0:0:0:0:
329,192,51070,1,0,0:0:0:0:
182,192,51220,1,0,0:0:0:0:
109,192,51370,1,0,0:0:0:0:
402,192,51370,1,0,0:0:0:0:
256,192,51670,1,0,0:0:0:0:
109,192,51970,1,0,0:0:0:0:
109,192,52120,1,0,0:0:0:0:
182,192,52270,1,0,0:0:0:0:
256,192,52420,1,0,0:0:0:0:
402,192,52570,1,0,0:0:0:0:
109,192,52570,1,0,0:0:0:0:
329,192,52870,1,0,0:0:0:0:
36,192,53170,1,0,0:0:0:0:
36,192,53320,1,0,0:0:0:0:
109,192,53470,1,0,0:0:0:0:
182,192,53620,1,0,0:0:0:0:
36,192,53770,1,0,0:0:0:0:
329,192,53770,1,0,0:0:0:0:
182,192,54070,1,0,0:0:0:0:
475,192,54370,1,0,0:0:0:0:
475,192,54520,1,0,0:0:0:0:
402,192,54670,1,0,0:0:0:0:
329,192,54820,1,0,0:0:0:0:
182,192,54970,1,0,0:0:0:0:
475,192,54970,1,0,0:0:0:0:
402,192,55270,1,0,0:0:0:0:
36,192,55570,1,0,0:0:0:0:
36,192,55720,1,0,0:0:0:0:
109,192,55870,1,0,0:0:0:0:
256,192,56020,1,0,0:0:0:0:
329,192,56170,1,0,0:0:0:0:
475,192,56170,1,0,0:0:0:0:
402,192,56470,1,0,0:0:0:0:
182,192,56770,1,0,0:0:0:0:
182,192,56920,1,0,0:0:0:0:
109,192,57070,1,0,0:0:0:0:
36,192,57220,1,0,0:0:0:0:
182,192,57370,1,0,0:0:0:0:
475,192,57370,1,0,0:0:0:0:
402,192,57520,1,0,0:0:0:0:
329,192,57670,1,0,0:0:0:0:
256,192,57820,1,0,0:0:0:0:
182,192,57970,1,0,0:0:0:0:
36,192,57970,128,0,58420:0:0:0:0:
182,192,58420,1,0,0:0:0:0:
36,192,58570,1,0,0:0:0:0:
329,192,58570,1,0,0:0:0:0:
475,192,58870,1,0,0:0:0:0:
329,192,58970,1,0,0:0:0:0:
182,192,59070,1,0,0:0:0:0:
36,192,59170,128,0,59470:0:0:0:0:
109,192,59470,1,0,0:0:0:0:
256,192,59570,1,0,0:0:0:0:
329,192,59670,1,0,0:0:0:0:
475,192,59770,1,0,0:0:0:0:
109,192,60070,1,0,0:0:0:0:
182,192,60170,1,0,0:0:0:0:
402,192,60270,1,0,0:0:0:0:
329,192,60370,1,0,0:0:0:0:
182,192,60520,1,0,0:0:0:0:
402,192,60670,128,0,61570:0:0:0:0:
256,192,60970,128,0,61570:0:0:0:0:
109,192,61270,128,0,61570:0:0:0:0:
36,192,61570,1,0,0:0:0:0:
475,192,61720,1,0,0:0:0:0:
109,192,61870,128,0,62770:0:0:0:0:
256,192,62170,128,0,62770:0:0:0:0:
402,192,62470,128,0,62770:0:0:0:0:
475,192,62770,1,0,0:0:0:0:
182,192,62920,1,0,0:0:0:0:
36,192,63070,128,0,63970:0:0:0:0:
329,192,63370,128,0,63970:0:0:0:0:
182,192,63670,128,0,63970:0:0:0:0:
402,192,63970,1,0,0:0:0:0:
109,192,64120,1,0,0:0:0:0:
475,192,64270,128,0,65170:0:0:0:0:
182,192,64570,128,0,65170:0:0:0:0:
36,192,64870,128,0,65170:0:0:0:0:
256,192,65170,1,0,0:0:0:0:
402,192,65320,1,0,0:0:0:0:
109,192,65470,128,0,66370:0:0:0:0:
402,192,65770,128,0,66370:0:0:0:0:
182,192,66070,128,0,66370:0:0:0:0:
329,192,66370,1,0,0:0:0:0:
36,192,66520,1,0,0:0:0:0:
402,192,66670,128,0,67570:0:0:0:0:
109,192,66970,128,0,67570:0:0:0:0:
329,192,67270,128,0,67570:0:0:0:0:
36,192,67570,1,0,0:0:0:0:
182,192,67720,1,0,0:0:0:0:
475,192,67870,1,0,0:0:0:0:
329,192,67870,1,0,0:0:0:0:
109,192,68170,1,0,0:0:0:0:
256,192,68320,1,0,0:0:0:0:
402,192,68320,1,0,0:0:0:0:
182,192,68620,128,0,68920:0:0:0:0:
475,192,68620,128,0,68920:0:0:0:0:
329,192,68920,1,0,0:0:0:0:
109,192,69070,1,0,0:0:0:0:
182,192,69220,1,0,0:0:0:0:
256,192,69370,1,0,0:0:0:0:
402,192,69520,1,0,0:0:0:0:
109,192,69670,1,0,0:0:0:0:
256,192,69820,1,0,0:0:0:0:
36,192,69970,1,0,0:0:0:0:
109,192,70120,1,0,0:0:0:0:
475,192,70270,1,0,0:0:0:0:
329,192,70420,1,0,0:0:0:0:
109,192,70570,1,0,0:0:0:0:
36,192,70720,1,0,0:0:0:0:
256,192,70870,1,0,0:0:0:0:
402,192,71020,1,0,0:0:0:0:
329,192,71170,1,0,0:0:0:0:
109,192,71320,1,0,0:0:0:0:
402,192,71470,1,0,0:0:0:0:
329,192,71620,1,0,0:0:0:0:
256,192,71770,1,0,0:0:0:0:
36,192,71920,1,0,0:0:0:0:
402,192,72070,1,0,0:0:0:0:
475,192,72220,1,0,0:0:0:0:
36,192,72370,1,0,0:0:0:0:
109,192,72520,1,0,0:0:0:0:
402,192,72670,1,0,0:0:0:0:
329,192,72820,1,0,0:0:0:0:
256,192,72970,1,0,0:0:0:0:
182,192,73120,1,0,0:0:0:0:
475,192,73270,1,0,0:0:0:0:
402,192,73420,1,0,0:0:0:0:
329,192,73570,1,0,0:0:0:0:
36,192,73720,1,0,0:0:0:0:
402,192,73870,1,0,0:0:0:0:
182,192,74020,1,0,0:0:0:0:
256,192,74170,1,0,0:0:0:0:
475,192,74320,1,0,0:0:0:0:
402,192,74470,1,0,0:0:0:0:
329,192,74620,1,0,0:0:0:0:
109,192,74770,1,0,0:0:0:0:
182,192,74920,1,0,0:0:0:0:
402,192,75070,1,0,0:0:0:0:
475,192,75220,1,0,0:0:0:0:
256,192,75370,1,0,0:0:0:0:
182,192,75520,1,0,0:0:0:0:
402,192,75670,1,0,0:0:0:0:
36,192,75820,1,0,0:0:0:0:
329,192,75970,1,0,0:0:0:0:
402,192,76120,1,0,0:0:0:0:
109,192,76270,1,0,0:0:0:0:
182,192,76420,1,0,0:0:0:0:
256,192,76570,1,0,0:0:0:0:
329,192,76720,1,0,0:0:0:0:
402,192,76870,1,0,0:0:0:0:
109,192,77020,1,0,0:0:0:0:
36,192,77170,1,0,0:0:0:0:
256,192,77320,1,0,0:0:0:0:
475,192,77470,1,0,0:0:0:0:
402,192,77770,1,0,0:0:0:0:
109,192,77920,1,0,0:0:0:0:
256,192,77920,1,0,0:0:0:0:
36,192,78220,1,0,0:0:0:0:
475,192,78220,128,0,78970:0:0:0:0:
182,192,78670,1,0,0:0:0:0:
36,192,78970,1,0,0:0:0:0:
256,192,79270,128,0,79570:0:0:0:0:
36,192,79570,1,0,0:0:0:0:
402,192,79570,1,0,0:0:0:0:
109,192,79720,1,0,0:0:0:0:
182,192,79870,1,0,0:0:0:0:
109,192,80170,1,0,0:0:0:0:
475,192,80170,1,0,0:0:0:0:
182,192,80320,1,0,0:0:0:0:
109,192,80620,1,0,0:0:0:0:
182,192,80770,1,0,0:0:0:0:
109,192,81070,1,0,0:0:0:0:
182,192,81220,1,0,0:0:0:0:
36,192,81370,1,0,0:0:0:0:
475,192,81370,1,0,0:0:0:0:
109,192,81520,1,0,0:0:0:0:
182,192,81670,128,0,81970:0:0:0:0:
329,192,81970,1,0,0:0:0:0:
402,192,82120,1,0,0:0:0:0:
475,192,82270,1,0,0:0:0:0:
402,192,82570,1,0,0:0:0:0:
109,192,82570,1,0,0:0:0:0:
475,192,82720,1,0,0:0:0:0:
402,192,83020,1,0,0:0:0:0:
475,192,83170,1,0,0:0:0:0:
402,192,83470,1,0,0:0:0:0:
475,192,83620,1,0,0:0:0:0:
182,192,83770,1,0,0:0:0:0:
329,192,83770,1,0,0:0:0:0:
402,192,83920,1,0,0:0:0:0:
475,192,84070,128,0,84370:0:0:0:0:
182,192,84370,1,0,0:0:0:0:
109,192,84520,1,0,0:0:0:0:
36,192,84670,1,0,0:0:0:0:
402,192,84970,1,0,0:0:0:0:
109,192,84970,1,0,0:0:0:0:
36,192,85120,1,0,0:0:0:0:
109,192,85420,1,0,0:0:0:0:
36,192,85570,1,0,0:0:0:0:
109,192,85870,1,0,0:0:0:0:
36,192,86020,1,0,0:0:0:0:
182,192,86170,1,0,0:0:0:0:
329,192,86170,1,0,0:0:0:0:
109,192,86320,1,0,0:0:0:0:
36,192,86470,1,0,0:0:0:0:
475,192,86470,128,0,86770:0:0:0:0:
109,192,86770,1,0,0:0:0:0:
182,192,86920,1,0,0:0:0:0:
329,192,87070,1,0,0:0:0:0:
109,192,87220,1,0,0:0:0:0:
402,192,87370,1,0,0:0:0:0:
182,192,87520,1,0,0:0:0:0:
475,192,87670,1,0,0:0:0:0:
109,192,87820,1,0,0:0:0:0:
402,192,87970,1,0,0:0:0:0:
256,192,88120,1,0,0:0:0:0:
329,192,88270,1,0,0:0:0:0:
182,192,88420,1,0,0:0:0:0:
36,192,88570,1,0,0:0:0:0:
329,192,88570,1,0,0:0:0:0:
256,192,88720,1,0,0:0:0:0:
402,192,88870,1,0,0:0:0:0:
109,192,88870,1,0,0:0:0:0:
329,192,89020,1,0,0:0:0:0:
182,192,89170,1,0,0:0:0:0:
475,192,89170,1,0,0:0:0:0:
329,192,89470,1,0,0:0:0:0:
36,192,89470,1,0,0:0:0:0:
329,192,89770,1,0,0:0:0:0:
256,192,89920,1,0,0:0:0:0:
402,192,90070,1,0,0:0:0:0:
182,192,90220,128,0,90520:0:0:0:0:
36,192,90220,1,0,0:0:0:0:
475,192,90520,1,0,0:0:0:0:
36,192,90670,1,0,0:0:0:0:
402,192,90820,1,0,0:0:0:0:
109,192,90970,1,0,0:0:0:0:
256,192,91120,1,0,0:0:0:0:
402,192,91270,1,0,0:0:0:0:
36,192,91420,128,0,91720:0:0:0:0:
475,192,91420,1,0,0:0:0:0:
402,192,91720,1,0,0:0:0:0:
109,192,91870,1,0,0:0:0:0:
329,192,92020,1,0,0:0:0:0:
475,192,92170,1,0,0:0:0:0:
36,192,92320,1,0,0:0:0:0:
402,192,92470,1,0,0:0:0:0:
256,192,92620,128,0,92920:0:0:0:0:
109,192,92620,1,0,0:0:0:0:
329,192,92920,1,0,0:0:0:0:
329,192,93070,1,0,0:0:0:0:
36,192,93220,1,0,0:0:0:0:
475,192,93370,1,0,0:0:0:0:
109,192,93520,1,0,0:0:0:0:
402,192,93670,1,0,0:0:0:0:
182,192,93820,1,0,0:0:0:0:
329,192,93970,1,0,0:0:0:0:
109,192,94120,1,0,0:0:0:0:
256,192,94270,1,0,0:0:0:0:
329,192,94420,1,0,0:0:0:0:
329,192,94570,1,0,0:0:0:0:
182,192,94720,1,0,0:0:0:0:
36,192,94870,1,0,0:0:0:0:
256,192,95020,128,0,95320:0:0:0:0:
402,192,95020,1,0,0:0:0:0:
329,192,95320,1,0,0:0:0:0:
36,192,95470,1,0,0:0:0:0:
402,192,95620,1,0,0:0:0:0:
256,192,95770,1,0,0:0:0:0:
109,192,95920,1,0,0:0:0:0:
329,192,96070,1,0,0:0:0:0:
36,192,96220,128,0,96520:0:0:0:0:
475,192,96220,1,0,0:0:0:0:
402,192,96520,1,0,0:0:0:0:
256,192,96670,1,0,0:0:0:0:
182,192,96820,1,0,0:0:0:0:
36,192,96970,1,0,0:0:0:0:
475,192,97120,1,0,0:0:0:0:
109,192,97270,1,0,0:0:0:0:
256,192,97420,128,0,97720:0:0:0:0:
402,192,97420,1,0,0:0:0:0:
109,192,97720,1,0,0:0:0:0:
402,192,97870,1,0,0:0:0:0:
182,192,98020,1,0,0:0:0:0:
329,192,98170,1,0,0:0:0:0:
109,192,98320,1,0,0:0:0:0:
402,192,98470,1,0,0:0:0:0:
182,192,98620,1,0,0:0:0:0:
329,192,98770,128,0,99070:0:0:0:0:
36,192,98770,1,0,0:0:0:0:
36,192,99070,1,0,0:0:0:0:
402,192,99220,1,0,0:0:0:0:
402,192,99370,1,0,0:0:0:0:
109,192,99520,1,0,0:0:0:0:
475,192,99670,1,0,0:0:0:0:
109,192,99820,128,0,100120:0:0:0:0:
329,192,99820,1,0,0:0:0:0:
329,192,100120,1,0,0:0:0:0:
475,192,100270,1,0,0:0:0:0:
109,192,100420,1,0,0:0:0:0:
109,192,100570,1,0,0:0:0:0:
402,192,100720,1,0,0:0:0:0:
182,192,100870,1,0,0:0:0:0:
329,192,101020,128,0,101320:0:0:0:0:
36,192,101020,1,0,0:0:0:0:
36,192,101320,1,0,0:0:0:0:
182,192,101470,1,0,0:0:0:0:
402,192,101620,1,0,0:0:0:0:
402,192,101770,1,0,0:0:0:0:
36,192,101920,1,0,0:0:0:0:
475,192,102070,1,0,0:0:0:0:
329,192,102220,128,0,102520:0:0:0:0:
36,192,102220,1,0,0:0:0:0:
256,192,102520,1,0,0:0:0:0:
475,192,102670,1,0,0:0:0:0:
36,192,102670,1,0,0:0:0:0:
402,192,102970,1,0,0:0:0:0:
109,192,102970,1,0,0:0:0:0:
182,192,103270,1,0,0:0:0:0:
329,192,103270,1,0,0:0:0:0:
402,192,103570,1,0,0:0:0:0:
109,192,103570,1,0,0:0:0:0:
402,192,103720,1,0,0:0:0:0:
182,192,103870,1,0,0:0:0:0:
402,192,104020,1,0,0:0:0:0:
402,192,104170,1,0,0:0:0:0:
182,192,104320,1,0,0:0:0:0:
402,192,104470,1,0,0:0:0:0:
256,192,104620,1,0,0:0:0:0:
109,192,104620,128,0,104920:0:0:0:0:
329,192,104920,1,0,0:0:0:0:
109,192,105070,1,0,0:0:0:0:
329,192,105220,1,0,0:0:0:0:
329,192,105370,1,0,0:0:0:0:
109,192,105520,1,0,0:0:0:0:
329,192,105670,1,0,0:0:0:0:
475,192,105820,128,0,106120:0:0:0:0:
36,192,105820,1,0,0:0:0:0:
182,192,106120,1,0,0:0:0:0:
475,192,106270,1,0,0:0:0:0:
182,192,106420,1,0,0:0:0:0:
182,192,106570,1,0,0:0:0:0:
329,192,106720,1,0,0:0:0:0:
475,192,106870,1,0,0:0:0:0:
182,192,107020,1,0,0:0:0:0:
182,192,107320,1,0,0:0:0:0:
36,192,107320,1,0,0:0:0:0:
329,192,107470,1,0,0:0:0:0:
475,192,107470,1,0,0:0:0:0:
182,192,107770,1,0,0:0:0:0:
36,192,107920,1,0,0:0:0:0:
329,192,108070,1,0,0:0:0:0:
475,192,108220,1,0,0:0:0:0:
109,192,108370,1,0,0:0:0:0:
109,192,108520,1,0,0:0:0:0:
36,192,108670,1,0,0:0:0:0:
475,192,108820,1,0,0:0:0:0:
109,192,108970,1,0,0:0:0:0:
109,192,109120,1,0,0:0:0:0:
256,192,109270,1,0,0:0:0:0:
475,192,109420,1,0,0:0:0:0:
402,192,109570,1,0,0:0:0:0:
402,192,109720,1,0,0:0:0:0:
475,192,109870,1,0,0:0:0:0:
256,192,110020,1,0,0:0:0:0:
402,192,110170,1,0,0:0:0:0:
402,192,110320,1,0,0:0:0:0:
36,192,110470,1,0,0:0:0:0:
109,192,110620,1,0,0:0:0:0:
329,192,110770,1,0,0:0:0:0:
329,192,110920,1,0,0:0:0:0:
402,192,111070,1,0,0:0:0:0:
475,192,111220,1,0,0:0:0:0:
182,192,111370,1,0,0:0:0:0:
182,192,111520,1,0,0:0:0:0:
475,192,111670,1,0,0:0:0:0:
402,192,111820,1,0,0:0:0:0:
329,192,111970,1,0,0:0:0:0:
329,192,112120,1,0,0:0:0:0:
109,192,112270,1,0,0:0:0:0:
36,192,112420,1,0,0:0:0:0:
182,192,112570,1,0,0:0:0:0:
256,192,112720,1,0,0:0:0:0:
109,192,112870,1,0,0:0:0:0:
36,192,113020,1,0,0:0:0:0:
475,192,113170,1,0,0:0:0:0:
182,192,113320,1,0,0:0:0:0:
402,192,113470,1,0,0:0:0:0:
256,192,113620,1,0,0:0:0:0:
182,192,113770,1,0,0:0:0:0:
182,192,113920,1,0,0:0:0:0:
109,192,114070,1,0,0:0:0:0:
256,192,114220,1,0,0:0:0:0:
329,192,114370,1,0,0:0:0:0:
329,192,114520,1,0,0:0:0:0:
475,192,114670,1,0,0:0:0:0:
182,192,114820,1,0,0:0:0:0:
36,192,114970,1,0,0:0:0:0:
36,192,115120,1,0,0:0:0:0:
475,192,115270,1,0,0:0:0:0:
475,192,115420,1,0,0:0:0:0:
36,192,115570,1,0,0:0:0:0:
329,192,115570,128,0,116020:0:0:0:0:
475,192,116020,1,0,0:0:0:0:
329,192,116170,1,0,0:0:0:0:
36,192,116170,1,0,0:0:0:0:
182,192,116470,1,0,0:0:0:0:
36,192,116570,1,0,0:0:0:0:
475,192,116670,1,0,0:0:0:0:
402,192,116770,1,0,0:0:0:0:
109,192,116970,1,0,0:0:0:0:
402,192,117170,1,0,0:0:0:0:
109,192,117370,1,0,0:0:0:0:
402,192,117570,1,0,0:0:0:0:
109,192,117770,1,0,0:0:0:0:
36,192,117970,1,0,0:0:0:0:
475,192,118120,1,0,0:0:0:0:
109,192,118270,128,0,119170:0:0:0:0:
402,192,118570,128,0,119170:0:0:0:0:
256,192,118870,128,0,119170:0:0:0:0:
329,192,119170,1,0,0:0:0:0:
182,192,119320,1,0,0:0:0:0:
402,192,119470,128,0,120370:0:0:0:0:
109,192,119770,128,0,120370:0:0:0:0:
256,192,120070,128,0,120370:0:0:0:0:
182,192,120370,1,0,0:0:0:0:
475,192,120520,1,0,0:0:0:0:
329,192,120670,128,0,121570:0:0:0:0:
36,192,120970,128,0,121570:0:0:0:0:
475,192,121270,128,0,121570:0:0:0:0:
109,192,121570,1,0,0:0:0:0:
402,192,121720,1,0,0:0:0:0:
182,192,121870,128,0,122770:0:0:0:0:
475,192,122170,128,0,122770:0:0:0:0:
36,192,122470,128,0,122770:0:0:0:0:
256,192,122770,1,0,0:0:0:0:
109,192,122920,1,0,0:0:0:0:
402,192,123070,128,0,123970:0:0:0:0:
109,192,123370,128,0,123970:0:0:0:0:
475,192,123670,128,0,123970:0:0:0:0:
36,192,123970,1,0,0:0:0:0:
329,192,124120,1,0,0:0:0:0:
109,192,124270,128,0,125170:0:0:0:0:
402,192,124570,128,0,125170:0:0:0:0:
36,192,124870,128,0,125170:0:0:0:0:
329,192,125170,1,0,0:0:0:0:
329,192,125320,1,0,0:0:0:0:
182,192,125470,1,0,0:0:0:0:
36,192,125470,1,0,0:0:0:0:
109,192,125770,1,0,0:0:0:0:
402,192,125920,1,0,0:0:0:0:
256,192,125920,1,0,0:0:0:0:
475,192,126220,128,0,126520:0:0:0:0:
182,192,126220,128,0,126520:0:0:0:0:
36,192,126520,1,0,0:0:0:0:
402,192,126670,1,0,0:0:0:0:
109,192,126670,1,0,0:0:0:0:
475,192,126970,1,0,0:0:0:0:
256,192,126970,1,0,0:0:0:0:
109,192,127270,1,0,0:0:0:0:
402,192,127270,1,0,0:0:0:0:
109,192,127570,1,0,0:0:0:0:
402,192,127720,1,0,0:0:0:0:
475,192,127870,1,0,0:0:0:0:
36,192,128020,1,0,0:0:0:0:
402,192,128170,1,0,0:0:0:0:
329,192,128320,1,0,0:0:0:0:
256,192,128470,1,0,0:0:0:0:
109,192,128620,1,0,0:0:0:0:
36,192,128770,1,0,0:0:0:0:
402,192,128920,1,0,0:0:0:0:
475,192,129070,1,0,0:0:0:0:
36,192,129220,1,0,0:0:0:0:
256,192,129370,1,0,0:0:0:0:
329,192,129520,1,0,0:0:0:0:
109,192,129670,1,0,0:0:0:0:
182,192,129820,1,0,0:0:0:0:
329,192,129970,1,0,0:0:0:0:
402,192,130120,1,0,0:0:0:0:
475,192,130270,1,0,0:0:0:0:
36,192,130420,1,0,0:0:0:0:
256,192,130570,1,0,0:0:0:0:
475,192,130720,1,0,0:0:0:0:
182,192,130870,1,0,0:0:0:0:
109,192,131020,1,0,0:0:0:0:
36,192,131170,1,0,0:0:0:0:
329,192,131320,1,0,0:0:0:0:
402,192,131470,1,0,0:0:0:0:
475,192,131620,1,0,0:0:0:0:
256,192,131770,1,0,0:0:0:0:
109,192,131970,1,0,0:0:0:0:
182,192,132170,1,0,0:0:0:0:
256,192,132370,1,0,0:0:0:0:
402,192,132370,128,0,132970:0:0:0:0:
109,192,132670,128,0,132970:0:0:0:0:
256,192,132970,128,0,133570:0:0:0:0:
402,192,133270,128,0,133570:0:0:0:0:
36,192,133570,128,0,134170:0:0:0:0:
475,192,133870,128,0,134170:0:0:0:0:
256,192,134170,1,0,0:0:0:0:
109,192,134470,1,0,0:0:0:0:
402,192,134470,1,0,0:0:0:0:
256,192,134770,128,0,135670:0:0:0:0:
36,192,135070,1,0,0:0:0:0:
475,192,135370,1,0,0:0:0:0:
109,192,135670,1,0,0:0:0:0:
182,192,135970,128,0,136870:0:0:0:0:
36,192,136270,1,0,0:0:0:0:
402,192,136570,1,0,0:0:0:0:
109,192,136870,1,0,0:0:0:0:
329,192,137170,128,0,138070:0:0:0:0:
36,192,137470,1,0,0:0:0:0:
475,192,137770,1,0,0:0:0:0:
182,192,138070,1,0,0:0:0:0:
36,192,138370,128,0,139570:0:0:0:0:
182,192,138670,1,0,0:0:0:0:
475,192,138970,1,0,0:0:0:0:
329,192,139270,1,0,0:0:0:0:
256,192,139570,128,0,143170:0:0:0:0:
109,192,139870,1,0,0:0:0:0:
475,192,140170,1,0,0:0:0:0:
402,192,140470,1,0,0:0:0:0:
109,192,140770,128,0,141970:0:0:0:0:
475,192,141070,1,0,0:0:0:0:
402,192,141370,1,0,0:0:0:0:
329,192,141670,1,0,0:0:0:0:
402,192,141970,128,0,143170:0:0:0:0:
36,192,142270,1,0,0:0:0:0:
109,192,142570,1,0,0:0:0:0:
182,192,142870,1,0,0:0:0:0:
109,192,143170,1,0,0:0:0:0:
182,192,143320,1,0,0:0:0:0:
402,192,143470,1,0,0:0:0:0:
329,192,143620,1,0,0:0:0:0:
256,192,143770,128,0,144070:0:0:0:0:
109,192,144070,1,0,0:0:0:0:
402,192,144070,1,0,0:0:0:0:
475,192,144370,1,0,0:0:0:0:
329,192,144520,1,0,0:0:0:0:
475,192,144670,1,0,0:0:0:0:
329,192,144820,1,0,0:0:0:0:
475,192,145270,1,0,0:0:0:0:
329,192,145420,1,0,0:0:0:0:
475,192,145570,1,0,0:0:0:0:
329,192,145720,1,0,0:0:0:0:
256,192,146170,1,0,0:0:0:0:
182,192,146320,1,0,0:0:0:0:
329,192,146470,1,0,0:0:0:0:
256,192,146620,1,0,0:0:0:0:
36,192,146770,1,0,0:0:0:0:
402,192,146920,1,0,0:0:0:0:
36,192,147070,1,0,0:0:0:0:
402,192,147220,1,0,0:0:0:0:
36,192,147670,1,0,0:0:0:0:
402,192,147820,1,0,0:0:0:0:
36,192,147970,1,0,0:0:0:0:
402,192,148120,1,0,0:0:0:0:
36,192,148570,1,0,0:0:0:0:
182,192,148720,1,0,0:0:0:0:
329,192,148870,1,0,0:0:0:0:
109,192,149020,1,0,0:0:0:0:
256,192,149170,1,0,0:0:0:0:
402,192,149320,1,0,0:0:0:0:
256,192,149470,1,0,0:0:0:0:
402,192,149620,1,0,0:0:0:0:
109,192,149770,1,0,0:0:0:0:
256,192,150070,1,0,0:0:0:0:
402,192,150220,1,0,0:0:0:0:
256,192,150370,1,0,0:0:0:0:
402,192,150520,1,0,0:0:0:0:
109,192,150670,1,0,0:0:0:0:
475,192,150970,1,0,0:0:0:0:
475,192,151120,1,0,0:0:0:0:
329,192,151270,1,0,0:0:0:0:
256,192,151420,1,0,0:0:0:0:
182,192,151570,128,0,151870:0:0:0:0:
36,192,151870,128,0,152170:0:0:0:0:
256,192,152170,128,0,152470:0:0:0:0:
109,192,152470,128,0,152770:0:0:0:0:
329,192,152770,128,0,153070:0:0:0:0:
182,192,153070,128,0,153370:0:0:0:0:
402,192,153370,128,0,153670:0:0:0:0:
256,192,153670,128,0,153970:0:0:0:0:
475,192,153970,128,0,154570:0:0:0:0:
36,192,154570,1,0,0:0:0:0:
182,192,154870,128,0,155770:0:0:0:0:
475,192,155770,1,0,0:0:0:0:
329,192,156070,128,0,156970:0:0:0:0:
182,192,156970,1,0,0:0:0:0:
36,192,157270,128,0,158170:0:0:0:0:
329,192,158170,1,0,0:0:0:0:
182,192,158470,128,0,159370:0:0:0:0:
475,192,159370,1,0,0:0:0:0:
329,192,159670,128,0,160570:0:0:0:0:
182,192,160570,1,0,0:0:0:0:
475,192,160870,128,0,161770:0:0:0:0:
329,192,161770,1,0,0:0:0:0:
256,192,161920,1,0,0:0:0:0:
182,192,162070,1,0,0:0:0:0:
402,192,162220,1,0,0:0:0:0:
109,192,162370,1,0,0:0:0:0:
329,192,162520,1,0,0:0:0:0:
36,192,162670,1,0,0:0:0:0:
256,192,162820,1,0,0:0:0:0:
475,192,162970,128,0,165670:0:0:0:0:
329,192,163270,128,0,165670:0:0:0:0:
182,192,163420,128,0,165670:0:0:0:0:
36,192,163570,128,0,165670:0:0:0:0:
256,192,165670,1,0,0:0:0:0:
109,192,165970,1,0,0:0:0:0:
109,192,166120,1,0,0:0:0:0:
256,192,166270,1,0,0:0:0:0:
402,192,166270,1,0,0:0:0:0:
36,192,166570,1,0,0:0:0:0:
475,192,166720,1,0,0:0:0:0:
329,192,166720,128,0,167320:0:0:0:0:
36,192,167020,1,0,0:0:0:0:
182,192,167020,128,0,167770:0:0:0:0:
475,192,167320,128,0,167470:0:0:0:0:
402,192,167470,128,0,167620:0:0:0:0:
329,192,167620,128,0,168220:0:0:0:0:
36,192,167770,128,0,167920:0:0:0:0:
109,192,167920,128,0,168070:0:0:0:0:
182,192,168070,128,0,168220:0:0:0:0:
36,192,168370,1,0,0:0:0:0:
475,192,168370,1,0,0:0:0:0:
475,192,168520,1,0,0:0:0:0:
109,192,168670,1,0,0:0:0:0:
402,192,168820,1,0,0:0:0:0:
182,192,168970,1,0,0:0:0:0:
475,192,169120,1,0,0:0:0:0:
109,192,169270,1,0,0:0:0:0:
329,192,169420,1,0,0:0:0:0:
36,192,169570,1,0,0:0:0:0:
36,192,169720,1,0,0:0:0:0:
402,192,169870,1,0,0:0:0:0:
182,192,170020,1,0,0:0:0:0:
475,192,170170,1,0,0:0:0:0:
109,192,170320,1,0,0:0:0:0:
329,192,170470,1,0,0:0:0:0:
182,192,170620,1,0,0:0:0:0:
402,192,170770,1,0,0:0:0:0:
402,192,170920,1,0,0:0:0:0:
182,192,171070,1,0,0:0:0:0:
402,192,171220,1,0,0:0:0:0:
256,192,171370,1,0,0:0:0:0:
475,192,171520,1,0,0:0:0:0:
329,192,171670,1,0,0:0:0:0:
36,192,171820,1,0,0:0:0:0:
182,192,171970,1,0,0:0:0:0:
182,192,172120,1,0,0:0:0:0:
329,192,172270,1,0,0:0:0:0:
109,192,172420,1,0,0:0:0:0:
402,192,172570,1,0,0:0:0:0:
182,192,172720,1,0,0:0:0:0:
475,192,172870,1,0,0:0:0:0:
109,192,173020,1,0,0:0:0:0:
402,192,173170,1,0,0:0:0:0:
402,192,173320,1,0,0:0:0:0:
36,192,173470,1,0,0:0:0:0:
256,192,173620,1,0,0:0:0:0:
475,192,173770,1,0,0:0:0:0:
109,192,173920,1,0,0:0:0:0:
256,192,174070,1,0,0:0:0:0:
402,192,174220,1,0,0:0:0:0:
182,192,174370,1,0,0:0:0:0:
182,192,174520,1,0,0:0:0:0:
475,192,174670,1,0,0:0:0:0:
329,192,174820,1,0,0:0:0:0:
182,192,174970,1,0,0:0:0:0:
402,192,175120,1,0,0:0:0:0:
256,192,175270,1,0,0:0:0:0:
109,192,175420,1,0,0:0:0:0:
329,192,175570,1,0,0:0:0:0:
329,192,175720,1,0,0:0:0:0:
36,192,175870,1,0,0:0:0:0:
182,192,175870,1,0,0:0:0:0:
402,192,176170,1,0,0:0:0:0:
256,192,176320,1,0,0:0:0:0:
109,192,176320,1,0,0:0:0:0:
36,192,176620,1,0,0:0:0:0:
329,192,176620,1,0,0:0:0:0:
475,192,176620,1,0,0:0:0:0:
109,192,176920,128,0,177070:0:0:0:0:
182,192,177070,128,0,177220:0:0:0:0:
402,192,177220,128,0,177370:0:0:0:0:
329,192,177370,128,0,177520:0:0:0:0:
256,192,177520,128,0,177670:0:0:0:0:
182,192,177670,128,0,177820:0:0:0:0:
109,192,177820,128,0,177970:0:0:0:0:
475,192,177970,1,0,0:0:0:0:
329,192,178120,1,0,0:0:0:0:
475,192,178270,128,0,179170:0:0:0:0:
329,192,178570,128,0,179170:0:0:0:0:
402,192,178870,128,0,179170:0:0:0:0:
36,192,179170,1,0,0:0:0:0:
182,192,179320,1,0,0:0:0:0:
109,192,179470,128,0,180370:0:0:0:0:
182,192,179770,128,0,180370:0:0:0:0:
36,192,180070,128,0,180370:0:0:0:0:
402,192,180370,1,0,0:0:0:0:
256,192,180520,1,0,0:0:0:0:
475,192,180670,128,0,181570:0:0:0:0:
329,192,180970,128,0,181570:0:0:0:0:
182,192,181270,128,0,181570:0:0:0:0:
256,192,181570,1,0,0:0:0:0:
109,192,181720,1,0,0:0:0:0:
329,192,181870,128,0,182770:0:0:0:0:
182,192,182170,1,0,0:0:0:0:
109,192,182395,1,0,0:0:0:0:
182,192,182620,1,0,0:0:0:0:
36,192,182770,1,0,0:0:0:0:
182,192,182920,1,0,0:0:0:0:
329,192,183070,1,0,0:0:0:0:
475,192,183070,1,0,0:0:0:0:
256,192,183370,1,0,0:0:0:0:
402,192,183370,1,0,0:0:0:0:
182,192,183670,1,0,0:0:0:0:
36,192,183670,1,0,0:0:0:0:
109,192,183970,1,0,0:0:0:0:
256,192,183970,1,0,0:0:0:0:
256,192,184270,1,0,0:0:0:0:
402,192,184270,1,0,0:0:0:0:
329,192,184570,1,0,0:0:0:0:
475,192,184570,1,0,0:0:0:0:
182,192,184720,1,0,0:0:0:0:
36,192,184720,1,0,0:0:0:0:
475,192,185170,1,0,0:0:0:0:
329,192,185320,1,0,0:0:0:0:
475,192,185470,1,0,0:0:0:0:
256,192,185620,1,0,0:0:0:0:
109,192,185770,1,0,0:0:0:0:
256,192,185920,1,0,0:0:0:0:
475,192,186070,1,0,0:0:0:0:
329,192,186220,1,0,0:0:0:0:
475,192,186370,1,0,0:0:0:0:
256,192,186520,1,0,0:0:0:0:
109,192,186670,1,0,0:0:0:0:
256,192,186820,1,0,0:0:0:0:
475,192,186970,1,0,0:0:0:0:
329,192,187120,1,0,0:0:0:0:
475,192,187270,128,0,187570:0:0:0:0:
36,192,187570,1,0,0:0:0:0:
182,192,187720,1,0,0:0:0:0:
36,192,187870,1,0,0:0:0:0:
109,192,188020,1,0,0:0:0:0:
256,192,188170,1,0,0:0:0:0:
109,192,188320,1,0,0:0:0:0:
182,192,188470,1,0,0:0:0:0:
329,192,188620,1,0,0:0:0:0:
182,192,188770,1,0,0:0:0:0:
256,192,188920,1,0,0:0:0:0:
402,192,189070,1,0,0:0:0:0:
256,192,189220,1,0,0:0:0:0:
329,192,189370,1,0,0:0:0:0:
475,192,189520,1,0,0:0:0:0:
329,192,189670,128,0,189970:0:0:0:0:
182,192,189970,1,0,0:0:0:0:
36,192,190120,1,0,0:0:0:0:
182,192,190270,1,0,0:0:0:0:
402,192,190420,1,0,0:0:0:0:
256,192,190570,1,0,0:0:0:0:
402,192,190720,1,0,0:0:0:0:
182,192,190870,1,0,0:0:0:0:
36,192,191020,1,0,0:0:0:0:
182,192,191170,1,0,0:0:0:0:
402,192,191320,1,0,0:0:0:0:
256,192,191470,1,0,0:0:0:0:
402,192,191620,1,0,0:0:0:0:
182,192,191770,1,0,0:0:0:0:
36,192,191920,1,0,0:0:0:0:
182,192,192070,128,0,192370:0:0:0:0:
475,192,192370,1,0,0:0:0:0:
329,192,192520,1,0,0:0:0:0:
182,192,192670,128,0,192970:0:0:0:0:
329,192,192970,128,0,193270:0:0:0:0:
109,192,193270,128,0,193570:0:0:0:0:
256,192,193570,128,0,194770:0:0:0:0:
36,192,193870,1,0,0:0:0:0:
109,192,194020,1,0,0:0:0:0:
402,192,194020,128,0,194770:0:0:0:0:
182,192,194170,1,0,0:0:0:0:
36,192,194320,1,0,0:0:0:0:
109,192,194470,1,0,0:0:0:0:
182,192,194620,1,0,0:0:0:0:
36,192,194770,1,0,0:0:0:0:
109,192,194920,1,0,0:0:0:0:
256,192,195070,1,0,0:0:0:0:
36,192,195220,1,0,0:0:0:0:
182,192,195370,1,0,0:0:0:0:
256,192,195520,1,0,0:0:0:0:
109,192,195670,1,0,0:0:0:0:
182,192,195820,1,0,0:0:0:0:
256,192,195970,1,0,0:0:0:0:
36,192,196120,1,0,0:0:0:0:
109,192,196270,1,0,0:0:0:0:
256,192,196420,1,0,0:0:0:0:
36,192,196570,1,0,0:0:0:0:
182,192,196720,1,0,0:0:0:0:
256,192,196870,1,0,0:0:0:0:
475,192,197170,1,0,0:0:0:0:
402,192,197320,1,0,0:0:0:0:
256,192,197470,1,0,0:0:0:0:
475,192,197620,1,0,0:0:0:0:
329,192,197770,1,0,0:0:0:0:
256,192,197920,1,0,0:0:0:0:
475,192,198070,1,0,0:0:0:0:
402,192,198220,1,0,0:0:0:0:
256,192,198370,1,0,0:0:0:0:
402,192,198520,1,0,0:0:0:0:
329,192,198670,1,0,0:0:0:0:
256,192,198820,1,0,0:0:0:0:
475,192,198970,1,0,0:0:0:0:
329,192,199120,1,0,0:0:0:0:
256,192,199270,1,0,0:0:0:0:
109,192,199570,1,0,0:0:0:0:
402,192,199720,1,0,0:0:0:0:
256,192,199870,1,0,0:0:0:0:
36,192,200020,1,0,0:0:0:0:
475,192,200170,1,0,0:0:0:0:
256,192,200320,1,0,0:0:0:0:
109,192,200470,1,0,0:0:0:0:
402,192,200620,1,0,0:0:0:0:
256,192,200770,1,0,0:0:0:0:
182,192,200920,1,0,0:0:0:0:
329,192,201070,1,0,0:0:0:0:
256,192,201220,1,0,0:0:0:0:
109,192,201370,1,0,0:0:0:0:
402,192,201520,1,0,0:0:0:0:
256,192,201670,1,0,0:0:0:0:
256,192,201820,1,0,0:0:0:0:
36,192,201970,1,0,0:0:0:0:
109,192,202120,1,0,0:0:0:0:
182,192,202270,1,0,0:0:0:0:
329,192,202420,1,0,0:0:0:0:
402,192,202570,1,0,0:0:0:0:
475,192,202720,1,0,0:0:0:0:
109,192,202870,1,0,0:0:0:0:
182,192,203020,1,0,0:0:0:0:
256,192,203170,1,0,0:0:0:0:
109,192,203320,1,0,0:0:0:0:
256,192,203470,1,0,0:0:0:0:
475,192,203620,128,0,203770:0:0:0:0:
402,192,203770,128,0,203920:0:0:0:0:
182,192,203920,128,0,204070:0:0:0:0:
109,192,204070,128,0,204220:0:0:0:0:
36,192,204220,128,0,204370:0:0:0:0:
