osu file format v14

[General]
AudioFilename: Seven Colors.mp3
AudioLeadIn: 0
PreviewTime: 60370
Countdown: 0
SampleSet: Normal
StackLeniency: 0.7
Mode: 3
LetterboxInBreaks: 0
SpecialStyle: 0
WidescreenStoryboard: 1

[Editor]
DistanceSpacing: 1.3
BeatDivisor: 4
GridSize: 32
TimelineZoom: 2.2

[Metadata]
Title:Seven Colors
TitleUnicode:Seven Colors
Artist:UNDEAD CORPORATION
ArtistUnicode:UNDEAD CORPORATION
Creator:Nwolf
Version:_UJ's 4K HD
Source:東方Project
Tags:LordRaika _underjoy puxtu LTL Lost The Lights Dainesl Touhou 幽霊楽団 Ghostly Band Phantom Ensemble Prismriver Sister th07 Perfect Cherry Blossom 東方妖々夢 ZUN Team Shanghai Alice パインツリー 朱美 Tyrant 暴君 窪田道元 Pinetree Akemi
BeatmapID:751693
BeatmapSetID:288138

[Difficulty]
HPDrainRate:8
CircleSize:4
OverallDifficulty:8
ApproachRate:8
SliderMultiplier:1.4
SliderTickRate:1

[Events]
//Background and Video events
0,0,"Prismriver.Sisters.full.847599.jpg",0,0
//Break Periods
//Storyboard Layer 0 (Background)
//Storyboard Layer 1 (Fail)
//Storyboard Layer 2 (Pass)
//Storyboard Layer 3 (Foreground)
//Storyboard Sound Samples

[TimingPoints]
370,300,4,1,1,50,1,0
60370,-100,4,1,1,50,0,1
79570,-100,4,1,1,50,0,0
117970,-100,4,1,1,50,0,1
134770,-100,4,1,1,50,0,0
168370,-100,4,1,1,50,0,1
184570,-100,4,1,1,50,0,0
185170,-100,4,1,1,50,0,1
204220,-100,4,1,1,50,0,0

[HitObjects]
64,192,370,5,0,0:0:0:0:
192,192,445,1,0,0:0:0:0:
320,192,520,1,0,0:0:0:0:
64,192,595,1,0,0:0:0:0:
192,192,595,1,0,0:0:0:0:
448,192,820,1,0,0:0:0:0:
320,192,895,1,0,0:0:0:0:
192,192,970,1,0,0:0:0:0:
448,192,1045,1,0,0:0:0:0:
320,192,1045,1,0,0:0:0:0:
192,192,1270,1,0,0:0:0:0:
320,192,1495,1,0,0:0:0:0:
192,192,1570,1,0,0:0:0:0:
320,192,1645,1,0,0:0:0:0:
192,192,1720,1,0,0:0:0:0:
448,192,1870,1,0,0:0:0:0:
64,192,2020,1,0,0:0:0:0:
192,192,2095,1,0,0:0:0:0:
320,192,2170,1,0,0:0:0:0:
448,192,2245,1,0,0:0:0:0:
64,192,2245,1,0,0:0:0:0:
320,192,2320,1,0,0:0:0:0:
192,192,2395,1,0,0:0:0:0:
320,192,2470,1,0,0:0:0:0:
448,192,2470,1,0,0:0:0:0:
64,192,2770,1,0,0:0:0:0:
320,192,2845,1,0,0:0:0:0:
192,192,2920,1,0,0:0:0:0:
448,192,2995,1,0,0:0:0:0:
64,192,3070,1,0,0:0:0:0:
320,192,3070,1,0,0:0:0:0:
192,192,3220,1,0,0:0:0:0:
448,192,3295,1,0,0:0:0:0:
64,192,3370,1,0,0:0:0:0:
320,192,3445,1,0,0:0:0:0:
192,192,3520,1,0,0:0:0:0:
448,192,3520,1,0,0:0:0:0:
64,192,3670,1,0,0:0:0:0:
320,192,3745,1,0,0:0:0:0:
192,192,3820,1,0,0:0:0:0:
448,192,3895,1,0,0:0:0:0:
64,192,3970,1,0,0:0:0:0:
320,192,3970,1,0,0:0:0:0:
192,192,4120,1,0,0:0:0:0:
448,192,4195,1,0,0:0:0:0:
64,192,4270,1,0,0:0:0:0:
320,192,4345,1,0,0:0:0:0:
192,192,4420,1,0,0:0:0:0:
448,192,4420,1,0,0:0:0:0:
64,192,4570,1,0,0:0:0:0:
320,192,4645,1,0,0:0:0:0:
192,192,4720,1,0,0:0:0:0:
448,192,4795,1,0,0:0:0:0:
320,192,4870,1,0,0:0:0:0:
64,192,4870,1,0,0:0:0:0:
448,192,5170,1,0,0:0:0:0:
192,192,5245,1,0,0:0:0:0:
320,192,5320,1,0,0:0:0:0:
64,192,5395,1,0,0:0:0:0:
192,192,5470,1,0,0:0:0:0:
448,192,5470,1,0,0:0:0:0:
320,192,5620,1,0,0:0:0:0:
64,192,5695,1,0,0:0:0:0:
448,192,5770,1,0,0:0:0:0:
192,192,5845,1,0,0:0:0:0:
320,192,5920,1,0,0:0:0:0:
64,192,5920,1,0,0:0:0:0:
448,192,6070,1,0,0:0:0:0:
192,192,6145,1,0,0:0:0:0:
320,192,6220,1,0,0:0:0:0:
64,192,6295,1,0,0:0:0:0:
192,192,6370,1,0,0:0:0:0:
448,192,6370,1,0,0:0:0:0:
320,192,6520,1,0,0:0:0:0:
64,192,6595,1,0,0:0:0:0:
448,192,6670,1,0,0:0:0:0:
192,192,6745,1,0,0:0:0:0:
64,192,6820,1,0,0:0:0:0:
320,192,6820,1,0,0:0:0:0:
448,192,6970,1,0,0:0:0:0:
192,192,7045,1,0,0:0:0:0:
320,192,7120,1,0,0:0:0:0:
64,192,7195,1,0,0:0:0:0:
192,192,7270,1,0,0:0:0:0:
448,192,7270,1,0,0:0:0:0:
64,192,7570,1,0,0:0:0:0:
192,192,7645,1,0,0:0:0:0:
320,192,7720,1,0,0:0:0:0:
448,192,7795,1,0,0:0:0:0:
64,192,7870,1,0,0:0:0:0:
320,192,7870,1,0,0:0:0:0:
448,192,8020,1,0,0:0:0:0:
320,192,8095,1,0,0:0:0:0:
192,192,8170,1,0,0:0:0:0:
64,192,8245,1,0,0:0:0:0:
192,192,8320,1,0,0:0:0:0:
448,192,8320,1,0,0:0:0:0:
64,192,8470,1,0,0:0:0:0:
192,192,8545,1,0,0:0:0:0:
320,192,8620,1,0,0:0:0:0:
448,192,8695,1,0,0:0:0:0:
320,192,8770,1,0,0:0:0:0:
64,192,8770,1,0,0:0:0:0:
448,192,8920,1,0,0:0:0:0:
320,192,8995,1,0,0:0:0:0:
192,192,9070,1,0,0:0:0:0:
64,192,9145,1,0,0:0:0:0:
448,192,9220,1,0,0:0:0:0:
192,192,9220,1,0,0:0:0:0:
64,192,9370,1,0,0:0:0:0:
192,192,9445,1,0,0:0:0:0:
320,192,9520,1,0,0:0:0:0:
448,192,9595,1,0,0:0:0:0:
320,192,9670,1,0,0:0:0:0:
64,192,9670,1,0,0:0:0:0:
448,192,9970,1,0,0:0:0:0:
320,192,10020,1,0,0:0:0:0:
192,192,10070,1,0,0:0:0:0:
64,192,10120,1,0,0:0:0:0:
448,192,10170,1,0,0:0:0:0:
320,192,10220,1,0,0:0:0:0:
192,192,10270,1,0,0:0:0:0:
64,192,10270,1,0,0:0:0:0:
448,192,10420,1,0,0:0:0:0:
320,192,10495,1,0,0:0:0:0:
64,192,10570,1,0,0:0:0:0:
192,192,10645,1,0,0:0:0:0:
320,192,10720,1,0,0:0:0:0:
448,192,10720,1,0,0:0:0:0:
64,192,10870,1,0,0:0:0:0:
192,192,10920,1,0,0:0:0:0:
320,192,10970,1,0,0:0:0:0:
448,192,11020,1,0,0:0:0:0:
64,192,11070,1,0,0:0:0:0:
192,192,11120,1,0,0:0:0:0:
320,192,11170,1,0,0:0:0:0:
448,192,11170,1,0,0:0:0:0:
64,192,11320,1,0,0:0:0:0:
192,192,11395,1,0,0:0:0:0:
448,192,11470,1,0,0:0:0:0:
320,192,11470,1,0,0:0:0:0:
448,192,11620,1,0,0:0:0:0:
320,192,11620,1,0,0:0:0:0:
192,192,11770,1,0,0:0:0:0:
320,192,11770,1,0,0:0:0:0:
320,192,11920,1,0,0:0:0:0:
192,192,11920,1,0,0:0:0:0:
64,192,12070,1,0,0:0:0:0:
192,192,12070,1,0,0:0:0:0:
64,192,12220,1,0,0:0:0:0:
192,192,12220,1,0,0:0:0:0:
320,192,12370,1,0,0:0:0:0:
192,192,12445,1,0,0:0:0:0:
448,192,12520,1,0,0:0:0:0:
64,192,12595,1,0,0:0:0:0:
192,192,12670,1,0,0:0:0:0:
320,192,12670,1,0,0:0:0:0:
448,192,12820,1,0,0:0:0:0:
64,192,12895,1,0,0:0:0:0:
320,192,12970,1,0,0:0:0:0:
192,192,13045,1,0,0:0:0:0:
64,192,13120,1,0,0:0:0:0:
448,192,13120,1,0,0:0:0:0:
320,192,13270,1,0,0:0:0:0:
192,192,13345,1,0,0:0:0:0:
448,192,13420,1,0,0:0:0:0:
64,192,13495,1,0,0:0:0:0:
192,192,13570,1,0,0:0:0:0:
320,192,13570,1,0,0:0:0:0:
448,192,13720,1,0,0:0:0:0:
64,192,13795,1,0,0:0:0:0:
320,192,13870,1,0,0:0:0:0:
192,192,13945,1,0,0:0:0:0:
64,192,14020,1,0,0:0:0:0:
448,192,14020,1,0,0:0:0:0:
320,192,14170,1,0,0:0:0:0:
192,192,14245,1,0,0:0:0:0:
448,192,14320,1,0,0:0:0:0:
64,192,14395,1,0,0:0:0:0:
192,192,14470,1,0,0:0:0:0:
320,192,14470,1,0,0:0:0:0:
192,192,14770,1,0,0:0:0:0:
320,192,14845,1,0,0:0:0:0:
64,192,14920,1,0,0:0:0:0:
448,192,14995,1,0,0:0:0:0:
192,192,15070,1,0,0:0:0:0:
320,192,15070,1,0,0:0:0:0:
64,192,15220,1,0,0:0:0:0:
448,192,15295,1,0,0:0:0:0:
192,192,15370,1,0,0:0:0:0:
320,192,15445,1,0,0:0:0:0:
64,192,15520,1,0,0:0:0:0:
448,192,15520,1,0,0:0:0:0:
192,192,15670,1,0,0:0:0:0:
320,192,15745,1,0,0:0:0:0:
64,192,15820,1,0,0:0:0:0:
448,192,15895,1,0,0:0:0:0:
192,192,15970,1,0,0:0:0:0:
320,192,15970,1,0,0:0:0:0:
64,192,16120,1,0,0:0:0:0:
448,192,16195,1,0,0:0:0:0:
192,192,16270,1,0,0:0:0:0:
320,192,16345,1,0,0:0:0:0:
64,192,16420,1,0,0:0:0:0:
448,192,16420,1,0,0:0:0:0:
192,192,16570,1,0,0:0:0:0:
320,192,16645,1,0,0:0:0:0:
64,192,16720,1,0,0:0:0:0:
448,192,16795,1,0,0:0:0:0:
192,192,16870,1,0,0:0:0:0:
320,192,16870,1,0,0:0:0:0:
448,192,17170,1,0,0:0:0:0:
64,192,17245,1,0,0:0:0:0:
448,192,17320,1,0,0:0:0:0:
64,192,17395,1,0,0:0:0:0:
320,192,17470,1,0,0:0:0:0:
448,192,17470,1,0,0:0:0:0:
64,192,17620,1,0,0:0:0:0:
448,192,17695,1,0,0:0:0:0:
64,192,17770,1,0,0:0:0:0:
448,192,17845,1,0,0:0:0:0:
192,192,17920,1,0,0:0:0:0:
64,192,17920,1,0,0:0:0:0:
448,192,18070,1,0,0:0:0:0:
64,192,18145,1,0,0:0:0:0:
448,192,18220,1,0,0:0:0:0:
64,192,18295,1,0,0:0:0:0:
320,192,18370,1,0,0:0:0:0:
448,192,18370,1,0,0:0:0:0:
64,192,18520,1,0,0:0:0:0:
448,192,18595,1,0,0:0:0:0:
64,192,18670,1,0,0:0:0:0:
448,192,18745,1,0,0:0:0:0:
64,192,18820,1,0,0:0:0:0:
192,192,18820,1,0,0:0:0:0:
448,192,18970,1,0,0:0:0:0:
64,192,19045,1,0,0:0:0:0:
448,192,19120,1,0,0:0:0:0:
64,192,19195,1,0,0:0:0:0:
320,192,19270,1,0,0:0:0:0:
448,192,19270,1,0,0:0:0:0:
192,192,19570,1,0,0:0:0:0:
320,192,19645,1,0,0:0:0:0:
192,192,19720,1,0,0:0:0:0:
320,192,19795,1,0,0:0:0:0:
64,192,19870,1,0,0:0:0:0:
192,192,19870,1,0,0:0:0:0:
320,192,20020,1,0,0:0:0:0:
192,192,20095,1,0,0:0:0:0:
320,192,20170,1,0,0:0:0:0:
192,192,20245,1,0,0:0:0:0:
320,192,20320,1,0,0:0:0:0:
448,192,20320,1,0,0:0:0:0:
192,192,20470,1,0,0:0:0:0:
320,192,20545,1,0,0:0:0:0:
192,192,20620,1,0,0:0:0:0:
320,192,20695,1,0,0:0:0:0:
64,192,20770,1,0,0:0:0:0:
192,192,20845,1,0,0:0:0:0:
320,192,20920,1,0,0:0:0:0:
448,192,20995,1,0,0:0:0:0:
64,192,21070,1,0,0:0:0:0:
192,192,21070,1,0,0:0:0:0:
448,192,21295,1,0,0:0:0:0:
320,192,21370,1,0,0:0:0:0:
192,192,21370,1,0,0:0:0:0:
64,192,21520,1,0,0:0:0:0:
320,192,21670,1,0,0:0:0:0:
192,192,21745,1,0,0:0:0:0:
320,192,21820,1,0,0:0:0:0:
192,192,21895,1,0,0:0:0:0:
448,192,21970,1,0,0:0:0:0:
64,192,21970,128,0,22270:0:0:0:0:
320,192,22270,1,0,0:0:0:0:
320,192,22420,1,0,0:0:0:0:
320,192,22570,1,0,0:0:0:0:
64,192,22720,128,0,22870:0:0:0:0:
192,192,22720,1,0,0:0:0:0:
448,192,22870,1,0,0:0:0:0:
320,192,23020,128,0,23320:0:0:0:0:
192,192,23020,1,0,0:0:0:0:
448,192,23320,1,0,0:0:0:0:
192,192,23470,128,0,23620:0:0:0:0:
64,192,23470,1,0,0:0:0:0:
448,192,23620,1,0,0:0:0:0:
448,192,23770,1,0,0:0:0:0:
192,192,23920,128,0,24070:0:0:0:0:
320,192,23920,1,0,0:0:0:0:
64,192,24070,1,0,0:0:0:0:
448,192,24220,128,0,24520:0:0:0:0:
320,192,24220,1,0,0:0:0:0:
64,192,24520,1,0,0:0:0:0:
320,192,24670,128,0,24820:0:0:0:0:
192,192,24670,1,0,0:0:0:0:
64,192,24970,1,0,0:0:0:0:
64,192,25120,1,0,0:0:0:0:
448,192,25120,128,0,25270:0:0:0:0:
192,192,25270,1,0,0:0:0:0:
448,192,25420,128,0,25720:0:0:0:0:
320,192,25420,1,0,0:0:0:0:
192,192,25720,1,0,0:0:0:0:
192,192,25870,1,0,0:0:0:0:
448,192,26020,1,0,0:0:0:0:
320,192,26095,1,0,0:0:0:0:
192,192,26170,1,0,0:0:0:0:
64,192,26245,1,0,0:0:0:0:
320,192,26320,1,0,0:0:0:0:
192,192,26395,1,0,0:0:0:0:
64,192,26470,1,0,0:0:0:0:
192,192,26545,1,0,0:0:0:0:
320,192,26620,1,0,0:0:0:0:
448,192,26695,1,0,0:0:0:0:
192,192,26770,1,0,0:0:0:0:
64,192,26770,1,0,0:0:0:0:
64,192,26920,1,0,0:0:0:0:
320,192,27070,128,0,27220:0:0:0:0:
448,192,27070,1,0,0:0:0:0:
192,192,27220,1,0,0:0:0:0:
192,192,27370,1,0,0:0:0:0:
320,192,27520,128,0,27670:0:0:0:0:
64,192,27670,1,0,0:0:0:0:
448,192,27820,128,0,28120:0:0:0:0:
192,192,27820,1,0,0:0:0:0:
320,192,28120,1,0,0:0:0:0:
192,192,28270,128,0,28420:0:0:0:0:
64,192,28270,1,0,0:0:0:0:
448,192,28420,1,0,0:0:0:0:
448,192,28570,1,0,0:0:0:0:
192,192,28720,128,0,28870:0:0:0:0:
320,192,28720,1,0,0:0:0:0:
64,192,28870,1,0,0:0:0:0:
320,192,29020,128,0,29320:0:0:0:0:
448,192,29020,1,0,0:0:0:0:
192,192,29320,1,0,0:0:0:0:
64,192,29470,128,0,29620:0:0:0:0:
448,192,29470,1,0,0:0:0:0:
320,192,29620,1,0,0:0:0:0:
320,192,29770,1,0,0:0:0:0:
64,192,29920,128,0,30070:0:0:0:0:
448,192,29920,1,0,0:0:0:0:
192,192,30070,1,0,0:0:0:0:
64,192,30220,128,0,30970:0:0:0:0:
320,192,30220,1,0,0:0:0:0:
192,192,30520,1,0,0:0:0:0:
192,192,30670,1,0,0:0:0:0:
448,192,30820,1,0,0:0:0:0:
320,192,30895,1,0,0:0:0:0:
192,192,30970,1,0,0:0:0:0:
448,192,31120,1,0,0:0:0:0:
320,192,31195,1,0,0:0:0:0:
64,192,31270,1,0,0:0:0:0:
192,192,31420,1,0,0:0:0:0:
320,192,31495,1,0,0:0:0:0:
448,192,31570,1,0,0:0:0:0:
64,192,31570,1,0,0:0:0:0:
320,192,31870,1,0,0:0:0:0:
192,192,31870,1,0,0:0:0:0:
448,192,32020,1,0,0:0:0:0:
448,192,32170,1,0,0:0:0:0:
64,192,32320,1,0,0:0:0:0:
320,192,32470,1,0,0:0:0:0:
64,192,32620,1,0,0:0:0:0:
192,192,32620,1,0,0:0:0:0:
448,192,32920,1,0,0:0:0:0:
192,192,33070,1,0,0:0:0:0:
320,192,33070,1,0,0:0:0:0:
64,192,33220,1,0,0:0:0:0:
64,192,33370,1,0,0:0:0:0:
448,192,33520,1,0,0:0:0:0:
192,192,33670,1,0,0:0:0:0:
320,192,33820,1,0,0:0:0:0:
448,192,33820,1,0,0:0:0:0:
192,192,34120,1,0,0:0:0:0:
64,192,34270,1,0,0:0:0:0:
448,192,34270,1,0,0:0:0:0:
320,192,34420,1,0,0:0:0:0:
320,192,34570,1,0,0:0:0:0:
64,192,34720,1,0,0:0:0:0:
448,192,34870,1,0,0:0:0:0:
192,192,35020,1,0,0:0:0:0:
64,192,35020,1,0,0:0:0:0:
320,192,35320,1,0,0:0:0:0:
64,192,35470,1,0,0:0:0:0:
448,192,35470,1,0,0:0:0:0:
192,192,35620,1,0,0:0:0:0:
320,192,35695,1,0,0:0:0:0:
192,192,35770,1,0,0:0:0:0:
448,192,35920,1,0,0:0:0:0:
64,192,35995,1,0,0:0:0:0:
448,192,36070,1,0,0:0:0:0:
192,192,36220,1,0,0:0:0:0:
320,192,36295,1,0,0:0:0:0:
448,192,36370,1,0,0:0:0:0:
448,192,36520,1,0,0:0:0:0:
192,192,36670,1,0,0:0:0:0:
64,192,36670,1,0,0:0:0:0:
320,192,36820,1,0,0:0:0:0:
320,192,36970,1,0,0:0:0:0:
64,192,37120,1,0,0:0:0:0:
448,192,37270,1,0,0:0:0:0:
320,192,37420,1,0,0:0:0:0:
192,192,37420,1,0,0:0:0:0:
64,192,37720,1,0,0:0:0:0:
448,192,37870,1,0,0:0:0:0:
320,192,37870,1,0,0:0:0:0:
192,192,38020,1,0,0:0:0:0:
192,192,38170,1,0,0:0:0:0:
448,192,38320,1,0,0:0:0:0:
64,192,38470,1,0,0:0:0:0:
192,192,38620,1,0,0:0:0:0:
320,192,38620,1,0,0:0:0:0:
320,192,38920,1,0,0:0:0:0:
64,192,39070,1,0,0:0:0:0:
448,192,39070,1,0,0:0:0:0:
192,192,39220,1,0,0:0:0:0:
192,192,39370,1,0,0:0:0:0:
448,192,39520,1,0,0:0:0:0:
320,192,39670,1,0,0:0:0:0:
192,192,39820,1,0,0:0:0:0:
64,192,39820,1,0,0:0:0:0:
448,192,40120,1,0,0:0:0:0:
64,192,40270,1,0,0:0:0:0:
192,192,40345,1,0,0:0:0:0:
320,192,40420,1,0,0:0:0:0:
448,192,40495,1,0,0:0:0:0:
64,192,40570,1,0,0:0:0:0:
192,192,40645,1,0,0:0:0:0:
320,192,40720,1,0,0:0:0:0:
448,192,40795,1,0,0:0:0:0:
64,192,40870,1,0,0:0:0:0:
192,192,40870,1,0,0:0:0:0:
448,192,41020,1,0,0:0:0:0:
320,192,41095,1,0,0:0:0:0:
192,192,41170,1,0,0:0:0:0:
64,192,41170,1,0,0:0:0:0:
448,192,41320,1,0,0:0:0:0:
320,192,41470,1,0,0:0:0:0:
192,192,41470,1,0,0:0:0:0:
64,192,41620,1,0,0:0:0:0:
64,192,41770,1,0,0:0:0:0:
448,192,41920,1,0,0:0:0:0:
192,192,42070,1,0,0:0:0:0:
320,192,42220,1,0,0:0:0:0:
448,192,42220,1,0,0:0:0:0:
64,192,42520,1,0,0:0:0:0:
192,192,42670,1,0,0:0:0:0:
320,192,42670,1,0,0:0:0:0:
448,192,42820,1,0,0:0:0:0:
448,192,42970,1,0,0:0:0:0:
64,192,43120,1,0,0:0:0:0:
320,192,43270,1,0,0:0:0:0:
64,192,43420,1,0,0:0:0:0:
192,192,43420,1,0,0:0:0:0:
320,192,43720,1,0,0:0:0:0:
448,192,43870,1,0,0:0:0:0:
64,192,43870,1,0,0:0:0:0:
192,192,44020,1,0,0:0:0:0:
192,192,44170,1,0,0:0:0:0:
320,192,44320,1,0,0:0:0:0:
448,192,44470,1,0,0:0:0:0:
64,192,44620,1,0,0:0:0:0:
192,192,44620,1,0,0:0:0:0:
320,192,44920,1,0,0:0:0:0:
448,192,45070,1,0,0:0:0:0:
64,192,45070,1,0,0:0:0:0:
192,192,45220,1,0,0:0:0:0:
320,192,45295,1,0,0:0:0:0:
192,192,45370,1,0,0:0:0:0:
448,192,45520,1,0,0:0:0:0:
64,192,45595,1,0,0:0:0:0:
448,192,45670,1,0,0:0:0:0:
320,192,45820,1,0,0:0:0:0:
192,192,45895,1,0,0:0:0:0:
448,192,45970,1,0,0:0:0:0:
64,192,45970,1,0,0:0:0:0:
320,192,46120,1,0,0:0:0:0:
192,192,46270,1,0,0:0:0:0:
64,192,46270,1,0,0:0:0:0:
448,192,46420,1,0,0:0:0:0:
448,192,46570,1,0,0:0:0:0:
192,192,46720,1,0,0:0:0:0:
320,192,46870,1,0,0:0:0:0:
64,192,47020,1,0,0:0:0:0:
448,192,47020,1,0,0:0:0:0:
192,192,47320,1,0,0:0:0:0:
320,192,47470,1,0,0:0:0:0:
448,192,47470,1,0,0:0:0:0:
64,192,47620,1,0,0:0:0:0:
64,192,47770,1,0,0:0:0:0:
320,192,47920,1,0,0:0:0:0:
192,192,48070,1,0,0:0:0:0:
64,192,48220,1,0,0:0:0:0:
448,192,48220,1,0,0:0:0:0:
192,192,48520,1,0,0:0:0:0:
64,192,48670,1,0,0:0:0:0:
448,192,48670,1,0,0:0:0:0:
320,192,48820,1,0,0:0:0:0:
64,192,48970,1,0,0:0:0:0:
192,192,49045,1,0,0:0:0:0:
448,192,49120,1,0,0:0:0:0:
320,192,49195,1,0,0:0:0:0:
192,192,49270,1,0,0:0:0:0:
320,192,49420,1,0,0:0:0:0:
448,192,49420,1,0,0:0:0:0:
64,192,49720,1,0,0:0:0:0:
192,192,49720,1,0,0:0:0:0:
64,192,49870,1,0,0:0:0:0:
192,192,49870,1,0,0:0:0:0:
448,192,50170,1,0,0:0:0:0:
320,192,50245,1,0,0:0:0:0:
192,192,50320,1,0,0:0:0:0:
64,192,50395,1,0,0:0:0:0:
448,192,50470,1,0,0:0:0:0:
320,192,50545,1,0,0:0:0:0:
192,192,50620,1,0,0:0:0:0:
64,192,50695,1,0,0:0:0:0:
448,192,50770,1,0,0:0:0:0:
320,192,50845,1,0,0:0:0:0:
192,192,50920,1,0,0:0:0:0:
64,192,50995,1,0,0:0:0:0:
192,192,51070,1,0,0:0:0:0:
320,192,51145,1,0,0:0:0:0:
448,192,51220,1,0,0:0:0:0:
192,192,51295,1,0,0:0:0:0:
320,192,51370,1,0,0:0:0:0:
448,192,51445,1,0,0:0:0:0:
320,192,51520,1,0,0:0:0:0:
192,192,51595,1,0,0:0:0:0:
64,192,51670,1,0,0:0:0:0:
192,192,51745,1,0,0:0:0:0:
320,192,51820,1,0,0:0:0:0:
448,192,51895,1,0,0:0:0:0:
64,192,51970,1,0,0:0:0:0:
192,192,52045,1,0,0:0:0:0:
320,192,52120,1,0,0:0:0:0:
448,192,52195,1,0,0:0:0:0:
320,192,52270,1,0,0:0:0:0:
192,192,52345,1,0,0:0:0:0:
64,192,52420,1,0,0:0:0:0:
192,192,52495,1,0,0:0:0:0:
448,192,52570,1,0,0:0:0:0:
320,192,52645,1,0,0:0:0:0:
64,192,52720,1,0,0:0:0:0:
192,192,52795,1,0,0:0:0:0:
448,192,52870,1,0,0:0:0:0:
320,192,52945,1,0,0:0:0:0:
64,192,53020,1,0,0:0:0:0:
192,192,53095,1,0,0:0:0:0:
448,192,53170,1,0,0:0:0:0:
320,192,53245,1,0,0:0:0:0:
192,192,53320,1,0,0:0:0:0:
64,192,53395,1,0,0:0:0:0:
320,192,53470,1,0,0:0:0:0:
448,192,53545,1,0,0:0:0:0:
192,192,53620,1,0,0:0:0:0:
64,192,53695,1,0,0:0:0:0:
320,192,53770,1,0,0:0:0:0:
448,192,53845,1,0,0:0:0:0:
192,192,53920,1,0,0:0:0:0:
64,192,53995,1,0,0:0:0:0:
320,192,54070,1,0,0:0:0:0:
448,192,54145,1,0,0:0:0:0:
192,192,54220,1,0,0:0:0:0:
64,192,54295,1,0,0:0:0:0:
448,192,54370,1,0,0:0:0:0:
320,192,54445,1,0,0:0:0:0:
64,192,54520,1,0,0:0:0:0:
192,192,54595,1,0,0:0:0:0:
448,192,54670,1,0,0:0:0:0:
320,192,54745,1,0,0:0:0:0:
64,192,54820,1,0,0:0:0:0:
192,192,54895,1,0,0:0:0:0:
320,192,54970,1,0,0:0:0:0:
448,192,55045,1,0,0:0:0:0:
320,192,55120,1,0,0:0:0:0:
192,192,55195,1,0,0:0:0:0:
64,192,55270,1,0,0:0:0:0:
320,192,55345,1,0,0:0:0:0:
192,192,55420,1,0,0:0:0:0:
448,192,55495,1,0,0:0:0:0:
320,192,55570,1,0,0:0:0:0:
192,192,55645,1,0,0:0:0:0:
64,192,55720,1,0,0:0:0:0:
448,192,55795,1,0,0:0:0:0:
320,192,55870,1,0,0:0:0:0:
192,192,55945,1,0,0:0:0:0:
320,192,56020,1,0,0:0:0:0:
448,192,56095,1,0,0:0:0:0:
64,192,56170,1,0,0:0:0:0:
192,192,56245,1,0,0:0:0:0:
320,192,56320,1,0,0:0:0:0:
448,192,56395,1,0,0:0:0:0:
192,192,56470,1,0,0:0:0:0:
320,192,56545,1,0,0:0:0:0:
64,192,56620,1,0,0:0:0:0:
192,192,56695,1,0,0:0:0:0:
448,192,56770,1,0,0:0:0:0:
320,192,56845,1,0,0:0:0:0:
192,192,56920,1,0,0:0:0:0:
448,192,56995,1,0,0:0:0:0:
320,192,57070,1,0,0:0:0:0:
64,192,57145,1,0,0:0:0:0:
192,192,57220,1,0,0:0:0:0:
320,192,57295,1,0,0:0:0:0:
64,192,57370,1,0,0:0:0:0:
448,192,57445,1,0,0:0:0:0:
320,192,57520,1,0,0:0:0:0:
448,192,57595,1,0,0:0:0:0:
320,192,57670,1,0,0:0:0:0:
192,192,57745,1,0,0:0:0:0:
64,192,57820,1,0,0:0:0:0:
448,192,57895,1,0,0:0:0:0:
320,192,57970,1,0,0:0:0:0:
192,192,57970,1,0,0:0:0:0:
64,192,58420,1,0,0:0:0:0:
320,192,58570,1,0,0:0:0:0:
448,192,58570,1,0,0:0:0:0:
192,192,58870,1,0,0:0:0:0:
320,192,58970,1,0,0:0:0:0:
192,192,59070,1,0,0:0:0:0:
320,192,59170,1,0,0:0:0:0:
448,192,59470,1,0,0:0:0:0:
64,192,59570,1,0,0:0:0:0:
448,192,59670,1,0,0:0:0:0:
64,192,59770,1,0,0:0:0:0:
448,192,60070,1,0,0:0:0:0:
320,192,60070,1,0,0:0:0:0:
192,192,60170,1,0,0:0:0:0:
64,192,60170,1,0,0:0:0:0:
320,192,60270,1,0,0:0:0:0:
448,192,60270,1,0,0:0:0:0:
192,192,60370,1,0,0:0:0:0:
64,192,60370,1,0,0:0:0:0:
320,192,60520,1,0,0:0:0:0:
448,192,60670,128,0,61570:0:0:0:0:
64,192,60670,1,0,0:0:0:0:
320,192,60970,1,0,0:0:0:0:
64,192,61270,1,0,0:0:0:0:
192,192,61570,1,0,0:0:0:0:
192,192,61720,1,0,0:0:0:0:
320,192,61870,128,0,62770:0:0:0:0:
448,192,61870,1,0,0:0:0:0:
64,192,62170,1,0,0:0:0:0:
192,192,62470,1,0,0:0:0:0:
64,192,62770,1,0,0:0:0:0:
64,192,62920,1,0,0:0:0:0:
192,192,63070,128,0,63970:0:0:0:0:
448,192,63070,1,0,0:0:0:0:
64,192,63370,1,0,0:0:0:0:
320,192,63670,1,0,0:0:0:0:
448,192,63970,1,0,0:0:0:0:
448,192,64120,1,0,0:0:0:0:
64,192,64270,128,0,65170:0:0:0:0:
320,192,64270,1,0,0:0:0:0:
192,192,64570,1,0,0:0:0:0:
448,192,64870,1,0,0:0:0:0:
192,192,65170,1,0,0:0:0:0:
320,192,65170,1,0,0:0:0:0:
448,192,65320,1,0,0:0:0:0:
192,192,65470,128,0,66370:0:0:0:0:
320,192,65470,1,0,0:0:0:0:
448,192,65770,1,0,0:0:0:0:
320,192,66070,1,0,0:0:0:0:
64,192,66370,1,0,0:0:0:0:
64,192,66520,1,0,0:0:0:0:
320,192,66670,128,0,67570:0:0:0:0:
448,192,66670,1,0,0:0:0:0:
192,192,66970,1,0,0:0:0:0:
64,192,67270,1,0,0:0:0:0:
448,192,67570,1,0,0:0:0:0:
320,192,67645,1,0,0:0:0:0:
192,192,67720,1,0,0:0:0:0:
64,192,67795,1,0,0:0:0:0:
320,192,67870,1,0,0:0:0:0:
448,192,67870,1,0,0:0:0:0:
64,192,68170,1,0,0:0:0:0:
192,192,68245,1,0,0:0:0:0:
320,192,68320,1,0,0:0:0:0:
448,192,68320,1,0,0:0:0:0:
192,192,68620,1,0,0:0:0:0:
320,192,68620,1,0,0:0:0:0:
320,192,68957,1,0,0:0:0:0:
448,192,69070,1,0,0:0:0:0:
320,192,69220,1,0,0:0:0:0:
64,192,69370,1,0,0:0:0:0:
192,192,69445,1,0,0:0:0:0:
320,192,69520,1,0,0:0:0:0:
192,192,69670,1,0,0:0:0:0:
320,192,69745,1,0,0:0:0:0:
448,192,69820,1,0,0:0:0:0:
64,192,69895,1,0,0:0:0:0:
448,192,69970,1,0,0:0:0:0:
320,192,69970,1,0,0:0:0:0:
192,192,70045,1,0,0:0:0:0:
64,192,70120,1,0,0:0:0:0:
448,192,70195,1,0,0:0:0:0:
320,192,70270,1,0,0:0:0:0:
64,192,70345,1,0,0:0:0:0:
192,192,70420,1,0,0:0:0:0:
320,192,70495,1,0,0:0:0:0:
448,192,70570,1,0,0:0:0:0:
192,192,70645,1,0,0:0:0:0:
320,192,70720,1,0,0:0:0:0:
64,192,70795,1,0,0:0:0:0:
448,192,70870,1,0,0:0:0:0:
320,192,70945,1,0,0:0:0:0:
64,192,71020,1,0,0:0:0:0:
192,192,71095,1,0,0:0:0:0:
320,192,71170,1,0,0:0:0:0:
448,192,71245,1,0,0:0:0:0:
192,192,71320,1,0,0:0:0:0:
320,192,71395,1,0,0:0:0:0:
64,192,71470,1,0,0:0:0:0:
448,192,71545,1,0,0:0:0:0:
320,192,71620,1,0,0:0:0:0:
192,192,71695,1,0,0:0:0:0:
448,192,71770,1,0,0:0:0:0:
64,192,71845,1,0,0:0:0:0:
192,192,71920,1,0,0:0:0:0:
320,192,71995,1,0,0:0:0:0:
448,192,72070,1,0,0:0:0:0:
192,192,72145,1,0,0:0:0:0:
320,192,72220,1,0,0:0:0:0:
64,192,72295,1,0,0:0:0:0:
448,192,72370,1,0,0:0:0:0:
320,192,72445,1,0,0:0:0:0:
64,192,72520,1,0,0:0:0:0:
192,192,72595,1,0,0:0:0:0:
448,192,72670,1,0,0:0:0:0:
320,192,72745,1,0,0:0:0:0:
64,192,72820,1,0,0:0:0:0:
192,192,72895,1,0,0:0:0:0:
320,192,72970,1,0,0:0:0:0:
192,192,73045,1,0,0:0:0:0:
64,192,73120,1,0,0:0:0:0:
448,192,73195,1,0,0:0:0:0:
192,192,73270,1,0,0:0:0:0:
320,192,73345,1,0,0:0:0:0:
64,192,73420,1,0,0:0:0:0:
192,192,73495,1,0,0:0:0:0:
448,192,73570,1,0,0:0:0:0:
320,192,73645,1,0,0:0:0:0:
192,192,73720,1,0,0:0:0:0:
64,192,73795,1,0,0:0:0:0:
448,192,73870,1,0,0:0:0:0:
320,192,73945,1,0,0:0:0:0:
192,192,74020,1,0,0:0:0:0:
64,192,74095,1,0,0:0:0:0:
320,192,74170,1,0,0:0:0:0:
448,192,74245,1,0,0:0:0:0:
64,192,74320,1,0,0:0:0:0:
192,192,74395,1,0,0:0:0:0:
320,192,74470,1,0,0:0:0:0:
448,192,74545,1,0,0:0:0:0:
192,192,74620,1,0,0:0:0:0:
320,192,74695,1,0,0:0:0:0:
448,192,74770,1,0,0:0:0:0:
64,192,74770,1,0,0:0:0:0:
192,192,74845,1,0,0:0:0:0:
320,192,74920,1,0,0:0:0:0:
448,192,74995,1,0,0:0:0:0:
192,192,75070,1,0,0:0:0:0:
320,192,75145,1,0,0:0:0:0:
64,192,75220,1,0,0:0:0:0:
192,192,75295,1,0,0:0:0:0:
448,192,75370,1,0,0:0:0:0:
320,192,75445,1,0,0:0:0:0:
192,192,75520,1,0,0:0:0:0:
64,192,75595,1,0,0:0:0:0:
320,192,75670,1,0,0:0:0:0:
192,192,75745,1,0,0:0:0:0:
448,192,75820,1,0,0:0:0:0:
320,192,75895,1,0,0:0:0:0:
64,192,75970,1,0,0:0:0:0:
192,192,76045,1,0,0:0:0:0:
320,192,76120,1,0,0:0:0:0:
64,192,76195,1,0,0:0:0:0:
448,192,76270,1,0,0:0:0:0:
320,192,76345,1,0,0:0:0:0:
192,192,76420,1,0,0:0:0:0:
64,192,76495,1,0,0:0:0:0:
448,192,76570,1,0,0:0:0:0:
192,192,76645,1,0,0:0:0:0:
320,192,76720,1,0,0:0:0:0:
64,192,76795,1,0,0:0:0:0:
448,192,76870,1,0,0:0:0:0:
320,192,76945,1,0,0:0:0:0:
192,192,77020,1,0,0:0:0:0:
64,192,77095,1,0,0:0:0:0:
448,192,77170,1,0,0:0:0:0:
192,192,77245,1,0,0:0:0:0:
448,192,77320,1,0,0:0:0:0:
192,192,77395,1,0,0:0:0:0:
320,192,77470,1,0,0:0:0:0:
448,192,77470,1,0,0:0:0:0:
64,192,77770,1,0,0:0:0:0:
320,192,77845,1,0,0:0:0:0:
192,192,77920,1,0,0:0:0:0:
64,192,77920,1,0,0:0:0:0:
64,192,78220,1,0,0:0:0:0:
448,192,78220,1,0,0:0:0:0:
320,192,78520,1,0,0:0:0:0:
192,192,78595,1,0,0:0:0:0:
64,192,78670,1,0,0:0:0:0:
320,192,78820,1,0,0:0:0:0:
448,192,78895,1,0,0:0:0:0:
192,192,78970,1,0,0:0:0:0:
320,192,79045,1,0,0:0:0:0:
64,192,79120,1,0,0:0:0:0:
192,192,79195,1,0,0:0:0:0:
448,192,79270,128,0,79570:0:0:0:0:
64,192,79570,1,0,0:0:0:0:
192,192,79645,1,0,0:0:0:0:
320,192,79720,1,0,0:0:0:0:
448,192,79795,1,0,0:0:0:0:
64,192,79870,1,0,0:0:0:0:
192,192,79870,1,0,0:0:0:0:
448,192,80020,1,0,0:0:0:0:
320,192,80095,1,0,0:0:0:0:
64,192,80170,1,0,0:0:0:0:
192,192,80170,1,0,0:0:0:0:
320,192,80245,1,0,0:0:0:0:
448,192,80320,1,0,0:0:0:0:
192,192,80470,1,0,0:0:0:0:
320,192,80545,1,0,0:0:0:0:
64,192,80620,1,0,0:0:0:0:
448,192,80695,1,0,0:0:0:0:
320,192,80770,1,0,0:0:0:0:
192,192,80770,1,0,0:0:0:0:
64,192,80920,1,0,0:0:0:0:
192,192,80995,1,0,0:0:0:0:
448,192,81070,1,0,0:0:0:0:
320,192,81145,1,0,0:0:0:0:
192,192,81220,1,0,0:0:0:0:
64,192,81220,1,0,0:0:0:0:
448,192,81370,1,0,0:0:0:0:
320,192,81445,1,0,0:0:0:0:
192,192,81520,1,0,0:0:0:0:
64,192,81595,1,0,0:0:0:0:
320,192,81670,1,0,0:0:0:0:
448,192,81670,1,0,0:0:0:0:
192,192,81970,1,0,0:0:0:0:
320,192,82045,1,0,0:0:0:0:
448,192,82120,1,0,0:0:0:0:
64,192,82195,1,0,0:0:0:0:
320,192,82270,1,0,0:0:0:0:
448,192,82270,1,0,0:0:0:0:
192,192,82420,1,0,0:0:0:0:
320,192,82495,1,0,0:0:0:0:
64,192,82570,1,0,0:0:0:0:
192,192,82570,1,0,0:0:0:0:
320,192,82645,1,0,0:0:0:0:
448,192,82720,1,0,0:0:0:0:
64,192,82870,1,0,0:0:0:0:
320,192,82945,1,0,0:0:0:0:
192,192,83020,1,0,0:0:0:0:
64,192,83095,1,0,0:0:0:0:
448,192,83170,1,0,0:0:0:0:
320,192,83170,1,0,0:0:0:0:
192,192,83320,1,0,0:0:0:0:
64,192,83395,1,0,0:0:0:0:
448,192,83470,1,0,0:0:0:0:
320,192,83545,1,0,0:0:0:0:
192,192,83620,1,0,0:0:0:0:
64,192,83620,1,0,0:0:0:0:
320,192,83770,1,0,0:0:0:0:
192,192,83845,1,0,0:0:0:0:
64,192,83920,1,0,0:0:0:0:
448,192,83995,1,0,0:0:0:0:
320,192,84070,1,0,0:0:0:0:
192,192,84070,1,0,0:0:0:0:
64,192,84370,1,0,0:0:0:0:
192,192,84445,1,0,0:0:0:0:
320,192,84520,1,0,0:0:0:0:
448,192,84595,1,0,0:0:0:0:
64,192,84670,1,0,0:0:0:0:
320,192,84670,1,0,0:0:0:0:
448,192,84820,1,0,0:0:0:0:
320,192,84895,1,0,0:0:0:0:
64,192,84970,1,0,0:0:0:0:
192,192,84970,1,0,0:0:0:0:
320,192,85045,1,0,0:0:0:0:
448,192,85120,1,0,0:0:0:0:
64,192,85270,1,0,0:0:0:0:
192,192,85345,1,0,0:0:0:0:
320,192,85420,1,0,0:0:0:0:
448,192,85495,1,0,0:0:0:0:
320,192,85570,1,0,0:0:0:0:
64,192,85570,1,0,0:0:0:0:
448,192,85720,1,0,0:0:0:0:
320,192,85795,1,0,0:0:0:0:
192,192,85870,1,0,0:0:0:0:
64,192,85945,1,0,0:0:0:0:
192,192,86020,1,0,0:0:0:0:
448,192,86020,1,0,0:0:0:0:
64,192,86170,1,0,0:0:0:0:
192,192,86245,1,0,0:0:0:0:
320,192,86320,1,0,0:0:0:0:
448,192,86395,1,0,0:0:0:0:
320,192,86470,1,0,0:0:0:0:
64,192,86470,1,0,0:0:0:0:
448,192,86770,1,0,0:0:0:0:
64,192,86845,1,0,0:0:0:0:
448,192,86920,1,0,0:0:0:0:
64,192,86995,1,0,0:0:0:0:
448,192,87070,1,0,0:0:0:0:
320,192,87145,1,0,0:0:0:0:
192,192,87220,1,0,0:0:0:0:
64,192,87295,1,0,0:0:0:0:
320,192,87370,1,0,0:0:0:0:
192,192,87445,1,0,0:0:0:0:
320,192,87520,1,0,0:0:0:0:
192,192,87595,1,0,0:0:0:0:
448,192,87670,1,0,0:0:0:0:
320,192,87745,1,0,0:0:0:0:
192,192,87820,1,0,0:0:0:0:
64,192,87895,1,0,0:0:0:0:
320,192,87970,1,0,0:0:0:0:
448,192,87970,1,0,0:0:0:0:
192,192,88120,1,0,0:0:0:0:
192,192,88270,1,0,0:0:0:0:
448,192,88420,1,0,0:0:0:0:
192,192,88570,1,0,0:0:0:0:
320,192,88720,1,0,0:0:0:0:
64,192,88870,1,0,0:0:0:0:
320,192,89020,1,0,0:0:0:0:
192,192,89095,1,0,0:0:0:0:
64,192,89170,1,0,0:0:0:0:
448,192,89170,1,0,0:0:0:0:
192,192,89470,1,0,0:0:0:0:
320,192,89470,1,0,0:0:0:0:
448,192,89770,1,0,0:0:0:0:
192,192,89920,1,0,0:0:0:0:
320,192,90070,1,0,0:0:0:0:
64,192,90220,1,0,0:0:0:0:
192,192,90220,1,0,0:0:0:0:
320,192,90520,1,0,0:0:0:0:
448,192,90670,1,0,0:0:0:0:
64,192,90670,1,0,0:0:0:0:
192,192,90820,1,0,0:0:0:0:
192,192,90970,1,0,0:0:0:0:
448,192,91120,1,0,0:0:0:0:
64,192,91270,1,0,0:0:0:0:
320,192,91420,1,0,0:0:0:0:
448,192,91420,1,0,0:0:0:0:
192,192,91720,1,0,0:0:0:0:
64,192,91870,1,0,0:0:0:0:
448,192,92020,1,0,0:0:0:0:
320,192,92170,1,0,0:0:0:0:
320,192,92320,1,0,0:0:0:0:
192,192,92470,1,0,0:0:0:0:
64,192,92620,1,0,0:0:0:0:
448,192,92620,1,0,0:0:0:0:
192,192,92920,1,0,0:0:0:0:
320,192,93070,1,0,0:0:0:0:
448,192,93070,1,0,0:0:0:0:
64,192,93220,1,0,0:0:0:0:
448,192,93295,1,0,0:0:0:0:
64,192,93370,1,0,0:0:0:0:
320,192,93520,1,0,0:0:0:0:
192,192,93595,1,0,0:0:0:0:
320,192,93670,1,0,0:0:0:0:
448,192,93820,1,0,0:0:0:0:
64,192,93895,1,0,0:0:0:0:
448,192,93970,1,0,0:0:0:0:
320,192,93970,1,0,0:0:0:0:
192,192,94120,1,0,0:0:0:0:
64,192,94270,1,0,0:0:0:0:
448,192,94270,1,0,0:0:0:0:
320,192,94420,1,0,0:0:0:0:
320,192,94570,1,0,0:0:0:0:
192,192,94720,1,0,0:0:0:0:
448,192,94870,1,0,0:0:0:0:
192,192,95020,1,0,0:0:0:0:
320,192,95020,1,0,0:0:0:0:
64,192,95320,1,0,0:0:0:0:
192,192,95470,1,0,0:0:0:0:
320,192,95470,1,0,0:0:0:0:
448,192,95620,1,0,0:0:0:0:
448,192,95770,1,0,0:0:0:0:
64,192,95920,1,0,0:0:0:0:
320,192,96070,1,0,0:0:0:0:
192,192,96220,1,0,0:0:0:0:
64,192,96220,1,0,0:0:0:0:
448,192,96520,1,0,0:0:0:0:
192,192,96670,1,0,0:0:0:0:
320,192,96670,1,0,0:0:0:0:
64,192,96820,1,0,0:0:0:0:
64,192,96970,1,0,0:0:0:0:
320,192,97120,1,0,0:0:0:0:
192,192,97270,1,0,0:0:0:0:
320,192,97420,1,0,0:0:0:0:
448,192,97420,1,0,0:0:0:0:
192,192,97720,1,0,0:0:0:0:
320,192,97795,1,0,0:0:0:0:
448,192,97870,1,0,0:0:0:0:
192,192,97945,1,0,0:0:0:0:
320,192,98020,1,0,0:0:0:0:
64,192,98095,1,0,0:0:0:0:
448,192,98170,1,0,0:0:0:0:
320,192,98245,1,0,0:0:0:0:
192,192,98320,1,0,0:0:0:0:
64,192,98395,1,0,0:0:0:0:
448,192,98470,1,0,0:0:0:0:
320,192,98545,1,0,0:0:0:0:
192,192,98620,1,0,0:0:0:0:
64,192,98695,1,0,0:0:0:0:
320,192,98770,1,0,0:0:0:0:
448,192,98770,1,0,0:0:0:0:
64,192,99070,1,0,0:0:0:0:
192,192,99070,1,0,0:0:0:0:
448,192,99220,1,0,0:0:0:0:
448,192,99370,1,0,0:0:0:0:
192,192,99520,1,0,0:0:0:0:
320,192,99670,1,0,0:0:0:0:
64,192,99820,1,0,0:0:0:0:
192,192,99820,1,0,0:0:0:0:
320,192,100120,1,0,0:0:0:0:
448,192,100270,1,0,0:0:0:0:
64,192,100270,1,0,0:0:0:0:
192,192,100420,1,0,0:0:0:0:
192,192,100570,1,0,0:0:0:0:
448,192,100720,1,0,0:0:0:0:
64,192,100870,1,0,0:0:0:0:
192,192,101020,1,0,0:0:0:0:
320,192,101020,1,0,0:0:0:0:
448,192,101320,1,0,0:0:0:0:
192,192,101470,1,0,0:0:0:0:
320,192,101470,1,0,0:0:0:0:
64,192,101620,1,0,0:0:0:0:
64,192,101770,1,0,0:0:0:0:
448,192,101920,1,0,0:0:0:0:
192,192,102070,1,0,0:0:0:0:
320,192,102220,1,0,0:0:0:0:
448,192,102220,1,0,0:0:0:0:
192,192,102520,1,0,0:0:0:0:
64,192,102670,1,0,0:0:0:0:
448,192,102670,1,0,0:0:0:0:
320,192,102820,1,0,0:0:0:0:
192,192,102895,1,0,0:0:0:0:
320,192,102970,1,0,0:0:0:0:
64,192,103120,1,0,0:0:0:0:
448,192,103195,1,0,0:0:0:0:
64,192,103270,1,0,0:0:0:0:
320,192,103420,1,0,0:0:0:0:
192,192,103495,1,0,0:0:0:0:
448,192,103570,1,0,0:0:0:0:
320,192,103570,1,0,0:0:0:0:
64,192,103720,1,0,0:0:0:0:
192,192,103870,1,0,0:0:0:0:
320,192,103870,1,0,0:0:0:0:
64,192,104020,1,0,0:0:0:0:
64,192,104170,1,0,0:0:0:0:
320,192,104320,1,0,0:0:0:0:
448,192,104470,1,0,0:0:0:0:
192,192,104620,1,0,0:0:0:0:
64,192,104620,1,0,0:0:0:0:
320,192,104920,1,0,0:0:0:0:
64,192,105070,1,0,0:0:0:0:
448,192,105070,1,0,0:0:0:0:
192,192,105220,1,0,0:0:0:0:
192,192,105370,1,0,0:0:0:0:
448,192,105520,1,0,0:0:0:0:
64,192,105670,1,0,0:0:0:0:
192,192,105820,1,0,0:0:0:0:
320,192,105820,1,0,0:0:0:0:
64,192,106120,1,0,0:0:0:0:
192,192,106270,1,0,0:0:0:0:
320,192,106270,1,0,0:0:0:0:
448,192,106420,1,0,0:0:0:0:
64,192,106570,1,0,0:0:0:0:
192,192,106645,1,0,0:0:0:0:
448,192,106720,1,0,0:0:0:0:
320,192,106795,1,0,0:0:0:0:
192,192,106870,1,0,0:0:0:0:
448,192,107020,1,0,0:0:0:0:
64,192,107020,1,0,0:0:0:0:
320,192,107245,1,0,0:0:0:0:
192,192,107320,1,0,0:0:0:0:
320,192,107470,1,0,0:0:0:0:
448,192,107470,1,0,0:0:0:0:
320,192,107620,1,0,0:0:0:0:
448,192,107620,1,0,0:0:0:0:
64,192,107770,1,0,0:0:0:0:
448,192,107920,1,0,0:0:0:0:
192,192,108070,1,0,0:0:0:0:
320,192,108220,1,0,0:0:0:0:
64,192,108370,1,0,0:0:0:0:
192,192,108445,1,0,0:0:0:0:
320,192,108520,1,0,0:0:0:0:
448,192,108595,1,0,0:0:0:0:
320,192,108670,1,0,0:0:0:0:
192,192,108745,1,0,0:0:0:0:
64,192,108820,1,0,0:0:0:0:
320,192,108895,1,0,0:0:0:0:
192,192,108970,1,0,0:0:0:0:
64,192,109045,1,0,0:0:0:0:
192,192,109120,1,0,0:0:0:0:
320,192,109195,1,0,0:0:0:0:
448,192,109270,1,0,0:0:0:0:
320,192,109345,1,0,0:0:0:0:
192,192,109420,1,0,0:0:0:0:
64,192,109495,1,0,0:0:0:0:
448,192,109570,1,0,0:0:0:0:
320,192,109645,1,0,0:0:0:0:
192,192,109720,1,0,0:0:0:0:
64,192,109795,1,0,0:0:0:0:
192,192,109870,1,0,0:0:0:0:
320,192,109945,1,0,0:0:0:0:
448,192,110020,1,0,0:0:0:0:
320,192,110095,1,0,0:0:0:0:
64,192,110170,1,0,0:0:0:0:
192,192,110245,1,0,0:0:0:0:
448,192,110320,1,0,0:0:0:0:
320,192,110395,1,0,0:0:0:0:
64,192,110470,1,0,0:0:0:0:
192,192,110545,1,0,0:0:0:0:
448,192,110620,1,0,0:0:0:0:
320,192,110695,1,0,0:0:0:0:
64,192,110770,1,0,0:0:0:0:
192,192,110845,1,0,0:0:0:0:
320,192,110920,1,0,0:0:0:0:
448,192,110995,1,0,0:0:0:0:
192,192,111070,1,0,0:0:0:0:
64,192,111145,1,0,0:0:0:0:
320,192,111220,1,0,0:0:0:0:
448,192,111295,1,0,0:0:0:0:
192,192,111370,1,0,0:0:0:0:
64,192,111445,1,0,0:0:0:0:
320,192,111520,1,0,0:0:0:0:
448,192,111595,1,0,0:0:0:0:
192,192,111670,1,0,0:0:0:0:
64,192,111745,1,0,0:0:0:0:
320,192,111820,1,0,0:0:0:0:
448,192,111895,1,0,0:0:0:0:
64,192,111970,1,0,0:0:0:0:
192,192,112045,1,0,0:0:0:0:
448,192,112120,1,0,0:0:0:0:
320,192,112195,1,0,0:0:0:0:
64,192,112270,1,0,0:0:0:0:
192,192,112345,1,0,0:0:0:0:
448,192,112420,1,0,0:0:0:0:
320,192,112495,1,0,0:0:0:0:
192,192,112570,1,0,0:0:0:0:
64,192,112645,1,0,0:0:0:0:
192,192,112720,1,0,0:0:0:0:
320,192,112795,1,0,0:0:0:0:
448,192,112870,1,0,0:0:0:0:
192,192,112945,1,0,0:0:0:0:
320,192,113020,1,0,0:0:0:0:
192,192,113095,1,0,0:0:0:0:
64,192,113170,1,0,0:0:0:0:
448,192,113170,1,0,0:0:0:0:
320,192,113245,1,0,0:0:0:0:
192,192,113320,1,0,0:0:0:0:
64,192,113395,1,0,0:0:0:0:
320,192,113470,1,0,0:0:0:0:
448,192,113545,1,0,0:0:0:0:
192,192,113620,1,0,0:0:0:0:
320,192,113695,1,0,0:0:0:0:
64,192,113770,1,0,0:0:0:0:
192,192,113845,1,0,0:0:0:0:
448,192,113920,1,0,0:0:0:0:
320,192,113995,1,0,0:0:0:0:
192,192,114070,1,0,0:0:0:0:
448,192,114145,1,0,0:0:0:0:
64,192,114220,1,0,0:0:0:0:
192,192,114295,1,0,0:0:0:0:
320,192,114370,1,0,0:0:0:0:
448,192,114445,1,0,0:0:0:0:
64,192,114520,1,0,0:0:0:0:
192,192,114595,1,0,0:0:0:0:
448,192,114670,1,0,0:0:0:0:
320,192,114745,1,0,0:0:0:0:
192,192,114820,1,0,0:0:0:0:
64,192,114895,1,0,0:0:0:0:
448,192,114970,1,0,0:0:0:0:
320,192,115045,1,0,0:0:0:0:
448,192,115120,1,0,0:0:0:0:
320,192,115195,1,0,0:0:0:0:
64,192,115270,1,0,0:0:0:0:
192,192,115345,1,0,0:0:0:0:
320,192,115420,1,0,0:0:0:0:
448,192,115495,1,0,0:0:0:0:
64,192,115570,1,0,0:0:0:0:
192,192,115570,1,0,0:0:0:0:
320,192,115870,1,0,0:0:0:0:
192,192,115870,1,0,0:0:0:0:
64,192,116170,1,0,0:0:0:0:
448,192,116170,1,0,0:0:0:0:
320,192,116470,1,0,0:0:0:0:
192,192,116470,1,0,0:0:0:0:
64,192,116770,1,0,0:0:0:0:
192,192,116770,1,0,0:0:0:0:
64,192,116970,1,0,0:0:0:0:
192,192,116970,1,0,0:0:0:0:
320,192,117170,1,0,0:0:0:0:
448,192,117170,1,0,0:0:0:0:
320,192,117370,1,0,0:0:0:0:
448,192,117370,1,0,0:0:0:0:
320,192,117570,1,0,0:0:0:0:
192,192,117570,1,0,0:0:0:0:
320,192,117770,1,0,0:0:0:0:
192,192,117770,1,0,0:0:0:0:
64,192,117970,1,0,0:0:0:0:
448,192,117970,1,0,0:0:0:0:
320,192,118120,1,0,0:0:0:0:
64,192,118270,128,0,119170:0:0:0:0:
192,192,118270,1,0,0:0:0:0:
448,192,118570,1,0,0:0:0:0:
320,192,118870,1,0,0:0:0:0:
448,192,119170,1,0,0:0:0:0:
448,192,119320,1,0,0:0:0:0:
192,192,119470,128,0,120370:0:0:0:0:
320,192,119470,1,0,0:0:0:0:
64,192,119770,1,0,0:0:0:0:
448,192,120070,1,0,0:0:0:0:
64,192,120370,1,0,0:0:0:0:
64,192,120520,1,0,0:0:0:0:
320,192,120670,128,0,121570:0:0:0:0:
448,192,120670,1,0,0:0:0:0:
192,192,120970,1,0,0:0:0:0:
64,192,121270,1,0,0:0:0:0:
192,192,121570,1,0,0:0:0:0:
192,192,121720,1,0,0:0:0:0:
448,192,121870,128,0,122770:0:0:0:0:
64,192,121870,1,0,0:0:0:0:
320,192,122170,1,0,0:0:0:0:
192,192,122470,1,0,0:0:0:0:
64,192,122770,1,0,0:0:0:0:
320,192,122770,1,0,0:0:0:0:
192,192,122920,1,0,0:0:0:0:
320,192,123070,128,0,123970:0:0:0:0:
448,192,123070,1,0,0:0:0:0:
64,192,123370,1,0,0:0:0:0:
448,192,123670,1,0,0:0:0:0:
192,192,123970,1,0,0:0:0:0:
192,192,124120,1,0,0:0:0:0:
64,192,124270,128,0,125170:0:0:0:0:
448,192,124270,1,0,0:0:0:0:
192,192,124570,1,0,0:0:0:0:
320,192,124870,1,0,0:0:0:0:
448,192,125170,1,0,0:0:0:0:
320,192,125245,1,0,0:0:0:0:
192,192,125320,1,0,0:0:0:0:
64,192,125395,1,0,0:0:0:0:
320,192,125470,1,0,0:0:0:0:
448,192,125470,1,0,0:0:0:0:
64,192,125770,1,0,0:0:0:0:
192,192,125845,1,0,0:0:0:0:
320,192,125920,1,0,0:0:0:0:
448,192,125920,1,0,0:0:0:0:
192,192,126220,1,0,0:0:0:0:
320,192,126220,1,0,0:0:0:0:
64,192,126520,1,0,0:0:0:0:
448,192,126595,1,0,0:0:0:0:
64,192,126670,1,0,0:0:0:0:
320,192,126820,1,0,0:0:0:0:
448,192,126970,1,0,0:0:0:0:
64,192,127045,1,0,0:0:0:0:
448,192,127120,1,0,0:0:0:0:
192,192,127270,1,0,0:0:0:0:
320,192,127345,1,0,0:0:0:0:
448,192,127420,1,0,0:0:0:0:
64,192,127495,1,0,0:0:0:0:
320,192,127570,1,0,0:0:0:0:
448,192,127570,1,0,0:0:0:0:
192,192,127645,1,0,0:0:0:0:
64,192,127720,1,0,0:0:0:0:
448,192,127795,1,0,0:0:0:0:
320,192,127870,1,0,0:0:0:0:
192,192,127945,1,0,0:0:0:0:
320,192,128020,1,0,0:0:0:0:
64,192,128095,1,0,0:0:0:0:
448,192,128170,1,0,0:0:0:0:
192,192,128245,1,0,0:0:0:0:
320,192,128320,1,0,0:0:0:0:
64,192,128395,1,0,0:0:0:0:
448,192,128470,1,0,0:0:0:0:
320,192,128545,1,0,0:0:0:0:
64,192,128620,1,0,0:0:0:0:
192,192,128695,1,0,0:0:0:0:
320,192,128770,1,0,0:0:0:0:
448,192,128845,1,0,0:0:0:0:
192,192,128920,1,0,0:0:0:0:
64,192,128995,1,0,0:0:0:0:
320,192,129070,1,0,0:0:0:0:
192,192,129145,1,0,0:0:0:0:
64,192,129220,1,0,0:0:0:0:
448,192,129295,1,0,0:0:0:0:
64,192,129370,1,0,0:0:0:0:
192,192,129445,1,0,0:0:0:0:
320,192,129520,1,0,0:0:0:0:
448,192,129595,1,0,0:0:0:0:
64,192,129670,1,0,0:0:0:0:
192,192,129745,1,0,0:0:0:0:
320,192,129820,1,0,0:0:0:0:
448,192,129895,1,0,0:0:0:0:
192,192,129970,1,0,0:0:0:0:
64,192,130045,1,0,0:0:0:0:
320,192,130120,1,0,0:0:0:0:
192,192,130195,1,0,0:0:0:0:
448,192,130270,1,0,0:0:0:0:
320,192,130345,1,0,0:0:0:0:
192,192,130420,1,0,0:0:0:0:
64,192,130495,1,0,0:0:0:0:
320,192,130570,1,0,0:0:0:0:
448,192,130645,1,0,0:0:0:0:
64,192,130720,1,0,0:0:0:0:
192,192,130795,1,0,0:0:0:0:
320,192,130870,1,0,0:0:0:0:
448,192,130945,1,0,0:0:0:0:
64,192,131020,1,0,0:0:0:0:
320,192,131095,1,0,0:0:0:0:
192,192,131170,1,0,0:0:0:0:
64,192,131245,1,0,0:0:0:0:
448,192,131320,1,0,0:0:0:0:
320,192,131395,1,0,0:0:0:0:
64,192,131470,1,0,0:0:0:0:
192,192,131545,1,0,0:0:0:0:
320,192,131620,1,0,0:0:0:0:
192,192,131695,1,0,0:0:0:0:
64,192,131770,1,0,0:0:0:0:
448,192,131770,1,0,0:0:0:0:
192,192,131995,1,0,0:0:0:0:
320,192,131995,1,0,0:0:0:0:
64,192,132220,1,0,0:0:0:0:
448,192,132220,1,0,0:0:0:0:
192,192,132370,1,0,0:0:0:0:
320,192,132370,1,0,0:0:0:0:
448,192,132595,1,0,0:0:0:0:
64,192,132820,1,0,0:0:0:0:
192,192,132820,1,0,0:0:0:0:
320,192,133045,1,0,0:0:0:0:
64,192,133270,1,0,0:0:0:0:
448,192,133270,1,0,0:0:0:0:
320,192,133420,1,0,0:0:0:0:
192,192,133495,1,0,0:0:0:0:
64,192,133570,1,0,0:0:0:0:
448,192,133645,1,0,0:0:0:0:
320,192,133720,1,0,0:0:0:0:
64,192,133795,1,0,0:0:0:0:
192,192,133870,1,0,0:0:0:0:
448,192,134020,1,0,0:0:0:0:
320,192,134095,1,0,0:0:0:0:
64,192,134170,1,0,0:0:0:0:
192,192,134320,1,0,0:0:0:0:
320,192,134395,1,0,0:0:0:0:
448,192,134470,1,0,0:0:0:0:
64,192,134470,1,0,0:0:0:0:
448,192,134770,128,0,135970:0:0:0:0:
192,192,134770,1,0,0:0:0:0:
64,192,135370,1,0,0:0:0:0:
192,192,135670,1,0,0:0:0:0:
192,192,135970,1,0,0:0:0:0:
320,192,135970,128,0,137170:0:0:0:0:
64,192,136570,1,0,0:0:0:0:
192,192,136870,1,0,0:0:0:0:
192,192,137170,128,0,138370:0:0:0:0:
448,192,137170,1,0,0:0:0:0:
320,192,137470,1,0,0:0:0:0:
64,192,137770,1,0,0:0:0:0:
448,192,137970,1,0,0:0:0:0:
320,192,138070,1,0,0:0:0:0:
64,192,138170,1,0,0:0:0:0:
448,192,138270,1,0,0:0:0:0:
64,192,138370,128,0,139570:0:0:0:0:
192,192,138970,1,0,0:0:0:0:
320,192,139070,1,0,0:0:0:0:
448,192,139170,1,0,0:0:0:0:
192,192,139270,1,0,0:0:0:0:
320,192,139370,1,0,0:0:0:0:
192,192,139470,1,0,0:0:0:0:
448,192,139570,128,0,140770:0:0:0:0:
64,192,140170,1,0,0:0:0:0:
320,192,140470,1,0,0:0:0:0:
192,192,140620,1,0,0:0:0:0:
320,192,140770,128,0,141970:0:0:0:0:
192,192,140770,1,0,0:0:0:0:
448,192,141070,1,0,0:0:0:0:
64,192,141370,1,0,0:0:0:0:
192,192,141520,1,0,0:0:0:0:
192,192,141970,128,0,143170:0:0:0:0:
448,192,141970,1,0,0:0:0:0:
448,192,142270,1,0,0:0:0:0:
320,192,142345,1,0,0:0:0:0:
64,192,142420,1,0,0:0:0:0:
448,192,142495,1,0,0:0:0:0:
320,192,142570,1,0,0:0:0:0:
448,192,142870,1,0,0:0:0:0:
320,192,143020,1,0,0:0:0:0:
64,192,143170,128,0,144370:0:0:0:0:
448,192,143170,1,0,0:0:0:0:
320,192,143320,1,0,0:0:0:0:
320,192,143470,1,0,0:0:0:0:
192,192,143620,1,0,0:0:0:0:
448,192,143770,1,0,0:0:0:0:
320,192,143845,1,0,0:0:0:0:
192,192,143920,1,0,0:0:0:0:
448,192,143995,1,0,0:0:0:0:
320,192,144070,1,0,0:0:0:0:
320,192,144370,1,0,0:0:0:0:
192,192,144445,1,0,0:0:0:0:
320,192,144520,1,0,0:0:0:0:
64,192,144670,1,0,0:0:0:0:
192,192,144670,1,0,0:0:0:0:
320,192,144820,1,0,0:0:0:0:
448,192,144820,1,0,0:0:0:0:
320,192,145270,1,0,0:0:0:0:
192,192,145345,1,0,0:0:0:0:
320,192,145420,1,0,0:0:0:0:
64,192,145570,1,0,0:0:0:0:
192,192,145570,1,0,0:0:0:0:
448,192,145720,1,0,0:0:0:0:
320,192,145720,1,0,0:0:0:0:
320,192,146170,1,0,0:0:0:0:
192,192,146245,1,0,0:0:0:0:
320,192,146320,1,0,0:0:0:0:
64,192,146470,1,0,0:0:0:0:
192,192,146470,1,0,0:0:0:0:
320,192,146620,1,0,0:0:0:0:
448,192,146620,1,0,0:0:0:0:
192,192,146770,1,0,0:0:0:0:
320,192,146845,1,0,0:0:0:0:
192,192,146920,1,0,0:0:0:0:
320,192,147070,1,0,0:0:0:0:
448,192,147070,1,0,0:0:0:0:
64,192,147220,1,0,0:0:0:0:
192,192,147220,1,0,0:0:0:0:
192,192,147670,1,0,0:0:0:0:
320,192,147745,1,0,0:0:0:0:
192,192,147820,1,0,0:0:0:0:
448,192,147970,1,0,0:0:0:0:
320,192,147970,1,0,0:0:0:0:
64,192,148120,1,0,0:0:0:0:
192,192,148120,1,0,0:0:0:0:
192,192,148570,1,0,0:0:0:0:
320,192,148645,1,0,0:0:0:0:
192,192,148720,1,0,0:0:0:0:
320,192,148870,1,0,0:0:0:0:
448,192,148870,1,0,0:0:0:0:
192,192,149020,1,0,0:0:0:0:
64,192,149020,1,0,0:0:0:0:
448,192,149170,1,0,0:0:0:0:
64,192,149245,1,0,0:0:0:0:
448,192,149320,1,0,0:0:0:0:
64,192,149470,1,0,0:0:0:0:
192,192,149470,1,0,0:0:0:0:
320,192,149620,1,0,0:0:0:0:
448,192,149620,1,0,0:0:0:0:
192,192,149770,1,0,0:0:0:0:
448,192,150070,1,0,0:0:0:0:
64,192,150145,1,0,0:0:0:0:
448,192,150220,1,0,0:0:0:0:
64,192,150370,1,0,0:0:0:0:
192,192,150370,1,0,0:0:0:0:
320,192,150520,1,0,0:0:0:0:
448,192,150520,1,0,0:0:0:0:
192,192,150670,1,0,0:0:0:0:
448,192,150970,1,0,0:0:0:0:
64,192,151045,1,0,0:0:0:0:
448,192,151120,1,0,0:0:0:0:
192,192,151270,1,0,0:0:0:0:
64,192,151270,1,0,0:0:0:0:
448,192,151420,1,0,0:0:0:0:
320,192,151420,1,0,0:0:0:0:
64,192,151570,1,0,0:0:0:0:
448,192,151645,1,0,0:0:0:0:
64,192,151720,1,0,0:0:0:0:
320,192,151870,1,0,0:0:0:0:
448,192,151870,1,0,0:0:0:0:
64,192,152020,1,0,0:0:0:0:
192,192,152020,1,0,0:0:0:0:
320,192,152170,1,0,0:0:0:0:
64,192,152470,1,0,0:0:0:0:
448,192,152545,1,0,0:0:0:0:
64,192,152620,1,0,0:0:0:0:
448,192,152770,1,0,0:0:0:0:
320,192,152770,1,0,0:0:0:0:
64,192,152920,1,0,0:0:0:0:
192,192,152920,1,0,0:0:0:0:
320,192,153070,1,0,0:0:0:0:
64,192,153370,1,0,0:0:0:0:
448,192,153445,1,0,0:0:0:0:
64,192,153520,1,0,0:0:0:0:
320,192,153670,1,0,0:0:0:0:
448,192,153670,1,0,0:0:0:0:
192,192,153820,1,0,0:0:0:0:
64,192,153820,1,0,0:0:0:0:
448,192,153970,128,0,154570:0:0:0:0:
320,192,153970,1,0,0:0:0:0:
64,192,154120,1,0,0:0:0:0:
192,192,154270,1,0,0:0:0:0:
64,192,154420,1,0,0:0:0:0:
320,192,154570,1,0,0:0:0:0:
64,192,154870,128,0,155770:0:0:0:0:
192,192,154870,1,0,0:0:0:0:
448,192,155020,1,0,0:0:0:0:
320,192,155170,1,0,0:0:0:0:
448,192,155320,1,0,0:0:0:0:
192,192,155770,1,0,0:0:0:0:
320,192,156070,1,0,0:0:0:0:
320,192,156370,128,0,156970:0:0:0:0:
448,192,156370,1,0,0:0:0:0:
64,192,156520,1,0,0:0:0:0:
192,192,156670,1,0,0:0:0:0:
64,192,156820,1,0,0:0:0:0:
448,192,156970,1,0,0:0:0:0:
192,192,157270,128,0,158170:0:0:0:0:
64,192,157270,1,0,0:0:0:0:
448,192,157420,1,0,0:0:0:0:
320,192,157570,1,0,0:0:0:0:
448,192,157720,1,0,0:0:0:0:
64,192,157870,1,0,0:0:0:0:
448,192,158170,1,0,0:0:0:0:
64,192,158470,1,0,0:0:0:0:
448,192,158770,128,0,159370:0:0:0:0:
320,192,158770,1,0,0:0:0:0:
64,192,158920,1,0,0:0:0:0:
192,192,159070,1,0,0:0:0:0:
64,192,159220,1,0,0:0:0:0:
320,192,159370,1,0,0:0:0:0:
64,192,159670,128,0,160570:0:0:0:0:
192,192,159670,1,0,0:0:0:0:
448,192,159820,1,0,0:0:0:0:
320,192,159970,1,0,0:0:0:0:
448,192,160120,1,0,0:0:0:0:
192,192,160270,1,0,0:0:0:0:
448,192,160570,1,0,0:0:0:0:
192,192,160870,1,0,0:0:0:0:
320,192,161170,128,0,161770:0:0:0:0:
448,192,161170,1,0,0:0:0:0:
64,192,161320,1,0,0:0:0:0:
192,192,161470,1,0,0:0:0:0:
64,192,161620,1,0,0:0:0:0:
448,192,161770,1,0,0:0:0:0:
192,192,161920,1,0,0:0:0:0:
320,192,162070,1,0,0:0:0:0:
64,192,162220,1,0,0:0:0:0:
448,192,162370,1,0,0:0:0:0:
320,192,162520,1,0,0:0:0:0:
192,192,162670,1,0,0:0:0:0:
64,192,162820,1,0,0:0:0:0:
448,192,162970,128,0,163270:0:0:0:0:
320,192,163270,128,0,163420:0:0:0:0:
192,192,163420,128,0,163570:0:0:0:0:
64,192,163570,128,0,164770:0:0:0:0:
448,192,163570,1,0,0:0:0:0:
448,192,163870,1,0,0:0:0:0:
448,192,164170,1,0,0:0:0:0:
448,192,164470,1,0,0:0:0:0:
448,192,164770,1,0,0:0:0:0:
320,192,164845,1,0,0:0:0:0:
192,192,164920,1,0,0:0:0:0:
64,192,164995,1,0,0:0:0:0:
192,192,165070,1,0,0:0:0:0:
320,192,165145,1,0,0:0:0:0:
448,192,165220,1,0,0:0:0:0:
192,192,165295,1,0,0:0:0:0:
320,192,165370,1,0,0:0:0:0:
64,192,165445,1,0,0:0:0:0:
192,192,165520,1,0,0:0:0:0:
320,192,165595,1,0,0:0:0:0:
448,192,165670,1,0,0:0:0:0:
64,192,165670,1,0,0:0:0:0:
320,192,165970,1,0,0:0:0:0:
192,192,166045,1,0,0:0:0:0:
320,192,166120,1,0,0:0:0:0:
192,192,166195,1,0,0:0:0:0:
320,192,166270,1,0,0:0:0:0:
192,192,166570,1,0,0:0:0:0:
320,192,166645,1,0,0:0:0:0:
192,192,166720,1,0,0:0:0:0:
64,192,167020,1,0,0:0:0:0:
448,192,167020,1,0,0:0:0:0:
320,192,167320,1,0,0:0:0:0:
64,192,167470,1,0,0:0:0:0:
192,192,167470,1,0,0:0:0:0:
448,192,167620,1,0,0:0:0:0:
320,192,167695,1,0,0:0:0:0:
192,192,167770,1,0,0:0:0:0:
64,192,167845,1,0,0:0:0:0:
448,192,167920,1,0,0:0:0:0:
320,192,167995,1,0,0:0:0:0:
192,192,168070,1,0,0:0:0:0:
64,192,168070,1,0,0:0:0:0:
448,192,168370,1,0,0:0:0:0:
64,192,168370,1,0,0:0:0:0:
320,192,168445,1,0,0:0:0:0:
192,192,168520,1,0,0:0:0:0:
64,192,168595,1,0,0:0:0:0:
320,192,168670,1,0,0:0:0:0:
448,192,168745,1,0,0:0:0:0:
64,192,168820,1,0,0:0:0:0:
192,192,168895,1,0,0:0:0:0:
320,192,168970,1,0,0:0:0:0:
192,192,169045,1,0,0:0:0:0:
64,192,169120,1,0,0:0:0:0:
448,192,169195,1,0,0:0:0:0:
320,192,169270,1,0,0:0:0:0:
192,192,169345,1,0,0:0:0:0:
64,192,169420,1,0,0:0:0:0:
320,192,169495,1,0,0:0:0:0:
448,192,169570,1,0,0:0:0:0:
64,192,169645,1,0,0:0:0:0:
192,192,169720,1,0,0:0:0:0:
320,192,169795,1,0,0:0:0:0:
64,192,169870,1,0,0:0:0:0:
448,192,169945,1,0,0:0:0:0:
320,192,170020,1,0,0:0:0:0:
192,192,170095,1,0,0:0:0:0:
64,192,170170,1,0,0:0:0:0:
448,192,170245,1,0,0:0:0:0:
192,192,170320,1,0,0:0:0:0:
320,192,170395,1,0,0:0:0:0:
64,192,170470,1,0,0:0:0:0:
448,192,170545,1,0,0:0:0:0:
320,192,170620,1,0,0:0:0:0:
192,192,170695,1,0,0:0:0:0:
320,192,170770,1,0,0:0:0:0:
64,192,170845,1,0,0:0:0:0:
192,192,170920,1,0,0:0:0:0:
320,192,170995,1,0,0:0:0:0:
448,192,171070,1,0,0:0:0:0:
64,192,171145,1,0,0:0:0:0:
320,192,171220,1,0,0:0:0:0:
192,192,171295,1,0,0:0:0:0:
448,192,171370,1,0,0:0:0:0:
320,192,171445,1,0,0:0:0:0:
192,192,171520,1,0,0:0:0:0:
64,192,171595,1,0,0:0:0:0:
448,192,171670,1,0,0:0:0:0:
320,192,171745,1,0,0:0:0:0:
64,192,171820,1,0,0:0:0:0:
192,192,171895,1,0,0:0:0:0:
448,192,171970,1,0,0:0:0:0:
64,192,172045,1,0,0:0:0:0:
320,192,172120,1,0,0:0:0:0:
192,192,172195,1,0,0:0:0:0:
448,192,172270,1,0,0:0:0:0:
320,192,172345,1,0,0:0:0:0:
192,192,172420,1,0,0:0:0:0:
64,192,172495,1,0,0:0:0:0:
192,192,172570,1,0,0:0:0:0:
320,192,172645,1,0,0:0:0:0:
448,192,172720,1,0,0:0:0:0:
192,192,172795,1,0,0:0:0:0:
64,192,172870,1,0,0:0:0:0:
448,192,172945,1,0,0:0:0:0:
320,192,173020,1,0,0:0:0:0:
192,192,173095,1,0,0:0:0:0:
64,192,173170,1,0,0:0:0:0:
448,192,173170,1,0,0:0:0:0:
320,192,173245,1,0,0:0:0:0:
192,192,173320,1,0,0:0:0:0:
64,192,173395,1,0,0:0:0:0:
192,192,173470,1,0,0:0:0:0:
320,192,173545,1,0,0:0:0:0:
448,192,173620,1,0,0:0:0:0:
64,192,173695,1,0,0:0:0:0:
192,192,173770,1,0,0:0:0:0:
320,192,173845,1,0,0:0:0:0:
64,192,173920,1,0,0:0:0:0:
448,192,173995,1,0,0:0:0:0:
192,192,174070,1,0,0:0:0:0:
320,192,174145,1,0,0:0:0:0:
448,192,174220,1,0,0:0:0:0:
64,192,174295,1,0,0:0:0:0:
320,192,174370,1,0,0:0:0:0:
192,192,174445,1,0,0:0:0:0:
64,192,174520,1,0,0:0:0:0:
448,192,174595,1,0,0:0:0:0:
320,192,174670,1,0,0:0:0:0:
64,192,174745,1,0,0:0:0:0:
192,192,174820,1,0,0:0:0:0:
448,192,174895,1,0,0:0:0:0:
64,192,174970,1,0,0:0:0:0:
192,192,175045,1,0,0:0:0:0:
320,192,175120,1,0,0:0:0:0:
448,192,175195,1,0,0:0:0:0:
192,192,175270,1,0,0:0:0:0:
64,192,175345,1,0,0:0:0:0:
448,192,175420,1,0,0:0:0:0:
320,192,175495,1,0,0:0:0:0:
64,192,175570,1,0,0:0:0:0:
448,192,175645,1,0,0:0:0:0:
64,192,175720,1,0,0:0:0:0:
448,192,175795,1,0,0:0:0:0:
64,192,175870,1,0,0:0:0:0:
192,192,175870,1,0,0:0:0:0:
448,192,176170,1,0,0:0:0:0:
64,192,176245,1,0,0:0:0:0:
320,192,176320,1,0,0:0:0:0:
448,192,176320,1,0,0:0:0:0:
64,192,176620,1,0,0:0:0:0:
448,192,176620,1,0,0:0:0:0:
192,192,176920,1,0,0:0:0:0:
320,192,176995,1,0,0:0:0:0:
448,192,177070,1,0,0:0:0:0:
64,192,177070,1,0,0:0:0:0:
192,192,177145,1,0,0:0:0:0:
320,192,177220,1,0,0:0:0:0:
448,192,177295,1,0,0:0:0:0:
64,192,177370,1,0,0:0:0:0:
192,192,177445,1,0,0:0:0:0:
64,192,177520,1,0,0:0:0:0:
192,192,177595,1,0,0:0:0:0:
448,192,177670,1,0,0:0:0:0:
320,192,177745,1,0,0:0:0:0:
192,192,177820,1,0,0:0:0:0:
64,192,177895,1,0,0:0:0:0:
320,192,177970,1,0,0:0:0:0:
448,192,177970,1,0,0:0:0:0:
192,192,178120,1,0,0:0:0:0:
64,192,178270,128,0,179170:0:0:0:0:
448,192,178270,1,0,0:0:0:0:
320,192,178570,1,0,0:0:0:0:
192,192,178870,1,0,0:0:0:0:
320,192,179170,1,0,0:0:0:0:
320,192,179320,1,0,0:0:0:0:
448,192,179470,128,0,180370:0:0:0:0:
64,192,179470,1,0,0:0:0:0:
192,192,179770,1,0,0:0:0:0:
320,192,180070,1,0,0:0:0:0:
64,192,180370,1,0,0:0:0:0:
64,192,180520,1,0,0:0:0:0:
192,192,180670,128,0,181570:0:0:0:0:
320,192,180670,1,0,0:0:0:0:
448,192,180970,1,0,0:0:0:0:
64,192,181270,1,0,0:0:0:0:
448,192,181570,1,0,0:0:0:0:
448,192,181720,1,0,0:0:0:0:
320,192,181870,1,0,0:0:0:0:
64,192,182020,1,0,0:0:0:0:
192,192,182095,1,0,0:0:0:0:
320,192,182170,1,0,0:0:0:0:
64,192,182245,1,0,0:0:0:0:
192,192,182320,1,0,0:0:0:0:
320,192,182395,1,0,0:0:0:0:
64,192,182470,1,0,0:0:0:0:
192,192,182545,1,0,0:0:0:0:
320,192,182620,1,0,0:0:0:0:
448,192,182695,1,0,0:0:0:0:
64,192,182770,1,0,0:0:0:0:
192,192,182770,1,0,0:0:0:0:
320,192,182845,1,0,0:0:0:0:
64,192,182920,1,0,0:0:0:0:
448,192,182995,1,0,0:0:0:0:
192,192,183070,1,0,0:0:0:0:
320,192,183145,1,0,0:0:0:0:
64,192,183220,1,0,0:0:0:0:
448,192,183295,1,0,0:0:0:0:
192,192,183370,1,0,0:0:0:0:
320,192,183445,1,0,0:0:0:0:
64,192,183520,1,0,0:0:0:0:
448,192,183595,1,0,0:0:0:0:
192,192,183670,1,0,0:0:0:0:
320,192,183745,1,0,0:0:0:0:
64,192,183820,1,0,0:0:0:0:
448,192,183895,1,0,0:0:0:0:
64,192,183970,1,0,0:0:0:0:
192,192,184045,1,0,0:0:0:0:
320,192,184120,1,0,0:0:0:0:
448,192,184195,1,0,0:0:0:0:
64,192,184270,1,0,0:0:0:0:
192,192,184345,1,0,0:0:0:0:
320,192,184420,1,0,0:0:0:0:
448,192,184495,1,0,0:0:0:0:
64,192,184570,1,0,0:0:0:0:
192,192,184570,1,0,0:0:0:0:
64,192,184720,1,0,0:0:0:0:
192,192,184720,1,0,0:0:0:0:
448,192,185170,1,0,0:0:0:0:
192,192,185245,1,0,0:0:0:0:
320,192,185320,1,0,0:0:0:0:
64,192,185395,1,0,0:0:0:0:
192,192,185470,1,0,0:0:0:0:
448,192,185470,1,0,0:0:0:0:
320,192,185620,1,0,0:0:0:0:
64,192,185695,1,0,0:0:0:0:
448,192,185770,1,0,0:0:0:0:
192,192,185845,1,0,0:0:0:0:
64,192,185920,1,0,0:0:0:0:
320,192,185920,1,0,0:0:0:0:
448,192,186070,1,0,0:0:0:0:
192,192,186145,1,0,0:0:0:0:
320,192,186220,1,0,0:0:0:0:
64,192,186295,1,0,0:0:0:0:
448,192,186370,1,0,0:0:0:0:
192,192,186370,1,0,0:0:0:0:
320,192,186520,1,0,0:0:0:0:
64,192,186595,1,0,0:0:0:0:
448,192,186670,1,0,0:0:0:0:
192,192,186745,1,0,0:0:0:0:
320,192,186820,1,0,0:0:0:0:
64,192,186820,1,0,0:0:0:0:
448,192,186970,1,0,0:0:0:0:
192,192,187045,1,0,0:0:0:0:
320,192,187120,1,0,0:0:0:0:
64,192,187195,1,0,0:0:0:0:
448,192,187270,1,0,0:0:0:0:
192,192,187270,1,0,0:0:0:0:
64,192,187570,1,0,0:0:0:0:
320,192,187645,1,0,0:0:0:0:
192,192,187720,1,0,0:0:0:0:
448,192,187795,1,0,0:0:0:0:
320,192,187870,1,0,0:0:0:0:
64,192,187870,1,0,0:0:0:0:
192,192,188020,1,0,0:0:0:0:
448,192,188095,1,0,0:0:0:0:
64,192,188170,1,0,0:0:0:0:
320,192,188245,1,0,0:0:0:0:
192,192,188320,1,0,0:0:0:0:
448,192,188320,1,0,0:0:0:0:
64,192,188470,1,0,0:0:0:0:
320,192,188545,1,0,0:0:0:0:
192,192,188620,1,0,0:0:0:0:
448,192,188695,1,0,0:0:0:0:
64,192,188770,1,0,0:0:0:0:
320,192,188770,1,0,0:0:0:0:
192,192,188920,1,0,0:0:0:0:
448,192,188995,1,0,0:0:0:0:
64,192,189070,1,0,0:0:0:0:
320,192,189145,1,0,0:0:0:0:
192,192,189220,1,0,0:0:0:0:
448,192,189220,1,0,0:0:0:0:
64,192,189370,1,0,0:0:0:0:
320,192,189445,1,0,0:0:0:0:
192,192,189520,1,0,0:0:0:0:
448,192,189595,1,0,0:0:0:0:
320,192,189670,1,0,0:0:0:0:
64,192,189670,1,0,0:0:0:0:
448,192,189820,1,0,0:0:0:0:
64,192,189895,1,0,0:0:0:0:
448,192,189970,1,0,0:0:0:0:
320,192,190045,1,0,0:0:0:0:
192,192,190120,1,0,0:0:0:0:
64,192,190195,1,0,0:0:0:0:
448,192,190270,1,0,0:0:0:0:
192,192,190270,1,0,0:0:0:0:
64,192,190420,1,0,0:0:0:0:
192,192,190495,1,0,0:0:0:0:
320,192,190570,1,0,0:0:0:0:
448,192,190645,1,0,0:0:0:0:
320,192,190720,1,0,0:0:0:0:
64,192,190720,1,0,0:0:0:0:
448,192,190870,1,0,0:0:0:0:
320,192,190945,1,0,0:0:0:0:
192,192,191020,1,0,0:0:0:0:
64,192,191095,1,0,0:0:0:0:
448,192,191170,1,0,0:0:0:0:
192,192,191170,1,0,0:0:0:0:
64,192,191320,1,0,0:0:0:0:
192,192,191395,1,0,0:0:0:0:
320,192,191470,1,0,0:0:0:0:
448,192,191545,1,0,0:0:0:0:
320,192,191620,1,0,0:0:0:0:
64,192,191620,1,0,0:0:0:0:
448,192,191770,1,0,0:0:0:0:
320,192,191845,1,0,0:0:0:0:
192,192,191920,1,0,0:0:0:0:
64,192,191995,1,0,0:0:0:0:
192,192,192070,1,0,0:0:0:0:
448,192,192070,1,0,0:0:0:0:
320,192,192220,1,0,0:0:0:0:
192,192,192295,1,0,0:0:0:0:
448,192,192370,1,0,0:0:0:0:
320,192,192445,1,0,0:0:0:0:
64,192,192520,1,0,0:0:0:0:
192,192,192595,1,0,0:0:0:0:
320,192,192670,1,0,0:0:0:0:
448,192,192670,1,0,0:0:0:0:
192,192,192820,1,0,0:0:0:0:
64,192,192895,1,0,0:0:0:0:
320,192,192970,1,0,0:0:0:0:
448,192,193045,1,0,0:0:0:0:
64,192,193120,1,0,0:0:0:0:
192,192,193120,1,0,0:0:0:0:
320,192,193270,1,0,0:0:0:0:
448,192,193345,1,0,0:0:0:0:
192,192,193420,1,0,0:0:0:0:
64,192,193495,1,0,0:0:0:0:
320,192,193570,1,0,0:0:0:0:
448,192,193570,1,0,0:0:0:0:
64,192,193720,1,0,0:0:0:0:
192,192,193720,1,0,0:0:0:0:
64,192,193870,1,0,0:0:0:0:
192,192,193870,1,0,0:0:0:0:
192,192,194020,1,0,0:0:0:0:
320,192,194020,1,0,0:0:0:0:
192,192,194170,1,0,0:0:0:0:
320,192,194170,1,0,0:0:0:0:
448,192,194320,1,0,0:0:0:0:
320,192,194320,1,0,0:0:0:0:
448,192,194470,1,0,0:0:0:0:
320,192,194470,1,0,0:0:0:0:
320,192,194620,1,0,0:0:0:0:
448,192,194620,1,0,0:0:0:0:
448,192,194770,1,0,0:0:0:0:
64,192,194770,1,0,0:0:0:0:
192,192,194845,1,0,0:0:0:0:
320,192,194920,1,0,0:0:0:0:
448,192,194995,1,0,0:0:0:0:
64,192,195070,1,0,0:0:0:0:
192,192,195070,1,0,0:0:0:0:
448,192,195220,1,0,0:0:0:0:
320,192,195295,1,0,0:0:0:0:
192,192,195370,1,0,0:0:0:0:
64,192,195445,1,0,0:0:0:0:
320,192,195520,1,0,0:0:0:0:
448,192,195520,1,0,0:0:0:0:
64,192,195670,1,0,0:0:0:0:
192,192,195745,1,0,0:0:0:0:
320,192,195820,1,0,0:0:0:0:
448,192,195895,1,0,0:0:0:0:
64,192,195970,1,0,0:0:0:0:
192,192,195970,1,0,0:0:0:0:
448,192,196120,1,0,0:0:0:0:
320,192,196195,1,0,0:0:0:0:
192,192,196270,1,0,0:0:0:0:
64,192,196345,1,0,0:0:0:0:
320,192,196420,1,0,0:0:0:0:
448,192,196420,1,0,0:0:0:0:
64,192,196570,1,0,0:0:0:0:
192,192,196645,1,0,0:0:0:0:
320,192,196720,1,0,0:0:0:0:
448,192,196795,1,0,0:0:0:0:
64,192,196870,1,0,0:0:0:0:
192,192,196870,1,0,0:0:0:0:
320,192,197170,1,0,0:0:0:0:
448,192,197245,1,0,0:0:0:0:
192,192,197320,1,0,0:0:0:0:
64,192,197395,1,0,0:0:0:0:
320,192,197470,1,0,0:0:0:0:
448,192,197470,1,0,0:0:0:0:
192,192,197620,1,0,0:0:0:0:
64,192,197695,1,0,0:0:0:0:
320,192,197770,1,0,0:0:0:0:
448,192,197845,1,0,0:0:0:0:
192,192,197920,1,0,0:0:0:0:
64,192,197920,1,0,0:0:0:0:
320,192,198070,1,0,0:0:0:0:
448,192,198145,1,0,0:0:0:0:
192,192,198220,1,0,0:0:0:0:
64,192,198295,1,0,0:0:0:0:
320,192,198370,1,0,0:0:0:0:
448,192,198370,1,0,0:0:0:0:
192,192,198520,1,0,0:0:0:0:
64,192,198595,1,0,0:0:0:0:
320,192,198670,1,0,0:0:0:0:
448,192,198745,1,0,0:0:0:0:
192,192,198820,1,0,0:0:0:0:
64,192,198820,1,0,0:0:0:0:
320,192,198970,1,0,0:0:0:0:
448,192,199045,1,0,0:0:0:0:
192,192,199120,1,0,0:0:0:0:
64,192,199195,1,0,0:0:0:0:
320,192,199270,1,0,0:0:0:0:
448,192,199270,1,0,0:0:0:0:
448,192,199570,1,0,0:0:0:0:
192,192,199645,1,0,0:0:0:0:
448,192,199720,1,0,0:0:0:0:
192,192,199795,1,0,0:0:0:0:
320,192,199870,1,0,0:0:0:0:
448,192,199870,1,0,0:0:0:0:
64,192,200020,1,0,0:0:0:0:
320,192,200095,1,0,0:0:0:0:
64,192,200170,1,0,0:0:0:0:
320,192,200245,1,0,0:0:0:0:
64,192,200320,1,0,0:0:0:0:
192,192,200320,1,0,0:0:0:0:
448,192,200470,1,0,0:0:0:0:
192,192,200545,1,0,0:0:0:0:
448,192,200620,1,0,0:0:0:0:
192,192,200695,1,0,0:0:0:0:
320,192,200770,1,0,0:0:0:0:
448,192,200770,1,0,0:0:0:0:
64,192,200920,1,0,0:0:0:0:
320,192,200995,1,0,0:0:0:0:
64,192,201070,1,0,0:0:0:0:
320,192,201145,1,0,0:0:0:0:
64,192,201220,1,0,0:0:0:0:
192,192,201220,1,0,0:0:0:0:
448,192,201370,1,0,0:0:0:0:
320,192,201445,1,0,0:0:0:0:
192,192,201520,1,0,0:0:0:0:
64,192,201595,1,0,0:0:0:0:
320,192,201670,1,0,0:0:0:0:
448,192,201670,1,0,0:0:0:0:
192,192,201820,1,0,0:0:0:0:
64,192,201970,1,0,0:0:0:0:
320,192,202045,1,0,0:0:0:0:
192,192,202120,1,0,0:0:0:0:
448,192,202195,1,0,0:0:0:0:
64,192,202270,1,0,0:0:0:0:
320,192,202270,1,0,0:0:0:0:
448,192,202420,1,0,0:0:0:0:
192,192,202495,1,0,0:0:0:0:
320,192,202570,1,0,0:0:0:0:
64,192,202645,1,0,0:0:0:0:
192,192,202720,1,0,0:0:0:0:
448,192,202720,1,0,0:0:0:0:
64,192,202870,1,0,0:0:0:0:
320,192,202945,1,0,0:0:0:0:
192,192,203020,1,0,0:0:0:0:
448,192,203095,1,0,0:0:0:0:
320,192,203170,1,0,0:0:0:0:
64,192,203170,1,0,0:0:0:0:
448,192,203320,1,0,0:0:0:0:
320,192,203395,1,0,0:0:0:0:
64,192,203470,1,0,0:0:0:0:
192,192,203470,1,0,0:0:0:0:
448,192,203620,1,0,0:0:0:0:
320,192,203695,1,0,0:0:0:0:
64,192,203770,1,0,0:0:0:0:
192,192,203770,1,0,0:0:0:0:
448,192,203920,1,0,0:0:0:0:
320,192,203920,1,0,0:0:0:0:
64,192,204070,1,0,0:0:0:0:
192,192,204070,1,0,0:0:0:0:
192,192,204220,1,0,0:0:0:0:
320,192,204220,1,0,0:0:0:0:
