osu file format v14

[General]
AudioFilename: Seven Colors.mp3
AudioLeadIn: 0
PreviewTime: 60370
Countdown: 0
SampleSet: Normal
StackLeniency: 0.7
Mode: 1
LetterboxInBreaks: 0
WidescreenStoryboard: 1

[Editor]
DistanceSpacing: 1.3
BeatDivisor: 4
GridSize: 32
TimelineZoom: 3

[Metadata]
Title:Seven Colors
TitleUnicode:Seven Colors
Artist:UNDEAD CORPORATION
ArtistUnicode:UNDEAD CORPORATION
Creator:Nwolf
Version:Prismatic Oni
Source:東方Project
Tags:LordRaika _underjoy puxtu LTL Lost The Lights Dainesl Touhou 幽霊楽団 Ghostly Band Phantom Ensemble Prismriver Sister th07 Perfect Cherry Blossom 東方妖々夢 ZUN Team Shanghai Alice パインツリー 朱美 Tyrant 暴君 窪田道元 Pinetree Akemi
BeatmapID:649918
BeatmapSetID:288138

[Difficulty]
HPDrainRate:6
CircleSize:4
OverallDifficulty:6.5
ApproachRate:8
SliderMultiplier:1.4
SliderTickRate:1

[Events]
//Background and Video events
0,0,"prismsisters.jpg",0,100
//Break Periods
//Storyboard Layer 0 (Background)
//Storyboard Layer 1 (Fail)
//Storyboard Layer 2 (Pass)
//Storyboard Layer 3 (Foreground)
//Storyboard Sound Samples

[TimingPoints]
370,300,4,1,0,90,1,0
60370,-100,4,1,0,90,0,1
79570,-100,4,1,0,90,0,0
117970,-100,4,1,0,90,0,1
134770,-100,4,1,0,90,0,0
168370,-100,4,1,0,90,0,1
184570,-100,4,1,0,90,0,0
185170,-100,4,1,0,90,0,1
202420,-99.009900990099,4,1,0,90,0,1
202495,-98.0392156862745,4,1,0,90,0,1
202570,-97.0873786407767,4,1,0,90,0,1
202645,-96.1538461538461,4,1,0,90,0,1
202720,-95.2380952380952,4,1,0,90,0,1
202870,-94.3396226415094,4,1,0,90,0,1
202945,-93.4579439252336,4,1,0,90,0,1
203020,-92.5925925925926,4,1,0,90,0,1
203095,-91.743119266055,4,1,0,90,0,1
203170,-90.9090909090909,4,1,0,90,0,1
203320,-90.0900900900901,4,1,0,90,0,1
203395,-89.2857142857143,4,1,0,90,0,1
203470,-88.4955752212389,4,1,0,90,0,1
203620,-87.719298245614,4,1,0,90,0,1
203770,-86.9565217391304,4,1,0,90,0,1
204220,-86.9565217391304,4,1,0,90,0,0

[HitObjects]
256,192,370,12,0,2170,0:0:0:0:
288,224,2470,5,12,0:0:0:0:
224,160,2770,1,0,0:0:0:0:
224,160,2845,1,0,0:0:0:0:
224,160,2920,1,0,0:0:0:0:
224,160,2995,1,0,0:0:0:0:
288,160,3070,1,8,0:0:0:0:
224,160,3220,1,0,0:0:0:0:
224,160,3295,1,0,0:0:0:0:
224,160,3370,1,0,0:0:0:0:
224,160,3445,1,0,0:0:0:0:
288,160,3520,1,8,0:0:0:0:
224,160,3670,1,0,0:0:0:0:
224,160,3745,1,0,0:0:0:0:
224,160,3820,1,0,0:0:0:0:
224,160,3895,1,0,0:0:0:0:
288,160,3970,1,8,0:0:0:0:
224,160,4120,1,0,0:0:0:0:
224,160,4195,1,0,0:0:0:0:
224,160,4270,1,0,0:0:0:0:
224,160,4345,1,0,0:0:0:0:
288,160,4420,1,8,0:0:0:0:
224,160,4570,1,0,0:0:0:0:
224,160,4645,1,0,0:0:0:0:
224,160,4720,1,0,0:0:0:0:
224,160,4795,1,0,0:0:0:0:
288,160,4870,1,8,0:0:0:0:
288,160,5170,1,8,0:0:0:0:
224,160,5245,1,0,0:0:0:0:
224,160,5320,1,0,0:0:0:0:
224,160,5395,1,0,0:0:0:0:
288,160,5470,1,8,0:0:0:0:
288,160,5620,1,8,0:0:0:0:
224,160,5695,1,0,0:0:0:0:
224,160,5770,1,0,0:0:0:0:
224,160,5845,1,0,0:0:0:0:
288,160,5920,1,8,0:0:0:0:
288,160,6070,1,8,0:0:0:0:
224,160,6145,1,0,0:0:0:0:
224,160,6220,1,0,0:0:0:0:
224,160,6295,1,0,0:0:0:0:
288,160,6370,1,8,0:0:0:0:
288,160,6520,1,8,0:0:0:0:
224,160,6595,1,0,0:0:0:0:
224,160,6670,1,0,0:0:0:0:
224,160,6745,1,0,0:0:0:0:
288,160,6820,1,8,0:0:0:0:
288,160,6970,1,8,0:0:0:0:
224,160,7045,1,0,0:0:0:0:
224,160,7120,1,0,0:0:0:0:
224,160,7195,1,0,0:0:0:0:
288,160,7270,1,8,0:0:0:0:
224,160,7570,1,0,0:0:0:0:
224,160,7645,1,0,0:0:0:0:
224,160,7720,1,0,0:0:0:0:
224,160,7795,1,0,0:0:0:0:
288,160,7870,1,8,0:0:0:0:
224,160,8020,1,0,0:0:0:0:
224,160,8095,1,0,0:0:0:0:
224,160,8170,1,0,0:0:0:0:
224,160,8245,1,0,0:0:0:0:
288,160,8320,1,8,0:0:0:0:
224,160,8470,1,0,0:0:0:0:
224,160,8545,1,0,0:0:0:0:
224,160,8620,1,0,0:0:0:0:
224,160,8695,1,0,0:0:0:0:
288,160,8770,1,8,0:0:0:0:
224,160,8920,1,0,0:0:0:0:
224,160,8995,1,0,0:0:0:0:
224,160,9070,1,0,0:0:0:0:
224,160,9145,1,0,0:0:0:0:
288,160,9220,1,8,0:0:0:0:
224,160,9370,1,0,0:0:0:0:
224,160,9445,1,0,0:0:0:0:
224,160,9520,1,0,0:0:0:0:
224,160,9595,1,0,0:0:0:0:
288,160,9670,1,8,0:0:0:0:
288,160,9970,1,8,0:0:0:0:
288,160,10045,1,8,0:0:0:0:
224,160,10120,1,0,0:0:0:0:
224,160,10195,1,0,0:0:0:0:
288,160,10270,1,8,0:0:0:0:
288,160,10420,1,8,0:0:0:0:
288,160,10495,1,8,0:0:0:0:
224,160,10570,1,0,0:0:0:0:
224,160,10645,1,0,0:0:0:0:
288,160,10720,1,8,0:0:0:0:
288,160,10870,1,8,0:0:0:0:
288,160,10945,1,8,0:0:0:0:
224,160,11020,1,0,0:0:0:0:
224,160,11095,1,0,0:0:0:0:
288,160,11170,1,8,0:0:0:0:
288,160,11320,1,8,0:0:0:0:
288,160,11395,1,8,0:0:0:0:
224,160,11470,1,0,0:0:0:0:
224,160,11545,1,0,0:0:0:0:
288,160,11620,1,8,0:0:0:0:
288,160,11770,1,8,0:0:0:0:
288,160,11845,1,8,0:0:0:0:
224,160,11920,1,0,0:0:0:0:
224,160,11995,1,0,0:0:0:0:
288,160,12070,1,8,0:0:0:0:
224,160,12220,1,0,0:0:0:0:
288,160,12370,1,8,0:0:0:0:
288,160,12445,1,8,0:0:0:0:
224,160,12520,1,0,0:0:0:0:
224,160,12595,1,0,0:0:0:0:
288,160,12670,1,8,0:0:0:0:
224,160,12745,1,0,0:0:0:0:
288,160,12820,1,8,0:0:0:0:
288,160,12895,1,8,0:0:0:0:
224,160,12970,1,0,0:0:0:0:
224,160,13045,1,0,0:0:0:0:
288,160,13120,1,8,0:0:0:0:
224,160,13195,1,0,0:0:0:0:
288,160,13270,1,8,0:0:0:0:
288,160,13345,1,8,0:0:0:0:
224,160,13420,1,0,0:0:0:0:
224,160,13495,1,0,0:0:0:0:
288,160,13570,1,8,0:0:0:0:
224,160,13645,1,0,0:0:0:0:
288,160,13720,1,8,0:0:0:0:
288,160,13795,1,8,0:0:0:0:
224,160,13870,1,0,0:0:0:0:
224,160,13945,1,0,0:0:0:0:
288,160,14020,1,8,0:0:0:0:
224,160,14095,1,0,0:0:0:0:
288,160,14170,1,8,0:0:0:0:
288,160,14245,1,8,0:0:0:0:
224,160,14320,1,0,0:0:0:0:
224,160,14395,1,0,0:0:0:0:
288,160,14470,1,8,0:0:0:0:
224,160,14770,1,0,0:0:0:0:
224,160,14845,1,0,0:0:0:0:
224,160,14920,1,0,0:0:0:0:
224,160,14995,1,0,0:0:0:0:
288,160,15070,1,8,0:0:0:0:
288,160,15145,1,8,0:0:0:0:
224,160,15220,1,0,0:0:0:0:
224,160,15295,1,0,0:0:0:0:
224,160,15370,1,0,0:0:0:0:
224,160,15445,1,0,0:0:0:0:
288,160,15520,1,8,0:0:0:0:
288,160,15595,1,8,0:0:0:0:
224,160,15670,1,0,0:0:0:0:
224,160,15745,1,0,0:0:0:0:
224,160,15820,1,0,0:0:0:0:
224,160,15895,1,0,0:0:0:0:
288,160,15970,1,8,0:0:0:0:
288,160,16045,1,8,0:0:0:0:
224,160,16120,1,0,0:0:0:0:
224,160,16195,1,0,0:0:0:0:
224,160,16270,1,0,0:0:0:0:
224,160,16345,1,0,0:0:0:0:
288,160,16420,1,8,0:0:0:0:
288,160,16495,1,8,0:0:0:0:
224,160,16570,1,0,0:0:0:0:
224,160,16645,1,0,0:0:0:0:
224,160,16720,1,0,0:0:0:0:
224,160,16795,1,0,0:0:0:0:
288,160,16870,1,8,0:0:0:0:
288,160,17170,1,8,0:0:0:0:
224,160,17245,1,0,0:0:0:0:
224,160,17320,1,0,0:0:0:0:
224,160,17395,1,0,0:0:0:0:
288,160,17470,1,8,0:0:0:0:
224,160,17545,1,0,0:0:0:0:
288,160,17620,1,8,0:0:0:0:
288,160,17695,1,8,0:0:0:0:
224,160,17770,1,0,0:0:0:0:
224,160,17845,1,0,0:0:0:0:
288,160,17920,1,8,0:0:0:0:
224,160,17995,1,0,0:0:0:0:
224,160,18070,1,0,0:0:0:0:
224,160,18145,1,0,0:0:0:0:
224,160,18220,1,0,0:0:0:0:
224,160,18295,1,0,0:0:0:0:
288,160,18370,1,8,0:0:0:0:
224,160,18445,1,0,0:0:0:0:
288,160,18520,1,8,0:0:0:0:
288,160,18595,1,8,0:0:0:0:
224,160,18670,1,0,0:0:0:0:
224,160,18745,1,0,0:0:0:0:
288,160,18820,1,8,0:0:0:0:
224,160,18895,1,0,0:0:0:0:
224,160,18970,1,0,0:0:0:0:
224,160,19045,1,0,0:0:0:0:
224,160,19120,1,0,0:0:0:0:
224,160,19195,1,0,0:0:0:0:
288,160,19270,1,8,0:0:0:0:
224,160,19570,1,0,0:0:0:0:
224,160,19645,1,0,0:0:0:0:
224,160,19720,1,0,0:0:0:0:
224,160,19795,1,0,0:0:0:0:
288,160,19870,1,8,0:0:0:0:
288,160,19945,1,8,0:0:0:0:
224,160,20020,1,0,0:0:0:0:
224,160,20095,1,0,0:0:0:0:
224,160,20170,1,0,0:0:0:0:
224,160,20245,1,0,0:0:0:0:
288,160,20320,1,8,0:0:0:0:
288,160,20395,1,8,0:0:0:0:
224,160,20470,1,0,0:0:0:0:
224,160,20545,1,0,0:0:0:0:
224,160,20620,1,0,0:0:0:0:
224,160,20695,1,0,0:0:0:0:
288,160,20770,1,8,0:0:0:0:
288,160,20845,1,8,0:0:0:0:
224,160,20920,1,0,0:0:0:0:
224,160,20995,1,0,0:0:0:0:
288,160,21070,1,8,0:0:0:0:
224,160,21220,1,0,0:0:0:0:
256,160,21295,1,8,0:0:0:0:
288,160,21370,1,8,0:0:0:0:
288,160,21520,1,8,0:0:0:0:
224,160,21670,1,0,0:0:0:0:
224,160,21745,1,0,0:0:0:0:
224,160,21820,1,0,0:0:0:0:
288,224,21970,5,12,0:0:0:0:
224,160,22120,1,0,0:0:0:0:
288,160,22270,1,8,0:0:0:0:
224,160,22420,1,0,0:0:0:0:
224,160,22570,1,0,0:0:0:0:
288,160,22720,1,8,0:0:0:0:
224,160,22870,1,0,0:0:0:0:
288,224,23020,1,12,0:0:0:0:
224,160,23320,1,0,0:0:0:0:
288,160,23470,1,8,0:0:0:0:
224,160,23620,1,0,0:0:0:0:
224,160,23695,1,0,0:0:0:0:
224,160,23770,1,0,0:0:0:0:
288,160,23920,1,8,0:0:0:0:
224,160,24070,1,0,0:0:0:0:
288,224,24220,1,12,0:0:0:0:
224,160,24520,1,0,0:0:0:0:
288,160,24670,1,8,0:0:0:0:
224,160,24820,1,0,0:0:0:0:
224,160,24970,1,0,0:0:0:0:
288,160,25120,1,8,0:0:0:0:
224,160,25270,1,0,0:0:0:0:
288,224,25420,1,12,0:0:0:0:
224,160,25720,1,0,0:0:0:0:
288,160,25870,1,8,0:0:0:0:
224,160,26020,1,0,0:0:0:0:
224,160,26095,1,0,0:0:0:0:
288,160,26170,1,8,0:0:0:0:
288,160,26245,1,8,0:0:0:0:
224,160,26320,1,0,0:0:0:0:
224,160,26395,1,0,0:0:0:0:
288,160,26470,1,8,0:0:0:0:
288,160,26545,1,8,0:0:0:0:
224,160,26620,1,0,0:0:0:0:
288,160,26695,1,8,0:0:0:0:
224,160,26770,1,0,0:0:0:0:
224,160,26920,1,0,0:0:0:0:
288,160,27070,1,8,0:0:0:0:
224,160,27220,1,0,0:0:0:0:
224,160,27370,1,0,0:0:0:0:
288,160,27520,1,8,0:0:0:0:
224,160,27670,1,0,0:0:0:0:
288,224,27820,1,12,0:0:0:0:
224,160,28120,1,0,0:0:0:0:
288,160,28270,1,8,0:0:0:0:
224,160,28420,1,0,0:0:0:0:
224,160,28495,1,0,0:0:0:0:
224,160,28570,1,0,0:0:0:0:
288,160,28720,1,8,0:0:0:0:
224,160,28870,1,0,0:0:0:0:
288,224,29020,1,12,0:0:0:0:
288,160,29320,1,8,0:0:0:0:
288,160,29470,1,8,0:0:0:0:
288,160,29545,1,8,0:0:0:0:
224,160,29620,1,0,0:0:0:0:
224,160,29770,1,0,0:0:0:0:
288,160,29920,1,8,0:0:0:0:
224,160,30070,1,0,0:0:0:0:
288,224,30220,1,12,0:0:0:0:
288,160,30970,1,8,0:0:0:0:
224,160,31045,1,0,0:0:0:0:
224,160,31120,1,0,0:0:0:0:
224,160,31195,1,0,0:0:0:0:
288,160,31270,1,8,0:0:0:0:
288,160,31420,1,8,0:0:0:0:
288,160,31495,1,8,0:0:0:0:
224,160,31570,1,0,0:0:0:0:
288,160,31870,1,8,0:0:0:0:
224,160,32170,1,0,0:0:0:0:
224,160,32320,1,0,0:0:0:0:
288,160,32470,1,8,0:0:0:0:
224,224,32620,1,4,0:0:0:0:
288,160,32770,1,8,0:0:0:0:
224,160,32920,1,0,0:0:0:0:
288,160,33070,1,8,0:0:0:0:
224,160,33220,1,0,0:0:0:0:
224,160,33520,1,0,0:0:0:0:
288,160,33670,1,8,0:0:0:0:
224,224,33820,1,4,0:0:0:0:
288,160,33970,1,8,0:0:0:0:
224,160,34120,1,0,0:0:0:0:
288,160,34270,1,8,0:0:0:0:
288,160,34420,1,8,0:0:0:0:
224,160,34720,1,0,0:0:0:0:
288,160,34870,1,8,0:0:0:0:
224,224,35020,1,4,0:0:0:0:
224,160,35320,1,0,0:0:0:0:
288,160,35470,1,8,0:0:0:0:
224,160,35620,1,0,0:0:0:0:
224,160,35695,1,0,0:0:0:0:
288,160,35770,1,8,0:0:0:0:
224,160,35920,1,0,0:0:0:0:
224,160,35995,1,0,0:0:0:0:
288,160,36070,1,8,0:0:0:0:
224,160,36220,1,0,0:0:0:0:
224,160,36295,1,0,0:0:0:0:
224,160,36370,1,0,0:0:0:0:
224,160,36520,1,0,0:0:0:0:
288,160,36670,1,8,0:0:0:0:
224,160,36970,1,0,0:0:0:0:
224,160,37120,1,0,0:0:0:0:
288,160,37270,1,8,0:0:0:0:
224,224,37420,1,4,0:0:0:0:
288,160,37570,1,8,0:0:0:0:
224,160,37720,1,0,0:0:0:0:
288,160,37870,1,8,0:0:0:0:
224,160,38020,1,0,0:0:0:0:
224,160,38170,1,0,0:0:0:0:
224,160,38320,1,0,0:0:0:0:
288,160,38470,1,8,0:0:0:0:
224,224,38620,1,4,0:0:0:0:
288,160,38770,1,8,0:0:0:0:
224,160,38920,1,0,0:0:0:0:
288,160,39070,1,8,0:0:0:0:
288,160,39220,1,8,0:0:0:0:
224,160,39370,1,0,0:0:0:0:
224,160,39445,1,0,0:0:0:0:
224,160,39520,1,0,0:0:0:0:
288,160,39670,1,8,0:0:0:0:
288,224,39820,1,12,0:0:0:0:
224,160,40120,1,0,0:0:0:0:
288,160,40270,1,8,0:0:0:0:
224,160,40420,1,0,0:0:0:0:
224,160,40495,1,0,0:0:0:0:
224,160,40570,1,0,0:0:0:0:
224,160,40645,1,0,0:0:0:0:
224,160,40720,1,0,0:0:0:0:
224,160,40795,1,0,0:0:0:0:
288,160,40870,1,8,0:0:0:0:
224,160,40945,1,0,0:0:0:0:
224,160,41020,1,0,0:0:0:0:
288,224,41170,1,12,0:0:0:0:
288,160,41470,1,8,0:0:0:0:
288,160,41620,1,8,0:0:0:0:
224,160,41770,1,0,0:0:0:0:
224,160,41920,1,0,0:0:0:0:
288,160,42070,1,8,0:0:0:0:
224,224,42220,1,4,0:0:0:0:
288,160,42370,1,8,0:0:0:0:
224,160,42520,1,0,0:0:0:0:
288,160,42670,1,8,0:0:0:0:
288,160,42820,1,8,0:0:0:0:
224,160,43120,1,0,0:0:0:0:
288,160,43270,1,8,0:0:0:0:
224,224,43420,1,4,0:0:0:0:
224,160,43720,1,0,0:0:0:0:
288,160,43870,1,8,0:0:0:0:
224,160,44020,1,0,0:0:0:0:
288,160,44170,1,8,0:0:0:0:
224,160,44320,1,0,0:0:0:0:
288,160,44470,1,8,0:0:0:0:
288,224,44620,1,12,0:0:0:0:
224,160,44920,1,0,0:0:0:0:
288,160,45070,1,8,0:0:0:0:
224,160,45220,1,0,0:0:0:0:
224,160,45295,1,0,0:0:0:0:
288,160,45370,1,8,0:0:0:0:
224,160,45520,1,0,0:0:0:0:
224,160,45595,1,0,0:0:0:0:
288,160,45670,1,8,0:0:0:0:
224,160,45820,1,0,0:0:0:0:
224,160,45895,1,0,0:0:0:0:
224,160,45970,1,0,0:0:0:0:
224,160,46120,1,0,0:0:0:0:
288,160,46270,1,8,0:0:0:0:
224,160,46570,1,0,0:0:0:0:
224,160,46720,1,0,0:0:0:0:
288,160,46870,1,8,0:0:0:0:
224,224,47020,1,4,0:0:0:0:
288,160,47170,1,8,0:0:0:0:
224,160,47320,1,0,0:0:0:0:
288,160,47470,1,8,0:0:0:0:
224,160,47620,1,0,0:0:0:0:
224,160,47920,1,0,0:0:0:0:
288,160,48070,1,8,0:0:0:0:
224,224,48220,1,4,0:0:0:0:
288,160,48370,1,8,0:0:0:0:
224,160,48520,1,0,0:0:0:0:
288,160,48670,1,8,0:0:0:0:
288,160,48820,1,8,0:0:0:0:
288,160,48970,1,8,0:0:0:0:
288,160,49045,1,8,0:0:0:0:
224,160,49120,1,0,0:0:0:0:
224,160,49195,1,0,0:0:0:0:
288,160,49270,1,8,0:0:0:0:
224,224,49420,1,4,0:0:0:0:
288,160,49720,1,8,0:0:0:0:
288,160,49870,1,8,0:0:0:0:
224,160,50020,1,0,0:0:0:0:
224,160,50095,1,0,0:0:0:0:
288,160,50170,1,8,0:0:0:0:
288,160,50245,1,8,0:0:0:0:
288,160,50320,1,8,0:0:0:0:
288,160,50395,1,8,0:0:0:0:
224,160,50470,1,0,0:0:0:0:
224,160,50545,1,0,0:0:0:0:
224,160,50620,1,0,0:0:0:0:
224,160,50695,1,0,0:0:0:0:
224,160,50770,5,0,0:0:0:0:
224,160,51070,1,0,0:0:0:0:
224,160,51145,1,0,0:0:0:0:
224,160,51220,1,0,0:0:0:0:
224,160,51295,1,0,0:0:0:0:
288,160,51370,1,8,0:0:0:0:
224,160,51670,1,0,0:0:0:0:
224,160,51745,1,0,0:0:0:0:
224,160,51820,1,0,0:0:0:0:
224,160,51895,1,0,0:0:0:0:
224,160,51970,1,0,0:0:0:0:
224,160,52270,1,0,0:0:0:0:
224,160,52345,1,0,0:0:0:0:
224,160,52420,1,0,0:0:0:0:
224,160,52495,1,0,0:0:0:0:
288,160,52570,1,8,0:0:0:0:
224,160,52870,1,0,0:0:0:0:
224,160,52945,1,0,0:0:0:0:
288,160,53020,1,8,0:0:0:0:
288,160,53095,1,8,0:0:0:0:
224,160,53170,1,0,0:0:0:0:
224,160,53470,1,0,0:0:0:0:
224,160,53545,1,0,0:0:0:0:
288,160,53620,1,8,0:0:0:0:
224,160,53695,1,0,0:0:0:0:
288,160,53770,1,8,0:0:0:0:
288,160,54070,1,8,0:0:0:0:
288,160,54145,1,8,0:0:0:0:
288,160,54220,1,8,0:0:0:0:
288,160,54295,1,8,0:0:0:0:
224,160,54370,1,0,0:0:0:0:
224,160,54670,1,0,0:0:0:0:
224,160,54745,1,0,0:0:0:0:
288,160,54820,1,8,0:0:0:0:
224,160,54895,1,0,0:0:0:0:
288,160,54970,1,8,0:0:0:0:
224,160,55120,1,0,0:0:0:0:
224,160,55195,1,0,0:0:0:0:
288,160,55270,1,8,0:0:0:0:
288,160,55345,1,8,0:0:0:0:
224,160,55420,1,0,0:0:0:0:
224,160,55495,1,0,0:0:0:0:
288,160,55570,1,8,0:0:0:0:
224,160,55720,1,0,0:0:0:0:
224,160,55870,1,0,0:0:0:0:
224,160,55945,1,0,0:0:0:0:
224,160,56020,1,0,0:0:0:0:
224,160,56095,1,0,0:0:0:0:
288,160,56170,1,8,0:0:0:0:
224,160,56320,1,0,0:0:0:0:
224,160,56470,1,0,0:0:0:0:
224,160,56545,1,0,0:0:0:0:
224,160,56620,1,0,0:0:0:0:
224,160,56695,1,0,0:0:0:0:
224,160,56770,1,0,0:0:0:0:
224,160,56920,1,0,0:0:0:0:
288,160,57070,1,8,0:0:0:0:
224,160,57145,1,0,0:0:0:0:
224,160,57220,1,0,0:0:0:0:
224,160,57295,1,0,0:0:0:0:
288,160,57370,1,8,0:0:0:0:
224,160,57445,1,0,0:0:0:0:
288,160,57520,1,8,0:0:0:0:
224,160,57595,1,0,0:0:0:0:
288,160,57670,1,8,0:0:0:0:
288,160,57820,1,8,0:0:0:0:
224,224,57970,1,4,0:0:0:0:
224,160,58420,1,0,0:0:0:0:
288,160,58570,1,8,0:0:0:0:
224,160,58870,1,0,0:0:0:0:
224,160,58970,1,0,0:0:0:0:
224,160,59070,1,0,0:0:0:0:
224,160,59170,1,0,0:0:0:0:
224,160,59470,1,0,0:0:0:0:
224,160,59570,1,0,0:0:0:0:
224,160,59670,1,0,0:0:0:0:
288,160,59770,1,8,0:0:0:0:
288,160,60070,1,8,0:0:0:0:
288,160,60170,1,8,0:0:0:0:
288,160,60270,1,8,0:0:0:0:
224,224,60370,5,4,0:0:0:0:
224,160,60520,1,0,0:0:0:0:
288,160,60670,1,8,0:0:0:0:
288,160,60970,1,8,0:0:0:0:
288,160,61270,1,8,0:0:0:0:
288,160,61420,1,8,0:0:0:0:
224,160,61570,1,0,0:0:0:0:
224,160,61720,1,0,0:0:0:0:
288,160,61870,1,8,0:0:0:0:
288,160,62170,1,8,0:0:0:0:
288,160,62470,1,8,0:0:0:0:
288,160,62620,1,8,0:0:0:0:
224,160,62770,1,0,0:0:0:0:
224,160,62920,1,0,0:0:0:0:
288,160,63070,1,8,0:0:0:0:
288,160,63370,1,8,0:0:0:0:
288,160,63670,1,8,0:0:0:0:
288,160,63820,1,8,0:0:0:0:
224,160,63970,1,0,0:0:0:0:
288,160,64120,1,8,0:0:0:0:
288,160,64270,1,8,0:0:0:0:
224,160,64420,1,0,0:0:0:0:
288,160,64570,1,8,0:0:0:0:
224,224,65170,1,4,0:0:0:0:
224,160,65320,1,0,0:0:0:0:
288,160,65470,1,8,0:0:0:0:
288,160,65770,1,8,0:0:0:0:
288,160,66070,1,8,0:0:0:0:
288,160,66220,1,8,0:0:0:0:
224,160,66370,1,0,0:0:0:0:
224,160,66520,1,0,0:0:0:0:
288,160,66670,1,8,0:0:0:0:
288,160,66970,1,8,0:0:0:0:
288,160,67270,1,8,0:0:0:0:
288,160,67420,1,8,0:0:0:0:
224,160,67570,1,0,0:0:0:0:
224,160,67645,1,0,0:0:0:0:
224,160,67720,1,0,0:0:0:0:
224,160,67795,1,0,0:0:0:0:
288,160,67870,1,8,0:0:0:0:
288,160,68170,1,8,0:0:0:0:
224,160,68245,1,0,0:0:0:0:
224,160,68320,1,0,0:0:0:0:
224,160,68395,1,0,0:0:0:0:
288,160,68470,1,8,0:0:0:0:
288,224,68620,1,12,0:0:0:0:
288,160,68920,1,8,0:0:0:0:
288,160,69070,1,8,0:0:0:0:
224,160,69220,1,0,0:0:0:0:
288,160,69370,1,8,0:0:0:0:
224,160,69520,1,0,0:0:0:0:
288,160,69670,1,8,0:0:0:0:
288,160,69745,1,8,0:0:0:0:
288,160,69820,1,8,0:0:0:0:
288,160,69895,1,8,0:0:0:0:
224,160,69970,1,0,0:0:0:0:
224,160,70045,1,0,0:0:0:0:
224,160,70120,1,0,0:0:0:0:
224,160,70195,1,0,0:0:0:0:
288,160,70270,1,8,0:0:0:0:
224,160,70345,1,0,0:0:0:0:
224,160,70420,1,0,0:0:0:0:
224,160,70495,1,0,0:0:0:0:
288,160,70570,1,8,0:0:0:0:
224,160,70645,1,0,0:0:0:0:
224,160,70720,1,0,0:0:0:0:
224,160,70795,1,0,0:0:0:0:
288,160,70870,1,8,0:0:0:0:
224,160,70945,1,0,0:0:0:0:
288,160,71020,1,8,0:0:0:0:
288,160,71095,1,8,0:0:0:0:
224,160,71170,1,0,0:0:0:0:
224,160,71245,1,0,0:0:0:0:
224,160,71320,1,0,0:0:0:0:
224,160,71395,1,0,0:0:0:0:
288,160,71470,1,8,0:0:0:0:
288,160,71545,1,8,0:0:0:0:
224,160,71620,1,0,0:0:0:0:
224,160,71695,1,0,0:0:0:0:
288,160,71770,1,8,0:0:0:0:
288,160,71845,1,8,0:0:0:0:
224,160,71920,1,0,0:0:0:0:
224,160,71995,1,0,0:0:0:0:
288,160,72070,1,8,0:0:0:0:
224,160,72145,1,0,0:0:0:0:
288,160,72220,1,8,0:0:0:0:
288,160,72295,1,8,0:0:0:0:
288,160,72370,1,8,0:0:0:0:
288,160,72445,1,8,0:0:0:0:
224,160,72520,1,0,0:0:0:0:
224,160,72595,1,0,0:0:0:0:
288,160,72670,1,8,0:0:0:0:
224,160,72745,1,0,0:0:0:0:
224,160,72820,1,0,0:0:0:0:
224,160,72895,1,0,0:0:0:0:
288,160,72970,1,8,0:0:0:0:
224,160,73045,1,0,0:0:0:0:
224,160,73120,1,0,0:0:0:0:
224,160,73195,1,0,0:0:0:0:
288,160,73270,1,8,0:0:0:0:
224,160,73345,1,0,0:0:0:0:
288,160,73420,1,8,0:0:0:0:
288,160,73495,1,8,0:0:0:0:
224,160,73570,1,0,0:0:0:0:
224,160,73645,1,0,0:0:0:0:
288,160,73720,1,8,0:0:0:0:
224,160,73795,1,0,0:0:0:0:
288,160,73870,1,8,0:0:0:0:
224,160,73945,1,0,0:0:0:0:
288,160,74020,1,8,0:0:0:0:
288,160,74095,1,8,0:0:0:0:
224,160,74170,1,0,0:0:0:0:
224,160,74245,1,0,0:0:0:0:
224,160,74320,1,0,0:0:0:0:
224,160,74395,1,0,0:0:0:0:
288,160,74470,1,8,0:0:0:0:
224,160,74620,1,0,0:0:0:0:
288,160,74695,1,8,0:0:0:0:
224,160,74770,1,0,0:0:0:0:
224,160,74845,1,0,0:0:0:0:
224,160,74920,1,0,0:0:0:0:
224,160,74995,1,0,0:0:0:0:
288,160,75070,1,8,0:0:0:0:
224,160,75145,1,0,0:0:0:0:
224,160,75220,1,0,0:0:0:0:
224,160,75295,1,0,0:0:0:0:
288,160,75370,1,8,0:0:0:0:
224,160,75445,1,0,0:0:0:0:
224,160,75520,1,0,0:0:0:0:
224,160,75595,1,0,0:0:0:0:
288,160,75670,1,8,0:0:0:0:
224,160,75745,1,0,0:0:0:0:
288,160,75820,1,8,0:0:0:0:
288,160,75895,1,8,0:0:0:0:
224,160,75970,1,0,0:0:0:0:
224,160,76045,1,0,0:0:0:0:
224,160,76120,1,0,0:0:0:0:
224,160,76195,1,0,0:0:0:0:
288,160,76270,1,8,0:0:0:0:
224,160,76345,1,0,0:0:0:0:
224,160,76420,1,0,0:0:0:0:
224,160,76495,1,0,0:0:0:0:
288,160,76570,1,8,0:0:0:0:
288,160,76645,1,8,0:0:0:0:
288,160,76720,1,8,0:0:0:0:
288,160,76795,1,8,0:0:0:0:
224,160,76870,1,0,0:0:0:0:
224,160,76945,1,0,0:0:0:0:
288,160,77020,1,8,0:0:0:0:
288,160,77170,1,8,0:0:0:0:
288,160,77245,1,8,0:0:0:0:
224,160,77320,1,0,0:0:0:0:
224,160,77395,1,0,0:0:0:0:
288,160,77470,1,8,0:0:0:0:
288,160,77770,1,8,0:0:0:0:
224,160,77845,1,0,0:0:0:0:
224,160,77920,1,0,0:0:0:0:
224,160,77995,1,0,0:0:0:0:
288,160,78070,1,8,0:0:0:0:
224,224,78220,1,4,0:0:0:0:
224,160,78520,1,0,0:0:0:0:
224,160,78595,1,0,0:0:0:0:
288,160,78670,1,8,0:0:0:0:
288,160,78820,1,8,0:0:0:0:
288,160,78895,1,8,0:0:0:0:
288,160,78970,1,8,0:0:0:0:
288,160,79120,1,8,0:0:0:0:
288,160,79195,1,8,0:0:0:0:
224,160,79270,1,0,0:0:0:0:
224,160,79570,5,0,0:0:0:0:
224,160,79645,1,0,0:0:0:0:
224,160,79720,1,0,0:0:0:0:
224,160,79795,1,0,0:0:0:0:
288,160,79870,1,8,0:0:0:0:
224,160,80020,1,0,0:0:0:0:
224,160,80095,1,0,0:0:0:0:
224,160,80170,1,0,0:0:0:0:
224,160,80245,1,0,0:0:0:0:
288,160,80320,1,8,0:0:0:0:
224,160,80470,1,0,0:0:0:0:
224,160,80545,1,0,0:0:0:0:
224,160,80620,1,0,0:0:0:0:
224,160,80695,1,0,0:0:0:0:
288,160,80770,1,8,0:0:0:0:
224,160,80920,1,0,0:0:0:0:
224,160,80995,1,0,0:0:0:0:
224,160,81070,1,0,0:0:0:0:
224,160,81145,1,0,0:0:0:0:
288,160,81220,1,8,0:0:0:0:
224,160,81370,1,0,0:0:0:0:
224,160,81445,1,0,0:0:0:0:
224,160,81520,1,0,0:0:0:0:
224,160,81595,1,0,0:0:0:0:
288,160,81670,1,8,0:0:0:0:
288,160,81970,1,8,0:0:0:0:
288,160,82045,1,8,0:0:0:0:
224,160,82120,1,0,0:0:0:0:
224,160,82195,1,0,0:0:0:0:
288,160,82270,1,8,0:0:0:0:
288,160,82420,1,8,0:0:0:0:
224,160,82495,1,0,0:0:0:0:
224,160,82570,1,0,0:0:0:0:
224,160,82645,1,0,0:0:0:0:
288,160,82720,1,8,0:0:0:0:
288,160,82870,1,8,0:0:0:0:
288,160,82945,1,8,0:0:0:0:
224,160,83020,1,0,0:0:0:0:
224,160,83095,1,0,0:0:0:0:
288,160,83170,1,8,0:0:0:0:
288,160,83320,1,8,0:0:0:0:
224,160,83395,1,0,0:0:0:0:
224,160,83470,1,0,0:0:0:0:
224,160,83545,1,0,0:0:0:0:
288,160,83620,1,8,0:0:0:0:
288,160,83770,1,8,0:0:0:0:
288,160,83845,1,8,0:0:0:0:
224,160,83920,1,0,0:0:0:0:
224,160,83995,1,0,0:0:0:0:
288,160,84070,1,8,0:0:0:0:
224,160,84370,1,0,0:0:0:0:
224,160,84445,1,0,0:0:0:0:
224,160,84520,1,0,0:0:0:0:
224,160,84595,1,0,0:0:0:0:
288,160,84670,1,8,0:0:0:0:
224,160,84820,1,0,0:0:0:0:
288,160,84895,1,8,0:0:0:0:
224,160,84970,1,0,0:0:0:0:
224,160,85045,1,0,0:0:0:0:
288,160,85120,1,8,0:0:0:0:
288,160,85270,1,8,0:0:0:0:
224,160,85345,1,0,0:0:0:0:
224,160,85420,1,0,0:0:0:0:
224,160,85495,1,0,0:0:0:0:
288,160,85570,1,8,0:0:0:0:
224,160,85720,1,0,0:0:0:0:
288,160,85795,1,8,0:0:0:0:
224,160,85870,1,0,0:0:0:0:
224,160,85945,1,0,0:0:0:0:
288,160,86020,1,8,0:0:0:0:
224,160,86170,1,0,0:0:0:0:
224,160,86245,1,0,0:0:0:0:
224,160,86320,1,0,0:0:0:0:
224,160,86395,1,0,0:0:0:0:
288,160,86470,1,8,0:0:0:0:
224,160,86770,1,0,0:0:0:0:
224,160,86845,1,0,0:0:0:0:
224,160,86920,1,0,0:0:0:0:
224,160,86995,1,0,0:0:0:0:
288,160,87070,1,8,0:0:0:0:
288,160,87145,1,8,0:0:0:0:
224,160,87220,1,0,0:0:0:0:
224,160,87295,1,0,0:0:0:0:
224,160,87370,1,0,0:0:0:0:
224,160,87445,1,0,0:0:0:0:
288,160,87520,1,8,0:0:0:0:
288,160,87595,1,8,0:0:0:0:
224,160,87670,1,0,0:0:0:0:
224,160,87745,1,0,0:0:0:0:
224,160,87820,1,0,0:0:0:0:
224,160,87895,1,0,0:0:0:0:
288,160,87970,1,8,0:0:0:0:
224,160,88120,1,0,0:0:0:0:
224,160,88195,1,0,0:0:0:0:
224,160,88270,1,0,0:0:0:0:
224,160,88345,1,0,0:0:0:0:
288,160,88420,1,8,0:0:0:0:
288,160,88570,1,8,0:0:0:0:
288,160,88720,1,8,0:0:0:0:
288,160,88870,1,8,0:0:0:0:
288,160,89020,1,8,0:0:0:0:
288,160,89095,1,8,0:0:0:0:
224,160,89170,5,0,0:0:0:0:
288,224,89470,1,12,0:0:0:0:
224,160,89770,1,0,0:0:0:0:
224,160,89920,1,0,0:0:0:0:
288,160,90070,1,8,0:0:0:0:
224,224,90220,1,4,0:0:0:0:
224,160,90520,1,0,0:0:0:0:
288,160,90670,1,8,0:0:0:0:
288,160,90820,1,8,0:0:0:0:
224,160,90970,1,0,0:0:0:0:
224,160,91120,1,0,0:0:0:0:
288,160,91270,1,8,0:0:0:0:
224,224,91420,1,4,0:0:0:0:
224,160,91720,1,0,0:0:0:0:
288,160,91870,1,8,0:0:0:0:
224,160,92020,1,0,0:0:0:0:
224,160,92170,1,0,0:0:0:0:
224,160,92320,1,0,0:0:0:0:
288,160,92470,1,8,0:0:0:0:
288,224,92620,1,12,0:0:0:0:
224,160,92920,1,0,0:0:0:0:
288,160,93070,1,8,0:0:0:0:
224,160,93220,1,0,0:0:0:0:
224,160,93295,1,0,0:0:0:0:
288,160,93370,1,8,0:0:0:0:
224,160,93520,1,0,0:0:0:0:
224,160,93595,1,0,0:0:0:0:
288,160,93670,1,8,0:0:0:0:
224,160,93820,1,0,0:0:0:0:
224,160,93895,1,0,0:0:0:0:
224,160,93970,1,0,0:0:0:0:
224,160,94120,1,0,0:0:0:0:
288,160,94270,1,8,0:0:0:0:
288,160,94420,1,8,0:0:0:0:
224,160,94570,1,0,0:0:0:0:
224,160,94720,1,0,0:0:0:0:
288,160,94870,1,8,0:0:0:0:
224,224,95020,1,4,0:0:0:0:
288,160,95170,1,8,0:0:0:0:
224,160,95320,1,0,0:0:0:0:
288,160,95470,1,8,0:0:0:0:
288,160,95620,1,8,0:0:0:0:
224,160,95770,1,0,0:0:0:0:
224,160,95845,1,0,0:0:0:0:
224,160,95920,1,0,0:0:0:0:
288,160,96070,1,8,0:0:0:0:
224,224,96220,1,4,0:0:0:0:
224,160,96520,1,0,0:0:0:0:
288,160,96670,1,8,0:0:0:0:
224,160,96820,1,0,0:0:0:0:
288,160,96970,1,8,0:0:0:0:
224,160,97120,1,0,0:0:0:0:
288,160,97270,1,8,0:0:0:0:
288,224,97420,1,12,0:0:0:0:
224,160,97720,1,0,0:0:0:0:
224,160,97795,1,0,0:0:0:0:
288,160,97870,1,8,0:0:0:0:
224,160,97945,1,0,0:0:0:0:
224,160,98020,1,0,0:0:0:0:
224,160,98095,1,0,0:0:0:0:
224,160,98170,1,0,0:0:0:0:
224,160,98245,1,0,0:0:0:0:
224,160,98320,1,0,0:0:0:0:
224,160,98395,1,0,0:0:0:0:
288,160,98470,1,8,0:0:0:0:
224,160,98620,1,0,0:0:0:0:
224,224,98770,1,4,0:0:0:0:
288,160,99070,1,8,0:0:0:0:
224,160,99370,1,0,0:0:0:0:
224,160,99520,1,0,0:0:0:0:
288,160,99670,1,8,0:0:0:0:
224,224,99820,1,4,0:0:0:0:
288,160,99970,1,8,0:0:0:0:
224,160,100120,1,0,0:0:0:0:
288,160,100270,1,8,0:0:0:0:
288,160,100420,1,8,0:0:0:0:
224,160,100720,1,0,0:0:0:0:
288,160,100870,1,8,0:0:0:0:
224,224,101020,1,4,0:0:0:0:
224,160,101320,1,0,0:0:0:0:
288,160,101470,1,8,0:0:0:0:
224,160,101620,1,0,0:0:0:0:
288,160,101770,1,8,0:0:0:0:
224,160,101920,1,0,0:0:0:0:
288,160,102070,1,8,0:0:0:0:
288,224,102220,1,12,0:0:0:0:
224,160,102520,1,0,0:0:0:0:
288,160,102670,1,8,0:0:0:0:
224,160,102820,1,0,0:0:0:0:
224,160,102895,1,0,0:0:0:0:
288,160,102970,1,8,0:0:0:0:
224,160,103120,1,0,0:0:0:0:
224,160,103195,1,0,0:0:0:0:
288,160,103270,1,8,0:0:0:0:
224,160,103420,1,0,0:0:0:0:
224,160,103495,1,0,0:0:0:0:
224,160,103570,1,0,0:0:0:0:
224,160,103720,1,0,0:0:0:0:
288,160,103870,1,8,0:0:0:0:
224,160,104170,1,0,0:0:0:0:
224,160,104320,1,0,0:0:0:0:
288,160,104470,1,8,0:0:0:0:
224,224,104620,1,4,0:0:0:0:
288,160,104770,1,8,0:0:0:0:
224,160,104920,1,0,0:0:0:0:
288,160,105070,1,8,0:0:0:0:
288,160,105220,1,8,0:0:0:0:
224,160,105370,1,0,0:0:0:0:
288,160,105520,1,8,0:0:0:0:
288,160,105670,1,8,0:0:0:0:
224,224,105820,1,4,0:0:0:0:
224,160,106120,1,0,0:0:0:0:
288,160,106270,1,8,0:0:0:0:
224,160,106420,1,0,0:0:0:0:
288,160,106570,1,8,0:0:0:0:
288,160,106645,1,8,0:0:0:0:
224,160,106720,1,0,0:0:0:0:
224,160,106795,1,0,0:0:0:0:
288,160,106870,1,8,0:0:0:0:
224,224,107020,1,4,0:0:0:0:
288,160,107320,1,8,0:0:0:0:
288,160,107470,1,8,0:0:0:0:
224,160,107620,1,0,0:0:0:0:
288,160,107770,1,8,0:0:0:0:
288,160,107845,1,8,0:0:0:0:
224,160,107920,1,0,0:0:0:0:
224,160,107995,1,0,0:0:0:0:
224,160,108070,1,0,0:0:0:0:
224,160,108145,1,0,0:0:0:0:
288,160,108220,1,8,0:0:0:0:
288,160,108295,1,8,0:0:0:0:
224,160,108370,5,0,0:0:0:0:
224,160,108445,1,0,0:0:0:0:
224,160,108520,1,0,0:0:0:0:
224,160,108595,1,0,0:0:0:0:
224,160,108670,1,0,0:0:0:0:
224,160,108745,1,0,0:0:0:0:
224,160,108820,1,0,0:0:0:0:
224,160,108895,1,0,0:0:0:0:
288,160,108970,1,8,0:0:0:0:
224,160,109120,1,0,0:0:0:0:
224,160,109195,1,0,0:0:0:0:
224,160,109270,1,0,0:0:0:0:
224,160,109345,1,0,0:0:0:0:
224,160,109420,1,0,0:0:0:0:
224,160,109495,1,0,0:0:0:0:
224,160,109570,1,0,0:0:0:0:
224,160,109720,1,0,0:0:0:0:
224,160,109795,1,0,0:0:0:0:
224,160,109870,1,0,0:0:0:0:
224,160,109945,1,0,0:0:0:0:
224,160,110020,1,0,0:0:0:0:
224,160,110095,1,0,0:0:0:0:
288,160,110170,1,8,0:0:0:0:
224,160,110320,1,0,0:0:0:0:
224,160,110395,1,0,0:0:0:0:
224,160,110470,1,0,0:0:0:0:
224,160,110545,1,0,0:0:0:0:
288,160,110620,1,8,0:0:0:0:
224,160,110695,1,0,0:0:0:0:
288,160,110770,1,8,0:0:0:0:
224,160,110920,1,0,0:0:0:0:
224,160,110995,1,0,0:0:0:0:
288,160,111070,1,8,0:0:0:0:
224,160,111145,1,0,0:0:0:0:
224,160,111220,1,0,0:0:0:0:
224,160,111295,1,0,0:0:0:0:
288,160,111370,1,8,0:0:0:0:
288,160,111520,1,8,0:0:0:0:
224,160,111595,1,0,0:0:0:0:
288,160,111670,1,8,0:0:0:0:
224,160,111745,1,0,0:0:0:0:
224,160,111820,1,0,0:0:0:0:
224,160,111895,1,0,0:0:0:0:
288,160,111970,1,8,0:0:0:0:
224,160,112120,1,0,0:0:0:0:
224,160,112195,1,0,0:0:0:0:
288,160,112270,1,8,0:0:0:0:
288,160,112345,1,8,0:0:0:0:
224,160,112420,1,0,0:0:0:0:
224,160,112495,1,0,0:0:0:0:
288,160,112570,1,8,0:0:0:0:
224,160,112720,1,0,0:0:0:0:
224,160,112795,1,0,0:0:0:0:
288,160,112870,1,8,0:0:0:0:
288,160,112945,1,8,0:0:0:0:
288,160,113020,1,8,0:0:0:0:
288,160,113095,1,8,0:0:0:0:
224,160,113170,1,0,0:0:0:0:
224,160,113320,1,0,0:0:0:0:
224,160,113395,1,0,0:0:0:0:
224,160,113470,1,0,0:0:0:0:
224,160,113545,1,0,0:0:0:0:
224,160,113620,1,0,0:0:0:0:
224,160,113695,1,0,0:0:0:0:
288,160,113770,1,8,0:0:0:0:
288,160,113920,1,8,0:0:0:0:
288,160,113995,1,8,0:0:0:0:
224,160,114070,1,0,0:0:0:0:
224,160,114145,1,0,0:0:0:0:
224,160,114220,1,0,0:0:0:0:
224,160,114295,1,0,0:0:0:0:
288,160,114370,1,8,0:0:0:0:
224,160,114520,1,0,0:0:0:0:
224,160,114595,1,0,0:0:0:0:
288,160,114670,1,8,0:0:0:0:
288,160,114745,1,8,0:0:0:0:
224,160,114820,1,0,0:0:0:0:
224,160,114895,1,0,0:0:0:0:
288,160,114970,1,8,0:0:0:0:
288,160,115045,1,8,0:0:0:0:
288,160,115120,1,8,0:0:0:0:
288,160,115195,1,8,0:0:0:0:
224,160,115270,1,0,0:0:0:0:
224,160,115345,1,0,0:0:0:0:
224,160,115420,1,0,0:0:0:0:
224,160,115495,1,0,0:0:0:0:
224,160,115570,1,0,0:0:0:0:
224,160,116020,1,0,0:0:0:0:
288,160,116170,1,8,0:0:0:0:
224,160,116470,1,0,0:0:0:0:
224,160,116570,1,0,0:0:0:0:
224,160,116670,1,0,0:0:0:0:
288,160,116770,1,8,0:0:0:0:
224,160,116970,1,0,0:0:0:0:
288,160,117170,1,8,0:0:0:0:
288,160,117370,1,8,0:0:0:0:
224,160,117570,1,0,0:0:0:0:
288,160,117770,1,8,0:0:0:0:
224,224,117970,5,4,0:0:0:0:
224,160,118120,1,0,0:0:0:0:
288,160,118270,1,8,0:0:0:0:
288,160,118570,1,8,0:0:0:0:
288,160,118870,1,8,0:0:0:0:
288,160,119020,1,8,0:0:0:0:
224,160,119170,1,0,0:0:0:0:
224,160,119320,1,0,0:0:0:0:
288,160,119470,1,8,0:0:0:0:
288,160,119770,1,8,0:0:0:0:
288,160,120070,1,8,0:0:0:0:
288,160,120220,1,8,0:0:0:0:
224,160,120370,1,0,0:0:0:0:
224,160,120520,1,0,0:0:0:0:
288,160,120670,1,8,0:0:0:0:
288,160,120970,1,8,0:0:0:0:
288,160,121270,1,8,0:0:0:0:
288,160,121420,1,8,0:0:0:0:
224,160,121570,1,0,0:0:0:0:
288,160,121720,1,8,0:0:0:0:
288,160,121870,1,8,0:0:0:0:
224,160,122020,1,0,0:0:0:0:
288,160,122170,1,8,0:0:0:0:
224,224,122770,1,4,0:0:0:0:
224,160,122920,1,0,0:0:0:0:
288,160,123070,1,8,0:0:0:0:
288,160,123370,1,8,0:0:0:0:
288,160,123670,1,8,0:0:0:0:
288,160,123820,1,8,0:0:0:0:
224,160,123970,1,0,0:0:0:0:
224,160,124120,1,0,0:0:0:0:
288,160,124270,1,8,0:0:0:0:
288,160,124570,1,8,0:0:0:0:
288,160,124870,1,8,0:0:0:0:
288,160,125020,1,8,0:0:0:0:
224,160,125170,1,0,0:0:0:0:
224,160,125245,1,0,0:0:0:0:
224,160,125320,1,0,0:0:0:0:
224,160,125395,1,0,0:0:0:0:
288,160,125470,1,8,0:0:0:0:
288,160,125770,1,8,0:0:0:0:
224,160,125845,1,0,0:0:0:0:
224,160,125920,1,0,0:0:0:0:
224,160,125995,1,0,0:0:0:0:
288,160,126070,1,8,0:0:0:0:
288,224,126220,1,12,0:0:0:0:
288,160,126520,1,8,0:0:0:0:
288,160,126670,1,8,0:0:0:0:
224,160,126820,1,0,0:0:0:0:
288,160,126970,1,8,0:0:0:0:
224,160,127120,1,0,0:0:0:0:
288,160,127270,1,8,0:0:0:0:
288,160,127345,1,8,0:0:0:0:
288,160,127420,1,8,0:0:0:0:
288,160,127495,1,8,0:0:0:0:
224,160,127570,1,0,0:0:0:0:
224,160,127645,1,0,0:0:0:0:
224,160,127720,1,0,0:0:0:0:
224,160,127795,1,0,0:0:0:0:
288,160,127870,1,8,0:0:0:0:
224,160,127945,1,0,0:0:0:0:
224,160,128020,1,0,0:0:0:0:
224,160,128095,1,0,0:0:0:0:
288,160,128170,1,8,0:0:0:0:
224,160,128245,1,0,0:0:0:0:
224,160,128320,1,0,0:0:0:0:
224,160,128395,1,0,0:0:0:0:
288,160,128470,1,8,0:0:0:0:
224,160,128545,1,0,0:0:0:0:
288,160,128620,1,8,0:0:0:0:
288,160,128695,1,8,0:0:0:0:
224,160,128770,1,0,0:0:0:0:
224,160,128845,1,0,0:0:0:0:
224,160,128920,1,0,0:0:0:0:
224,160,128995,1,0,0:0:0:0:
288,160,129070,1,8,0:0:0:0:
288,160,129145,1,8,0:0:0:0:
224,160,129220,1,0,0:0:0:0:
224,160,129295,1,0,0:0:0:0:
288,160,129370,1,8,0:0:0:0:
288,160,129445,1,8,0:0:0:0:
224,160,129520,1,0,0:0:0:0:
224,160,129595,1,0,0:0:0:0:
288,160,129670,1,8,0:0:0:0:
224,160,129745,1,0,0:0:0:0:
288,160,129820,1,8,0:0:0:0:
288,160,129895,1,8,0:0:0:0:
288,160,129970,1,8,0:0:0:0:
288,160,130045,1,8,0:0:0:0:
224,160,130120,1,0,0:0:0:0:
224,160,130195,1,0,0:0:0:0:
288,160,130270,1,8,0:0:0:0:
224,160,130345,1,0,0:0:0:0:
224,160,130420,1,0,0:0:0:0:
224,160,130495,1,0,0:0:0:0:
288,160,130570,1,8,0:0:0:0:
224,160,130645,1,0,0:0:0:0:
224,160,130720,1,0,0:0:0:0:
224,160,130795,1,0,0:0:0:0:
288,160,130870,1,8,0:0:0:0:
224,160,130945,1,0,0:0:0:0:
288,160,131020,1,8,0:0:0:0:
288,160,131095,1,8,0:0:0:0:
224,160,131170,1,0,0:0:0:0:
224,160,131245,1,0,0:0:0:0:
288,160,131320,1,8,0:0:0:0:
224,160,131395,1,0,0:0:0:0:
288,160,131470,1,8,0:0:0:0:
224,160,131545,1,0,0:0:0:0:
288,160,131620,1,8,0:0:0:0:
224,160,131695,1,0,0:0:0:0:
288,160,131770,1,8,0:0:0:0:
224,160,131845,1,0,0:0:0:0:
224,160,131920,1,0,0:0:0:0:
288,160,131995,1,8,0:0:0:0:
224,160,132070,1,0,0:0:0:0:
224,160,132145,1,0,0:0:0:0:
288,160,132220,1,8,0:0:0:0:
224,224,132370,1,4,0:0:0:0:
288,160,132670,1,8,0:0:0:0:
288,160,132970,1,8,0:0:0:0:
288,160,133270,1,8,0:0:0:0:
288,160,133570,1,8,0:0:0:0:
288,160,133870,1,8,0:0:0:0:
288,224,134170,1,12,0:0:0:0:
288,160,134620,1,8,0:0:0:0:
224,224,134770,5,4,0:0:0:0:
224,160,135670,1,0,0:0:0:0:
288,160,135970,1,8,0:0:0:0:
224,160,136870,1,0,0:0:0:0:
288,224,137170,1,12,0:0:0:0:
224,160,137470,1,0,0:0:0:0:
224,160,138070,1,0,0:0:0:0:
224,160,138170,1,0,0:0:0:0:
224,160,138270,1,0,0:0:0:0:
288,160,138370,1,8,0:0:0:0:
224,160,138970,1,0,0:0:0:0:
224,160,139070,1,0,0:0:0:0:
224,160,139170,1,0,0:0:0:0:
224,160,139270,1,0,0:0:0:0:
224,160,139370,1,0,0:0:0:0:
224,160,139470,1,0,0:0:0:0:
288,224,139570,1,12,0:0:0:0:
224,160,140470,1,0,0:0:0:0:
224,160,140620,1,0,0:0:0:0:
288,160,140770,1,8,0:0:0:0:
224,160,141070,1,0,0:0:0:0:
224,160,141520,1,0,0:0:0:0:
288,224,141970,1,12,0:0:0:0:
224,160,142270,1,0,0:0:0:0:
224,160,142345,1,0,0:0:0:0:
224,160,142420,1,0,0:0:0:0:
224,160,142495,1,0,0:0:0:0:
288,160,142570,1,8,0:0:0:0:
224,160,142870,1,0,0:0:0:0:
288,160,143020,1,8,0:0:0:0:
224,160,143170,1,0,0:0:0:0:
224,160,143245,1,0,0:0:0:0:
224,160,143320,1,0,0:0:0:0:
224,160,143395,1,0,0:0:0:0:
288,160,143470,1,8,0:0:0:0:
288,160,143620,1,8,0:0:0:0:
288,160,143770,1,8,0:0:0:0:
288,160,143845,1,8,0:0:0:0:
224,160,143920,1,0,0:0:0:0:
224,160,143995,1,0,0:0:0:0:
288,160,144070,1,8,0:0:0:0:
288,160,144370,5,8,0:0:0:0:
224,160,144445,1,0,0:0:0:0:
224,160,144520,1,0,0:0:0:0:
224,160,144595,1,0,0:0:0:0:
288,160,144670,1,8,0:0:0:0:
288,160,144820,1,8,0:0:0:0:
288,160,145270,1,8,0:0:0:0:
224,160,145345,1,0,0:0:0:0:
224,160,145420,1,0,0:0:0:0:
224,160,145495,1,0,0:0:0:0:
288,160,145570,1,8,0:0:0:0:
288,160,145720,1,8,0:0:0:0:
288,160,146170,1,8,0:0:0:0:
224,160,146245,1,0,0:0:0:0:
224,160,146320,1,0,0:0:0:0:
224,160,146395,1,0,0:0:0:0:
288,160,146470,1,8,0:0:0:0:
288,160,146620,1,8,0:0:0:0:
288,160,146770,1,8,0:0:0:0:
288,160,146845,1,8,0:0:0:0:
288,160,146920,1,8,0:0:0:0:
288,160,146995,1,8,0:0:0:0:
288,160,147070,1,8,0:0:0:0:
288,160,147220,1,8,0:0:0:0:
288,160,147670,1,8,0:0:0:0:
288,160,147745,1,8,0:0:0:0:
224,160,147820,1,0,0:0:0:0:
224,160,147895,1,0,0:0:0:0:
288,160,147970,1,8,0:0:0:0:
288,160,148120,1,8,0:0:0:0:
288,160,148570,1,8,0:0:0:0:
288,160,148645,1,8,0:0:0:0:
288,160,148720,1,8,0:0:0:0:
288,160,148870,1,8,0:0:0:0:
288,160,149020,1,8,0:0:0:0:
224,160,149170,1,0,0:0:0:0:
224,160,149245,1,0,0:0:0:0:
224,160,149320,1,0,0:0:0:0:
224,160,149470,1,0,0:0:0:0:
224,160,149620,1,0,0:0:0:0:
288,160,149770,1,8,0:0:0:0:
224,160,150070,1,0,0:0:0:0:
224,160,150145,1,0,0:0:0:0:
224,160,150220,1,0,0:0:0:0:
224,160,150370,1,0,0:0:0:0:
224,160,150520,1,0,0:0:0:0:
224,160,150670,1,0,0:0:0:0:
288,160,150970,1,8,0:0:0:0:
288,160,151045,1,8,0:0:0:0:
224,160,151120,1,0,0:0:0:0:
224,160,151270,1,0,0:0:0:0:
224,160,151420,1,0,0:0:0:0:
224,160,151570,1,0,0:0:0:0:
224,160,151645,1,0,0:0:0:0:
224,160,151720,1,0,0:0:0:0:
224,160,151870,1,0,0:0:0:0:
224,160,152020,1,0,0:0:0:0:
288,160,152170,1,8,0:0:0:0:
224,160,152470,1,0,0:0:0:0:
224,160,152545,1,0,0:0:0:0:
224,160,152620,1,0,0:0:0:0:
224,160,152770,1,0,0:0:0:0:
224,160,152920,1,0,0:0:0:0:
224,160,153070,1,0,0:0:0:0:
288,160,153370,1,8,0:0:0:0:
224,160,153520,1,0,0:0:0:0:
288,160,153670,1,8,0:0:0:0:
224,160,153745,1,0,0:0:0:0:
224,160,153820,1,0,0:0:0:0:
224,160,153895,1,0,0:0:0:0:
288,160,153970,1,8,0:0:0:0:
224,160,154120,1,0,0:0:0:0:
224,160,154270,1,0,0:0:0:0:
224,160,154420,1,0,0:0:0:0:
288,224,154570,1,12,0:0:0:0:
288,224,154870,1,12,0:0:0:0:
224,160,155020,1,0,0:0:0:0:
224,160,155095,1,0,0:0:0:0:
224,160,155170,1,0,0:0:0:0:
224,160,155320,1,0,0:0:0:0:
224,160,155470,1,0,0:0:0:0:
288,224,155770,1,12,0:0:0:0:
224,160,155920,1,0,0:0:0:0:
288,224,156070,1,12,0:0:0:0:
288,160,156220,1,8,0:0:0:0:
224,160,156370,1,0,0:0:0:0:
224,160,156445,1,0,0:0:0:0:
224,160,156520,1,0,0:0:0:0:
224,160,156670,1,0,0:0:0:0:
224,160,156820,1,0,0:0:0:0:
288,224,156970,1,12,0:0:0:0:
224,160,157120,1,0,0:0:0:0:
288,224,157270,1,12,0:0:0:0:
224,160,157420,1,0,0:0:0:0:
224,160,157495,1,0,0:0:0:0:
224,160,157570,1,0,0:0:0:0:
224,160,157720,1,0,0:0:0:0:
224,160,157870,1,0,0:0:0:0:
288,224,158170,1,12,0:0:0:0:
224,160,158320,1,0,0:0:0:0:
288,224,158470,1,12,0:0:0:0:
224,160,158620,1,0,0:0:0:0:
224,160,158770,1,0,0:0:0:0:
224,160,158845,1,0,0:0:0:0:
224,160,158920,1,0,0:0:0:0:
224,160,159070,1,0,0:0:0:0:
224,160,159220,1,0,0:0:0:0:
288,224,159370,1,12,0:0:0:0:
288,224,159670,1,12,0:0:0:0:
224,160,159820,1,0,0:0:0:0:
224,160,159895,1,0,0:0:0:0:
224,160,159970,1,0,0:0:0:0:
224,160,160120,1,0,0:0:0:0:
288,224,160570,1,12,0:0:0:0:
224,160,160720,1,0,0:0:0:0:
288,224,160870,1,12,0:0:0:0:
288,160,161020,1,8,0:0:0:0:
224,160,161170,1,0,0:0:0:0:
224,160,161245,1,0,0:0:0:0:
224,160,161320,1,0,0:0:0:0:
224,160,161470,1,0,0:0:0:0:
224,160,161545,1,0,0:0:0:0:
224,160,161620,1,0,0:0:0:0:
288,160,161770,1,8,0:0:0:0:
288,160,161845,1,8,0:0:0:0:
288,160,161920,1,8,0:0:0:0:
288,160,162070,1,8,0:0:0:0:
288,160,162145,1,8,0:0:0:0:
288,160,162220,1,8,0:0:0:0:
288,160,162370,1,8,0:0:0:0:
224,160,162445,1,0,0:0:0:0:
224,160,162520,1,0,0:0:0:0:
288,160,162670,1,8,0:0:0:0:
288,160,162745,1,8,0:0:0:0:
224,160,162820,1,0,0:0:0:0:
288,160,162970,1,8,0:0:0:0:
224,160,163120,1,0,0:0:0:0:
224,160,163270,1,0,0:0:0:0:
224,160,163420,1,0,0:0:0:0:
288,224,163570,1,12,0:0:0:0:
288,160,164770,1,8,0:0:0:0:
288,160,164845,1,8,0:0:0:0:
224,160,164920,1,0,0:0:0:0:
224,160,164995,1,0,0:0:0:0:
288,160,165070,1,8,0:0:0:0:
288,160,165145,1,8,0:0:0:0:
224,160,165220,1,0,0:0:0:0:
224,160,165295,1,0,0:0:0:0:
288,160,165370,1,8,0:0:0:0:
288,160,165445,1,8,0:0:0:0:
224,160,165520,1,0,0:0:0:0:
288,224,165670,1,12,0:0:0:0:
288,160,165970,1,8,0:0:0:0:
288,160,166045,1,8,0:0:0:0:
288,160,166120,1,8,0:0:0:0:
288,160,166195,1,8,0:0:0:0:
224,160,166270,1,0,0:0:0:0:
288,160,166570,1,8,0:0:0:0:
288,160,166645,1,8,0:0:0:0:
224,160,166720,1,0,0:0:0:0:
288,224,167020,1,12,0:0:0:0:
224,160,167320,1,0,0:0:0:0:
288,160,167470,1,8,0:0:0:0:
224,160,167620,1,0,0:0:0:0:
224,160,167695,1,0,0:0:0:0:
288,160,167770,1,8,0:0:0:0:
288,160,167845,1,8,0:0:0:0:
224,160,167920,1,0,0:0:0:0:
224,160,167995,1,0,0:0:0:0:
288,160,168070,1,8,0:0:0:0:
288,160,168370,5,8,0:0:0:0:
224,160,168445,1,0,0:0:0:0:
224,160,168520,1,0,0:0:0:0:
224,160,168595,1,0,0:0:0:0:
288,160,168670,1,8,0:0:0:0:
288,160,168745,1,8,0:0:0:0:
224,160,168820,1,0,0:0:0:0:
224,160,168895,1,0,0:0:0:0:
288,160,168970,1,8,0:0:0:0:
224,160,169045,1,0,0:0:0:0:
224,160,169120,1,0,0:0:0:0:
224,160,169195,1,0,0:0:0:0:
288,160,169270,1,8,0:0:0:0:
224,160,169345,1,0,0:0:0:0:
288,160,169420,1,8,0:0:0:0:
288,160,169495,1,8,0:0:0:0:
224,160,169570,1,0,0:0:0:0:
224,160,169645,1,0,0:0:0:0:
224,160,169720,1,0,0:0:0:0:
224,160,169795,1,0,0:0:0:0:
288,160,169870,1,8,0:0:0:0:
288,160,169945,1,8,0:0:0:0:
224,160,170020,1,0,0:0:0:0:
224,160,170095,1,0,0:0:0:0:
288,160,170170,1,8,0:0:0:0:
224,160,170245,1,0,0:0:0:0:
224,160,170320,1,0,0:0:0:0:
224,160,170395,1,0,0:0:0:0:
288,160,170470,1,8,0:0:0:0:
224,160,170545,1,0,0:0:0:0:
288,160,170620,1,8,0:0:0:0:
288,160,170695,1,8,0:0:0:0:
288,160,170770,1,8,0:0:0:0:
288,160,170845,1,8,0:0:0:0:
224,160,170920,1,0,0:0:0:0:
224,160,170995,1,0,0:0:0:0:
288,160,171070,1,8,0:0:0:0:
288,160,171145,1,8,0:0:0:0:
288,160,171220,1,8,0:0:0:0:
224,160,171295,1,0,0:0:0:0:
288,160,171370,1,8,0:0:0:0:
224,160,171445,1,0,0:0:0:0:
224,160,171520,1,0,0:0:0:0:
224,160,171595,1,0,0:0:0:0:
288,160,171670,1,8,0:0:0:0:
224,160,171745,1,0,0:0:0:0:
288,160,171820,1,8,0:0:0:0:
288,160,171895,1,8,0:0:0:0:
224,160,171970,1,0,0:0:0:0:
224,160,172045,1,0,0:0:0:0:
288,160,172120,1,8,0:0:0:0:
224,160,172195,1,0,0:0:0:0:
288,160,172270,1,8,0:0:0:0:
224,160,172345,1,0,0:0:0:0:
288,160,172420,1,8,0:0:0:0:
288,160,172495,1,8,0:0:0:0:
288,160,172570,1,8,0:0:0:0:
224,160,172645,1,0,0:0:0:0:
224,160,172720,1,0,0:0:0:0:
224,160,172795,1,0,0:0:0:0:
288,160,172870,1,8,0:0:0:0:
224,160,172945,1,0,0:0:0:0:
224,160,173020,1,0,0:0:0:0:
224,160,173095,1,0,0:0:0:0:
288,160,173170,1,8,0:0:0:0:
288,160,173245,1,8,0:0:0:0:
224,160,173320,1,0,0:0:0:0:
224,160,173395,1,0,0:0:0:0:
288,160,173470,1,8,0:0:0:0:
224,160,173545,1,0,0:0:0:0:
224,160,173620,1,0,0:0:0:0:
224,160,173695,1,0,0:0:0:0:
288,160,173770,1,8,0:0:0:0:
288,160,173845,1,8,0:0:0:0:
224,160,173920,1,0,0:0:0:0:
224,160,173995,1,0,0:0:0:0:
288,160,174070,1,8,0:0:0:0:
224,160,174145,1,0,0:0:0:0:
288,160,174220,1,8,0:0:0:0:
288,160,174295,1,8,0:0:0:0:
224,160,174370,1,0,0:0:0:0:
224,160,174445,1,0,0:0:0:0:
288,160,174520,1,8,0:0:0:0:
224,160,174595,1,0,0:0:0:0:
288,160,174670,1,8,0:0:0:0:
224,160,174745,1,0,0:0:0:0:
224,160,174820,1,0,0:0:0:0:
224,160,174895,1,0,0:0:0:0:
288,160,174970,1,8,0:0:0:0:
288,160,175045,1,8,0:0:0:0:
288,160,175120,1,8,0:0:0:0:
288,160,175195,1,8,0:0:0:0:
224,160,175270,1,0,0:0:0:0:
224,160,175345,1,0,0:0:0:0:
288,160,175420,1,8,0:0:0:0:
224,160,175495,1,0,0:0:0:0:
288,160,175570,1,8,0:0:0:0:
288,160,175645,1,8,0:0:0:0:
288,160,175720,1,8,0:0:0:0:
288,160,175795,1,8,0:0:0:0:
224,160,175870,1,0,0:0:0:0:
288,160,176170,1,8,0:0:0:0:
288,160,176245,1,8,0:0:0:0:
224,160,176320,1,0,0:0:0:0:
288,224,176620,1,12,0:0:0:0:
224,160,176920,1,0,0:0:0:0:
224,160,176995,1,0,0:0:0:0:
288,160,177070,1,8,0:0:0:0:
288,160,177145,1,8,0:0:0:0:
288,160,177220,1,8,0:0:0:0:
288,160,177295,1,8,0:0:0:0:
224,160,177370,1,0,0:0:0:0:
224,160,177445,1,0,0:0:0:0:
224,160,177520,1,0,0:0:0:0:
224,160,177595,1,0,0:0:0:0:
288,160,177670,1,8,0:0:0:0:
288,160,177745,1,8,0:0:0:0:
288,160,177820,1,8,0:0:0:0:
288,160,177895,1,8,0:0:0:0:
224,160,177970,1,0,0:0:0:0:
224,160,178120,1,0,0:0:0:0:
288,160,178270,1,8,0:0:0:0:
288,160,178570,1,8,0:0:0:0:
288,160,178870,1,8,0:0:0:0:
288,160,179020,1,8,0:0:0:0:
224,160,179170,1,0,0:0:0:0:
224,160,179320,1,0,0:0:0:0:
288,160,179470,1,8,0:0:0:0:
288,160,179770,1,8,0:0:0:0:
288,160,180070,1,8,0:0:0:0:
288,160,180220,1,8,0:0:0:0:
224,160,180370,1,0,0:0:0:0:
224,160,180520,1,0,0:0:0:0:
288,160,180670,1,8,0:0:0:0:
288,160,180970,1,8,0:0:0:0:
288,160,181270,1,8,0:0:0:0:
288,160,181420,1,8,0:0:0:0:
224,160,181570,1,0,0:0:0:0:
288,160,181720,1,8,0:0:0:0:
288,160,181870,1,8,0:0:0:0:
224,160,182020,1,0,0:0:0:0:
224,160,182095,1,0,0:0:0:0:
288,160,182170,1,8,0:0:0:0:
224,160,182245,1,0,0:0:0:0:
224,160,182320,1,0,0:0:0:0:
288,160,182395,1,8,0:0:0:0:
224,160,182470,1,0,0:0:0:0:
224,160,182545,1,0,0:0:0:0:
288,160,182620,1,8,0:0:0:0:
288,160,182695,1,8,0:0:0:0:
224,160,182770,1,0,0:0:0:0:
224,160,182845,1,0,0:0:0:0:
224,160,182920,1,0,0:0:0:0:
224,160,182995,1,0,0:0:0:0:
288,160,183070,1,8,0:0:0:0:
224,160,183145,1,0,0:0:0:0:
224,160,183220,1,0,0:0:0:0:
224,160,183295,1,0,0:0:0:0:
288,160,183370,1,8,0:0:0:0:
224,160,183445,1,0,0:0:0:0:
224,160,183520,1,0,0:0:0:0:
224,160,183595,1,0,0:0:0:0:
288,160,183670,1,8,0:0:0:0:
224,160,183745,1,0,0:0:0:0:
288,160,183820,1,8,0:0:0:0:
288,160,183895,1,8,0:0:0:0:
224,160,183970,1,0,0:0:0:0:
224,160,184045,1,0,0:0:0:0:
224,160,184120,1,0,0:0:0:0:
224,160,184195,1,0,0:0:0:0:
288,160,184270,1,8,0:0:0:0:
224,160,184345,1,0,0:0:0:0:
224,160,184420,1,0,0:0:0:0:
288,224,184570,1,12,0:0:0:0:
288,224,184720,1,12,0:0:0:0:
224,160,185170,5,0,0:0:0:0:
224,160,185245,1,0,0:0:0:0:
224,160,185320,1,0,0:0:0:0:
224,160,185395,1,0,0:0:0:0:
288,160,185470,1,8,0:0:0:0:
288,160,185620,1,8,0:0:0:0:
224,160,185695,1,0,0:0:0:0:
224,160,185770,1,0,0:0:0:0:
224,160,185845,1,0,0:0:0:0:
288,160,185920,1,8,0:0:0:0:
288,160,186070,1,8,0:0:0:0:
288,160,186145,1,8,0:0:0:0:
224,160,186220,1,0,0:0:0:0:
224,160,186295,1,0,0:0:0:0:
288,160,186370,1,8,0:0:0:0:
288,160,186520,1,8,0:0:0:0:
224,160,186595,1,0,0:0:0:0:
224,160,186670,1,0,0:0:0:0:
224,160,186745,1,0,0:0:0:0:
288,160,186820,1,8,0:0:0:0:
224,160,186970,1,0,0:0:0:0:
224,160,187045,1,0,0:0:0:0:
224,160,187120,1,0,0:0:0:0:
224,160,187195,1,0,0:0:0:0:
288,160,187270,1,8,0:0:0:0:
288,160,187570,1,8,0:0:0:0:
224,160,187645,1,0,0:0:0:0:
224,160,187720,1,0,0:0:0:0:
224,160,187795,1,0,0:0:0:0:
288,160,187870,1,8,0:0:0:0:
288,160,188020,1,8,0:0:0:0:
288,160,188095,1,8,0:0:0:0:
224,160,188170,1,0,0:0:0:0:
224,160,188245,1,0,0:0:0:0:
288,160,188320,1,8,0:0:0:0:
288,160,188470,1,8,0:0:0:0:
224,160,188545,1,0,0:0:0:0:
224,160,188620,1,0,0:0:0:0:
288,160,188695,1,8,0:0:0:0:
288,160,188770,1,8,0:0:0:0:
288,160,188920,1,8,0:0:0:0:
288,160,188995,1,8,0:0:0:0:
224,160,189070,1,0,0:0:0:0:
224,160,189145,1,0,0:0:0:0:
288,160,189220,1,8,0:0:0:0:
288,160,189370,1,8,0:0:0:0:
224,160,189445,1,0,0:0:0:0:
224,160,189520,1,0,0:0:0:0:
224,160,189595,1,0,0:0:0:0:
288,160,189670,1,8,0:0:0:0:
288,160,189745,1,8,0:0:0:0:
288,160,189820,1,8,0:0:0:0:
288,160,189895,1,8,0:0:0:0:
224,160,189970,1,0,0:0:0:0:
224,160,190045,1,0,0:0:0:0:
224,160,190120,1,0,0:0:0:0:
224,160,190195,1,0,0:0:0:0:
288,160,190270,1,8,0:0:0:0:
224,160,190420,1,0,0:0:0:0:
288,160,190495,1,8,0:0:0:0:
224,160,190570,1,0,0:0:0:0:
224,160,190645,1,0,0:0:0:0:
288,160,190720,1,8,0:0:0:0:
288,160,190870,1,8,0:0:0:0:
288,160,190945,1,8,0:0:0:0:
224,160,191020,1,0,0:0:0:0:
224,160,191095,1,0,0:0:0:0:
288,160,191170,1,8,0:0:0:0:
224,160,191320,1,0,0:0:0:0:
288,160,191395,1,8,0:0:0:0:
224,160,191470,1,0,0:0:0:0:
224,160,191545,1,0,0:0:0:0:
288,160,191620,1,8,0:0:0:0:
224,160,191770,1,0,0:0:0:0:
224,160,191845,1,0,0:0:0:0:
224,160,191920,1,0,0:0:0:0:
224,160,191995,1,0,0:0:0:0:
288,160,192070,1,8,0:0:0:0:
288,160,192220,1,8,0:0:0:0:
288,160,192295,1,8,0:0:0:0:
224,160,192370,1,0,0:0:0:0:
224,160,192445,1,0,0:0:0:0:
224,160,192520,1,0,0:0:0:0:
224,160,192595,1,0,0:0:0:0:
288,160,192670,1,8,0:0:0:0:
224,160,192820,1,0,0:0:0:0:
224,160,192895,1,0,0:0:0:0:
288,160,192970,1,8,0:0:0:0:
224,160,193120,1,0,0:0:0:0:
224,160,193195,1,0,0:0:0:0:
288,160,193270,1,8,0:0:0:0:
224,160,193420,1,0,0:0:0:0:
224,160,193495,1,0,0:0:0:0:
288,160,193570,1,8,0:0:0:0:
288,160,193645,1,8,0:0:0:0:
224,160,193720,1,0,0:0:0:0:
224,160,193795,1,0,0:0:0:0:
288,160,193870,1,8,0:0:0:0:
224,160,193945,1,0,0:0:0:0:
288,160,194020,1,8,0:0:0:0:
224,160,194095,1,0,0:0:0:0:
288,160,194170,1,8,0:0:0:0:
224,160,194245,1,0,0:0:0:0:
288,160,194320,1,8,0:0:0:0:
224,160,194395,1,0,0:0:0:0:
288,160,194470,1,8,0:0:0:0:
288,160,194545,1,8,0:0:0:0:
288,160,194620,1,8,0:0:0:0:
288,160,194695,1,8,0:0:0:0:
224,160,194770,1,0,0:0:0:0:
224,160,194845,1,0,0:0:0:0:
224,160,194920,1,0,0:0:0:0:
224,160,194995,1,0,0:0:0:0:
288,160,195070,1,8,0:0:0:0:
288,160,195145,1,8,0:0:0:0:
224,160,195220,1,0,0:0:0:0:
224,160,195295,1,0,0:0:0:0:
224,160,195370,1,0,0:0:0:0:
224,160,195445,1,0,0:0:0:0:
288,160,195520,1,8,0:0:0:0:
288,160,195595,1,8,0:0:0:0:
224,160,195670,1,0,0:0:0:0:
224,160,195745,1,0,0:0:0:0:
224,160,195820,1,0,0:0:0:0:
224,160,195895,1,0,0:0:0:0:
288,160,195970,1,8,0:0:0:0:
288,160,196045,1,8,0:0:0:0:
224,160,196120,1,0,0:0:0:0:
224,160,196195,1,0,0:0:0:0:
224,160,196270,1,0,0:0:0:0:
224,160,196345,1,0,0:0:0:0:
288,160,196420,1,8,0:0:0:0:
288,160,196495,1,8,0:0:0:0:
224,160,196570,1,0,0:0:0:0:
224,160,196645,1,0,0:0:0:0:
224,160,196720,1,0,0:0:0:0:
224,160,196795,1,0,0:0:0:0:
288,160,196870,1,8,0:0:0:0:
288,160,196945,1,8,0:0:0:0:
288,160,197020,1,8,0:0:0:0:
224,160,197170,1,0,0:0:0:0:
224,160,197245,1,0,0:0:0:0:
288,160,197320,1,8,0:0:0:0:
224,160,197395,1,0,0:0:0:0:
288,160,197470,1,8,0:0:0:0:
288,160,197545,1,8,0:0:0:0:
224,160,197620,1,0,0:0:0:0:
224,160,197695,1,0,0:0:0:0:
288,160,197770,1,8,0:0:0:0:
224,160,197845,1,0,0:0:0:0:
288,160,197920,1,8,0:0:0:0:
288,160,197995,1,8,0:0:0:0:
224,160,198070,1,0,0:0:0:0:
224,160,198145,1,0,0:0:0:0:
288,160,198220,1,8,0:0:0:0:
224,160,198295,1,0,0:0:0:0:
288,160,198370,1,8,0:0:0:0:
288,160,198445,1,8,0:0:0:0:
224,160,198520,1,0,0:0:0:0:
224,160,198595,1,0,0:0:0:0:
288,160,198670,1,8,0:0:0:0:
224,160,198745,1,0,0:0:0:0:
288,160,198820,1,8,0:0:0:0:
288,160,198895,1,8,0:0:0:0:
224,160,198970,1,0,0:0:0:0:
224,160,199045,1,0,0:0:0:0:
288,160,199120,1,8,0:0:0:0:
224,160,199195,1,0,0:0:0:0:
288,160,199270,1,8,0:0:0:0:
288,160,199345,1,8,0:0:0:0:
288,160,199420,1,8,0:0:0:0:
224,160,199570,1,0,0:0:0:0:
288,160,199645,1,8,0:0:0:0:
224,160,199720,1,0,0:0:0:0:
224,160,199795,1,0,0:0:0:0:
288,160,199870,1,8,0:0:0:0:
288,160,199945,1,8,0:0:0:0:
224,160,200020,1,0,0:0:0:0:
288,160,200095,1,8,0:0:0:0:
224,160,200170,1,0,0:0:0:0:
224,160,200245,1,0,0:0:0:0:
288,160,200320,1,8,0:0:0:0:
288,160,200395,1,8,0:0:0:0:
224,160,200470,1,0,0:0:0:0:
288,160,200545,1,8,0:0:0:0:
224,160,200620,1,0,0:0:0:0:
224,160,200695,1,0,0:0:0:0:
288,160,200770,1,8,0:0:0:0:
288,160,200845,1,8,0:0:0:0:
224,160,200920,1,0,0:0:0:0:
288,160,200995,1,8,0:0:0:0:
224,160,201070,1,0,0:0:0:0:
224,160,201145,1,0,0:0:0:0:
288,160,201220,1,8,0:0:0:0:
288,160,201295,1,8,0:0:0:0:
224,160,201370,1,0,0:0:0:0:
288,160,201445,1,8,0:0:0:0:
224,160,201520,1,0,0:0:0:0:
224,160,201595,1,0,0:0:0:0:
288,160,201670,1,8,0:0:0:0:
288,160,201745,1,8,0:0:0:0:
288,160,201820,1,8,0:0:0:0:
288,160,201895,1,8,0:0:0:0:
224,160,201970,1,0,0:0:0:0:
224,160,202045,1,0,0:0:0:0:
224,160,202120,1,0,0:0:0:0:
224,160,202195,1,0,0:0:0:0:
288,160,202270,1,8,0:0:0:0:
224,160,202420,1,0,0:0:0:0:
224,160,202495,1,0,0:0:0:0:
224,160,202570,1,0,0:0:0:0:
224,160,202645,1,0,0:0:0:0:
288,160,202720,1,8,0:0:0:0:
224,160,202870,1,0,0:0:0:0:
224,160,202945,1,0,0:0:0:0:
224,160,203020,1,0,0:0:0:0:
224,160,203095,1,0,0:0:0:0:
288,160,203170,1,8,0:0:0:0:
224,160,203320,1,0,0:0:0:0:
224,160,203395,1,0,0:0:0:0:
288,160,203470,1,8,0:0:0:0:
224,160,203620,1,0,0:0:0:0:
288,224,203770,1,12,0:0:0:0:
288,224,203920,1,12,0:0:0:0:
288,224,204070,1,12,0:0:0:0:
288,160,204220,1,8,0:0:0:0:
