osu file format v14

[General]
AudioFilename: Seven Colors.mp3
AudioLeadIn: 0
PreviewTime: 60370
Countdown: 0
SampleSet: Normal
StackLeniency: 0.7
Mode: 1
LetterboxInBreaks: 0
WidescreenStoryboard: 0

[Editor]
DistanceSpacing: 1.3
BeatDivisor: 4
GridSize: 32
TimelineZoom: 2.300001

[Metadata]
Title:Seven Colors
TitleUnicode:Seven Colors
Artist:UNDEAD CORPORATION
ArtistUnicode:UNDEAD CORPORATION
Creator:Nwolf
Version:Muzukashii
Source:東方Project
Tags:LordRaika _underjoy puxtu LTL Lost The Lights Dainesl Touhou 幽霊楽団 Ghostly Band Phantom Ensemble Prismriver Sister th07 Perfect Cherry Blossom 東方妖々夢 ZUN Team Shanghai Alice パインツリー 朱美 Tyrant 暴君 窪田道元 Pinetree Akemi
BeatmapID:674259
BeatmapSetID:288138

[Difficulty]
HPDrainRate:4
CircleSize:4
OverallDifficulty:5
ApproachRate:8
SliderMultiplier:1.4
SliderTickRate:1

[Events]
//Background and Video events
0,0,"prismsisters.jpg",0,100
//Break Periods
//Storyboard Layer 0 (Background)
//Storyboard Layer 1 (Fail)
//Storyboard Layer 2 (Pass)
//Storyboard Layer 3 (Foreground)
//Storyboard Sound Samples

[TimingPoints]
370,300,4,1,0,90,1,0
60370,-100,4,1,0,90,0,1
79570,-100,4,1,0,90,0,0
117970,-100,4,1,0,90,0,1
134770,-100,4,1,0,90,0,0
168370,-100,4,1,0,90,0,1
184570,-100,4,1,0,90,0,0
185170,-100,4,1,0,90,0,1
204220,-100,4,1,0,90,0,0

[HitObjects]
256,192,370,12,0,2170,0:0:0:0:
288,224,2470,5,12,0:0:0:0:
224,224,2770,1,4,0:0:0:0:
288,160,3070,1,8,0:0:0:0:
224,160,3220,1,0,0:0:0:0:
224,160,3370,1,0,0:0:0:0:
288,160,3520,1,8,0:0:0:0:
224,160,3820,1,0,0:0:0:0:
288,160,3970,1,8,0:0:0:0:
224,160,4270,1,0,0:0:0:0:
288,160,4420,1,8,0:0:0:0:
224,160,4570,1,0,0:0:0:0:
224,160,4720,1,0,0:0:0:0:
288,160,4870,1,8,0:0:0:0:
224,224,5170,1,4,0:0:0:0:
288,160,5470,1,8,0:0:0:0:
224,160,5620,1,0,0:0:0:0:
224,160,5770,1,0,0:0:0:0:
288,160,5920,1,8,0:0:0:0:
224,160,6220,1,0,0:0:0:0:
288,160,6370,1,8,0:0:0:0:
224,160,6670,1,0,0:0:0:0:
288,160,6820,1,8,0:0:0:0:
224,160,7120,1,0,0:0:0:0:
288,160,7270,1,8,0:0:0:0:
224,224,7570,1,4,0:0:0:0:
288,160,7870,1,8,0:0:0:0:
224,160,8020,1,0,0:0:0:0:
288,160,8170,1,8,0:0:0:0:
288,160,8320,1,8,0:0:0:0:
224,160,8620,1,0,0:0:0:0:
288,160,8770,1,8,0:0:0:0:
224,160,9070,1,0,0:0:0:0:
288,160,9220,1,8,0:0:0:0:
288,160,9370,1,8,0:0:0:0:
224,160,9520,1,0,0:0:0:0:
288,160,9670,1,8,0:0:0:0:
224,160,9970,1,0,0:0:0:0:
288,160,10270,1,8,0:0:0:0:
224,160,10420,1,0,0:0:0:0:
224,160,10570,1,0,0:0:0:0:
288,160,10720,1,8,0:0:0:0:
224,160,11020,1,0,0:0:0:0:
288,160,11170,1,8,0:0:0:0:
224,160,11470,1,0,0:0:0:0:
288,160,11620,1,8,0:0:0:0:
288,160,12070,1,8,0:0:0:0:
224,224,12370,1,4,0:0:0:0:
288,160,12670,1,8,0:0:0:0:
224,160,12820,1,0,0:0:0:0:
224,160,12970,1,0,0:0:0:0:
288,160,13120,1,8,0:0:0:0:
224,160,13420,1,0,0:0:0:0:
288,160,13570,1,8,0:0:0:0:
224,160,13870,1,0,0:0:0:0:
288,160,14020,1,8,0:0:0:0:
224,160,14170,1,0,0:0:0:0:
224,160,14245,1,0,0:0:0:0:
224,160,14320,1,0,0:0:0:0:
288,160,14470,1,8,0:0:0:0:
224,160,14770,1,0,0:0:0:0:
288,160,15070,1,8,0:0:0:0:
224,160,15220,1,0,0:0:0:0:
224,160,15370,1,0,0:0:0:0:
288,160,15520,1,8,0:0:0:0:
224,160,15820,1,0,0:0:0:0:
288,160,15970,1,8,0:0:0:0:
224,160,16270,1,0,0:0:0:0:
288,160,16420,1,8,0:0:0:0:
288,160,16495,1,8,0:0:0:0:
288,160,16570,1,8,0:0:0:0:
224,160,16720,1,0,0:0:0:0:
288,160,16870,1,8,0:0:0:0:
224,160,17170,1,0,0:0:0:0:
288,160,17470,1,8,0:0:0:0:
224,160,17620,1,0,0:0:0:0:
288,160,17770,1,8,0:0:0:0:
288,160,17920,1,8,0:0:0:0:
224,160,18220,1,0,0:0:0:0:
288,160,18370,1,8,0:0:0:0:
224,160,18670,1,0,0:0:0:0:
288,160,18820,1,8,0:0:0:0:
224,160,18970,1,0,0:0:0:0:
224,160,19045,1,0,0:0:0:0:
224,160,19120,1,0,0:0:0:0:
288,160,19270,1,8,0:0:0:0:
224,160,19570,1,0,0:0:0:0:
288,160,19870,1,8,0:0:0:0:
224,160,20020,1,0,0:0:0:0:
224,160,20170,1,0,0:0:0:0:
288,160,20320,1,8,0:0:0:0:
224,160,20620,1,0,0:0:0:0:
288,160,20770,1,8,0:0:0:0:
224,160,20920,1,0,0:0:0:0:
224,160,21070,1,0,0:0:0:0:
288,160,21220,1,8,0:0:0:0:
288,160,21295,1,8,0:0:0:0:
288,160,21370,1,8,0:0:0:0:
288,160,21520,1,8,0:0:0:0:
288,160,21670,1,8,0:0:0:0:
224,224,21970,5,4,0:0:0:0:
288,160,22270,1,8,0:0:0:0:
224,160,22570,1,0,0:0:0:0:
288,160,22720,1,8,0:0:0:0:
224,160,22870,1,0,0:0:0:0:
288,224,23020,1,12,0:0:0:0:
224,160,23320,1,0,0:0:0:0:
288,160,23470,1,8,0:0:0:0:
224,160,23770,1,0,0:0:0:0:
288,160,23920,1,8,0:0:0:0:
288,224,24220,1,12,0:0:0:0:
224,160,24520,1,0,0:0:0:0:
288,160,24670,1,8,0:0:0:0:
224,160,24970,1,0,0:0:0:0:
288,160,25120,1,8,0:0:0:0:
224,160,25270,1,0,0:0:0:0:
288,224,25420,1,12,0:0:0:0:
224,160,25720,1,0,0:0:0:0:
288,160,25870,1,8,0:0:0:0:
288,160,26170,1,8,0:0:0:0:
288,160,26320,1,8,0:0:0:0:
288,160,26470,1,8,0:0:0:0:
224,224,26770,1,4,0:0:0:0:
288,160,27070,1,8,0:0:0:0:
224,160,27370,1,0,0:0:0:0:
288,160,27520,1,8,0:0:0:0:
224,160,27670,1,0,0:0:0:0:
288,224,27820,1,12,0:0:0:0:
224,160,28120,1,0,0:0:0:0:
288,160,28270,1,8,0:0:0:0:
224,160,28570,1,0,0:0:0:0:
288,160,28720,1,8,0:0:0:0:
224,160,28870,1,0,0:0:0:0:
288,224,29020,1,12,0:0:0:0:
288,160,29320,1,8,0:0:0:0:
288,160,29470,1,8,0:0:0:0:
224,160,29770,1,0,0:0:0:0:
288,160,29920,1,8,0:0:0:0:
224,160,30070,1,0,0:0:0:0:
288,224,30220,1,12,0:0:0:0:
288,160,30970,1,8,0:0:0:0:
288,160,31120,1,8,0:0:0:0:
288,160,31270,1,8,0:0:0:0:
224,224,31570,1,4,0:0:0:0:
288,160,31870,1,8,0:0:0:0:
224,160,32170,1,0,0:0:0:0:
224,160,32320,1,0,0:0:0:0:
288,160,32470,1,8,0:0:0:0:
224,224,32620,1,4,0:0:0:0:
224,160,32920,1,0,0:0:0:0:
288,160,33070,1,8,0:0:0:0:
224,160,33220,1,0,0:0:0:0:
288,160,33670,1,8,0:0:0:0:
224,224,33820,1,4,0:0:0:0:
224,160,34120,1,0,0:0:0:0:
288,160,34270,1,8,0:0:0:0:
288,160,34420,1,8,0:0:0:0:
224,160,34720,1,0,0:0:0:0:
288,160,34870,1,8,0:0:0:0:
224,224,35020,1,4,0:0:0:0:
288,160,35770,1,8,0:0:0:0:
288,160,35920,1,8,0:0:0:0:
288,160,36070,1,8,0:0:0:0:
224,224,36370,1,4,0:0:0:0:
288,160,36670,1,8,0:0:0:0:
224,160,36970,1,0,0:0:0:0:
224,160,37120,1,0,0:0:0:0:
288,160,37270,1,8,0:0:0:0:
224,224,37420,1,4,0:0:0:0:
224,160,37720,1,0,0:0:0:0:
288,160,37870,1,8,0:0:0:0:
288,160,38020,1,8,0:0:0:0:
288,160,38470,1,8,0:0:0:0:
224,224,38620,1,4,0:0:0:0:
224,160,38920,1,0,0:0:0:0:
288,160,39070,1,8,0:0:0:0:
288,160,39220,1,8,0:0:0:0:
224,160,39520,1,0,0:0:0:0:
288,160,39670,1,8,0:0:0:0:
224,224,39820,1,4,0:0:0:0:
288,160,40270,1,8,0:0:0:0:
224,160,40420,1,0,0:0:0:0:
224,160,40570,1,0,0:0:0:0:
224,160,40720,1,0,0:0:0:0:
288,160,40870,1,8,0:0:0:0:
224,160,41020,1,0,0:0:0:0:
288,224,41170,1,12,0:0:0:0:
288,160,41470,1,8,0:0:0:0:
224,160,41770,1,0,0:0:0:0:
288,160,41920,1,8,0:0:0:0:
288,160,42070,1,8,0:0:0:0:
224,224,42220,1,4,0:0:0:0:
224,160,42520,1,0,0:0:0:0:
288,160,42670,1,8,0:0:0:0:
224,160,42820,1,0,0:0:0:0:
224,160,43120,1,0,0:0:0:0:
288,160,43270,1,8,0:0:0:0:
224,224,43420,1,4,0:0:0:0:
288,160,43870,1,8,0:0:0:0:
288,160,44020,1,8,0:0:0:0:
224,160,44320,1,0,0:0:0:0:
288,160,44470,1,8,0:0:0:0:
224,224,44620,1,4,0:0:0:0:
288,160,45370,1,8,0:0:0:0:
288,160,45520,1,8,0:0:0:0:
288,160,45670,1,8,0:0:0:0:
224,224,45970,1,4,0:0:0:0:
288,160,46270,1,8,0:0:0:0:
288,160,46570,1,8,0:0:0:0:
224,160,46720,1,0,0:0:0:0:
288,160,46870,1,8,0:0:0:0:
224,224,47020,1,4,0:0:0:0:
224,160,47320,1,0,0:0:0:0:
288,160,47470,1,8,0:0:0:0:
288,160,47620,1,8,0:0:0:0:
288,160,48070,1,8,0:0:0:0:
224,224,48220,1,4,0:0:0:0:
288,160,48670,1,8,0:0:0:0:
224,160,48820,1,0,0:0:0:0:
288,160,48970,1,8,0:0:0:0:
224,160,49270,1,0,0:0:0:0:
288,224,49420,1,12,0:0:0:0:
288,160,49720,1,8,0:0:0:0:
288,160,49870,1,8,0:0:0:0:
288,160,50170,1,8,0:0:0:0:
224,160,50320,1,0,0:0:0:0:
224,160,50470,1,0,0:0:0:0:
288,160,50620,1,8,0:0:0:0:
224,224,50770,5,4,0:0:0:0:
288,160,51370,1,8,0:0:0:0:
288,160,51670,1,8,0:0:0:0:
288,160,51820,1,8,0:0:0:0:
224,160,51970,1,0,0:0:0:0:
224,160,52270,1,0,0:0:0:0:
288,160,52570,1,8,0:0:0:0:
288,160,53020,1,8,0:0:0:0:
224,160,53170,1,0,0:0:0:0:
224,160,53470,1,0,0:0:0:0:
224,160,53620,1,0,0:0:0:0:
288,160,53770,1,8,0:0:0:0:
288,160,54070,1,8,0:0:0:0:
288,160,54220,1,8,0:0:0:0:
224,160,54370,1,0,0:0:0:0:
224,160,54670,1,0,0:0:0:0:
288,160,54970,1,8,0:0:0:0:
288,160,55270,1,8,0:0:0:0:
224,224,55570,1,4,0:0:0:0:
224,160,55870,1,0,0:0:0:0:
224,160,56020,1,0,0:0:0:0:
288,160,56170,1,8,0:0:0:0:
224,160,56320,1,0,0:0:0:0:
288,160,56620,1,8,0:0:0:0:
224,160,56770,1,0,0:0:0:0:
224,160,57220,1,0,0:0:0:0:
288,160,57370,1,8,0:0:0:0:
288,160,57520,1,8,0:0:0:0:
288,160,57670,1,8,0:0:0:0:
224,160,57970,1,0,0:0:0:0:
224,160,58420,1,0,0:0:0:0:
288,160,58570,1,8,0:0:0:0:
224,160,58870,1,0,0:0:0:0:
224,160,59170,1,0,0:0:0:0:
224,160,59770,1,0,0:0:0:0:
288,160,60070,1,8,0:0:0:0:
224,224,60370,5,4,0:0:0:0:
288,160,60670,1,8,0:0:0:0:
288,160,60970,1,8,0:0:0:0:
288,160,61270,1,8,0:0:0:0:
288,160,61420,1,8,0:0:0:0:
288,160,61870,1,8,0:0:0:0:
288,160,62170,1,8,0:0:0:0:
288,160,62470,1,8,0:0:0:0:
224,160,62620,1,0,0:0:0:0:
288,160,63070,1,8,0:0:0:0:
288,160,63370,1,8,0:0:0:0:
288,160,63670,1,8,0:0:0:0:
224,160,63820,1,0,0:0:0:0:
224,160,64120,1,0,0:0:0:0:
224,160,64270,1,0,0:0:0:0:
288,160,64570,1,8,0:0:0:0:
224,224,65170,1,4,0:0:0:0:
288,160,65470,1,8,0:0:0:0:
288,160,65770,1,8,0:0:0:0:
288,160,66070,1,8,0:0:0:0:
288,160,66220,1,8,0:0:0:0:
224,160,66670,1,0,0:0:0:0:
288,160,66970,1,8,0:0:0:0:
288,160,67120,1,8,0:0:0:0:
288,160,67420,1,8,0:0:0:0:
224,160,67570,1,0,0:0:0:0:
224,160,67720,1,0,0:0:0:0:
224,160,67870,1,0,0:0:0:0:
288,160,68170,1,8,0:0:0:0:
224,160,68320,1,0,0:0:0:0:
288,224,68620,1,12,0:0:0:0:
288,160,68920,1,8,0:0:0:0:
288,160,69070,1,8,0:0:0:0:
288,160,69370,1,8,0:0:0:0:
288,160,69520,1,8,0:0:0:0:
288,160,69670,1,8,0:0:0:0:
224,224,69970,1,4,0:0:0:0:
288,160,70270,1,8,0:0:0:0:
224,160,70420,1,0,0:0:0:0:
224,160,70495,1,0,0:0:0:0:
224,160,70570,1,0,0:0:0:0:
288,160,70870,1,8,0:0:0:0:
224,160,71020,1,0,0:0:0:0:
288,160,71170,1,8,0:0:0:0:
288,160,71470,1,8,0:0:0:0:
288,160,71545,1,8,0:0:0:0:
288,160,71620,1,8,0:0:0:0:
224,160,71770,1,0,0:0:0:0:
288,160,72070,1,8,0:0:0:0:
224,160,72220,1,0,0:0:0:0:
288,160,72370,1,8,0:0:0:0:
288,160,72670,1,8,0:0:0:0:
224,160,72820,1,0,0:0:0:0:
224,160,72895,1,0,0:0:0:0:
224,160,72970,1,0,0:0:0:0:
288,160,73270,1,8,0:0:0:0:
288,160,73420,1,8,0:0:0:0:
224,160,73570,1,0,0:0:0:0:
288,160,73720,1,8,0:0:0:0:
224,160,73870,1,0,0:0:0:0:
288,160,74020,1,8,0:0:0:0:
288,224,74770,1,12,0:0:0:0:
288,160,75070,1,8,0:0:0:0:
224,160,75220,1,0,0:0:0:0:
224,160,75295,1,0,0:0:0:0:
224,160,75370,1,0,0:0:0:0:
288,160,75670,1,8,0:0:0:0:
224,160,75820,1,0,0:0:0:0:
288,160,75970,1,8,0:0:0:0:
288,160,76270,1,8,0:0:0:0:
288,160,76345,1,8,0:0:0:0:
288,160,76420,1,8,0:0:0:0:
224,160,76570,1,0,0:0:0:0:
288,160,76870,1,8,0:0:0:0:
224,224,77170,1,4,0:0:0:0:
224,224,77770,1,4,0:0:0:0:
224,224,78220,1,4,0:0:0:0:
288,160,78670,1,8,0:0:0:0:
288,160,78820,1,8,0:0:0:0:
288,160,78970,1,8,0:0:0:0:
224,224,79570,5,4,0:0:0:0:
288,160,79870,1,8,0:0:0:0:
224,160,80020,1,0,0:0:0:0:
224,160,80170,1,0,0:0:0:0:
288,160,80320,1,8,0:0:0:0:
224,160,80620,1,0,0:0:0:0:
288,160,80770,1,8,0:0:0:0:
224,160,81070,1,0,0:0:0:0:
288,160,81220,1,8,0:0:0:0:
224,160,81370,1,0,0:0:0:0:
224,160,81520,1,0,0:0:0:0:
288,160,81670,1,8,0:0:0:0:
224,224,81970,1,4,0:0:0:0:
288,160,82270,1,8,0:0:0:0:
288,160,82420,1,8,0:0:0:0:
224,160,82570,1,0,0:0:0:0:
288,160,82720,1,8,0:0:0:0:
224,160,83020,1,0,0:0:0:0:
288,160,83170,1,8,0:0:0:0:
224,160,83470,1,0,0:0:0:0:
288,160,83620,1,8,0:0:0:0:
288,160,83770,1,8,0:0:0:0:
224,160,83920,1,0,0:0:0:0:
288,160,84070,1,8,0:0:0:0:
224,224,84370,1,4,0:0:0:0:
288,160,84670,1,8,0:0:0:0:
224,160,84820,1,0,0:0:0:0:
288,160,84970,1,8,0:0:0:0:
288,160,85120,1,8,0:0:0:0:
224,160,85420,1,0,0:0:0:0:
288,160,85570,1,8,0:0:0:0:
224,160,85870,1,0,0:0:0:0:
288,160,86020,1,8,0:0:0:0:
288,160,86170,1,8,0:0:0:0:
224,160,86320,1,0,0:0:0:0:
288,160,86470,1,8,0:0:0:0:
224,224,86770,1,4,0:0:0:0:
288,160,87070,1,8,0:0:0:0:
224,160,87220,1,0,0:0:0:0:
224,160,87370,1,0,0:0:0:0:
288,160,87520,1,8,0:0:0:0:
224,160,87820,1,0,0:0:0:0:
288,160,87970,1,8,0:0:0:0:
224,160,88120,1,0,0:0:0:0:
224,160,88270,1,0,0:0:0:0:
288,160,88420,1,8,0:0:0:0:
288,160,88720,1,8,0:0:0:0:
288,160,88870,1,8,0:0:0:0:
224,224,89170,5,4,0:0:0:0:
288,224,89470,1,12,0:0:0:0:
224,160,89770,1,0,0:0:0:0:
288,160,90070,1,8,0:0:0:0:
224,224,90220,1,4,0:0:0:0:
224,160,90520,1,0,0:0:0:0:
288,160,90670,1,8,0:0:0:0:
224,160,90820,1,0,0:0:0:0:
288,160,91270,1,8,0:0:0:0:
224,224,91420,1,4,0:0:0:0:
224,160,91720,1,0,0:0:0:0:
288,160,91870,1,8,0:0:0:0:
288,160,92020,1,8,0:0:0:0:
224,160,92320,1,0,0:0:0:0:
288,160,92470,1,8,0:0:0:0:
224,224,92620,1,4,0:0:0:0:
288,160,93370,1,8,0:0:0:0:
288,160,93520,1,8,0:0:0:0:
288,160,93670,1,8,0:0:0:0:
224,224,93970,1,4,0:0:0:0:
288,160,94270,1,8,0:0:0:0:
224,160,94570,1,0,0:0:0:0:
224,160,94720,1,0,0:0:0:0:
288,160,94870,1,8,0:0:0:0:
224,224,95020,1,4,0:0:0:0:
224,160,95320,1,0,0:0:0:0:
288,160,95470,1,8,0:0:0:0:
288,160,95620,1,8,0:0:0:0:
288,160,96070,1,8,0:0:0:0:
224,224,96220,1,4,0:0:0:0:
224,160,96520,1,0,0:0:0:0:
288,160,96670,1,8,0:0:0:0:
288,160,96820,1,8,0:0:0:0:
224,160,97120,1,0,0:0:0:0:
288,160,97270,1,8,0:0:0:0:
224,224,97420,1,4,0:0:0:0:
288,160,97870,1,8,0:0:0:0:
224,160,98020,1,0,0:0:0:0:
224,160,98170,1,0,0:0:0:0:
224,160,98320,1,0,0:0:0:0:
288,160,98470,1,8,0:0:0:0:
224,160,98620,1,0,0:0:0:0:
288,224,98770,1,12,0:0:0:0:
288,160,99070,1,8,0:0:0:0:
224,160,99370,1,0,0:0:0:0:
224,160,99520,1,0,0:0:0:0:
288,160,99670,1,8,0:0:0:0:
224,224,99820,1,4,0:0:0:0:
224,160,100120,1,0,0:0:0:0:
288,160,100270,1,8,0:0:0:0:
288,160,100420,1,8,0:0:0:0:
224,160,100720,1,0,0:0:0:0:
288,160,100870,1,8,0:0:0:0:
224,224,101020,1,4,0:0:0:0:
288,160,101470,1,8,0:0:0:0:
288,160,101620,1,8,0:0:0:0:
224,160,101920,1,0,0:0:0:0:
288,160,102070,1,8,0:0:0:0:
224,224,102220,1,4,0:0:0:0:
288,160,102970,1,8,0:0:0:0:
288,160,103120,1,8,0:0:0:0:
288,160,103270,1,8,0:0:0:0:
224,224,103570,1,4,0:0:0:0:
288,160,103870,1,8,0:0:0:0:
224,160,104170,1,0,0:0:0:0:
288,160,104320,1,8,0:0:0:0:
288,160,104470,1,8,0:0:0:0:
224,224,104620,1,4,0:0:0:0:
224,160,104920,1,0,0:0:0:0:
288,160,105070,1,8,0:0:0:0:
224,160,105220,1,0,0:0:0:0:
288,160,105520,1,8,0:0:0:0:
288,160,105670,1,8,0:0:0:0:
224,224,105820,1,4,0:0:0:0:
224,160,106120,1,0,0:0:0:0:
288,160,106270,1,8,0:0:0:0:
288,160,106420,1,8,0:0:0:0:
224,160,106720,1,0,0:0:0:0:
288,160,106870,1,8,0:0:0:0:
224,224,107020,1,4,0:0:0:0:
288,160,107320,1,8,0:0:0:0:
288,160,107470,1,8,0:0:0:0:
288,160,107770,1,8,0:0:0:0:
224,160,107920,1,0,0:0:0:0:
224,160,108070,1,0,0:0:0:0:
288,160,108220,1,8,0:0:0:0:
224,224,108370,5,4,0:0:0:0:
288,160,108970,1,8,0:0:0:0:
288,160,109270,1,8,0:0:0:0:
288,160,109345,1,8,0:0:0:0:
288,160,109420,1,8,0:0:0:0:
224,160,109570,1,0,0:0:0:0:
224,160,109870,1,0,0:0:0:0:
288,160,110170,1,8,0:0:0:0:
288,160,110620,1,8,0:0:0:0:
224,160,110770,1,0,0:0:0:0:
224,160,111070,1,0,0:0:0:0:
224,160,111220,1,0,0:0:0:0:
288,160,111370,1,8,0:0:0:0:
288,160,111670,1,8,0:0:0:0:
288,160,111745,1,8,0:0:0:0:
288,160,111820,1,8,0:0:0:0:
224,160,111970,1,0,0:0:0:0:
224,160,112270,1,0,0:0:0:0:
288,160,112570,1,8,0:0:0:0:
288,160,112870,1,8,0:0:0:0:
224,224,113170,1,4,0:0:0:0:
224,160,113470,1,0,0:0:0:0:
224,160,113620,1,0,0:0:0:0:
288,160,113770,1,8,0:0:0:0:
224,160,113920,1,0,0:0:0:0:
288,160,114220,1,8,0:0:0:0:
224,160,114370,1,0,0:0:0:0:
224,160,114820,1,0,0:0:0:0:
288,160,114970,1,8,0:0:0:0:
288,160,115120,1,8,0:0:0:0:
288,160,115270,1,8,0:0:0:0:
224,224,115570,1,4,0:0:0:0:
224,160,116020,1,0,0:0:0:0:
288,160,116170,1,8,0:0:0:0:
224,160,116470,1,0,0:0:0:0:
224,160,116770,1,0,0:0:0:0:
224,160,117370,1,0,0:0:0:0:
224,224,117970,5,4,0:0:0:0:
288,160,118270,1,8,0:0:0:0:
288,160,118570,1,8,0:0:0:0:
288,160,118870,1,8,0:0:0:0:
288,160,119020,1,8,0:0:0:0:
288,160,119470,1,8,0:0:0:0:
288,160,119770,1,8,0:0:0:0:
288,160,120070,1,8,0:0:0:0:
224,160,120220,1,0,0:0:0:0:
288,160,120670,1,8,0:0:0:0:
288,160,120970,1,8,0:0:0:0:
288,160,121270,1,8,0:0:0:0:
224,160,121420,1,0,0:0:0:0:
224,160,121720,1,0,0:0:0:0:
224,160,121870,1,0,0:0:0:0:
288,160,122170,1,8,0:0:0:0:
224,224,122770,1,4,0:0:0:0:
288,160,123070,1,8,0:0:0:0:
288,160,123370,1,8,0:0:0:0:
288,160,123670,1,8,0:0:0:0:
288,160,123820,1,8,0:0:0:0:
224,160,124270,1,0,0:0:0:0:
288,160,124570,1,8,0:0:0:0:
288,160,124720,1,8,0:0:0:0:
288,160,125020,1,8,0:0:0:0:
224,160,125170,1,0,0:0:0:0:
224,160,125320,1,0,0:0:0:0:
224,160,125470,1,0,0:0:0:0:
288,160,125770,1,8,0:0:0:0:
224,160,125920,1,0,0:0:0:0:
288,224,126220,1,12,0:0:0:0:
288,160,126520,1,8,0:0:0:0:
288,160,126670,1,8,0:0:0:0:
288,160,126970,1,8,0:0:0:0:
288,160,127120,1,8,0:0:0:0:
288,160,127270,1,8,0:0:0:0:
224,224,127570,1,4,0:0:0:0:
288,160,127870,1,8,0:0:0:0:
224,160,128020,1,0,0:0:0:0:
224,160,128095,1,0,0:0:0:0:
224,160,128170,1,0,0:0:0:0:
288,160,128470,1,8,0:0:0:0:
224,160,128620,1,0,0:0:0:0:
288,160,128770,1,8,0:0:0:0:
288,160,129070,1,8,0:0:0:0:
288,160,129145,1,8,0:0:0:0:
288,160,129220,1,8,0:0:0:0:
224,160,129370,1,0,0:0:0:0:
288,160,129670,1,8,0:0:0:0:
224,160,129820,1,0,0:0:0:0:
288,160,129970,1,8,0:0:0:0:
288,160,130270,1,8,0:0:0:0:
224,160,130420,1,0,0:0:0:0:
224,160,130495,1,0,0:0:0:0:
224,160,130570,1,0,0:0:0:0:
288,160,130870,1,8,0:0:0:0:
288,160,131020,1,8,0:0:0:0:
288,160,131320,1,8,0:0:0:0:
288,160,131470,1,8,0:0:0:0:
224,160,131620,1,0,0:0:0:0:
288,224,131770,1,12,0:0:0:0:
288,224,131995,1,12,0:0:0:0:
288,224,132220,1,12,0:0:0:0:
224,224,132370,1,4,0:0:0:0:
288,160,132670,1,8,0:0:0:0:
288,160,132970,1,8,0:0:0:0:
288,160,133270,1,8,0:0:0:0:
288,160,133570,1,8,0:0:0:0:
288,160,133870,1,8,0:0:0:0:
288,224,134170,1,12,0:0:0:0:
288,224,134620,1,12,0:0:0:0:
224,224,134770,5,4,0:0:0:0:
224,160,135670,1,0,0:0:0:0:
288,160,135970,1,8,0:0:0:0:
224,160,136870,1,0,0:0:0:0:
288,224,137170,1,12,0:0:0:0:
224,160,137470,1,0,0:0:0:0:
224,160,138070,1,0,0:0:0:0:
288,160,138370,1,8,0:0:0:0:
224,160,138970,1,0,0:0:0:0:
224,160,139270,1,0,0:0:0:0:
288,224,139570,1,12,0:0:0:0:
224,160,140470,1,0,0:0:0:0:
224,160,140620,1,0,0:0:0:0:
288,160,140770,1,8,0:0:0:0:
224,160,141070,1,0,0:0:0:0:
224,160,141520,1,0,0:0:0:0:
288,224,141970,1,12,0:0:0:0:
224,160,142270,1,0,0:0:0:0:
224,160,142420,1,0,0:0:0:0:
288,160,142570,1,8,0:0:0:0:
288,160,142870,1,8,0:0:0:0:
224,160,143170,1,0,0:0:0:0:
224,160,143320,1,0,0:0:0:0:
224,160,143470,1,0,0:0:0:0:
224,160,143620,1,0,0:0:0:0:
288,160,143770,1,8,0:0:0:0:
224,160,144370,1,0,0:0:0:0:
224,160,144520,1,0,0:0:0:0:
224,160,144670,1,0,0:0:0:0:
224,160,144820,1,0,0:0:0:0:
224,160,145270,1,0,0:0:0:0:
224,160,145420,1,0,0:0:0:0:
224,160,145570,1,0,0:0:0:0:
224,160,145720,1,0,0:0:0:0:
224,160,146170,1,0,0:0:0:0:
224,160,146320,1,0,0:0:0:0:
224,160,146470,1,0,0:0:0:0:
288,160,146770,1,8,0:0:0:0:
288,160,146920,1,8,0:0:0:0:
288,160,147070,1,8,0:0:0:0:
288,160,147220,1,8,0:0:0:0:
288,160,147670,1,8,0:0:0:0:
288,160,147820,1,8,0:0:0:0:
288,160,147970,1,8,0:0:0:0:
288,160,148120,1,8,0:0:0:0:
288,160,148570,1,8,0:0:0:0:
288,160,148720,1,8,0:0:0:0:
288,160,148870,1,8,0:0:0:0:
224,160,149170,1,0,0:0:0:0:
224,160,149320,1,0,0:0:0:0:
224,160,149470,1,0,0:0:0:0:
224,160,149620,1,0,0:0:0:0:
288,160,149770,1,8,0:0:0:0:
224,160,150070,1,0,0:0:0:0:
224,160,150220,1,0,0:0:0:0:
224,160,150370,1,0,0:0:0:0:
224,160,150520,1,0,0:0:0:0:
288,160,150970,1,8,0:0:0:0:
224,160,151570,1,0,0:0:0:0:
224,160,151720,1,0,0:0:0:0:
224,160,151870,1,0,0:0:0:0:
224,160,152020,1,0,0:0:0:0:
288,160,152170,1,8,0:0:0:0:
224,160,152470,1,0,0:0:0:0:
224,160,152620,1,0,0:0:0:0:
224,160,152770,1,0,0:0:0:0:
224,160,152920,1,0,0:0:0:0:
288,160,153370,1,8,0:0:0:0:
288,160,153520,1,8,0:0:0:0:
288,160,153670,1,8,0:0:0:0:
288,160,153970,1,8,0:0:0:0:
288,160,154120,1,8,0:0:0:0:
224,160,154270,1,0,0:0:0:0:
224,160,154420,1,0,0:0:0:0:
288,160,154570,1,8,0:0:0:0:
288,160,154870,1,8,0:0:0:0:
288,160,155020,1,8,0:0:0:0:
224,160,155170,1,0,0:0:0:0:
224,160,155320,1,0,0:0:0:0:
288,160,155770,1,8,0:0:0:0:
288,160,155920,1,8,0:0:0:0:
224,160,156070,1,0,0:0:0:0:
288,160,156370,1,8,0:0:0:0:
288,160,156520,1,8,0:0:0:0:
224,160,156670,1,0,0:0:0:0:
224,160,156820,1,0,0:0:0:0:
288,160,156970,1,8,0:0:0:0:
288,160,157270,1,8,0:0:0:0:
288,160,157420,1,8,0:0:0:0:
224,160,157570,1,0,0:0:0:0:
224,160,157720,1,0,0:0:0:0:
288,160,158170,1,8,0:0:0:0:
288,160,158320,1,8,0:0:0:0:
288,160,158470,1,8,0:0:0:0:
224,160,158770,1,0,0:0:0:0:
224,160,158920,1,0,0:0:0:0:
224,160,159070,1,0,0:0:0:0:
224,160,159220,1,0,0:0:0:0:
288,160,159370,1,8,0:0:0:0:
224,160,159670,1,0,0:0:0:0:
224,160,159820,1,0,0:0:0:0:
224,160,159970,1,0,0:0:0:0:
224,160,160120,1,0,0:0:0:0:
288,160,160570,1,8,0:0:0:0:
224,160,160720,1,0,0:0:0:0:
224,160,160870,1,0,0:0:0:0:
288,160,161170,1,8,0:0:0:0:
224,160,161320,1,0,0:0:0:0:
224,160,161470,1,0,0:0:0:0:
224,160,161620,1,0,0:0:0:0:
288,160,161770,1,8,0:0:0:0:
288,160,162070,1,8,0:0:0:0:
224,160,162220,1,0,0:0:0:0:
288,160,162370,1,8,0:0:0:0:
224,160,162670,1,0,0:0:0:0:
224,160,162820,1,0,0:0:0:0:
288,160,162970,1,8,0:0:0:0:
288,160,163270,1,8,0:0:0:0:
288,160,163420,1,8,0:0:0:0:
224,224,163570,1,4,0:0:0:0:
288,160,164770,1,8,0:0:0:0:
288,160,165070,1,8,0:0:0:0:
288,160,165370,1,8,0:0:0:0:
288,160,165670,1,8,0:0:0:0:
224,160,165970,1,0,0:0:0:0:
224,160,166120,1,0,0:0:0:0:
288,224,166270,1,12,0:0:0:0:
224,160,166570,1,0,0:0:0:0:
288,224,166720,1,12,0:0:0:0:
288,224,167020,1,12,0:0:0:0:
224,160,167320,1,0,0:0:0:0:
288,160,167470,1,8,0:0:0:0:
224,160,167620,1,0,0:0:0:0:
288,160,167770,1,8,0:0:0:0:
224,160,168070,1,0,0:0:0:0:
224,224,168370,5,4,0:0:0:0:
288,160,168670,1,8,0:0:0:0:
224,160,168820,1,0,0:0:0:0:
224,160,168895,1,0,0:0:0:0:
224,160,168970,1,0,0:0:0:0:
288,160,169270,1,8,0:0:0:0:
288,160,169420,1,8,0:0:0:0:
224,160,169570,1,0,0:0:0:0:
288,160,169870,1,8,0:0:0:0:
224,160,170020,1,0,0:0:0:0:
224,160,170095,1,0,0:0:0:0:
224,160,170170,1,0,0:0:0:0:
288,160,170470,1,8,0:0:0:0:
224,160,170620,1,0,0:0:0:0:
288,160,170770,1,8,0:0:0:0:
288,160,171070,1,8,0:0:0:0:
224,160,171220,1,0,0:0:0:0:
224,160,171295,1,0,0:0:0:0:
224,160,171370,1,0,0:0:0:0:
288,160,171670,1,8,0:0:0:0:
288,160,171745,1,8,0:0:0:0:
288,160,171820,1,8,0:0:0:0:
224,160,171970,1,0,0:0:0:0:
288,160,172120,1,8,0:0:0:0:
224,160,172270,1,0,0:0:0:0:
288,160,172420,1,8,0:0:0:0:
288,160,172870,1,8,0:0:0:0:
224,224,173170,1,4,0:0:0:0:
288,160,173470,1,8,0:0:0:0:
288,160,173545,1,8,0:0:0:0:
288,160,173620,1,8,0:0:0:0:
224,160,173770,1,0,0:0:0:0:
288,160,174070,1,8,0:0:0:0:
224,160,174220,1,0,0:0:0:0:
224,160,174370,1,0,0:0:0:0:
288,160,174670,1,8,0:0:0:0:
288,160,174745,1,8,0:0:0:0:
288,160,174820,1,8,0:0:0:0:
224,160,174970,1,0,0:0:0:0:
288,160,175120,1,8,0:0:0:0:
288,160,175420,1,8,0:0:0:0:
224,160,175570,1,0,0:0:0:0:
224,160,175720,1,0,0:0:0:0:
288,160,175870,1,8,0:0:0:0:
224,160,176170,1,0,0:0:0:0:
224,160,176320,1,0,0:0:0:0:
288,224,176620,1,12,0:0:0:0:
288,160,177070,1,8,0:0:0:0:
224,160,177220,1,0,0:0:0:0:
288,160,177370,1,8,0:0:0:0:
288,160,177520,1,8,0:0:0:0:
288,160,177670,1,8,0:0:0:0:
224,224,177970,1,4,0:0:0:0:
288,160,178270,1,8,0:0:0:0:
288,160,178570,1,8,0:0:0:0:
288,160,178870,1,8,0:0:0:0:
288,160,179020,1,8,0:0:0:0:
288,160,179470,1,8,0:0:0:0:
288,160,179770,1,8,0:0:0:0:
288,160,180070,1,8,0:0:0:0:
224,160,180220,1,0,0:0:0:0:
288,160,180670,1,8,0:0:0:0:
288,160,180970,1,8,0:0:0:0:
288,160,181270,1,8,0:0:0:0:
224,160,181420,1,0,0:0:0:0:
288,160,181720,1,8,0:0:0:0:
288,160,181870,1,8,0:0:0:0:
224,160,182020,1,0,0:0:0:0:
288,160,182170,1,8,0:0:0:0:
288,160,182395,1,8,0:0:0:0:
288,160,182620,1,8,0:0:0:0:
288,160,182770,1,8,0:0:0:0:
224,160,182920,1,0,0:0:0:0:
288,160,183070,1,8,0:0:0:0:
288,160,183370,1,8,0:0:0:0:
224,160,183520,1,0,0:0:0:0:
288,160,183670,1,8,0:0:0:0:
224,160,183820,1,0,0:0:0:0:
288,160,183970,1,8,0:0:0:0:
288,160,184270,1,8,0:0:0:0:
288,224,184570,1,12,0:0:0:0:
288,224,184720,1,12,0:0:0:0:
224,224,185170,5,4,0:0:0:0:
288,160,185470,1,8,0:0:0:0:
224,160,185620,1,0,0:0:0:0:
224,160,185770,1,0,0:0:0:0:
288,160,185920,1,8,0:0:0:0:
224,160,186220,1,0,0:0:0:0:
288,160,186370,1,8,0:0:0:0:
224,160,186670,1,0,0:0:0:0:
288,160,186820,1,8,0:0:0:0:
224,160,186970,1,0,0:0:0:0:
224,160,187045,1,0,0:0:0:0:
224,160,187120,1,0,0:0:0:0:
288,160,187270,1,8,0:0:0:0:
224,224,187570,1,4,0:0:0:0:
288,160,187720,1,8,0:0:0:0:
288,160,187870,1,8,0:0:0:0:
224,160,188020,1,0,0:0:0:0:
224,160,188170,1,0,0:0:0:0:
288,160,188320,1,8,0:0:0:0:
224,160,188620,1,0,0:0:0:0:
288,160,188770,1,8,0:0:0:0:
224,160,189070,1,0,0:0:0:0:
288,160,189220,1,8,0:0:0:0:
288,160,189295,1,8,0:0:0:0:
288,160,189370,1,8,0:0:0:0:
224,160,189520,1,0,0:0:0:0:
288,160,189670,1,8,0:0:0:0:
224,224,189970,1,4,0:0:0:0:
288,160,190270,1,8,0:0:0:0:
224,160,190420,1,0,0:0:0:0:
224,160,190570,1,0,0:0:0:0:
288,160,190720,1,8,0:0:0:0:
224,160,191020,1,0,0:0:0:0:
288,160,191170,1,8,0:0:0:0:
224,160,191470,1,0,0:0:0:0:
288,160,191620,1,8,0:0:0:0:
224,160,191770,1,0,0:0:0:0:
224,160,191845,1,0,0:0:0:0:
224,160,191920,1,0,0:0:0:0:
288,160,192070,1,8,0:0:0:0:
224,224,192370,1,4,0:0:0:0:
288,160,192670,1,8,0:0:0:0:
288,160,192820,1,8,0:0:0:0:
288,160,192970,1,8,0:0:0:0:
288,160,193270,1,8,0:0:0:0:
288,160,193570,1,8,0:0:0:0:
288,160,194470,1,8,0:0:0:0:
224,224,194770,1,4,0:0:0:0:
288,160,195070,1,8,0:0:0:0:
224,160,195220,1,0,0:0:0:0:
224,160,195295,1,0,0:0:0:0:
224,160,195370,1,0,0:0:0:0:
288,160,195520,1,8,0:0:0:0:
224,160,195670,1,0,0:0:0:0:
224,160,195820,1,0,0:0:0:0:
288,160,195970,1,8,0:0:0:0:
224,160,196270,1,0,0:0:0:0:
288,160,196420,1,8,0:0:0:0:
224,160,196570,1,0,0:0:0:0:
224,160,196645,1,0,0:0:0:0:
224,160,196720,1,0,0:0:0:0:
288,160,196870,1,8,0:0:0:0:
224,224,197170,1,4,0:0:0:0:
288,160,197470,1,8,0:0:0:0:
288,160,197545,1,8,0:0:0:0:
288,160,197620,1,8,0:0:0:0:
224,160,197770,1,0,0:0:0:0:
288,160,197920,1,8,0:0:0:0:
288,160,198070,1,8,0:0:0:0:
224,160,198220,1,0,0:0:0:0:
288,160,198370,1,8,0:0:0:0:
224,160,198670,1,0,0:0:0:0:
288,160,198820,1,8,0:0:0:0:
288,160,198895,1,8,0:0:0:0:
288,160,198970,1,8,0:0:0:0:
224,160,199120,1,0,0:0:0:0:
288,224,199270,1,12,0:0:0:0:
224,224,199570,1,4,0:0:0:0:
288,160,199870,1,8,0:0:0:0:
224,160,200020,1,0,0:0:0:0:
224,160,200095,1,0,0:0:0:0:
224,160,200170,1,0,0:0:0:0:
288,160,200320,1,8,0:0:0:0:
224,160,200470,1,0,0:0:0:0:
224,160,200620,1,0,0:0:0:0:
288,160,200770,1,8,0:0:0:0:
224,160,201070,1,0,0:0:0:0:
288,160,201220,1,8,0:0:0:0:
224,160,201370,1,0,0:0:0:0:
224,160,201445,1,0,0:0:0:0:
224,160,201520,1,0,0:0:0:0:
288,160,201670,1,8,0:0:0:0:
224,160,201970,1,0,0:0:0:0:
224,160,202045,1,0,0:0:0:0:
224,160,202120,1,0,0:0:0:0:
288,160,202270,1,8,0:0:0:0:
224,160,202420,1,0,0:0:0:0:
224,160,202570,1,0,0:0:0:0:
288,160,202720,1,8,0:0:0:0:
224,160,203020,1,0,0:0:0:0:
288,160,203170,1,8,0:0:0:0:
224,160,203620,1,0,0:0:0:0:
288,160,203770,1,8,0:0:0:0:
288,160,203920,1,8,0:0:0:0:
288,160,204070,1,8,0:0:0:0:
224,160,204220,1,0,0:0:0:0:
