osu file format v14

[General]
AudioFilename: audio.mp3
AudioLeadIn: 0
PreviewTime: 667
Countdown: 0
SampleSet: Soft
StackLeniency: 0.7
Mode: 3
LetterboxInBreaks: 0
SpecialStyle: 0
WidescreenStoryboard: 0

[Editor]
Bookmarks: 3940,9940,17031,19758,23576,25212,25758,26849,30122,43212,48599,48633,48667,48701,48735
DistanceSpacing: 1
BeatDivisor: 4
GridSize: 32
TimelineZoom: 1

[Metadata]
Title:Setsugetsu Ouka no Kuni
TitleUnicode:雪月桜花の国
Artist:UNDEAD CORPORATION
ArtistUnicode:UNDEAD CORPORATION
Creator:tatatat
Version:8K Easy
Source:東方三月精 ~ Strange and Bright Nature Deity.
Tags:東方Project Touhou Piano Gensoukyou kara chou Koutetsu Juutei Bakuon 幻想郷から超鋼鉄重低爆音 C78 ZUN Three Moon Fairies Sangetsusei 上海アリス幻樂団 Gengakudan Yukimura Hirano Sunny Milk Luna Child Star Sapphire
BeatmapID:1689762
BeatmapSetID:803902

[Difficulty]
HPDrainRate:6
CircleSize:8
OverallDifficulty:6
ApproachRate:10
SliderMultiplier:1.4
SliderTickRate:1

[Events]
//Background and Video events
0,0,"threefairies.png",0,0
//Break Periods
//Storyboard Layer 0 (Background)
//Storyboard Layer 1 (Fail)
//Storyboard Layer 2 (Pass)
//Storyboard Layer 3 (Foreground)
//Storyboard Sound Samples

[TimingPoints]
122,545.454545454546,3,2,1,50,1,0
49212,681.818181818182,3,2,1,50,1,0
49212,-80,3,2,1,50,0,0
49893,882.352941176471,3,2,1,50,1,8
49893,-61.8181818181818,3,2,1,50,0,0
50775,1165.04854368932,3,2,1,40,1,0
50775,-46.8181818181818,3,2,1,40,0,0
51919,1090.90909090909,3,2,1,40,1,0
51919,-50,3,2,1,40,0,0

[HitObjects]
288,192,667,5,0,0:0:0:0:
352,192,1212,1,0,0:0:0:0:
416,192,1758,1,2,0:0:0:0:
96,192,2303,1,8,0:0:0:0:
416,192,3394,1,2,0:0:0:0:
160,192,3940,1,8,0:0:0:0:
288,192,4485,1,0,0:0:0:0:
416,192,5031,1,2,0:0:0:0:
224,192,5576,1,8,0:0:0:0:
160,192,6667,1,0,0:0:0:0:
288,192,7212,1,8,0:0:0:0:
352,192,7758,1,0,0:0:0:0:
416,192,8303,1,2,0:0:0:0:
96,192,8849,1,8,0:0:0:0:
480,192,9394,1,0,0:0:0:0:
416,192,9940,1,2,0:0:0:0:
160,192,10485,1,8,0:0:0:0:
288,192,11031,1,0,0:0:0:0:
416,192,11576,1,2,0:0:0:0:
224,192,12122,1,8,0:0:0:0:
469,192,13212,1,2,0:0:0:0:
352,192,13758,1,2,0:0:0:0:
160,192,14303,1,2,0:0:0:0:
32,192,14849,1,2,0:0:0:0:
96,192,15394,1,8,0:0:0:0:
416,192,16485,1,2,0:0:0:0:
160,192,17031,1,8,0:0:0:0:
288,192,17576,1,0,0:0:0:0:
416,192,18122,1,2,0:0:0:0:
224,192,18667,1,8,0:0:0:0:
160,192,19758,1,0,0:0:0:0:
288,192,20303,1,8,0:0:0:0:
224,192,20849,1,0,0:0:0:0:
416,192,21394,1,2,0:0:0:0:
96,192,21940,1,8,0:0:0:0:
416,192,22485,1,0,0:0:0:0:
460,192,23031,1,2,0:0:0:0:
160,192,23576,1,8,0:0:0:0:
352,192,24122,1,0,0:0:0:0:
480,192,24667,1,2,0:0:0:0:
224,192,25212,1,8,0:0:0:0:
416,192,25758,1,2,0:0:0:0:
96,192,26303,1,0,0:0:0:0:
288,192,26849,1,8,0:0:0:0:
352,192,27394,1,0,0:0:0:0:
416,192,27940,1,2,0:0:0:0:
96,192,28485,1,8,0:0:0:0:
416,192,29576,1,2,0:0:0:0:
160,192,30122,1,8,0:0:0:0:
288,192,30667,1,0,0:0:0:0:
416,192,31212,1,2,0:0:0:0:
224,192,31758,1,8,0:0:0:0:
96,192,32849,1,0,0:0:0:0:
288,192,33394,1,8,0:0:0:0:
352,192,33940,1,0,0:0:0:0:
416,192,34485,1,2,0:0:0:0:
96,192,35031,1,8,0:0:0:0:
469,192,35576,1,0,0:0:0:0:
352,192,36122,1,2,0:0:0:0:
160,192,36667,1,8,0:0:0:0:
288,192,37212,1,0,0:0:0:0:
416,192,37758,1,2,0:0:0:0:
224,192,38303,1,8,0:0:0:0:
460,192,39394,1,2,0:0:0:0:
352,192,39940,1,2,0:0:0:0:
160,192,40485,1,2,0:0:0:0:
32,192,41031,1,2,0:0:0:0:
96,192,41576,1,8,0:0:0:0:
416,192,42667,1,2,0:0:0:0:
160,192,43212,1,8,0:0:0:0:
288,192,43758,1,0,0:0:0:0:
416,192,44303,1,2,0:0:0:0:
224,192,44849,1,8,0:0:0:0:
160,192,45940,1,0,0:0:0:0:
288,192,46485,5,8,0:0:0:0:
224,192,47031,1,0,0:0:0:0:
416,192,47576,1,2,0:0:0:0:
96,192,48122,1,8,0:0:0:0:
416,192,48667,1,0,0:0:0:0:
460,192,49212,1,2,0:0:0:0:
160,192,49893,1,8,0:0:0:0:
352,192,50775,1,0,0:0:0:0:
416,192,51919,128,8,58464:0:0:0:0:
