osu file format v14

[General]
AudioFilename: audio.mp3
AudioLeadIn: 0
PreviewTime: 667
Countdown: 0
SampleSet: Soft
StackLeniency: 0.7
Mode: 3
LetterboxInBreaks: 0
SpecialStyle: 0
WidescreenStoryboard: 0

[Editor]
Bookmarks: 3940,9940,17031,19758,23576,25212,25758,26849,30122,43212,48599,48633,48667,48701,48735
DistanceSpacing: 1
BeatDivisor: 2
GridSize: 32
TimelineZoom: 1

[Metadata]
Title:Setsugetsu Ouka no Kuni
TitleUnicode:雪月桜花の国
Artist:UNDEAD CORPORATION
ArtistUnicode:UNDEAD CORPORATION
Creator:tatatat
Version:4K Easy
Source:東方三月精 ~ Strange and Bright Nature Deity.
Tags:東方Project Touhou Piano Gensoukyou kara chou Koutetsu Juutei Bakuon 幻想郷から超鋼鉄重低爆音 C78 ZUN Three Moon Fairies Sangetsusei 上海アリス幻樂団 Gengakudan Yukimura Hirano Sunny Milk Luna Child Star Sapphire
BeatmapID:1694336
BeatmapSetID:803902

[Difficulty]
HPDrainRate:6
CircleSize:4
OverallDifficulty:5
ApproachRate:10
SliderMultiplier:1.4
SliderTickRate:1

[Events]
//Background and Video events
0,0,"threefairies.png",0,0
//Break Periods
//Storyboard Layer 0 (Background)
//Storyboard Layer 1 (Fail)
//Storyboard Layer 2 (Pass)
//Storyboard Layer 3 (Foreground)
//Storyboard Sound Samples

[TimingPoints]
122,545.454545454546,3,2,1,50,1,0
49212,681.818181818182,3,2,1,50,1,0
49212,-80,3,2,1,50,0,0
49893,882.352941176471,3,2,1,50,1,8
49893,-61.8181818181818,3,2,1,50,0,0
50775,1165.04854368932,3,2,1,40,1,0
50775,-46.8181818181818,3,2,1,40,0,0
51919,1090.90909090909,3,2,1,40,1,0
51919,-50,3,2,1,40,0,0

[HitObjects]
64,192,667,128,0,1212:0:0:0:0:
192,192,1212,128,0,1758:0:0:0:0:
320,192,1758,128,2,2303:0:0:0:0:
320,192,3394,128,2,3940:0:0:0:0:
192,192,3940,128,8,4485:0:0:0:0:
64,192,4485,128,0,5031:0:0:0:0:
320,192,5031,128,2,5576:0:0:0:0:
320,192,6667,1,0,0:0:0:0:
64,192,7212,128,0,7758:0:0:0:0:
192,192,7758,128,0,8303:0:0:0:0:
320,192,8303,128,2,8849:0:0:0:0:
448,192,9394,128,0,9940:0:0:0:0:
320,192,9940,128,2,10485:0:0:0:0:
192,192,10485,128,0,11031:0:0:0:0:
64,192,11031,128,0,11576:0:0:0:0:
320,192,11576,128,2,12122:0:0:0:0:
448,192,13212,128,2,13758:0:0:0:0:
320,192,13758,128,2,14303:0:0:0:0:
192,192,14303,128,2,14849:0:0:0:0:
320,192,14849,128,2,15394:0:0:0:0:
320,192,16485,128,2,17031:0:0:0:0:
192,192,17031,128,8,17576:0:0:0:0:
64,192,17576,128,0,18122:0:0:0:0:
320,192,18122,128,2,18667:0:0:0:0:
320,192,19758,1,0,0:0:0:0:
64,192,20303,128,0,20849:0:0:0:0:
192,192,20849,128,0,21394:0:0:0:0:
320,192,21394,128,2,21940:0:0:0:0:
320,192,22485,128,0,23031:0:0:0:0:
448,192,23031,128,2,23576:0:0:0:0:
192,192,23576,128,0,24122:0:0:0:0:
64,192,24122,128,0,24667:0:0:0:0:
192,192,24667,128,2,25212:0:0:0:0:
320,192,25758,128,2,26303:0:0:0:0:
64,192,26849,128,8,27394:0:0:0:0:
192,192,27394,128,0,27940:0:0:0:0:
320,192,27940,128,2,28485:0:0:0:0:
320,192,29576,128,2,30122:0:0:0:0:
192,192,30122,128,8,30667:0:0:0:0:
64,192,30667,128,0,31212:0:0:0:0:
320,192,31212,128,2,31758:0:0:0:0:
320,192,32849,1,0,0:0:0:0:
64,192,33394,128,0,33940:0:0:0:0:
192,192,33940,128,0,34485:0:0:0:0:
320,192,34485,128,2,35031:0:0:0:0:
448,192,35576,128,2,36122:0:0:0:0:
320,192,36122,128,0,36667:0:0:0:0:
192,192,36667,128,8,37212:0:0:0:0:
64,192,37212,128,0,37758:0:0:0:0:
320,192,37758,128,2,38303:0:0:0:0:
448,192,39394,128,2,39940:0:0:0:0:
320,192,39940,128,2,40485:0:0:0:0:
192,192,40485,128,2,41031:0:0:0:0:
320,192,41031,128,2,41576:0:0:0:0:
320,192,42667,128,2,43212:0:0:0:0:
192,192,43212,128,8,43758:0:0:0:0:
64,192,43758,128,0,44303:0:0:0:0:
320,192,44303,128,2,44849:0:0:0:0:
320,192,45940,1,0,0:0:0:0:
64,192,46485,128,0,47031:0:0:0:0:
192,192,47031,128,0,47576:0:0:0:0:
320,192,47576,128,2,48122:0:0:0:0:
320,192,48667,128,0,49212:0:0:0:0:
448,192,49212,128,2,49893:0:0:0:0:
320,192,49893,128,0,50775:0:0:0:0:
192,192,50775,128,0,51919:0:0:0:0:
320,192,51919,128,8,58464:0:0:0:0:
