osu file format v14

[General]
AudioFilename: audio.mp3
AudioLeadIn: 0
PreviewTime: 26849
Countdown: 0
SampleSet: Soft
StackLeniency: 0.7
Mode: 3
LetterboxInBreaks: 0
SpecialStyle: 0
WidescreenStoryboard: 1

[Editor]
Bookmarks: 667,29303
DistanceSpacing: 1.5
BeatDivisor: 4
GridSize: 8
TimelineZoom: 1

[Metadata]
Title:Setsugetsu Ouka no Kuni
TitleUnicode:雪月桜花の国
Artist:UNDEAD CORPORATION
ArtistUnicode:UNDEAD CORPORATION
Creator:deetsiu
Version:Easy
Source:東方Project
Tags:touhou project undead corporation setsugetsu ouka no kuni deetsiu
BeatmapID:1198990
BeatmapSetID:565982

[Difficulty]
HPDrainRate:5.5
CircleSize:4
OverallDifficulty:5
ApproachRate:5
SliderMultiplier:1
SliderTickRate:1

[Events]
//Background and Video events
0,0,"39232394-dark-forest-wallpapers.jpg",0,0
//Break Periods
//Storyboard Layer 0 (Background)
//Storyboard Layer 1 (Fail)
//Storyboard Layer 2 (Pass)
//Storyboard Layer 3 (Foreground)
//Storyboard Sound Samples

[TimingPoints]
667,545.454545454546,3,2,1,5,1,0
667,-100,3,2,1,5,0,0
49212,681.818181818182,3,2,1,5,1,0
49212,-125,3,2,1,5,0,0
49893,882.352941176471,3,2,1,5,1,0
49893,-166.666666666667,3,2,1,5,0,0
50775,1165.04854368932,3,2,1,5,1,0
50775,-200,3,2,1,5,0,0
51940,1090.90909090909,3,2,1,5,1,0

[HitObjects]
64,192,667,5,0,0:0:0:0:
320,192,1212,1,0,0:0:0:0:
448,192,1757,1,0,0:0:0:0:
192,192,2303,1,8,0:0:0:0:
448,192,3394,1,0,0:0:0:0:
320,192,3939,1,8,0:0:0:0:
64,192,4485,1,0,0:0:0:0:
448,192,5030,1,0,0:0:0:0:
192,192,5576,1,8,0:0:0:0:
64,192,6667,128,0,7212:0:0:0:0:
192,192,7212,1,8,0:0:0:0:
320,192,7757,1,0,0:0:0:0:
448,192,8303,1,0,0:0:0:0:
192,192,8848,128,8,9394:0:0:0:0:
320,192,9394,1,0,0:0:0:0:
64,192,9939,1,0,0:0:0:0:
448,192,10485,1,8,0:0:0:0:
64,192,11030,1,0,0:0:0:0:
448,192,11576,1,0,0:0:0:0:
192,192,12121,1,8,0:0:0:0:
448,192,13212,1,0,0:0:0:0:
320,192,13757,1,0,0:0:0:0:
192,192,14303,1,0,0:0:0:0:
64,192,14848,1,0,0:0:0:0:
320,192,15394,1,8,0:0:0:0:
320,192,16485,1,0,0:0:0:0:
192,192,17030,1,8,0:0:0:0:
64,192,17576,1,0,0:0:0:0:
192,192,18121,1,0,0:0:0:0:
448,192,18667,1,8,0:0:0:0:
320,192,19757,128,0,20303:0:0:0:0:
192,192,20303,1,8,0:0:0:0:
448,192,20848,1,0,0:0:0:0:
320,192,21394,1,0,0:0:0:0:
64,192,21939,1,8,0:0:0:0:
448,192,22485,1,0,0:0:0:0:
64,192,23030,1,0,0:0:0:0:
192,192,23576,1,8,0:0:0:0:
448,192,24121,1,0,0:0:0:0:
192,192,24667,1,0,0:0:0:0:
448,192,25212,128,8,25757:0:0:0:0:
64,192,25757,128,0,26303:0:0:0:0:
192,192,26303,1,0,0:0:0:0:
320,192,26848,1,8,0:0:0:0:
192,192,27394,1,0,0:0:0:0:
448,192,27939,1,0,0:0:0:0:
64,192,28485,1,8,0:0:0:0:
192,192,29576,1,0,0:0:0:0:
320,192,30121,1,8,0:0:0:0:
448,192,30667,1,0,0:0:0:0:
64,192,31212,1,0,0:0:0:0:
320,192,31757,1,8,0:0:0:0:
64,192,32848,128,0,33394:0:0:0:0:
192,192,33394,1,8,0:0:0:0:
320,192,33939,1,0,0:0:0:0:
448,192,34485,1,0,0:0:0:0:
448,192,35030,128,8,35576:0:0:0:0:
64,192,35576,128,0,36121:0:0:0:0:
192,192,36121,1,0,0:0:0:0:
320,192,36667,1,8,0:0:0:0:
64,192,37212,1,0,0:0:0:0:
320,192,37757,1,0,0:0:0:0:
64,192,38303,1,8,0:0:0:0:
448,192,39394,1,0,0:0:0:0:
320,192,39939,1,0,0:0:0:0:
192,192,40485,1,0,0:0:0:0:
448,192,41030,1,0,0:0:0:0:
320,192,41576,1,8,0:0:0:0:
448,192,42667,1,0,0:0:0:0:
192,192,43212,1,8,0:0:0:0:
64,192,43757,1,0,0:0:0:0:
192,192,44303,1,0,0:0:0:0:
320,192,44848,1,8,0:0:0:0:
448,192,45939,128,0,46485:0:0:0:0:
320,192,46485,1,8,0:0:0:0:
192,192,47030,1,0,0:0:0:0:
64,192,47576,1,0,0:0:0:0:
192,192,48121,1,8,0:0:0:0:
448,192,48667,1,0,0:0:0:0:
320,192,49212,1,0,0:0:0:0:
192,192,49893,1,0,0:0:0:0:
64,192,50775,1,0,0:0:0:0:
320,192,51940,1,8,0:0:0:0:
