osu file format v14

[General]
AudioFilename: audio.mp3
AudioLeadIn: 0
PreviewTime: 667
Countdown: 1
SampleSet: None
StackLeniency: 0.7
Mode: 0
LetterboxInBreaks: 0
WidescreenStoryboard: 1

[Editor]
DistanceSpacing: 1
BeatDivisor: 4
GridSize: 32
TimelineZoom: 0.6999999

[Metadata]
Title:Setsugetsu Ouka no Kuni
TitleUnicode:雪月桜花の国
Artist:UNDEAD CORPORATION
ArtistUnicode:UNDEAD CORPORATION
Creator:Vulkin
Version:Beautiful World
Source:東方Project
Tags:Touhou Piano Gensoukyou kara chou Koutetsu Juutei Bakuon 幻想郷から超鋼鉄重低爆音 C78 ZUN Three Moon Fairies Sangetsusei 東方三月精 ~ Strange and Bright Nature Deity 1 Team Shanghai Alice A Land Resplendent With Nature's Beauty 上海アリス幻樂団 Gengakudan Yukimura Hirano Sunny Milk Luna Child Star Sapphire
BeatmapID:1602592
BeatmapSetID:762214

[Difficulty]
HPDrainRate:8
CircleSize:2
OverallDifficulty:3
ApproachRate:6
SliderMultiplier:1.4
SliderTickRate:1

[Events]
//Background and Video events
0,0,"73773.jpg",0,0
//Break Periods
//Storyboard Layer 0 (Background)
//Storyboard Layer 1 (Fail)
//Storyboard Layer 2 (Pass)
//Storyboard Layer 3 (Foreground)
//Storyboard Sound Samples

[TimingPoints]
122,545.454545454546,3,2,1,20,1,0
49212,681.818181818182,3,2,1,25,1,0
49893,882.352941176471,3,2,1,20,1,0
50775,1165.04854368932,3,2,1,15,1,0
51940,1090.90909090909,3,2,1,30,1,0
53030,-100,3,2,1,25,0,0
54121,-100,3,2,1,20,0,0
55212,-100,3,2,1,15,0,0
56303,-100,3,2,1,10,0,0
57394,-100,3,2,1,5,0,0

[Colours]
Combo1 : 128,0,255
Combo2 : 128,128,192

[HitObjects]
42,123,667,5,0,0:0:0:0:
174,77,1212,1,0,0:0:0:0:
275,172,1758,6,0,P|216:209|147:214,1,140,2|0,0:0|0:0,0:0:0:0:
373,50,3394,5,2,0:0:0:0:
451,166,3940,1,0,0:0:0:0:
381,287,4485,1,0,0:0:0:0:
245,322,5031,6,0,P|250:238|293:176,1,140,2|0,0:0|0:0,0:0:0:0:
32,326,6667,5,0,0:0:0:0:
48,186,7212,2,0,P|107:223|176:226,1,140
148,88,8303,6,0,P|232:98|277:129,1,140,2|0,0:0|0:0,0:0:0:0:
368,22,9395,1,0,0:0:0:0:
479,107,9940,1,2,0:0:0:0:
395,218,10486,1,0,0:0:0:0:
506,303,11031,1,0,0:0:0:0:
369,332,11576,6,0,P|299:289|281:215,1,140,2|0,0:0|0:0,0:0:0:0:
155,27,13212,5,10,0:0:0:0:
227,147,13757,1,0,0:0:0:0:
107,220,14303,1,0,0:0:0:0:
223,297,14849,6,0,P|330:257|375:173,1,140,2|0,0:0|0:0,0:0:0:0:
145,44,16485,6,0,P|38:84|-7:168,1,140,2|0,0:0|0:0,0:0:0:0:
135,184,17576,1,0,0:0:0:0:
262,124,18122,6,0,P|309:150|425:138,1,140,2|0,0:0|0:0,0:0:0:0:
166,315,19758,5,0,0:0:0:0:
72,211,20303,1,0,0:0:0:0:
115,78,20849,1,0,0:0:0:0:
192,194,21394,6,0,P|246:133|253:62,1,140,2|0,0:0|0:0,0:0:0:0:
334,192,22485,1,0,0:0:0:0:
468,229,23031,2,0,P|414:306|370:326,1,140,2|0,0:0|0:0,0:0:0:0:
235,344,24122,1,0,0:0:0:0:
108,284,24667,6,0,P|52:241|24:162,1,140,2|0,0:0|0:0,0:0:0:0:
163,154,25758,2,0,P|227:128|310:142,1,140,2|0,0:0|0:0,0:0:0:0:
385,244,26849,1,0,0:0:0:0:
246,263,27394,1,0,0:0:0:0:
134,177,27940,6,0,P|141:100|191:38,1,140,2|0,0:0|0:0,0:0:0:0:
411,200,29576,6,0,P|404:277|354:339,1,140,2|0,0:0|0:0,0:0:0:0:
274,224,30667,1,0,0:0:0:0:
221,94,31212,6,0,P|146:47|70:52,1,140,2|0,0:0|0:0,0:0:0:0:
47,321,32849,6,0,P|95:348|197:338,1,140
290,262,33940,1,0,0:0:0:0:
413,328,34485,6,0,P|425:236|410:192,1,140,2|0,0:0|0:0,0:0:0:0:
282,136,35576,1,2,0:0:0:0:
157,71,36122,2,0,P|145:163|160:207,1,140,2|0,0:0|0:0,0:0:0:0:
260,302,37212,1,0,0:0:0:0:
361,205,37758,6,0,P|305:171|214:168,1,140,2|0,0:0|0:0,0:0:0:0:
35,297,39394,5,10,0:0:0:0:
170,260,39940,1,0,0:0:0:0:
286,337,40485,1,0,0:0:0:0:
421,300,41031,6,0,P|458:217|452:148,1,140,2|0,0:0|0:0,0:0:0:0:
204,47,42667,6,0,P|128:96|103:153,1,140,2|0,0:0|0:0,0:0:0:0:
136,275,43758,1,0,0:0:0:0:
239,183,44303,6,0,P|308:179|365:141,1,140,2|0,0:0|0:0,0:0:0:0:
150,320,45940,5,0,0:0:0:0:
288,341,46485,1,0,0:0:0:0:
410,272,47031,1,0,0:0:0:0:
405,132,47576,6,0,P|364:84|261:60,1,140,2|0,0:0|0:0,0:0:0:0:
282,198,48667,1,2,0:0:0:0:
184,142,49212,6,0,P|119:112|77:108,1,105,2|0,0:0|0:0,0:0:0:0:
171,169,49893,2,0,P|99:163|59:174,1,105,2|0,0:0|0:0,0:0:0:0:
168,199,50775,2,0,P|99:218|64:242,1,105,2|0,0:0|0:0,0:0:0:0:
176,229,51940,2,0,L|170:240,4,8.75,2|0|0|0|2,0:0|0:0|0:0|0:0|0:0,0:0:0:0:
256,192,52485,12,0,58485,0:0:0:0:
