osu file format v14

[General]
AudioFilename: audio.mp3
AudioLeadIn: 0
PreviewTime: 67688
Countdown: 0
SampleSet: Soft
StackLeniency: 0.7
Mode: 0
LetterboxInBreaks: 0
WidescreenStoryboard: 1

[Editor]
DistanceSpacing: 1.3
BeatDivisor: 4
GridSize: 4
TimelineZoom: 0.8999989

[Metadata]
Title:Sad Dream
TitleUnicode:Sad Dream
Artist:UNDEAD CORPORATION
ArtistUnicode:UNDEAD CORPORATION
Creator:Hinsvar
Version:Normal
Source:
Tags:Flash Back metal English Featured Artist FA Mappers' Guild MG MPG 朱美 Akemi 窪田道元 Dougen Kubota 仁耶 Jinya 社長 Shachou YU-TO
BeatmapID:2149492
BeatmapSetID:1019827

[Difficulty]
HPDrainRate:4
CircleSize:3
OverallDifficulty:4
ApproachRate:6
SliderMultiplier:0.96
SliderTickRate:1

[Events]
//Background and Video events
0,0,"sd.jpg",0,0
//Break Periods
2,97648,101138
2,155257,158738
2,160057,162998
//Storyboard Layer 0 (Background)
//Storyboard Layer 1 (Fail)
//Storyboard Layer 2 (Pass)
//Storyboard Layer 3 (Foreground)
//Storyboard Layer 4 (Overlay)
//Storyboard Sound Samples

[TimingPoints]
1455,300,4,2,2,50,1,0
1455,-100,4,2,2,50,0,0
8655,-100,4,2,2,60,0,0
9555,-100,4,2,2,70,0,0
10305,-100,4,2,1,80,0,0
10755,-100,4,2,1,60,0,0
11055,-100,4,2,1,80,0,0
20355,-100,4,2,1,60,0,0
20655,-100,4,2,1,80,0,0
28905,-100,4,2,1,60,0,0
38655,-100,4,2,1,70,0,0
39870,300,4,2,1,80,1,0
43455,300,4,2,1,80,1,0
49155,307.692307692308,4,2,1,80,1,0
49463,300,4,2,1,80,1,0
53050,300,4,2,1,80,1,0
56040,300,4,2,1,80,1,0
56800,300,4,2,1,80,1,0
57850,300,4,2,1,80,1,0
58750,-100,4,2,1,80,0,0
59061,300,4,2,1,80,1,0
64761,294.117647058824,4,2,1,80,1,0
65055,300,4,2,1,80,1,0
66255,279.06976744186,4,2,1,80,1,0
66534,307.692307692308,4,2,1,80,1,0
67149,-100,4,2,1,80,0,0
67763,292.682926829268,4,2,1,70,1,0
67763,-100,4,2,1,70,0,0
68055,300,4,2,1,70,1,0
68655,300,4,2,1,90,1,1
68655,-100,4,2,1,90,0,1
71055,292.682926829268,4,2,1,90,1,1
71055,-100,4,2,1,90,0,1
71347,300,4,2,1,90,1,1
71347,-100,4,2,1,90,0,1
72247,297.029702970297,4,2,1,90,1,1
72247,-100,4,2,1,90,0,1
73435,300,4,2,1,90,1,1
73435,-100,4,2,1,90,0,1
78235,303.79746835443,4,2,1,90,1,1
78235,-100,4,2,1,90,0,1
79450,301.507537688442,4,2,1,90,1,1
79450,-100,4,2,1,90,0,1
81862,300,4,2,1,90,1,1
81862,-100,4,2,1,90,0,1
82462,294.117647058824,4,2,1,90,1,1
82462,-100,4,2,1,90,0,1
83050,300,4,2,1,90,1,1
83050,-100,4,2,1,90,0,1
83650,310.880829015544,4,2,1,90,1,1
83650,-100,4,2,1,90,0,1
84271,300,4,2,1,90,1,1
84271,-100,4,2,1,90,0,1
85471,-100,4,2,1,90,0,1
86358,300,4,2,1,90,1,1
86358,-100,4,2,1,90,0,1
87558,-100,4,2,1,60,0,0
87858,300,4,2,1,80,1,1
87858,-100,4,2,1,80,0,1
87933,-100,4,2,1,80,0,0
95048,300,4,2,1,80,1,0
97448,-100,4,2,1,70,0,0
102253,300,4,2,1,70,1,0
107053,-100,4,2,1,80,0,0
108396,300,4,2,1,80,1,0
109446,300,4,2,1,80,1,0
111846,294.117647058824,4,2,1,80,1,0
112140,300,4,2,1,80,1,0
113040,300,4,2,1,80,1,0
114853,300,4,2,1,80,1,0
115453,300,4,2,1,90,1,0
116653,300,4,2,1,90,1,0
126253,-100,4,2,1,90,0,1
128053,-100,4,2,1,90,0,1
128058,300,4,2,1,90,1,1
128058,-100,4,2,1,90,0,1
128658,300,4,2,1,90,1,1
128658,-100,4,2,1,90,0,1
137063,300,4,2,1,90,1,1
137063,-100,4,2,1,90,0,1
140058,300,4,2,1,90,1,1
140058,-100,4,2,1,90,0,1
140658,300,4,2,1,90,1,1
140658,-100,4,2,1,90,0,1
143058,-100,4,2,1,90,0,1
145451,300,4,2,1,80,1,0
151451,301.507537688442,4,2,1,80,1,0
152657,300,4,2,1,80,1,0
153557,-100,4,2,1,70,0,0
164048,306.122448979592,4,2,1,50,1,0
164660,300,4,2,1,60,1,0
164660,-100,4,2,1,60,0,0
165850,300,4,2,1,50,1,0
165850,-100,4,2,1,50,0,0
168100,-100,4,2,1,60,0,0
168700,-100,4,2,1,60,0,0
169458,300,4,2,1,50,1,0
169458,-100,4,2,1,50,0,0
170958,279.06976744186,4,2,1,50,1,0
171097,307.692307692308,4,2,1,50,1,0
171866,-100,4,2,1,60,0,0
172173,297.029702970297,4,2,1,60,1,0
173658,300,4,2,1,70,1,0
174258,300,4,2,1,80,1,0
178151,300,4,2,1,80,1,0
179051,300,4,2,1,80,1,0
183863,300,4,2,1,80,1,0
185213,297.766749379653,4,2,1,80,1,0
186255,300,4,2,1,80,1,0
191055,301.507537688442,4,2,1,80,1,0
191682,287.081339712919,4,2,1,80,1,0
192400,300,4,2,1,80,1,0
193450,300,4,2,1,80,1,0
194666,300,4,2,1,80,1,0
194950,303.030303030303,4,2,1,80,1,0
195859,303.030303030303,4,2,1,80,1,0
196465,294.117647058824,4,2,1,80,1,0
197053,300,4,2,1,80,1,0
202003,-100,4,2,1,60,0,0
202453,-100,4,2,1,60,0,0
202753,-100,4,2,1,70,0,0
202978,-100,4,2,1,15,0,0
203053,-100,4,2,1,70,0,0
212653,-100,4,2,1,90,0,1
213548,300,4,2,1,90,1,1
213548,-100,4,2,1,90,0,1
213848,300,4,2,1,90,1,1
213848,-100,4,2,1,90,0,1
215041,300,4,2,1,90,1,1
215041,-100,4,2,1,90,0,1
218648,297.029702970297,4,2,1,90,1,1
218648,-100,4,2,1,90,0,1
219539,300,4,2,1,90,1,1
219539,-100,4,2,1,90,0,1
219839,300,4,2,1,90,1,1
219839,-100,4,2,1,90,0,1
221031,300,4,2,1,90,1,1
221031,-100,4,2,1,90,0,1
221639,300,4,2,1,90,1,1
221639,-100,4,2,1,90,0,1
222239,301.507537688442,4,2,1,90,1,1
222239,-100,4,2,1,90,0,1
227063,297.766749379653,4,2,1,90,1,1
227063,-100,4,2,1,90,0,1
229445,300,4,2,1,90,1,1
229445,-100,4,2,1,90,0,1
230945,-100,4,2,1,90,0,0
231845,-100,4,2,1,90,0,1
232738,300,4,2,1,90,1,1
232738,-100,4,2,1,90,0,1
233038,300,4,2,1,90,1,1
233038,-100,4,2,1,90,0,1
235447,300,4,2,1,90,1,1
235447,-100,4,2,1,90,0,1
239955,300,4,2,1,90,1,1
239955,-100,4,2,1,90,0,1
240255,300,4,2,1,90,1,1
240255,-100,4,2,1,90,0,1
245061,300,4,2,1,90,1,1
245061,-100,4,2,1,90,0,1
247455,297.029702970297,4,2,1,90,1,1
247455,-100,4,2,1,90,0,1
248643,303.030303030303,4,2,1,90,1,1
248643,-100,4,2,1,90,0,1
249552,300,4,2,1,90,1,1
249552,-100,4,2,1,90,0,1
249852,300,4,2,1,90,1,1
249852,-100,4,2,1,90,0,1
251046,300,4,2,1,90,1,0
251046,-100,4,2,1,90,0,0
254651,300,4,2,1,90,1,0
254651,-100,4,2,1,90,0,0
259451,-100,4,2,1,70,0,0
259751,-100,4,2,1,65,0,0
260051,-100,4,2,1,60,0,0
260351,-100,4,2,1,55,0,0
260651,-100,4,2,1,50,0,0
260951,-100,4,2,1,45,0,0
261251,-100,4,2,1,40,0,0
261551,-100,4,2,1,35,0,0
261851,-100,4,2,1,30,0,0
262151,-100,4,2,1,25,0,0
262451,-100,4,2,1,20,0,0
262751,-100,4,2,1,15,0,0
263051,-100,4,2,1,10,0,0
263351,-100,4,2,1,5,0,0

[Colours]
Combo1 : 234,218,254
Combo2 : 12,209,220
Combo3 : 255,221,132
Combo4 : 0,135,200

[HitObjects]
413,347,1455,6,0,P|451:290|361:228,1,192,10|8,0:0|0:0,0:0:0:0:
307,297,2355,1,0,0:0:0:0:
307,297,2505,2,0,L|196:308,1,96,8|8,0:0|0:0,0:0:0:0:
172,277,2955,1,0,0:0:0:0:
77,291,3255,2,0,L|90:193,1,96,8|0,0:0|0:0,0:0:0:0:
63,103,3855,6,0,B|109:91|169:113|143:121|203:144|249:125,1,192,2|8,0:0|0:0,0:0:0:0:
311,52,4755,1,0,0:0:0:0:
311,52,4905,2,0,B|360:48|360:48|406:67,1,96,8|0,0:0|0:0,0:0:0:0:
441,95,5355,1,0,0:0:0:0:
470,186,5655,2,0,B|474:235|474:235|456:278,1,96,8|0,0:0|0:0,0:0:0:0:
386,343,6255,6,0,B|304:293|304:293|314:197,1,192,10|8,0:0|0:0,0:0:0:0:
338,104,7155,1,0,0:0:0:0:
338,104,7305,2,0,L|233:121,1,96,8|0,0:0|0:0,0:0:0:0:
196,108,7755,2,0,B|183:75|183:75|198:7,2,96,0|8|0,0:0|0:0|0:0,0:0:0:0:
228,198,8655,5,10,0:0:0:0:
228,198,8805,2,0,L|123:226,1,96,0|2,0:0|0:0,0:0:0:0:
89,237,9255,1,0,0:0:0:0:
49,334,9555,2,0,P|114:353|213:360,1,144,2|8,0:0|0:0,0:0:0:0:
283,328,10305,1,0,3:0:0:0:
283,328,10455,2,0,L|295:230,1,96,10|0,0:0|3:0,0:0:0:0:
325,195,10905,1,10,0:0:0:0:
358,160,11055,6,0,B|377:91|377:91|352:60,1,96,4|0,3:2|3:0,0:0:0:0:
326,38,11505,1,2,0:0:0:0:
326,38,11655,2,0,L|276:51,1,48,10|2,0:0|0:0,0:0:0:0:
194,96,12105,2,0,L|100:76,1,96,2|2,3:2|0:0,0:0:0:0:
54,92,12555,1,2,0:0:0:0:
9,177,12855,1,8,0:0:0:0:
66,253,13155,1,2,0:0:0:0:
152,294,13455,6,0,B|168:266|168:266|174:194,2,96,2|0|10,3:2|3:0|0:0,0:0:0:0:
173,336,14205,2,0,L|277:355,1,96,2|2,0:0|3:2,0:0:0:0:
353,311,14805,1,0,0:0:0:0:
353,311,14955,2,0,B|395:292|395:292|450:305,1,96,2|8,0:0|0:0,0:0:0:0:
497,224,15555,1,2,3:2:0:0:
461,134,15855,6,0,P|415:144|370:179,1,96,4|0,3:2|3:0,0:0:0:0:
285,204,16455,1,10,0:0:0:0:
285,204,16605,2,0,B|265:177|265:177|277:109,1,96,0|2,0:0|3:2,0:0:0:0:
352,57,17205,2,0,L|361:10,2,48,2|0|0,3:2|0:0|0:0,0:0:0:0:
393,81,17655,1,10,0:0:0:0:
454,154,17955,1,2,3:2:0:0:
408,238,18255,6,0,P|364:250|310:251,1,96,2|0,3:2|3:0,0:0:0:0:
266,334,18855,1,10,0:0:0:0:
266,334,19005,2,0,P|230:304|199:261,1,96,0|2,0:0|3:2,0:0:0:0:
161,177,19605,1,0,3:0:0:0:
161,177,19755,2,0,L|166:121,2,48,10|0|10,0:0|0:0|0:0,0:0:0:0:
84,234,20355,1,2,0:0:0:0:
125,320,20655,6,0,B|152:344|152:344|224:356,1,96,4|2,3:2|0:0,0:0:0:0:
301,320,21255,1,10,0:0:0:0:
301,320,21405,2,0,P|321:273|323:220,1,96,0|2,0:0|3:2,0:0:0:0:
269,149,22005,1,2,0:0:0:0:
269,149,22155,2,0,L|256:98,1,48,2|0,0:0|0:0,0:0:0:0:
278,59,22455,2,0,L|374:37,1,96,10|2,0:0|3:2,0:0:0:0:
459,75,23055,5,4,3:2:0:0:
491,165,23355,2,0,B|487:238|487:238|466:262,1,96,2|8,3:2|0:0,0:0:0:0:
432,282,23805,1,2,0:0:0:0:
343,244,24105,2,0,P|300:260|272:305,1,96,2|2,3:2|0:0,0:0:0:0:
257,347,24555,1,2,0:0:0:0:
162,365,24855,1,10,0:0:0:0:
89,301,25155,1,2,0:0:0:0:
128,213,25455,6,0,P|183:194|231:194,2,96,4|2|10,3:2|0:0|0:0,0:0:0:0:
80,206,26205,2,0,L|65:157,1,48
51,114,26505,1,2,3:2:0:0:
123,50,26805,2,0,L|129:2,2,48,2|2|0,0:0|0:0|0:0,0:0:0:0:
162,77,27255,1,10,0:0:0:0:
252,44,27555,1,2,0:0:0:0:
337,87,27855,6,0,P|337:133|320:188,1,96,2|2,3:2|0:0,0:0:0:0:
374,270,28455,1,10,0:0:0:0:
374,270,28605,1,0,0:0:0:0:
469,274,28905,2,0,P|489:317|499:364,2,96,14|0|2,0:0|0:0|0:0,0:0:0:0:
492,232,29655,1,0,0:0:0:0:
466,139,29955,1,2,0:0:0:0:
413,58,30255,6,0,B|377:27|377:27|309:20,1,96,2|10,3:2|0:0,0:0:0:0:
287,47,30705,1,2,0:0:0:0:
287,47,30855,2,0,B|251:77|251:77|183:84,1,96,0|8,0:0|0:0,0:0:0:0:
110,55,31455,2,0,B|97:94|97:94|100:105|100:105|88:151,1,96,0|10,3:0|0:0,0:0:0:0:
104,192,31905,2,0,P|119:234|124:289,1,96,2|0,0:0|0:0,0:0:0:0:
96,324,32355,1,8,0:0:0:0:
177,368,32655,6,0,P|223:352|278:354,1,96,0|10,3:0|0:0,0:0:0:0:
315,367,33105,1,2,0:0:0:0:
383,299,33405,1,0,0:0:0:0:
383,299,33555,2,0,L|374:241,1,48,8|2,0:0|0:0,0:0:0:0:
416,225,33855,2,0,L|332:178,1,96,2|8,0:0|0:0,0:0:0:0:
270,104,34455,2,0,L|218:114,2,48,0|0|10,0:0|3:0|0:0,0:0:0:0:
329,28,35055,6,0,P|372:42|406:82,1,96,0|10,3:0|0:0,0:0:0:0:
431,119,35505,1,2,0:0:0:0:
431,119,35655,1,0,0:0:0:0:
446,213,35955,1,8,0:0:0:0:
393,296,36255,2,0,B|350:309|350:309|341:307|341:307|294:321,1,96,0|10,3:0|0:0,0:0:0:0:
272,358,36705,1,2,0:0:0:0:
272,358,36855,2,0,P|262:308|242:263,1,96,0|8,0:0|0:0,0:0:0:0:
156,227,37455,5,0,3:0:0:0:
100,148,37755,1,8,0:0:0:0:
103,52,38055,2,0,L|159:40,1,48,0|0,3:0|3:0,0:0:0:0:
181,77,38355,2,0,L|237:89,1,48,8|0,0:0|3:0,0:0:0:0:
266,58,38655,1,10,0:0:0:0:
334,124,38955,1,10,0:0:0:0:
417,77,39255,2,0,L|430:30,2,48,10|0|10,0:0|3:0|0:0,0:0:0:0:
477,151,39870,6,0,P|480:197|463:258,1,96,4|10,3:2|0:0,0:0:0:0:
420,328,40470,2,0,L|437:380,2,48,0|0|8,0:0|3:0|0:0,0:0:0:0:
328,299,41070,2,0,B|296:295|296:295|228:323,1,96,0|10,3:0|0:0,0:0:0:0:
213,360,41520,2,0,B|181:364|181:364|113:336,1,96,2|0,3:2|3:0,0:0:0:0:
87,305,41970,1,8,0:0:0:0:
50,216,42270,6,0,P|45:168|67:120,1,96,0|10,3:0|0:0,0:0:0:0:
85,81,42720,1,2,3:2:0:0:
170,37,43020,1,0,3:0:0:0:
170,37,43170,1,8,0:0:0:0:
254,83,43455,2,0,L|306:64,2,48,2|0|8,3:2|3:0|0:0,0:0:0:0:
227,122,43905,2,0,L|321:160,1,96,2|0,3:2|3:0,0:0:0:0:
358,179,44355,1,10,0:0:0:0:
448,147,44655,6,0,P|465:188|470:249,1,96,0|8,3:0|0:0,0:0:0:0:
450,282,45105,1,2,3:2:0:0:
450,282,45255,2,0,L|352:310,1,96,0|8,0:0|0:0,0:0:0:0:
273,355,45855,2,0,L|221:338,1,48,2|0,3:2|3:0,0:0:0:0:
181,352,46155,2,0,P|164:312|152:260,1,96,10|0,0:0|3:0,0:0:0:0:
200,177,46755,1,0,3:0:0:0:
165,87,47055,6,0,P|131:61|74:50,1,96,10|8,0:0|0:0,0:0:0:0:
34,65,47505,1,2,3:2:0:0:
45,160,47805,2,0,L|21:221,2,48,0|8|0,3:0|0:0|3:0,0:0:0:0:
92,151,48255,5,10,0:0:0:0:
177,194,48555,1,2,3:2:0:0:
189,289,48855,1,0,3:0:0:0:
117,353,49155,2,0,L|60:339,1,48,0|0,3:0|3:0,0:0:0:0:
35,308,49463,6,0,B|21:259|21:259|53:162,1,144,12|10,3:2|0:0,0:0:0:0:
154,192,50213,1,0,0:0:0:0:
154,192,50363,2,0,P|203:187|244:156,1,96,2|0,3:2|0:0,0:0:0:0:
271,123,50813,1,10,0:0:0:0:
341,197,51113,1,0,0:0:0:0:
341,197,51263,2,0,L|401:190,2,48,2|0|8,0:0|0:0|0:0,0:0:0:0:
308,287,51863,6,0,L|400:320,1,96,4|8,3:2|0:0,0:0:0:0:
442,337,52313,1,0,0:0:0:0:
442,337,52463,1,2,0:0:0:0:
492,255,52763,1,10,0:0:0:0:
499,163,53050,2,0,P|499:115|476:55,1,96,2|8,3:2|0:0,0:0:0:0:
403,18,53650,2,0,L|355:29,1,48,2|2,3:2|3:2,0:0:0:0:
315,53,53950,2,0,L|267:42,1,48,10|8,0:0|0:0,0:0:0:0:
230,72,54250,6,0,B|205:111|205:111|244:207,1,144,12|8,3:2|0:0,0:0:0:0:
263,244,54850,1,2,0:0:0:0:
225,333,55150,2,0,B|199:346|199:346|119:338,1,96,10|0,0:0|0:0,0:0:0:0:
113,295,55600,2,0,L|144:248,2,48,10|0|0,0:0|0:0|3:0,0:0:0:0:
68,287,56040,2,0,P|35:251|19:199,1,96,10|10,0:0|0:0,0:0:0:0:
51,115,56640,5,4,3:2:0:0:
145,99,56950,1,10,0:0:0:0:
226,158,57250,2,0,L|280:143,2,48,10|0|10,0:0|3:0|0:0,0:0:0:0:
169,235,57850,2,0,P|185:281|226:317,1,96,10|8,0:0|0:0,0:0:0:0:
314,307,58450,2,0,L|337:251,2,48,2|0|8,3:2|0:0|0:0,0:0:0:0:
393,367,59061,6,0,B|461:356|461:356|476:328,1,96,12|8,3:2|0:0,0:0:0:0:
486,285,59511,1,2,3:2:0:0:
417,217,59811,1,0,0:0:0:0:
417,217,59961,2,0,P|397:171|392:125,1,96,8|2,0:0|3:2,0:0:0:0:
422,88,60411,2,0,L|326:69,1,96,2|0,0:0|3:0,0:0:0:0:
280,62,60861,1,2,3:2:0:0:
208,125,61161,1,8,0:0:0:0:
114,103,61461,6,0,P|96:61|90:7,2,96,4|10|2,3:2|0:0|0:0,0:0:0:0:
189,163,62361,1,10,0:0:0:0:
207,257,62661,1,0,0:0:0:0:
131,316,62961,2,0,L|74:297,1,48,8|2,0:0|0:0,0:0:0:0:
62,258,63261,2,0,L|96:164,1,96,2|0,3:2|3:0,0:0:0:0:
53,81,63861,6,0,B|161:50|161:50|196:78,1,144,12|8,3:2|0:0,0:0:0:0:
211,110,64461,1,2,0:0:0:0:
302,65,64761,2,0,P|315:108|321:168,1,96,8|2,0:0|0:0,0:0:0:0:
305,204,65205,1,0,3:0:0:0:
375,268,65505,1,0,0:0:0:0:
375,268,65655,2,0,L|362:332,2,48,10|0|10,0:0|0:0|0:0,0:0:0:0:
456,228,66255,6,0,B|482:204|482:204|478:132,1,96,10|0,0:0|3:0,0:0:0:0:
454,102,66687,1,10,0:0:0:0:
369,57,66995,1,0,3:0:0:0:
369,57,67149,2,0,P|317:124|211:110,1,192,2|0,3:2|0:0,0:0:0:0:
218,116,68655,6,0,B|168:111|168:111|125:137,1,96,4|8,0:0|0:0,0:0:0:0:
105,176,69105,2,0,B|111:233|111:233|186:283,1,144,2|8,0:0|0:0,0:0:0:0:
270,321,69855,1,2,3:2:0:0:
350,267,70155,2,0,L|403:258,2,48,8|0|2,0:0|0:0|0:0,0:0:0:0:
296,186,70755,1,8,0:0:0:0:
214,237,71055,5,2,3:2:0:0:
125,200,71347,2,0,P|110:157|110:105,2,96,8|2|8,0:0|0:0|0:0,0:0:0:0:
89,289,72247,2,0,L|45:306,1,48,2|0,3:2|3:0,0:0:0:0:
25,350,72544,2,0,L|126:373,1,96,8|2,0:0|3:2,0:0:0:0:
196,314,73138,1,8,0:0:0:0:
290,328,73435,6,0,B|309:299|309:299|301:233,1,96,2|8,3:2|0:0,0:0:0:0:
265,206,73885,1,0,0:0:0:0:
265,206,74035,2,0,B|257:145|257:145|276:116,1,96,2|8,3:2|0:0,0:0:0:0:
346,50,74635,2,0,L|406:54,1,48,2|0,3:2|3:0,0:0:0:0:
436,76,74935,2,0,P|462:115|465:171,1,96,8|2,0:0|0:0,0:0:0:0:
422,248,75535,1,8,0:0:0:0:
445,341,75835,6,0,B|432:360|432:360|341:354,1,96,2|8,3:2|0:0,0:0:0:0:
327,319,76285,2,0,B|314:300|314:300|223:306,1,96,0|0,3:0|3:0,0:0:0:0:
202,333,76735,1,8,0:0:0:0:
115,290,77035,1,2,3:2:0:0:
81,200,77335,2,0,L|29:185,2,48,8|0|2,0:0|0:0|0:0,0:0:0:0:
122,113,77935,1,8,0:0:0:0:
60,39,78235,6,0,B|139:21|139:21|174:35,1,96,4|8,0:0|0:0,0:0:0:0:
200,16,78690,2,0,L|222:117,1,96,2|0,0:0|3:0,0:0:0:0:
233,155,79146,1,8,0:0:0:0:
187,239,79450,2,0,P|229:258|288:260,1,96,2|8,3:2|0:0,0:0:0:0:
360,211,80053,1,2,0:0:0:0:
438,266,80354,1,8,0:0:0:0:
388,348,80656,6,0,L|338:362,2,48,2|0|8,3:2|3:0|0:0,0:0:0:0:
438,266,81259,2,0,P|455:219|489:172,1,96,2|8,3:2|0:0,0:0:0:0:
458,87,81862,2,0,P|411:70|364:36,1,96,2|8,0:0|0:0,0:0:0:0:
308,115,82462,2,0,L|316:173,2,48,0|0|0,3:0|3:0|3:0,0:0:0:0:
250,37,83050,5,4,3:2:0:0:
158,66,83350,1,8,0:0:0:0:
78,12,83650,2,0,L|21:26,2,48,8|0|10,0:0|3:0|0:0,0:0:0:0:
65,107,84271,2,0,B|41:136|41:136|10:200,1,96,8|8,0:0|0:0,0:0:0:0:
5,284,84871,2,0,L|58:296,1,48,10|0,0:0|3:0,0:0:0:0:
83,330,85171,2,0,L|136:318,1,48,8|0,0:0|3:0,0:0:0:0:
172,341,85471,6,0,P|173:296|192:237,1,96,14|0,3:2|3:0,0:0:0:0:
207,203,85921,1,10,0:0:0:0:
296,255,86221,1,0,0:0:0:0:
296,255,86358,2,0,L|395:245,1,96,10|0,0:0|3:0,0:0:0:0:
436,261,86808,2,0,L|426:162,1,96,10|0,0:0|3:0,0:0:0:0:
421,117,87258,1,10,0:0:0:0:
416,69,87408,2,0,L|410:17,1,48,8|2,0:3|0:0,0:0:0:0:
315,7,87858,6,0,P|293:48|286:103,1,96,4|2,3:2|0:0,0:0:0:0:
333,184,88458,1,10,0:0:0:0:
333,184,88608,2,0,L|233:209,1,96,2|2,0:0|3:2,0:0:0:0:
193,291,89208,1,2,0:0:0:0:
193,291,89358,2,0,L|141:283,2,48,2|0|8,0:0|0:0|0:0,0:0:0:0:
255,364,89958,1,2,0:0:0:0:
344,329,90258,6,0,B|416:308|416:308|443:315,2,96,4|2|10,3:2|0:0|0:0,0:0:0:0:
325,284,91008,1,2,0:0:0:0:
255,217,91308,2,0,P|215:195|154:202,1,96,2|0,3:2|3:0,0:0:0:0:
120,214,91758,1,2,0:0:0:0:
62,290,92058,1,8,0:0:0:0:
128,358,92358,1,4,3:2:0:0:
217,322,92658,6,0,B|265:308|265:308|311:344,1,96,2|0,3:2|3:0,0:0:0:0:
344,369,93108,1,0,0:0:0:0:
344,369,93258,2,0,L|399:354,1,48,10|2,0:0|0:0,0:0:0:0:
474,310,93708,2,0,P|437:275|385:263,1,96,0|2,3:0|0:0,0:0:0:0:
359,230,94158,2,0,L|350:133,1,96,0|10,0:0|0:0,0:0:0:0:
395,49,94758,1,2,0:0:0:0:
477,98,95048,6,0,B|490:133|490:133|451:190,1,96,4|0,3:2|0:0,0:0:0:0:
497,273,95648,1,8,0:0:0:0:
497,273,95798,2,0,L|443:291,1,48,0|8,0:0|0:0,0:0:0:0:
428,330,96098,2,0,P|385:305|329:297,1,96,4|2,3:2|3:2,0:0:0:0:
297,320,96548,1,0,3:0:0:0:
217,266,96848,2,0,P|209:241|205:212,2,48,2|0|2,3:2|0:0|0:0,0:0:0:0:
136,318,97448,5,4,3:2:0:0:
283,352,102253,5,4,3:2:0:0:
372,316,102553,1,0,3:0:0:0:
412,228,102853,2,0,B|413:180|413:180|392:129,1,96,0|0,3:0|0:0,0:0:0:0:
326,68,103453,1,0,3:0:0:0:
267,144,103753,1,0,0:0:0:0:
190,86,104053,2,0,L|141:75,2,48,8|8|8,0:0|0:0|0:0,0:0:0:0:
149,173,104653,6,0,P|105:183|45:187,1,96,10|0,0:0|3:0,0:0:0:0:
31,230,105103,1,2,0:0:0:0:
31,230,105253,2,0,P|41:274|45:334,1,96,0|0,3:0|3:0,0:0:0:0:
129,370,105853,2,0,B|232:338|232:338|224:298,1,144,2|2,3:2|3:2,0:0:0:0:
213,256,106453,1,0,3:0:0:0:
280,187,106753,1,0,3:0:0:0:
207,123,107053,6,0,B|176:86|176:86|277:63,1,144,4|10,3:2|0:0,0:0:0:0:
363,45,107803,1,0,0:0:0:0:
363,45,107953,2,0,B|410:55|410:55|447:97,1,96,10|0,0:0|0:0,0:0:0:0:
469,129,108396,1,10,0:0:0:0:
466,224,108696,1,0,0:0:0:0:
466,224,108846,2,0,P|437:246|374:260,1,96,10|8,0:0|0:0,0:0:0:0:
303,201,109446,6,0,B|270:234|270:234|253:288,1,96,4|10,3:2|0:0,0:0:0:0:
249,332,109896,2,0,B|216:366|216:366|155:368,1,96
120,355,110346,1,10,0:0:0:0:
45,294,110646,2,0,P|29:249|40:195,1,96,0|10,3:0|0:0,0:0:0:0:
127,170,111246,2,0,L|180:181,2,48,2|0|10,3:2|0:0|0:0,0:0:0:0:
78,84,111846,6,0,B|118:39|118:39|163:32,1,96,12|2,0:0|0:0,0:0:0:0:
201,37,112290,1,12,0:0:0:0:
276,96,112590,1,0,0:0:0:0:
276,96,112740,2,0,B|294:131|294:131|278:190,1,96,10|0,0:0|0:0,0:0:0:0:
313,219,113190,2,0,B|300:256|300:256|247:286,1,96,10|0,0:0|0:0,0:0:0:0:
210,310,113640,1,10,0:0:0:0:
277,378,113940,1,10,0:0:0:0:
362,333,114240,6,0,P|412:331|461:344,1,96,4|10,3:2|0:0,0:0:0:0:
499,251,114853,1,10,0:0:0:0:
477,157,115153,1,10,0:0:0:0:
427,74,115453,2,0,B|384:52|384:52|333:50,1,96,0|8,3:0|0:0,0:0:0:0:
261,111,116053,1,10,0:0:0:0:
261,111,116203,2,0,L|245:163,1,48,2|2,3:2|3:2,0:0:0:0:
184,230,116653,6,0,B|211:281|211:281|296:258,1,144,12|2,3:2|0:0,0:0:0:0:
330,347,117403,1,0,3:0:0:0:
330,347,117553,2,0,L|235:373,1,96,10|2,0:0|3:2,0:0:0:0:
165,308,118153,2,0,L|111:295,2,48,10|0|2,0:0|0:0|3:2,0:0:0:0:
226,234,118753,1,8,0:0:0:0:
194,143,119053,6,0,B|169:122|169:122|102:152,1,96,4|8,3:2|0:0,0:0:0:0:
80,111,119503,2,0,B|47:113|47:113|21:182,1,96
48,219,119953,1,10,0:0:0:0:
48,219,120103,2,0,L|18:319,1,96
50,348,120553,1,8,0:0:0:0:
133,300,120853,1,2,3:2:0:0:
222,334,121153,1,2,0:0:0:0:
248,241,121453,6,0,B|313:232|313:232|332:223|332:223|389:216,1,144,12|8,0:0|0:0,0:0:0:0:
432,237,122053,1,2,0:0:0:0:
468,325,122353,2,0,P|438:354|383:362,1,96,10|2,0:0|0:0,0:0:0:0:
347,333,122803,1,10,0:0:0:0:
347,333,122953,1,0,0:0:0:0:
285,259,123253,2,0,L|233:264,2,48,2|0|8,3:2|0:0|0:0,0:0:0:0:
334,176,123853,6,0,B|397:167|397:167|433:185,1,96,10|0,0:0|3:0,0:0:0:0:
464,210,124303,1,10,0:0:0:0:
493,118,124603,1,0,3:0:0:0:
493,118,124753,1,10,0:0:0:0:
436,40,125053,2,0,P|392:20|337:18,1,96,10|10,0:0|0:0,0:0:0:0:
272,79,125653,1,10,0:0:0:0:
182,113,125953,1,8,0:0:0:0:
98,65,126253,6,0,B|73:73|73:73|41:146,1,96,4|8,3:2|0:0,0:0:0:0:
44,184,126703,2,0,P|85:233|157:222,1,144,2|8,0:0|0:0,0:0:0:0:
223,152,127453,1,2,3:2:0:0:
296,213,127753,2,0,L|307:266,2,48,8|0|2,0:0|0:0|0:0,0:0:0:0:
378,163,128358,1,8,0:0:0:0:
456,218,128658,5,2,3:2:0:0:
452,313,128958,2,0,P|413:341|366:355,1,96,8|2,0:0|0:0,0:0:0:0:
287,301,129558,1,8,0:0:0:0:
249,212,129858,2,0,L|259:161,1,48,2|0,3:2|3:0,0:0:0:0:
244,118,130158,2,0,B|220:92|220:92|148:75,2,96,8|2|8,0:0|3:2|0:0,0:0:0:0:
164,171,131058,6,0,P|142:215|139:265,1,96,2|8,3:2|0:0,0:0:0:0:
147,312,131508,1,0,0:0:0:0:
147,312,131658,2,0,P|99:308|56:286,1,96,2|8,3:2|0:0,0:0:0:0:
21,197,132258,2,0,L|13:147,1,48,2|0,3:2|3:0,0:0:0:0:
6,102,132558,1,8,0:0:0:0:
66,27,132858,1,2,0:0:0:0:
141,85,133158,1,8,0:0:0:0:
230,49,133458,6,0,L|240:-3,2,48,2|0|8,3:2|3:0|0:0,0:0:0:0:
253,90,133908,2,0,B|294:109|294:109|348:91,1,96,0|0,3:0|3:0,0:0:0:0:
365,50,134358,1,8,0:0:0:0:
460,37,134658,1,2,3:2:0:0:
499,124,134958,2,0,P|497:173|483:225,2,96,8|2|8,0:0|0:0|0:0,0:0:0:0:
403,127,135858,6,0,P|365:94|353:42,1,96,4|8,0:0|0:0,0:0:0:0:
310,27,136308,2,0,L|197:44,1,96,0|0,0:0|3:0,0:0:0:0:
168,53,136758,1,8,0:0:0:0:
120,136,137058,1,2,3:2:0:0:
169,219,137363,2,0,L|147:269,2,48,8|0|2,0:0|0:0|0:0,0:0:0:0:
261,203,137963,1,8,0:0:0:0:
346,246,138263,6,0,P|365:289|373:342,1,96,2|8,3:2|0:0,0:0:0:0:
283,371,138863,2,0,P|264:328|256:275,1,96,2|8,0:0|0:0,0:0:0:0:
257,228,139313,1,0,0:0:0:0:
261,232,139463,1,2,3:2:0:0:
200,157,139763,1,8,0:0:0:0:
107,177,140058,2,0,L|90:238,1,48,0|0,3:0|3:0,0:0:0:0:
48,238,140358,2,0,L|31:299,1,48,0|0,3:0|3:0,0:0:0:0:
46,331,140658,5,4,3:2:0:0:
137,302,140958,1,8,0:0:0:0:
228,332,141258,2,0,L|237:384,2,48,8|0|10,0:0|3:0|0:0,0:0:0:0:
283,255,141858,1,8,0:0:0:0:
373,288,142158,2,0,P|407:255|418:205,2,96,8|10|8,0:0|0:0|0:0,0:0:0:0:
322,206,143058,6,0,B|305:161|305:161|325:118,1,96,4|0,3:2|3:0,0:0:0:0:
358,82,143508,1,10,0:0:0:0:
288,16,143808,1,0,0:0:0:0:
288,16,143958,2,0,L|183:34,1,96,10|0,0:0|3:0,0:0:0:0:
168,73,144408,2,0,L|63:55,1,96,10|0,0:0|3:0,0:0:0:0:
33,84,144858,1,10,0:0:0:0:
69,172,145158,2,0,L|123:160,1,48,10|8,0:0|0:0,0:0:0:0:
159,181,145451,6,0,P|159:230|140:286,1,96,4|10,3:2|0:0,0:0:0:0:
127,319,145901,1,4,3:2:0:0:
224,350,146201,1,2,3:2:0:0:
224,350,146351,2,0,L|327:336,1,96,8|2,0:0|3:2,0:0:0:0:
371,256,146951,1,0,3:0:0:0:
452,306,147251,2,0,L|464:365,2,48,2|2|0,3:2|3:2|3:0,0:0:0:0:
497,220,147851,6,0,B|475:158|475:158|448:136,1,96,4|10,3:2|0:0,0:0:0:0:
461,91,148301,2,0,B|432:80|432:80|368:92,1,96,4|2,0:0|0:0,0:0:0:0:
333,58,148751,1,8,0:0:0:0:
261,122,149051,2,0,L|250:172,2,48,0|0|0,3:0|3:0|3:0,0:0:0:0:
203,45,149651,2,0,L|151:50,1,48,2|8,3:2|0:0,0:0:0:0:
127,88,149951,2,0,L|75:93,1,48,8|0,0:0|3:0,0:0:0:0:
37,116,150251,6,0,B|26:162|26:162|47:218,1,96,4|10,3:2|0:0,0:0:0:0:
89,219,150701,2,0,B|100:265|100:265|79:321,1,96,4|2,3:2|3:2,0:0:0:0:
66,355,151151,1,8,0:0:0:0:
159,376,151451,2,0,P|204:362|251:340,1,96,0|2,3:0|3:2,0:0:0:0:
307,265,152054,2,0,L|318:214,2,48,2|0|10,3:2|3:0|0:0,0:0:0:0:
211,249,152657,6,0,P|194:203|191:153,1,96,4|10,3:2|0:0,0:0:0:0:
147,135,153107,2,0,B|98:132|98:132|53:164,1,96,4|2,3:2|3:2,0:0:0:0:
31,198,153557,2,0,B|45:239|28:290|28:290|96:264|199:318|139:333|233:382|295:340,1,384,2|8,3:2|0:0,0:0:0:0:
359,268,155057,5,6,0:0:0:0:
153,116,159857,5,6,0:0:0:0:
433,61,164048,6,0,L|421:110,1,48,2|0,3:2|3:0,0:0:0:0:
442,151,164354,2,0,L|398:177,1,48,2|0,3:2|3:0,0:0:0:0:
392,223,164660,6,0,P|353:205|298:199,1,96,4|0,3:2|0:0,0:0:0:0:
264,167,165110,1,2,0:0:0:0:
264,167,165260,2,0,P|260:234|202:299,1,144,8|0,0:0|3:0,0:0:0:0:
128,337,166000,1,10,0:0:0:0:
54,275,166300,1,0,3:0:0:0:
54,275,166450,2,0,P|38:233|45:182,1,96,10|0,0:0|3:0,0:0:0:0:
87,97,167050,5,2,3:2:0:0:
173,56,167350,2,0,L|166:5,2,48,2|0|10,0:0|3:0|0:0,0:0:0:0:
257,112,167950,1,2,3:2:0:0:
257,112,168100,2,0,L|232:217,2,96,0|0|2,3:0|3:0|3:2,0:0:0:0:
296,84,168850,1,10,0:0:0:0:
389,60,169150,1,2,3:2:0:0:
460,123,169458,6,0,P|481:163|490:214,1,96,10|0,0:0|3:0,0:0:0:0:
440,295,170058,2,0,L|454:355,2,48,10|0|0,0:0|0:0|3:0,0:0:0:0:
396,273,170508,2,0,B|365:260|365:260|293:275,1,96,0|10,3:0|0:0,0:0:0:0:
234,206,171097,1,0,3:0:0:0:
234,206,171250,2,0,B|221:144|221:144|234:113,1,96,10|2,0:0|0:0,0:0:0:0:
302,47,171866,5,4,3:2:0:0:
208,23,172173,2,0,B|155:11|108:16|64:38|40:67|40:67|101:81|138:122|152:187|137:236|120:279|73:312,1,480,4|8,3:2|0:0,0:0:0:0:
4,358,173958,1,0,3:0:0:0:
83,304,174258,6,0,P|130:306|179:333,1,96,4|2,3:2|3:2,0:0:0:0:
267,376,174858,1,8,0:0:0:0:
267,376,175008,2,0,L|258:279,1,96,2|2,0:0|3:2,0:0:0:0:
354,310,175608,1,2,0:0:0:0:
354,310,175758,2,0,P|403:297|439:271,1,96,0|10,0:0|0:0,0:0:0:0:
476,182,176358,1,0,3:0:0:0:
411,110,176658,6,0,P|416:60|431:9,2,96,2|2|10,3:2|3:2|0:0,0:0:0:0:
376,143,177408,1,0,0:0:0:0:
301,81,177708,2,0,P|260:67|205:59,1,96,0|2,3:0|3:2,0:0:0:0:
173,92,178151,2,0,L|180:144,2,48,0|0|10,3:0|3:0|0:0,0:0:0:0:
93,37,178751,1,10,0:0:0:0:
24,103,179051,6,0,P|12:152|11:201,1,96,4|2,3:2|3:2,0:0:0:0:
28,301,179651,1,10,0:0:0:0:
28,301,179801,2,0,P|71:282|125:274,1,96,0|2,0:0|3:2,0:0:0:0:
162,188,180401,1,2,0:0:0:0:
162,188,180551,2,0,L|154:137,1,48,0|0,3:0|3:0,0:0:0:0:
174,96,180851,1,10,0:0:0:0:
252,40,181151,1,2,3:2:0:0:
338,82,181451,6,0,P|386:75|423:32,2,96,4|2|8,3:2|3:2|0:0,0:0:0:0:
313,123,182201,1,2,3:2:0:0:
376,195,182501,1,0,3:0:0:0:
466,164,182801,1,0,3:0:0:0:
466,164,182951,2,0,B|491:199|491:199|485:257,1,96,10|10,0:0|0:0,0:0:0:0:
431,331,183551,1,0,3:0:0:0:
348,280,183863,6,0,P|303:281|255:306,1,96,4|2,3:2|3:2,0:0:0:0:
185,240,184463,1,10,0:0:0:0:
185,240,184613,2,0,L|195:136,1,96,2|2,3:2|3:2,0:0:0:0:
141,64,185213,2,0,L|94:45,2,48,2|2|0,0:0|0:0|3:0,0:0:0:0:
185,45,185659,2,0,B|248:18|248:18|283:25,1,96,10|2,0:0|0:0,0:0:0:0:
351,81,186255,5,2,3:2:0:0:
435,35,186555,2,0,P|472:67|490:120,1,96,2|8,3:2|0:0,0:0:0:0:
475,156,187005,1,2,0:0:0:0:
505,247,187305,2,0,L|405:266,1,96,2|0,3:2|3:0,0:0:0:0:
366,246,187755,1,2,0:0:0:0:
324,332,188055,1,10,0:0:0:0:
236,291,188355,1,12,0:0:0:0:
150,248,188655,6,0,B|123:273|123:273|101:338,1,96,4|2,3:2|0:0,0:0:0:0:
64,356,189105,1,0,0:0:0:0:
64,356,189255,2,0,L|26:307,1,48,10|2,0:0|0:0,0:0:0:0:
11,224,189705,1,2,3:2:0:0:
68,135,190005,1,2,0:0:0:0:
68,135,190155,2,0,P|125:117|163:116,1,96,0|10,0:0|0:0,0:0:0:0:
233,179,190755,2,0,L|225:226,1,48,2|8,3:2|0:0,0:0:0:0:
244,270,191055,6,0,P|300:253|357:251,1,96,2|0,3:2|3:0,0:0:0:0:
387,271,191507,1,2,0:0:0:0:
387,271,191682,2,0,L|398:330,2,48,10|0|8,0:0|0:0|0:0,0:0:0:0:
425,239,192112,1,4,3:2:0:0:
351,172,192400,1,8,0:0:0:0:
351,172,192550,2,0,B|340:124|340:124|359:67,1,96,0|10,3:0|0:0,0:0:0:0:
274,26,193150,2,0,L|225:34,1,48,2|0,3:2|3:0,0:0:0:0:
201,74,193450,6,0,B|180:139|180:139|98:158,1,144,4|2,3:2|0:0,0:0:0:0:
46,231,194200,1,0,0:0:0:0:
46,231,194350,1,2,3:2:0:0:
75,322,194666,1,2,3:2:0:0:
155,362,194950,1,0,3:0:0:0:
239,316,195253,2,0,P|278:291|336:299,1,96,2|0,3:2|3:0,0:0:0:0:
418,329,195859,6,0,P|443:291|449:237,1,96,2|0,3:2|3:0,0:0:0:0:
428,197,196313,1,0,0:0:0:0:
428,197,196465,2,0,P|403:159|397:105,1,96,2|0,3:2|3:0,0:0:0:0:
430,20,197053,2,0,L|481:7,2,48,4|0|2,0:0|3:0|0:0,0:0:0:0:
334,7,197653,2,0,P|321:29|312:59,1,48,10|0,0:0|0:0,0:0:0:0:
270,71,197953,2,0,P|269:96|276:127,1,48,2|0,3:1|0:0,0:0:0:0:
296,161,198253,6,0,P|284:249|241:291,1,144,14|0,0:0|0:0,0:0:0:0:
203,305,198853,1,2,3:2:0:0:
117,261,199153,2,0,B|102:234|102:234|125:163,1,96,2|10,3:2|0:0,0:0:0:0:
140,127,199603,2,0,L|95:106,2,48,0|10|0,0:0|0:0|0:0,0:0:0:0:
170,90,200053,1,10,3:2:0:0:
256,48,200353,1,10,0:0:0:0:
315,123,200653,6,0,P|364:113|402:83,1,96,2|2,3:2|3:2,0:0:0:0:
439,113,201103,2,0,P|423:160|430:208,1,96,0|0,3:0|3:0,0:0:0:0:
460,241,201553,1,2,3:2:0:0:
413,325,201853,1,8,0:0:0:0:
413,325,202003,2,0,L|315:344,1,96,2|0,0:0|0:0,0:0:0:0:
277,318,202453,1,2,0:0:0:0:
334,241,202753,1,8,0:0:0:0:
283,159,203053,6,0,B|194:122|194:122|140:144,1,144,12|2,3:2|0:0,0:0:0:0:
54,133,203803,1,0,3:0:0:0:
54,133,203953,2,0,B|44:84|44:84|61:34,1,96,10|2,0:0|0:0,0:0:0:0:
99,15,204403,2,0,L|154:24,1,48,0|10,3:0|0:0,0:0:0:0:
220,83,204853,1,2,3:2:0:0:
305,39,205153,1,8,0:0:0:0:
355,120,205453,6,0,B|359:172|359:172|339:223,1,96,4|8,3:2|0:0,0:0:0:0:
324,257,205903,2,0,B|274:239|274:239|220:245,1,96,0|0,0:0|3:0,0:0:0:0:
191,270,206353,1,8,0:0:0:0:
179,365,206653,2,0,L|281:354,1,96,2|8,3:2|0:0,0:0:0:0:
369,345,207253,1,2,3:2:0:0:
448,291,207553,1,0,3:0:0:0:
483,201,207853,6,0,B|499:113|499:113|452:68,1,144,12|8,3:2|0:0,0:0:0:0:
417,51,208453,1,2,0:0:0:0:
342,112,208753,2,0,P|302:133|253:144,1,96,10|2,0:0|0:0,0:0:0:0:
208,124,209203,1,10,0:0:0:0:
150,47,209503,1,2,0:0:0:0:
150,47,209653,2,0,L|103:37,1,48,2|0,3:2|3:0,0:0:0:0:
63,65,209953,1,10,0:0:0:0:
32,158,210253,6,0,L|62:259,1,96,10|0,0:0|3:0,0:0:0:0:
37,293,210703,1,10,0:0:0:0:
119,355,211003,1,0,3:0:0:0:
119,355,211153,2,0,B|173:320|173:320|220:316,1,96,10|8,0:0|0:0,0:0:0:0:
294,356,211753,1,8,0:0:0:0:
362,290,212053,1,8,0:0:0:0:
316,205,212353,1,12,0:0:0:0:
219,225,212653,6,0,B|188:210|188:210|177:146,1,96,4|8,3:2|0:0,0:0:0:0:
152,108,213103,2,0,B|223:97|223:97|251:67,1,96,2|0,0:0|3:0,0:0:0:0:
262,38,213548,1,8,0:0:0:0:
357,25,213848,2,0,L|406:31,2,48,2|0|8,3:2|3:0|0:0,0:0:0:0:
376,119,214448,1,2,3:2:0:0:
326,201,214748,1,8,0:0:0:0:
388,274,215041,6,0,P|435:264|489:228,2,96,2|8|2,3:2|0:0|0:0,0:0:0:0:
361,314,215791,2,0,L|308:302,1,48,0|8,0:0|0:0,0:0:0:0:
228,348,216241,1,2,3:2:0:0:
137,315,216541,2,0,P|113:279|95:224,1,96,8|2,0:0|0:0,0:0:0:0:
102,133,217141,1,8,0:0:0:0:
182,81,217441,6,0,L|195:31,2,48,2|0|8,3:2|3:0|0:0,0:0:0:0:
222,119,217891,1,0,0:0:0:0:
222,119,218041,2,0,L|315:147,1,96,2|8,3:2|0:0,0:0:0:0:
359,231,218648,2,0,L|414:216,1,48,2|0,3:2|3:0,0:0:0:0:
444,246,218945,2,0,P|460:207|473:151,1,96,8|2,0:0|3:2,0:0:0:0:
447,60,219539,1,8,0:0:0:0:
353,40,219839,6,0,B|331:64|331:64|320:131,1,96,2|8,3:2|0:0,0:0:0:0:
275,141,220289,2,0,B|265:109|265:109|212:66,1,96,0|0,3:0|3:0,0:0:0:0:
177,41,220739,1,8,0:0:0:0:
117,116,221031,2,0,L|59:131,2,48,2|0|8,3:2|3:0|0:0,0:0:0:0:
177,190,221639,1,2,0:0:0:0:
105,254,221939,1,8,0:0:0:0:
156,335,222239,6,0,P|201:356|265:354,1,96,4|8,3:2|0:0,0:0:0:0:
281,324,222691,2,0,P|266:274|270:229,1,96,0|0,0:0|3:0,0:0:0:0:
281,183,223143,1,8,0:0:0:0:
367,224,223445,1,2,3:2:0:0:
417,142,223746,2,0,P|457:123|511:129,2,96,8|2|8,0:0|0:0|0:0,0:0:0:0:
352,70,224651,6,0,L|364:23,2,48,2|0|8,3:2|3:0|0:0,0:0:0:0:
287,141,225254,2,0,P|248:158|188:161,1,96,2|8,0:0|0:0,0:0:0:0:
123,98,225857,2,0,L|66:89,1,48,2|0,3:2|3:0,0:0:0:0:
34,114,226158,1,8,0:0:0:0:
41,209,226460,1,2,0:0:0:0:
129,245,226761,1,12,0:0:0:0:
209,192,227063,6,0,B|264:165|264:165|308:172,1,96,4|8,3:2|0:0,0:0:0:0:
338,142,227509,1,0,3:0:0:0:
338,142,227658,2,0,B|365:197|365:197|358:241,1,96,0|10,3:0|0:0,0:0:0:0:
330,334,228254,1,0,3:2:0:0:
241,296,228551,2,0,P|194:294|141:308,2,96,8|2|8,0:0|0:0|0:0,0:0:0:0:
211,204,229445,5,12,0:0:0:0:
211,204,229595,2,0,B|196:158|196:158|213:109,1,96,0|8,3:0|0:0,0:0:0:0:
225,67,230045,1,2,0:0:0:0:
317,42,230345,1,8,0:0:0:0:
317,42,230495,2,0,L|426:57,1,96,0|2,0:0|0:0,0:0:0:0:
455,76,230945,1,0,3:0:0:0:
504,158,231245,1,8,0:0:0:0:
468,247,231545,1,6,3:2:0:0:
412,325,231845,6,0,B|387:343|387:343|319:324,1,96,4|8,3:2|0:0,0:0:0:0:
276,331,232295,2,0,P|288:286|282:230,1,96,2|0,0:0|3:0,0:0:0:0:
252,203,232738,1,8,0:0:0:0:
177,263,233038,1,2,3:2:0:0:
97,209,233338,2,0,B|78:146|78:146|90:116,1,96,8|2,0:0|0:0,0:0:0:0:
159,52,233938,1,8,0:0:0:0:
232,113,234238,6,0,L|281:103,1,48,2|0,3:2|3:0,0:0:0:0:
306,64,234538,2,0,P|356:60|401:77,1,96,8|2,0:0|0:0,0:0:0:0:
469,139,235138,1,8,0:0:0:0:
402,208,235447,1,2,3:2:0:0:
446,293,235747,2,0,L|497:281,2,48,8|0|2,0:0|0:0|0:0,0:0:0:0:
380,363,236347,1,8,0:0:0:0:
297,313,236647,6,0,P|276:275|283:223,1,96,4|8,3:2|0:0,0:0:0:0:
303,180,237097,1,0,0:0:0:0:
303,180,237247,2,0,P|265:159|213:166,1,96,2|8,3:2|0:0,0:0:0:0:
156,242,237847,2,0,L|89:250,1,48,2|0,3:2|3:0,0:0:0:0:
68,221,238147,1,8,0:0:0:0:
20,137,238447,2,0,P|22:90|47:44,1,96,2|8,0:0|0:0,0:0:0:0:
132,8,239047,6,0,L|186:13,1,48,2|0,3:2|3:0,0:0:0:0:
218,41,239347,2,0,L|327:30,1,96,4|0,3:2|3:0,0:0:0:0:
394,83,239955,1,12,3:2:0:0:
355,171,240255,1,2,3:2:0:0:
261,193,240555,2,0,B|236:232|236:232|226:293,1,96,12|2,0:0|3:2,0:0:0:0:
291,353,241155,1,4,3:2:0:0:
195,370,241455,6,0,P|150:363|90:346,1,96,2|8,3:2|0:0,0:0:0:0:
116,303,241905,2,0,P|108:255|95:209,1,96,0|0,0:0|3:0,0:0:0:0:
67,170,242355,1,8,0:0:0:0:
133,100,242655,1,2,3:2:0:0:
220,139,242955,2,0,B|266:148|266:148|318:128,1,96,8|2,0:0|0:0,0:0:0:0:
346,40,243555,1,8,0:0:0:0:
437,70,243855,6,0,L|492:55,2,48,2|0|8,3:2|3:0|0:0,0:0:0:0:
406,161,244455,2,0,L|501:182,2,96,2|8|0,0:0|0:0|0:0,0:0:0:0:
334,224,245361,1,0,3:0:0:0:
249,177,245661,2,0,B|213:208|213:208|199:264,1,96,0|0,3:0|3:0,0:0:0:0:
234,345,246261,6,0,P|286:325|336:332,1,96,4|8,3:2|0:0,0:0:0:0:
373,351,246711,1,0,3:0:0:0:
373,351,246861,2,0,P|389:308|393:245,1,96,8|10,0:0|0:0,0:0:0:0:
360,167,247455,1,8,0:0:0:0:
274,123,247752,2,0,B|258:80|258:80|270:29,2,96,8|10|8,0:0|0:0|0:0,0:0:0:0:
233,210,248643,5,4,3:2:0:0:
233,210,248794,2,0,P|194:223|131:225,1,96,0|10,0:0|0:0,0:0:0:0:
106,190,249249,2,0,L|126:97,1,96,0|10,0:0|0:0,0:0:0:0:
102,54,249702,1,0,3:0:0:0:
191,19,250002,1,10,0:0:0:0:
191,19,250152,2,0,B|266:27|266:27|284:55,1,96,0|10,3:0|0:0,0:0:0:0:
304,136,250752,1,10,0:0:0:0:
256,219,251046,6,0,L|191:236,2,48,4|0|10,3:2|0:0|0:0,0:0:0:0:
301,235,251496,2,0,B|328:279|328:279|324:335,1,96,4|0,3:2|3:0,0:0:0:0:
302,365,251946,1,10,0:0:0:0:
211,333,252246,2,0,P|168:333|120:355,1,96,2|0,3:0|3:0,0:0:0:0:
49,289,252846,1,10,0:0:0:0:
97,205,253146,1,0,3:0:0:0:
184,164,253446,6,0,L|189:110,2,48,4|0|10,3:2|0:0|0:0,0:0:0:0:
221,193,253896,2,0,P|273:183|316:162,1,96,4|2,3:2|3:2,0:0:0:0:
352,138,254346,1,8,0:0:0:0:
455,257,254726,2,0,P|423:335|341:350,1,168,2|2,0:0|3:2,0:0:0:0:
306,329,255401,2,0,L|299:274,1,48,0|8,3:0|0:0,0:0:0:0:
219,229,255851,6,0,P|173:225|117:257,1,96,4|10,3:2|0:0,0:0:0:0:
105,287,256301,2,0,L|121:338,2,48,6|0|2,3:2|0:0|3:2,0:0:0:0:
57,281,256751,1,8,0:0:0:0:
9,197,257051,2,0,P|15:151|39:103,1,96,0|2,3:0|3:2,0:0:0:0:
122,64,257651,2,0,P|124:37|120:11,2,48,2|10|10,3:2|0:0|0:0,0:0:0:0:
192,137,258251,5,4,3:2:0:0:
192,137,258401,2,0,B|221:133|221:133|255:140,1,48,0|2,0:0|0:0,0:0:0:0:
278,164,258701,2,0,B|316:137|316:137|346:84,1,96,4|2,3:2|0:0,0:0:0:0:
359,49,259151,1,6,3:2:0:0:
256,192,259301,12,0,263351,0:0:0:0:
