osu file format v14

[General]
AudioFilename: audio.mp3
AudioLeadIn: 0
PreviewTime: 67688
Countdown: 0
SampleSet: Soft
StackLeniency: 0.7
Mode: 0
LetterboxInBreaks: 0
WidescreenStoryboard: 0

[Editor]
DistanceSpacing: 1.3
BeatDivisor: 4
GridSize: 32
TimelineZoom: 3.599998

[Metadata]
Title:Sad Dream
TitleUnicode:Sad Dream
Artist:UNDEAD CORPORATION
ArtistUnicode:UNDEAD CORPORATION
Creator:Hinsvar
Version:Expert
Source:
Tags:Flash Back metal English Featured Artist FA Mappers' Guild MG MPG 朱美 Akemi 窪田道元 Dougen Kubota 仁耶 Jinya 社長 Shachou YU-TO
BeatmapID:2133935
BeatmapSetID:1019827

[Difficulty]
HPDrainRate:7
CircleSize:4
OverallDifficulty:9
ApproachRate:9.3
SliderMultiplier:1.6
SliderTickRate:1

[Events]
//Background and Video events
0,0,"sd.jpg",0,0
//Break Periods
2,97648,101699
2,155257,159303
2,160057,163494
//Storyboard Layer 0 (Background)
//Storyboard Layer 1 (Fail)
//Storyboard Layer 2 (Pass)
//Storyboard Layer 3 (Foreground)
//Storyboard Layer 4 (Overlay)
//Storyboard Sound Samples

[TimingPoints]
1455,300,4,2,2,50,1,0
1455,-200,4,2,2,50,0,0
8655,-133.333333333333,4,2,2,60,0,0
9555,-133.333333333333,4,2,2,70,0,0
10305,-66.6666666666667,4,2,1,80,0,0
10755,-133.333333333333,4,2,1,60,0,0
11055,-100,4,2,1,80,0,0
20355,-200,4,2,1,60,0,0
20655,-100,4,2,1,80,0,0
28905,-133.333333333333,4,2,1,60,0,0
38655,-133.333333333333,4,2,1,70,0,0
39870,300,4,2,1,80,1,0
43455,300,4,2,1,80,1,0
49155,307.692307692308,4,2,1,80,1,0
49463,300,4,2,1,80,1,0
53050,300,4,2,1,80,1,0
56040,300,4,2,1,80,1,0
56800,300,4,2,1,80,1,0
57850,300,4,2,1,80,1,0
58750,-133.333333333333,4,2,1,80,0,0
59061,300,4,2,1,80,1,0
64761,294.117647058824,4,2,1,80,1,0
65055,300,4,2,1,80,1,0
66255,279.06976744186,4,2,1,80,1,0
66534,307.692307692308,4,2,1,80,1,0
67149,-133.333333333333,4,2,1,80,0,0
67763,292.682926829268,4,2,1,80,1,0
67763,-200,4,2,1,70,0,0
68055,300,4,2,1,70,1,0
68655,300,4,2,1,90,1,1
68655,-80,4,2,1,90,0,1
71055,292.682926829268,4,2,1,90,1,1
71055,-80,4,2,1,90,0,1
71347,300,4,2,1,90,1,1
71347,-80,4,2,1,90,0,1
72247,297.029702970297,4,2,1,90,1,1
72247,-80,4,2,1,90,0,1
73435,300,4,2,1,90,1,1
73435,-80,4,2,1,90,0,1
78235,303.79746835443,4,2,1,90,1,1
78235,-80,4,2,1,90,0,1
79450,301.507537688442,4,2,1,90,1,1
79450,-80,4,2,1,90,0,1
81862,300,4,2,1,90,1,1
81862,-80,4,2,1,90,0,1
82462,294.117647058824,4,2,1,90,1,1
82462,-80,4,2,1,90,0,1
83050,300,4,2,1,90,1,1
83050,-80,4,2,1,90,0,1
83650,310.880829015544,4,2,1,90,1,1
83650,-80,4,2,1,90,0,1
84271,300,4,2,1,90,1,1
84271,-80,4,2,1,90,0,1
85471,-66.6666666666667,4,2,1,90,0,1
86358,300,4,2,1,90,1,1
86358,-66.6666666666667,4,2,1,90,0,1
87558,-200,4,2,1,60,0,0
87858,300,4,2,1,80,1,1
87858,-100,4,2,1,80,0,1
87933,-100,4,2,1,80,0,0
95048,300,4,2,1,80,1,0
97448,-100,4,2,1,70,0,0
102253,300,4,2,1,70,1,0
107053,-100,4,2,1,80,0,0
108396,300,4,2,1,80,1,0
109446,300,4,2,1,80,1,0
111846,294.117647058824,4,2,1,80,1,0
112140,300,4,2,1,80,1,0
113040,300,4,2,1,80,1,0
114853,300,4,2,1,80,1,0
115453,300,4,2,1,90,1,0
116653,300,4,2,1,90,1,0
126253,-80,4,2,1,90,0,1
128058,300,4,2,1,90,1,1
128058,-80,4,2,1,90,0,1
128658,300,4,2,1,90,1,1
128658,-80,4,2,1,90,0,1
137063,300,4,2,1,90,1,1
137063,-80,4,2,1,90,0,1
140058,300,4,2,1,90,1,1
140058,-80,4,2,1,90,0,1
140658,300,4,2,1,90,1,1
140658,-80,4,2,1,90,0,1
143058,-66.6666666666667,4,2,1,90,0,1
145451,300,4,2,1,80,1,0
151451,301.507537688442,4,2,1,80,1,0
152657,300,4,2,1,80,1,0
153557,-200,4,2,1,70,0,0
164048,306.122448979592,4,2,1,50,1,0
164660,300,4,2,1,50,1,0
164660,-133.333333333333,4,2,1,60,0,0
165850,300,4,2,1,50,1,0
165850,-133.333333333333,4,2,1,50,0,0
168100,-100,4,2,1,60,0,0
168700,-133.333333333333,4,2,1,60,0,0
169458,300,4,2,1,50,1,0
169458,-133.333333333333,4,2,1,50,0,0
170958,279.06976744186,4,2,1,50,1,0
171097,307.692307692308,4,2,1,50,1,0
171866,-100,4,2,1,60,0,0
172173,297.029702970297,4,2,1,60,1,0
172173,-400,4,2,1,60,0,0
173658,300,4,2,1,70,1,0
174258,300,4,2,1,80,1,0
178151,300,4,2,1,80,1,0
179051,300,4,2,1,80,1,0
183863,300,4,2,1,80,1,0
185213,297.766749379653,4,2,1,80,1,0
186255,300,4,2,1,80,1,0
191055,301.507537688442,4,2,1,80,1,0
191682,287.081339712919,4,2,1,80,1,0
192400,300,4,2,1,80,1,0
193450,300,4,2,1,80,1,0
194666,300,4,2,1,80,1,0
194950,303.030303030303,4,2,1,80,1,0
195859,303.030303030303,4,2,1,80,1,0
196465,294.117647058824,4,2,1,80,1,0
197053,300,4,2,1,80,1,0
202003,-200,4,2,1,60,0,0
202453,-133.333333333333,4,2,1,60,0,0
202753,-200,4,2,1,70,0,0
202978,-200,4,2,1,15,0,0
203053,-100,4,2,1,70,0,0
212653,-80,4,2,1,90,0,1
213548,300,4,2,1,90,1,1
213548,-80,4,2,1,90,0,1
213848,300,4,2,1,90,1,1
213848,-80,4,2,1,90,0,1
215041,300,4,2,1,90,1,1
215041,-80,4,2,1,90,0,1
218648,297.029702970297,4,2,1,90,1,1
218648,-80,4,2,1,90,0,1
219539,300,4,2,1,90,1,1
219539,-80,4,2,1,90,0,1
219839,300,4,2,1,90,1,1
219839,-80,4,2,1,90,0,1
221031,300,4,2,1,90,1,1
221031,-80,4,2,1,90,0,1
221639,300,4,2,1,90,1,1
221639,-80,4,2,1,90,0,1
222239,301.507537688442,4,2,1,90,1,1
222239,-80,4,2,1,90,0,1
227063,297.766749379653,4,2,1,90,1,1
227063,-80,4,2,1,90,0,1
229445,300,4,2,1,90,1,1
229445,-66.6666666666667,4,2,1,90,0,1
230945,-66.6666666666667,4,2,1,90,0,0
231845,-80,4,2,1,90,0,1
232738,300,4,2,1,90,1,1
232738,-80,4,2,1,90,0,1
233038,300,4,2,1,90,1,1
233038,-80,4,2,1,90,0,1
235447,300,4,2,1,90,1,1
235447,-80,4,2,1,90,0,1
239955,300,4,2,1,90,1,1
239955,-80,4,2,1,90,0,1
240255,300,4,2,1,90,1,1
240255,-80,4,2,1,90,0,1
245061,300,4,2,1,90,1,1
245061,-80,4,2,1,90,0,1
247455,297.029702970297,4,2,1,90,1,1
247455,-80,4,2,1,90,0,1
248643,303.030303030303,4,2,1,90,1,1
248643,-66.6666666666667,4,2,1,90,0,1
249552,300,4,2,1,90,1,1
249552,-66.6666666666667,4,2,1,90,0,1
249852,300,4,2,1,90,1,1
249852,-66.6666666666667,4,2,1,90,0,1
251046,300,4,2,1,90,1,0
251046,-80,4,2,1,90,0,0
254651,300,4,2,1,90,1,0
254651,-80,4,2,1,90,0,0
259451,-80,4,2,1,70,0,0
259751,-80,4,2,1,65,0,0
260051,-80,4,2,1,60,0,0
260351,-80,4,2,1,55,0,0
260651,-80,4,2,1,50,0,0
260951,-80,4,2,1,45,0,0
261251,-80,4,2,1,40,0,0
261551,-80,4,2,1,35,0,0
261851,-80,4,2,1,30,0,0
262151,-80,4,2,1,25,0,0
262451,-80,4,2,1,20,0,0
262751,-80,4,2,1,15,0,0
263051,-80,4,2,1,10,0,0
263351,-80,4,2,1,5,0,0

[Colours]
Combo1 : 234,218,254
Combo2 : 12,209,220
Combo3 : 255,221,132
Combo4 : 0,135,200

[HitObjects]
72,45,1455,6,0,B|36:117|36:117|111:156,1,160,10|8,0:0|0:0,0:0:0:0:
164,285,2355,1,0,0:0:0:0:
164,285,2505,2,0,B|199:263|199:263|245:265,1,80,8|8,0:0|0:0,0:0:0:0:
296,327,2955,1,0,0:0:0:0:
416,126,3255,1,8,0:0:0:0:
429,162,3405,1,0,0:0:0:0:
388,250,3555,1,0,0:0:0:0:
319,171,3705,1,8,0:0:0:0:
209,225,3855,6,0,L|167:213,2,40,2|0|0,0:0|0:0|0:0,0:0:0:0:
114,344,4455,2,0,P|144:325|189:312,1,80,8|0,0:0|0:0,0:0:0:0:
165,213,4905,2,0,B|155:250|155:250|170:296,1,80,8|0,0:0|0:0,0:0:0:0:
245,351,5355,1,0,0:0:0:0:
270,171,5655,1,8,0:0:0:0:
277,204,5805,1,0,0:0:0:0:
192,276,5955,1,0,0:0:0:0:
160,148,6105,1,8,0:0:0:0:
285,240,6255,6,0,P|284:258|277:280,2,40,10|0|0,0:0|0:0|0:0,0:0:0:0:
253,158,6705,1,0,0:0:0:0:
341,67,6855,2,0,P|357:105|364:148,1,80,8|0,0:0|0:0,0:0:0:0:
457,138,7305,1,8,0:0:0:0:
469,176,7455,2,0,P|453:214|427:249,1,80
264,263,8055,1,8,0:0:0:0:
288,243,8205,1,0,0:0:0:0:
318,168,8355,1,0,0:0:0:0:
251,100,8505,1,8,0:0:0:0:
316,291,8655,6,0,P|342:290|374:277,1,60.0000022888184,10|0,0:0|0:0,0:0:0:0:
360,323,8955,1,0,0:0:0:0:
175,287,9105,2,0,P|218:255|281:262,1,120.000004577637,2|0,0:0|0:0,0:0:0:0:
88,284,9555,2,0,P|89:315|100:348,1,60.0000022888184,2|8,0:0|0:0,0:0:0:0:
102,177,9855,2,0,P|110:205|111:235,1,60.0000022888184,0|8,0:0|0:0,0:0:0:0:
41,115,10155,1,0,0:0:0:0:
184,330,10305,5,0,3:0:0:0:
242,342,10380,1,0,3:0:0:0:
299,323,10455,2,0,B|327:292|344:276|344:276|292:269|226:245,1,180.000006866455,10|0,0:0|0:0,0:0:0:0:
220,235,10755,6,0,L|215:190,1,30.0000011444092,0|0,3:0|0:0,0:0:0:0:
224,125,10905,2,0,L|229:170,1,30.0000011444092,10|0,0:0|0:0,0:0:0:0:
418,337,11055,6,0,B|463:243|463:243|413:211,1,160,4|0,3:2|3:0,0:0:0:0:
240,207,11505,1,2,0:0:0:0:
326,70,11655,1,10,0:0:0:0:
326,70,11805,2,0,B|344:105|344:105|330:148,1,80,2|0,0:0|0:0,0:0:0:0:
75,222,12105,6,0,B|139:294|139:294|204:279,1,160,2|2,3:2|0:0,0:0:0:0:
142,132,12555,2,0,B|118:148|118:148|102:204,1,80,2|0,0:0|0:0,0:0:0:0:
261,365,12855,1,8,0:0:0:0:
31,242,13005,1,0,0:0:0:0:
92,325,13155,2,0,P|133:319|172:302,1,80,2|0,0:0|0:0,0:0:0:0:
355,327,13455,6,0,B|307:334|307:334|338:227,1,160,2|0,3:2|3:0,0:0:0:0:
365,143,13905,1,0,0:0:0:0:
217,272,14055,1,10,0:0:0:0:
217,272,14205,2,0,B|249:294|249:294|287:283,1,80,2|0,0:0|0:0,0:0:0:0:
205,95,14505,6,0,B|277:59|277:59|331:122,1,160,2|0,3:2|0:0,0:0:0:0:
160,253,14955,1,2,0:0:0:0:
63,46,15105,1,0,3:0:0:0:
37,76,15180,1,0,3:0:0:0:
34,115,15255,2,0,B|42:164|42:164|68:192,1,80,8|2,0:0|0:0,0:0:0:0:
192,325,15555,2,0,B|212:279|212:279|244:259,1,80,2|0,3:2|0:0,0:0:0:0:
186,69,15855,6,0,B|169:151|169:151|250:125,1,160,4|0,3:2|3:0,0:0:0:0:
149,175,16305,1,2,0:0:0:0:
370,23,16455,2,0,P|386:59|389:114,1,80,10|0,0:0|0:0,0:0:0:0:
353,179,16755,1,0,0:0:0:0:
465,343,16905,6,0,P|416:293|327:264,1,160,2|2,3:2|3:2,0:0:0:0:
248,283,17355,1,0,0:0:0:0:
233,363,17505,1,0,0:0:0:0:
50,200,17655,1,10,0:0:0:0:
148,347,17805,1,0,0:0:0:0:
240,122,17955,1,2,3:2:0:0:
163,301,18105,1,0,0:0:0:0:
142,37,18255,6,0,B|152:83|152:83|137:146|137:146|153:201,1,160,2|0,3:2|3:0,0:0:0:0:
59,86,18705,1,2,0:0:0:0:
233,205,18855,1,10,0:0:0:0:
116,365,19005,2,0,B|176:349|176:349|176:325,1,80
12,270,19305,6,0,B|119:228|119:228|98:282,1,160,2|0,3:2|3:0,0:0:0:0:
25,92,19755,1,10,0:0:0:0:
117,297,19905,1,0,0:0:0:0:
198,53,20055,1,10,0:0:0:0:
12,117,20205,1,0,0:0:0:0:
138,194,20355,6,0,P|129:169|120:152,1,40,2|0,0:0|0:0,0:0:0:0:
324,37,20655,6,0,P|287:105|273:190,1,160,4|2,3:2|0:0,0:0:0:0:
364,264,21105,1,0,0:0:0:0:
210,33,21255,1,10,0:0:0:0:
372,159,21405,2,0,P|332:171|299:195,1,80
156,347,21705,6,0,P|103:298|128:217,1,160,2|2,3:2|0:0,0:0:0:0:
190,372,22155,2,0,P|149:371|111:352,1,80,2|0,0:0|0:0,0:0:0:0:
34,160,22455,1,10,0:0:0:0:
257,299,22605,1,0,0:0:0:0:
97,256,22755,1,2,3:2:0:0:
193,212,22905,1,0,0:0:0:0:
17,37,23055,6,0,B|63:27|63:27|149:68,1,120,4|0,3:2|0:0,0:0:0:0:
273,65,23355,2,0,B|207:96|207:96|161:86,1,120,2|0,3:2|0:0,0:0:0:0:
7,187,23655,1,8,0:0:0:0:
169,255,23805,2,0,P|163:216|147:176,1,80,2|0,0:0|0:0,0:0:0:0:
275,353,24105,6,0,P|284:261|317:203,1,160,2|2,3:2|0:0,0:0:0:0:
186,380,24555,1,2,0:0:0:0:
156,278,24705,1,0,0:0:0:0:
361,362,24855,1,10,0:0:0:0:
418,155,25005,1,0,0:0:0:0:
217,216,25155,1,2,0:0:0:0:
466,278,25305,1,0,0:0:0:0:
244,364,25455,6,0,P|282:321|302:260,1,120,4|0,3:2|0:0,0:0:0:0:
302,262,25755,1,2,0:0:0:0:
121,318,25905,1,0,0:0:0:0:
186,81,26055,2,0,P|200:119|209:159,1,80,10|0,0:0|0:0,0:0:0:0:
221,241,26355,1,0,0:0:0:0:
47,39,26505,6,0,P|44:128|90:188,1,160,2|2,3:2|0:0,0:0:0:0:
305,134,26955,1,2,0:0:0:0:
254,279,27105,1,0,0:0:0:0:
191,70,27255,1,10,0:0:0:0:
419,186,27405,1,0,0:0:0:0:
324,34,27555,1,2,0:0:0:0:
407,210,27705,1,0,0:0:0:0:
162,227,27855,6,0,B|218:198|267:184|267:184|224:146,1,160,2|2,3:2|0:0,0:0:0:0:
272,322,28305,1,0,3:0:0:0:
143,130,28455,2,0,P|152:86|163:51,1,80,10|0,0:0|0:0,0:0:0:0:
235,14,28755,1,0,0:0:0:0:
77,219,28905,6,0,B|49:179|49:179|34:102,1,120.000004577637,14|0,0:0|0:0,0:0:0:0:
29,70,29355,1,0,0:0:0:0:
182,29,29505,1,2,0:0:0:0:
135,96,29655,1,0,0:0:0:0:
225,181,29805,1,0,0:0:0:0:
158,285,29955,2,0,B|167:319|167:319|230:348,1,90.0000034332277,2|0,0:0|0:0,0:0:0:0:
216,341,30255,5,2,3:2:0:0:
296,320,30405,1,0,3:0:0:0:
411,373,30555,1,10,0:0:0:0:
237,260,30705,1,2,0:0:0:0:
410,179,30855,2,0,P|418:206|419:241,1,60.0000022888184
308,367,31155,2,0,P|307:338|315:304,1,60.0000022888184,8|0,0:0|0:0,0:0:0:0:
126,362,31455,5,0,3:0:0:0:
73,281,31605,1,2,3:2:0:0:
152,113,31755,1,10,0:0:0:0:
0,206,31905,2,0,P|43:239|108:252,1,120.000004577637,2|0,0:0|0:0,0:0:0:0:
190,222,32355,2,0,P|199:249|203:285,1,60.0000022888184,8|0,0:0|0:0,0:0:0:0:
188,369,32655,5,0,3:0:0:0:
301,316,32805,1,0,3:0:0:0:
169,186,32955,1,10,0:0:0:0:
336,335,33105,2,0,P|340:275|320:213,1,120.000004577637,2|0,0:0|0:0,0:0:0:0:
383,271,33555,1,8,0:0:0:0:
260,158,33705,1,2,0:0:0:0:
419,51,33855,6,0,P|418:80|413:110,1,60.0000022888184,2|0,0:0|0:0,0:0:0:0:
292,221,34156,2,0,P|295:191|300:161,1,60.0000022888184,8|2,0:0|0:0,0:0:0:0:
335,140,34380,1,0,0:0:0:0:
334,139,34455,1,0,0:0:0:0:
187,210,34605,1,0,3:0:0:0:
340,353,34755,1,10,0:0:0:0:
197,243,34905,1,0,0:0:0:0:
242,332,35055,5,0,3:0:0:0:
325,252,35205,1,0,3:0:0:0:
239,84,35355,1,10,0:0:0:0:
325,252,35505,2,0,P|354:244|391:229,2,60.0000022888184,2|0|0,0:0|0:0|0:0,0:0:0:0:
170,167,35955,2,0,P|142:156|113:148,1,60.0000022888184,8|0,0:0|0:0,0:0:0:0:
41,207,36255,5,0,3:0:0:0:
127,262,36405,1,0,3:0:0:0:
239,55,36555,1,10,0:0:0:0:
113,148,36705,2,0,P|102:116|103:84,1,60.0000022888184,2|0,0:0|0:0,0:0:0:0:
157,16,37005,1,0,0:0:0:0:
219,195,37155,2,0,P|205:221|184:243,1,60.0000022888184,8|0,0:0|0:0,0:0:0:0:
377,356,37455,5,0,3:0:0:0:
324,216,37605,1,0,3:0:0:0:
174,337,37755,2,0,L|242:325,1,60.0000022888184,8|2,0:0|0:0,0:0:0:0:
408,332,38055,1,0,3:0:0:0:
453,194,38205,1,0,3:0:0:0:
270,247,38355,1,8,0:0:0:0:
417,298,38505,1,0,3:0:0:0:
233,333,38655,5,10,0:0:0:0:
138,178,38805,1,0,3:0:0:0:
212,359,38955,1,10,0:0:0:0:
302,118,39105,1,0,3:0:0:0:
119,159,39255,1,10,0:0:0:0:
334,232,39405,1,0,3:0:0:0:
314,272,39480,1,0,3:0:0:0:
273,291,39555,2,0,P|243:281|213:260,1,60.0000022888184,10|0,0:0|0:0,0:0:0:0:
426,369,39870,6,0,P|441:333|447:279,1,80,4|0,3:2|0:0,0:0:0:0:
411,50,40170,1,10,0:0:0:0:
472,154,40320,2,0,B|360:180|360:180|376:127,1,160,0|0,3:0|3:0,0:0:0:0:
232,307,40770,2,0,P|209:272|205:226,1,80,8|0,0:0|0:0,0:0:0:0:
308,24,41070,5,0,3:0:0:0:
246,130,41220,1,0,0:0:0:0:
45,50,41370,1,10,0:0:0:0:
128,265,41520,2,0,B|145:238|145:238|139:184,1,80,2|0,3:2|0:0,0:0:0:0:
203,30,41820,1,0,3:0:0:0:
120,161,41970,2,0,B|154:183|154:183|243:173,1,120,8|0,0:0|0:0,0:0:0:0:
232,174,42270,5,0,3:0:0:0:
314,261,42420,1,0,0:0:0:0:
266,83,42570,1,10,0:0:0:0:
205,305,42720,2,0,P|163:297|125:275,1,80,2|0,3:2|0:0,0:0:0:0:
5,120,43020,1,0,3:0:0:0:
35,146,43095,1,0,3:0:0:0:
73,157,43170,2,0,B|133:152|133:152|110:97,1,120,8|0,0:0|0:0,0:0:0:0:
109,96,43455,5,2,3:2:0:0:
20,333,43605,1,0,3:0:0:0:
247,204,43755,1,8,0:0:0:0:
202,294,43905,2,0,B|114:301|147:241|54:247,1,160,2|0,3:2|3:0,0:0:0:0:
135,101,44355,2,0,P|155:137|162:178,1,80,10|0,0:0|0:0,0:0:0:0:
384,24,44655,6,0,L|255:41,1,120,0|0,3:0|0:0,0:0:0:0:
375,59,44955,2,0,L|465:41,1,80,8|2,0:0|3:2,0:0:0:0:
371,213,45255,1,0,0:0:0:0:
274,60,45405,1,0,3:0:0:0:
458,132,45555,2,0,B|400:125|400:125|382:99,1,80,8|0,0:0|0:0,0:0:0:0:
312,289,45855,5,2,3:2:0:0:
449,258,46005,1,0,3:0:0:0:
274,154,46155,1,10,0:0:0:0:
463,292,46305,1,2,3:2:0:0:
239,357,46455,5,0,3:0:0:0:
216,323,46530,1,0,3:0:0:0:
210,283,46605,1,0,3:0:0:0:
222,245,46680,1,0,3:0:0:0:
250,192,46755,5,0,3:0:0:0:
279,139,46830,1,0,3:0:0:0:
262,81,46905,1,0,3:0:0:0:
205,59,46980,1,0,3:0:0:0:
146,70,47055,6,0,P|119:106|111:147,1,80,10|0,0:0|0:0,0:0:0:0:
230,316,47355,1,8,0:0:0:0:
41,211,47505,2,0,P|113:177|196:160,1,160,2|0,3:2|3:0,0:0:0:0:
139,377,47955,1,8,0:0:0:0:
78,114,48105,1,0,3:0:0:0:
104,143,48180,1,0,3:0:0:0:
117,180,48255,6,0,B|130:253|130:253|95:295,1,120,10|0,0:0|0:0,0:0:0:0:
23,314,48555,5,2,3:2:0:0:
61,324,48630,1,0,3:0:0:0:
99,334,48705,1,0,3:0:0:0:
137,344,48780,1,0,3:0:0:0:
175,354,48855,1,0,3:0:0:0:
213,363,48930,1,0,3:0:0:0:
252,370,49005,2,0,L|316:357,1,40,2|0,3:2|3:0,3:0:0:0:
367,336,49155,5,0,3:0:0:0:
333,285,49231,1,0,3:0:0:0:
346,226,49308,1,0,3:0:0:0:
397,194,49385,1,0,3:0:0:0:
455,205,49463,6,0,B|463:176|465:139|444:91|444:91|465:107|487:114,1,160,12|0,3:2|0:0,0:0:0:0:
281,52,49913,2,0,P|267:90|270:139,1,80,10|0,0:0|0:0,0:0:0:0:
412,273,50213,1,0,0:0:0:0:
163,296,50363,6,0,P|206:288|242:274,1,80,2|0,3:2|0:0,0:0:0:0:
288,206,50663,1,0,0:0:0:0:
91,367,50813,1,10,0:0:0:0:
56,269,50963,1,0,0:0:0:0:
227,151,51113,1,0,0:0:0:0:
227,151,51188,1,0,0:0:0:0:
227,151,51263,5,2,0:0:0:0:
144,282,51413,1,0,0:0:0:0:
41,72,51563,2,0,P|79:118|102:182,1,120,8|0,0:0|0:0,0:0:0:0:
24,44,51863,6,0,P|95:74|182:80,1,160,4|8,3:2|0:0,0:0:0:0:
323,38,52313,1,0,0:0:0:0:
262,242,52463,2,0,B|250:215|250:215|262:153,1,80,2|0,0:0|3:0,0:0:0:0:
399,325,52763,2,0,B|411:298|411:298|399:236,1,80,10|0,0:0|3:0,0:0:0:0:
167,358,53050,5,2,3:2:0:0:
294,228,53200,1,0,3:0:0:0:
121,106,53350,2,0,P|98:139|88:177,1,80,8|0,0:0|0:0,0:0:0:0:
88,207,53575,1,0,0:0:0:0:
101,231,53650,2,0,L|146:227,1,40,2|0,3:2|0:0,0:0:0:0:
212,199,53800,2,0,L|167:203,1,40,2|0,3:2|0:0,0:0:0:0:
22,289,53950,1,10,0:0:0:0:
270,346,54100,1,8,0:0:0:0:
102,383,54250,6,0,B|86:359|86:359|104:305,1,80,12|0,3:2|0:0,0:0:0:0:
129,233,54550,1,2,0:0:0:0:
362,274,54700,2,0,P|356:234|340:198,1,80,8|2,0:0|0:0,0:0:0:0:
237,131,55000,1,0,0:0:0:0:
24,174,55150,6,0,L|108:195,1,80,10|0,0:0|0:0,0:0:0:0:
215,102,55450,1,0,0:0:0:0:
415,34,55600,2,0,P|409:74|393:110,1,80,10|0,0:0|0:0,0:0:0:0:
189,16,55900,1,0,3:0:0:0:
256,208,56040,5,10,0:0:0:0:
308,122,56190,1,0,0:0:0:0:
181,270,56340,2,0,P|165:236|163:192,1,80,10|0,0:0|0:0,0:0:0:0:
33,329,56640,5,4,3:2:0:0:
248,368,56800,1,0,3:0:0:0:
248,368,56875,1,0,3:0:0:0:
248,368,56950,2,0,B|266:348|266:348|278:293,1,80,10|0,0:0|0:0,0:0:0:0:
290,138,57250,1,10,0:0:0:0:
362,347,57400,1,0,3:0:0:0:
298,106,57550,1,10,0:0:0:0:
180,289,57700,1,0,3:0:0:0:
467,233,57850,6,0,P|429:221|386:211,1,80,10|0,0:0|0:0,0:0:0:0:
343,243,58075,1,0,0:0:0:0:
352,253,58150,2,0,P|364:216|373:171,1,80,8|0,0:0|0:0,0:0:0:0:
318,104,58375,1,0,0:0:0:0:
294,71,58450,2,0,P|333:68|377:51,1,80,2|0,3:2|0:0,0:0:0:0:
210,154,58675,1,0,0:0:0:0:
186,110,58750,6,0,B|179:66|179:66|200:21,1,90.0000034332277,8|0,0:0|0:0,0:0:0:0:
198,24,59061,6,0,B|156:42|156:42|42:28,1,160,12|8,3:2|0:0,0:0:0:0:
156,257,59511,1,2,3:2:0:0:
49,120,59661,2,0,P|83:98|129:82,1,80
119,323,59961,6,0,P|156:257|131:179,1,160,8|2,0:0|3:2,0:0:0:0:
61,245,60411,1,2,0:0:0:0:
261,358,60561,1,8,0:0:0:0:
322,192,60711,1,0,3:0:0:0:
238,331,60861,6,0,P|295:309|362:303,1,120,2|0,3:2|0:0,0:0:0:0:
188,192,61161,2,0,P|230:236|288:269,1,120,8|0,0:0|0:0,0:0:0:0:
163,372,61461,6,0,B|129:288|129:288|199:264,1,160,4|10,3:2|0:0,0:0:0:0:
37,80,61911,1,0,0:0:0:0:
228,118,62061,1,2,0:0:0:0:
75,204,62211,1,0,3:0:0:0:
116,11,62361,1,10,0:0:0:0:
269,213,62511,6,0,P|265:173|257:129,1,80
219,279,62811,1,0,3:0:0:0:
309,50,62961,1,8,0:0:0:0:
127,138,63111,1,2,0:0:0:0:
342,323,63261,1,2,3:2:0:0:
337,285,63336,1,0,3:0:0:0:
306,261,63411,1,0,3:0:0:0:
267,267,63486,1,0,3:0:0:0:
244,300,63561,5,0,3:0:0:0:
248,319,63636,1,0,3:0:0:0:
264,331,63711,1,0,3:0:0:0:
283,330,63786,1,0,3:0:0:0:
301,321,63861,6,0,B|332:222|332:222|298:172,1,160,12|2,3:2|3:2,0:0:0:0:
88,272,64311,2,0,L|171:258,1,80,8|2,0:0|0:0,0:0:0:0:
115,172,64611,1,2,3:2:0:0:
291,21,64761,6,0,P|285:61|266:100,1,80,8|0,0:0|0:0,0:0:0:0:
82,184,65055,1,2,0:0:0:0:
159,10,65205,1,0,3:0:0:0:
166,49,65280,1,0,3:0:0:0:
173,88,65355,2,0,B|180:115|180:115|181:128|181:128|182:143|182:143|190:180,1,80,8|0,0:0|0:0,0:0:0:0:
321,342,65655,5,10,0:0:0:0:
109,206,65805,1,0,0:0:0:0:
325,364,65955,1,10,0:0:0:0:
139,298,66105,1,0,0:0:0:0:
139,298,66180,1,0,0:0:0:0:
139,298,66255,6,0,B|216:285|216:285|206:203,1,160,10|0,0:0|3:0,0:0:0:0:
281,80,66610,1,0,3:0:0:0:
242,85,66687,2,0,B|165:98|165:98|175:180,1,160,10|0,0:0|3:0,0:0:0:0:
299,250,67072,1,0,3:0:0:0:
286,288,67149,6,0,B|326:280|356:265|356:265|333:307|348:369,1,180.000006866455,2|0,3:2|0:0,0:0:0:0:
371,380,67764,6,0,P|397:347|432:326,1,80
359,240,68355,1,0,0:0:0:0:
61,134,68655,6,0,B|116:126|116:126|202:166|202:166|265:156,1,200,4|8,0:0|0:0,0:0:0:0:
114,322,69105,2,0,B|93:278|93:278|105:225,1,100,2|0,0:0|0:0,0:0:0:0:
151,40,69405,1,0,3:0:0:0:
0,203,69555,2,0,B|30:243|30:243|77:255,1,100,8|0,0:0|0:0,0:0:0:0:
229,352,69855,5,2,3:2:0:0:
192,255,70005,1,0,3:0:0:0:
377,321,70155,2,0,P|395:272|396:222,1,100,8|0,0:0|0:0,0:0:0:0:
293,113,70455,1,2,0:0:0:0:
475,169,70605,1,0,0:0:0:0:
312,261,70755,1,8,0:0:0:0:
435,82,70905,1,0,0:0:0:0:
289,242,71055,5,2,3:2:0:0:
267,153,71201,1,0,3:0:0:0:
186,366,71347,2,0,P|165:320|177:263,1,100,8|0,0:0|0:0,0:0:0:0:
282,163,71647,1,2,0:0:0:0:
67,267,71797,1,0,0:0:0:0:
105,43,71947,1,8,0:0:0:0:
229,91,72097,1,0,0:0:0:0:
42,173,72247,5,2,3:2:0:0:
42,173,72395,1,0,3:0:0:0:
187,299,72544,2,0,B|188:254|188:254|165:195,1,100,8|0,0:0|0:0,0:0:0:0:
289,40,72841,2,0,B|278:83|278:83|240:134,1,100,2|0,3:2|3:0,0:0:0:0:
74,73,73138,1,8,0:0:0:0:
187,257,73286,1,0,0:0:0:0:
431,103,73435,5,2,3:2:0:0:
340,139,73585,1,0,3:0:0:0:
481,294,73735,2,0,P|433:280|383:255,1,100,8|0,0:0|0:0,0:0:0:0:
345,346,73960,1,0,0:0:0:0:
345,346,74035,2,0,B|364:296|364:296|352:240,1,100,2|0,3:2|3:0,0:0:0:0:
213,91,74335,2,0,B|193:140|193:140|205:196,1,100,8|0,0:0|0:0,0:0:0:0:
383,46,74635,5,2,3:2:0:0:
432,224,74785,1,0,3:0:0:0:
195,176,74935,2,0,P|245:167|296:149,1,100,8|0,0:0|0:0,0:0:0:0:
31,48,75235,2,0,P|81:57|132:75,1,100,2|0,0:0|0:0,0:0:0:0:
196,297,75535,1,8,0:0:0:0:
300,133,75685,1,0,0:0:0:0:
28,224,75835,5,2,3:2:0:0:
118,240,75985,1,0,3:0:0:0:
149,11,76135,1,8,0:0:0:0:
24,128,76285,2,0,B|73:143|73:143|114:114,1,100,0|2,3:0|3:2,0:0:0:0:
58,46,76585,1,0,3:0:0:0:
210,326,76735,2,0,B|218:278|218:278|189:228,1,100,8|0,0:0|0:0,0:0:0:0:
105,282,77035,5,2,3:2:0:0:
299,219,77185,1,0,3:0:0:0:
214,349,77335,2,0,B|190:275|190:275|202:137,1,200,8|2,0:0|0:0,0:0:0:0:
233,57,77785,1,0,3:0:0:0:
92,173,77935,1,8,0:0:0:0:
326,232,78085,1,0,0:0:0:0:
326,232,78160,1,0,0:0:0:0:
326,232,78235,6,0,B|344:207|344:207|322:140,1,100,4|0,0:0|0:0,0:0:0:0:
188,210,78538,1,8,0:0:0:0:
291,25,78690,1,2,0:0:0:0:
129,127,78842,2,0,B|174:104|174:104|229:113,1,100,0|0,0:0|3:0,0:0:0:0:
217,306,79146,1,8,0:0:0:0:
167,54,79298,1,0,3:0:0:0:
53,280,79450,5,2,3:2:0:0:
232,209,79600,1,0,3:0:0:0:
77,312,79751,2,0,P|97:268|109:215,1,100,8|0,0:0|0:0,0:0:0:0:
6,5,80053,1,2,0:0:0:0:
115,74,80203,1,0,0:0:0:0:
289,13,80354,1,8,0:0:0:0:
173,156,80505,1,0,0:0:0:0:
311,318,80656,5,2,3:2:0:0:
293,228,80806,1,0,3:0:0:0:
140,314,80957,2,0,L|240:350,1,100,8|0,0:0|0:0,0:0:0:0:
340,119,81259,1,2,3:2:0:0:
191,175,81409,1,0,3:0:0:0:
404,360,81560,2,0,L|385:254,1,100,8|0,0:0|0:0,0:0:0:0:
427,141,81862,5,2,0:0:0:0:
269,62,82013,1,0,3:0:0:0:
108,253,82162,2,0,P|180:249|255:211,1,150,8|0,0:0|0:0,0:0:0:0:
282,178,82462,5,0,3:0:0:0:
294,226,82535,1,0,3:0:0:0:
305,274,82609,1,0,3:0:0:0:
318,322,82682,1,0,3:0:0:0:
347,379,82756,5,0,3:0:0:0:
359,331,82829,1,0,3:0:0:0:
371,283,82903,2,0,L|383:229,1,50,0|0,3:0|3:0,0:0:0:0:
399,148,83050,5,4,3:2:0:0:
196,318,83200,1,0,3:0:0:0:
471,262,83350,1,8,0:0:0:0:
232,160,83500,1,0,3:0:0:0:
232,160,83575,1,0,3:0:0:0:
232,160,83650,1,8,0:0:0:0:
295,252,83805,1,0,3:0:0:0:
418,21,83960,2,0,B|432:61|432:61|411:122,1,100,10|0,0:0|0:0,0:0:0:0:
500,361,84271,6,0,B|431:347|431:347|413:320,1,100,8|0,0:0|3:0,0:0:0:0:
425,140,84571,2,0,B|356:154|356:154|338:181,1,100,8|0,0:0|3:0,0:0:0:0:
296,338,84871,1,10,0:0:0:0:
454,234,85021,1,0,3:0:0:0:
353,69,85171,1,8,0:0:0:0:
193,183,85321,1,0,3:0:0:0:
179,132,85396,1,0,3:0:0:0:
214,91,85471,5,14,3:2:0:0:
316,172,85621,2,0,B|330:244|330:244|285:281,1,120.000004577637,0|0,3:0|3:0,0:0:0:0:
62,132,85921,2,0,B|48:60|48:60|93:23,1,120.000004577637,10|0,0:0|0:0,0:0:0:0:
227,64,86221,1,0,0:0:0:0:
10,219,86358,5,10,0:0:0:0:
38,227,86433,1,0,3:0:0:0:
67,227,86508,1,0,3:0:0:0:
95,219,86583,1,0,3:0:0:0:
120,202,86658,1,0,3:0:0:0:
140,180,86733,1,0,3:0:0:0:
154,121,86808,5,10,0:0:0:0:
195,164,86883,1,0,3:0:0:0:
249,188,86958,1,0,3:0:0:0:
307,175,87033,1,0,3:0:0:0:
348,132,87108,1,0,3:0:0:0:
402,108,87183,1,0,3:0:0:0:
460,121,87258,2,0,P|482:140|501:170,1,60.0000022888184,10|0,0:0|3:0,0:0:0:0:
263,100,87408,2,0,P|268:71|284:39,1,60.0000022888184,8|0,0:3|3:0,0:0:0:0:
410,205,87558,6,0,P|410:239|390:265,1,60,2|0,0:0|0:0,0:0:0:0:
401,276,87858,6,0,P|337:264|339:344,1,160,4|2,3:2|0:0,0:0:0:0:
274,196,88308,1,0,0:0:0:0:
495,277,88458,1,10,0:0:0:0:
267,374,88608,2,0,P|307:372|348:357,1,80,2|0,0:0|0:0,0:0:0:0:
402,186,88908,6,0,P|374:263|369:348,1,160,2|2,3:2|0:0,0:0:0:0:
290,151,89358,1,2,0:0:0:0:
325,250,89508,1,0,0:0:0:0:
398,38,89658,2,0,P|358:38|315:52,1,80,8|0,0:0|0:0,0:0:0:0:
191,184,89958,2,0,B|231:184|231:184|274:170,1,80,2|0,0:0|0:0,0:0:0:0:
0,21,90258,6,0,P|77:27|160:62,1,160,4|2,3:2|0:0,0:0:0:0:
59,132,90708,1,0,0:0:0:0:
277,45,90858,1,10,0:0:0:0:
246,31,91008,2,0,P|252:74|265:118,1,80,2|0,0:0|0:0,0:0:0:0:
396,296,91308,6,0,P|406:224|447:146,1,160,2|0,3:2|3:0,0:0:0:0:
323,348,91758,1,2,0:0:0:0:
446,234,91908,1,0,3:0:0:0:
237,296,92058,2,0,P|223:261|216:216,1,80,8|0,0:0|0:0,0:0:0:0:
353,117,92358,2,0,P|346:156|332:193,1,80,4|0,3:2|0:0,0:0:0:0:
106,142,92658,6,0,P|175:109|258:90,1,160,2|0,3:2|3:0,0:0:0:0:
233,180,93108,1,0,0:0:0:0:
51,51,93258,1,10,0:0:0:0:
114,249,93408,2,0,P|122:209|118:165,1,80,2|0,0:0|0:0,0:0:0:0:
213,267,93708,6,0,P|139:294|71:342,1,160,0|2,3:0|0:0,0:0:0:0:
128,271,94158,1,0,0:0:0:0:
104,186,94308,1,0,0:0:0:0:
295,361,94458,1,10,0:0:0:0:
334,242,94608,1,0,0:0:0:0:
235,276,94758,2,0,P|279:273|323:262,1,80,2|0,0:0|0:0,0:0:0:0:
307,27,95048,6,0,P|283:98|271:185,1,160,4|0,3:2|0:0,0:0:0:0:
423,338,95498,1,0,3:0:0:0:
453,312,95573,1,0,3:0:0:0:
471,276,95648,2,0,B|462:232|462:232|435:205,1,80,8|0,0:0|0:0,0:0:0:0:
249,319,95948,1,8,0:0:0:0:
445,127,96098,6,0,B|426:183|426:183|318:215,1,160,4|2,3:2|3:2,0:0:0:0:
193,156,96548,1,0,3:0:0:0:
417,35,96698,1,0,3:0:0:0:
417,35,96773,1,0,3:0:0:0:
417,35,96848,1,2,3:2:0:0:
321,255,96998,1,0,0:0:0:0:
363,114,97148,1,2,0:0:0:0:
397,190,97298,1,2,0:0:0:0:
185,75,97448,5,4,3:2:0:0:
104,117,102253,6,0,B|89:66|89:66|118:42,1,80,4|0,3:2|0:0,0:0:0:0:
267,180,102553,2,0,B|282:231|282:231|253:255,1,80,0|2,3:0|0:0,0:0:0:0:
124,299,102853,2,0,L|150:224,2,80,0|0|0,3:0|0:0|0:0,0:0:0:0:
203,366,103303,1,0,0:0:0:0:
306,354,103453,6,0,P|317:315|314:274,1,80,0|0,3:0|0:0,0:0:0:0:
183,96,103753,1,0,0:0:0:0:
361,140,103903,1,2,3:2:0:0:
212,187,104053,1,8,0:0:0:0:
294,301,104203,1,8,0:0:0:0:
346,119,104353,1,8,0:0:0:0:
144,254,104503,1,0,3:0:0:0:
144,254,104578,1,0,3:0:0:0:
144,254,104653,6,0,B|112:204|112:204|138:99,1,160,10|0,0:0|3:0,0:0:0:0:
310,206,105103,1,2,0:0:0:0:
310,206,105178,1,0,0:0:0:0:
310,206,105253,1,0,3:0:0:0:
343,25,105403,1,0,0:0:0:0:
163,91,105553,2,0,L|211:81,1,40,0|0,3:0|3:0,0:0:0:0:
290,99,105703,2,0,L|242:109,1,40,0|0,3:0|3:0,0:0:0:0:
207,175,105853,5,2,3:2:0:0:
196,196,105928,1,0,3:0:0:0:
190,219,106003,1,0,3:0:0:0:
192,242,106078,1,0,3:0:0:0:
198,265,106153,1,0,3:0:0:0:
207,287,106228,1,0,3:0:0:0:
223,303,106303,2,0,L|271:308,1,40,2|0,3:2|3:0,0:0:0:0:
299,234,106453,5,0,3:0:0:0:
263,216,106528,1,0,3:0:0:0:
224,208,106603,1,0,3:0:0:0:
185,212,106678,1,0,3:0:0:0:
153,235,106753,1,0,3:0:0:0:
124,263,106828,1,0,3:0:0:0:
85,269,106903,1,0,3:0:0:0:
46,260,106978,1,0,3:0:0:0:
12,243,107053,6,0,B|0:172|0:172|88:186,1,160,4|0,3:2|0:0,0:0:0:0:
238,375,107503,2,0,L|225:295,1,80,10|0,0:0|0:0,0:0:0:0:
198,125,107803,1,0,0:0:0:0:
415,250,107953,6,0,P|336:240|266:195,1,160,10|0,0:0|0:0,0:0:0:0:
445,47,108396,1,10,0:0:0:0:
462,129,108546,1,2,0:0:0:0:
316,95,108696,1,0,0:0:0:0:
491,289,108846,5,10,0:0:0:0:
263,227,108996,1,0,0:0:0:0:
446,353,109146,2,0,P|455:292|432:230,1,120,8|0,0:0|0:0,0:0:0:0:
437,237,109446,6,0,P|379:284|291:313,1,160,4|10,3:2|0:0,0:0:0:0:
134,124,109896,2,0,P|150:159|163:210,1,80,0|2,0:0|0:0,0:0:0:0:
118,294,110196,1,0,0:0:0:0:
344,205,110346,1,10,0:0:0:0:
204,62,110496,1,0,0:0:0:0:
238,227,110646,5,0,3:0:0:0:
259,146,110796,1,0,3:0:0:0:
101,267,110946,2,0,B|89:236|89:236|127:152,1,120,10|0,0:0|0:0,0:0:0:0:
125,156,111246,1,2,3:2:0:0:
36,347,111396,1,0,0:0:0:0:
256,305,111546,1,10,0:0:0:0:
74,364,111696,1,8,0:0:0:0:
251,125,111846,6,0,B|274:144|274:144|289:200,1,80,12|0,0:0|0:0,0:0:0:0:
178,353,112140,1,2,0:0:0:0:
105,130,112290,1,12,0:0:0:0:
25,246,112440,2,0,L|119:226,1,80,2|0,0:0|0:0,0:0:0:0:
237,26,112740,6,0,P|218:73|204:183,1,160,10|0,0:0|0:0,0:0:0:0:
436,109,113190,2,0,P|401:87|358:75,1,80,10|0,0:0|0:0,0:0:0:0:
487,191,113490,1,0,0:0:0:0:
353,358,113640,1,10,0:0:0:0:
225,219,113790,1,0,0:0:0:0:
174,314,113940,1,10,0:0:0:0:
308,279,114090,1,0,0:0:0:0:
394,69,114240,6,0,P|410:101|424:154,1,80,4|0,3:2|0:0,0:0:0:0:
220,298,114540,1,10,0:0:0:0:
403,163,114690,1,0,0:0:0:0:
158,202,114853,1,10,0:0:0:0:
383,176,115003,1,0,0:0:0:0:
168,81,115153,1,10,0:0:0:0:
366,187,115303,1,0,0:0:0:0:
265,325,115453,5,0,3:0:0:0:
329,90,115603,1,0,0:0:0:0:
329,90,115678,1,0,0:0:0:0:
329,90,115753,1,8,0:0:0:0:
142,241,115903,1,0,0:0:0:0:
142,241,115978,1,0,0:0:0:0:
142,241,116053,2,0,L|198:247,1,40,10|0,0:0|0:0,0:0:0:0:
80,113,116203,2,0,L|74:169,1,40,2|0,3:2|0:0,0:0:0:0:
265,55,116353,2,0,L|134:39,1,120,2|0,3:2|0:0,0:0:0:0:
260,94,116653,6,0,B|369:76|369:76|346:26,1,160,12|8,3:2|0:0,0:0:0:0:
193,167,117103,1,2,0:0:0:0:
273,276,117253,1,0,3:0:0:0:
248,356,117403,1,0,3:0:0:0:
467,255,117553,6,0,P|407:205|317:201,1,160,10|2,0:0|3:2,0:0:0:0:
408,317,118003,1,0,0:0:0:0:
317,77,118153,1,10,0:0:0:0:
415,114,118303,1,0,0:0:0:0:
220,265,118453,6,0,P|280:259|333:226,1,120,2|0,3:2|0:0,0:0:0:0:
224,242,118753,2,0,P|164:248|111:281,1,120,8|0,0:0|0:0,0:0:0:0:
242,284,119053,6,0,P|239:201|215:126,1,160,4|8,3:2|0:0,0:0:0:0:
42,232,119503,2,0,P|80:246|127:257,1,80,0|2,0:0|0:0,0:0:0:0:
229,366,119803,1,0,0:0:0:0:
323,184,119953,1,10,0:0:0:0:
130,285,120103,1,0,0:0:0:0:
274,366,120253,6,0,P|295:328|309:286,1,80,2|0,0:0|0:0,0:0:0:0:
228,223,120478,1,0,0:0:0:0:
219,205,120553,2,0,P|227:165|249:118,1,80,8|2,0:0|0:0,0:0:0:0:
293,39,120778,1,0,3:0:0:0:
305,76,120853,1,2,3:2:0:0:
267,90,120928,1,0,3:0:0:0:
254,52,121003,1,0,3:0:0:0:
102,194,121153,1,2,0:0:0:0:
272,332,121303,1,0,3:0:0:0:
272,332,121378,1,0,3:0:0:0:
272,332,121453,6,0,P|260:290|245:254,1,80,12|0,0:0|0:0,0:0:0:0:
147,121,121753,1,2,0:0:0:0:
418,218,121903,2,0,P|390:246|351:267,1,80,8|2,0:0|0:0,0:0:0:0:
377,124,122203,1,0,0:0:0:0:
127,251,122353,6,0,P|194:208|269:233,1,160,10|2,0:0|0:0,0:0:0:0:
191,52,122803,2,0,P|177:89|169:130,1,80,10|0,0:0|0:0,0:0:0:0:
191,209,123103,1,0,0:0:0:0:
76,344,123253,5,2,3:2:0:0:
277,280,123403,1,0,0:0:0:0:
36,183,123553,1,8,0:0:0:0:
210,352,123703,1,0,3:0:0:0:
210,352,123778,1,0,3:0:0:0:
210,352,123853,6,0,P|191:312|183:273,1,80,10|0,0:0|0:0,0:0:0:0:
336,73,124153,1,0,3:0:0:0:
345,90,124228,1,0,3:0:0:0:
336,108,124303,2,0,L|250:127,1,80,10|0,0:0|0:0,0:0:0:0:
422,356,124603,1,0,3:0:0:0:
443,322,124678,1,0,3:0:0:0:
457,284,124753,2,0,B|458:258|458:258|424:200,1,80,10|0,0:0|0:0,0:0:0:0:
292,35,125053,5,10,0:0:0:0:
152,99,125203,1,0,0:0:0:0:
287,182,125353,1,10,0:0:0:0:
162,125,125503,1,0,0:0:0:0:
302,152,125653,1,10,0:0:0:0:
130,275,125803,1,0,3:0:0:0:
141,313,125878,1,0,3:0:0:0:
175,340,125953,2,0,B|256:300|256:300|220:279,1,120,8|0,0:0|0:0,0:0:0:0:
152,366,126253,6,0,B|19:300|19:300|74:271,1,200,4|8,3:2|0:0,0:0:0:0:
209,147,126703,1,2,0:0:0:0:
196,275,126853,2,0,L|183:163,1,100,0|0,0:0|3:0,0:0:0:0:
422,268,127153,1,8,0:0:0:0:
247,351,127303,1,0,0:0:0:0:
368,194,127453,5,2,3:2:0:0:
416,356,127603,1,0,3:0:0:0:
349,165,127753,2,0,L|451:185,1,100,8|0,0:0|0:0,0:0:0:0:
296,247,128058,1,2,0:0:0:0:
492,167,128208,1,0,0:0:0:0:
391,353,128358,1,8,0:0:0:0:
339,76,128508,1,0,0:0:0:0:
88,240,128658,5,2,3:2:0:0:
252,282,128808,1,0,3:0:0:0:
416,237,128958,2,0,B|439:199|439:199|428:144,1,100,8|0,0:0|0:0,0:0:0:0:
273,18,129258,2,0,B|250:56|250:56|261:113,1,100,2|0,0:0|0:0,0:0:0:0:
97,264,129558,1,8,0:0:0:0:
121,156,129708,1,0,0:0:0:0:
11,338,129858,5,2,3:2:0:0:
208,283,130008,1,0,3:0:0:0:
101,175,130158,2,0,B|83:126|83:126|104:72,1,100,8|0,0:0|0:0,0:0:0:0:
317,158,130458,2,0,L|217:140,1,100,2|0,3:2|3:0,0:0:0:0:
368,88,130683,1,0,0:0:0:0:
368,88,130758,2,0,L|350:188,1,100,8|0,0:0|0:0,0:0:0:0:
313,366,131058,5,2,3:2:0:0:
223,211,131208,1,0,3:0:0:0:
454,142,131358,2,0,P|433:181|388:209,1,100,8|0,0:0|0:0,0:0:0:0:
468,310,131583,1,0,0:0:0:0:
468,310,131658,2,0,P|461:261|429:223,1,100,2|0,3:2|3:0,0:0:0:0:
245,331,131958,1,8,0:0:0:0:
341,355,132108,1,0,0:0:0:0:
155,217,132258,5,2,3:2:0:0:
344,143,132408,1,0,3:0:0:0:
141,23,132558,2,0,B|116:67|116:67|129:115,1,100,8|0,0:0|0:0,0:0:0:0:
239,276,132858,1,2,0:0:0:0:
65,191,133008,1,0,0:0:0:0:
218,149,133158,1,8,0:0:0:0:
90,209,133308,1,0,0:0:0:0:
276,302,133458,5,2,3:2:0:0:
302,214,133608,1,0,3:0:0:0:
208,56,133758,1,8,0:0:0:0:
478,129,133908,2,0,P|437:154|384:163,1,100,0|2,3:0|3:2,0:0:0:0:
242,29,134208,1,0,3:0:0:0:
413,197,134358,1,8,0:0:0:0:
442,58,134508,1,0,3:0:0:0:
221,169,134658,5,2,3:2:0:0:
314,143,134808,1,0,3:0:0:0:
173,269,134958,2,0,B|228:313|228:313|355:267,1,200,8|2,0:0|0:0,0:0:0:0:
300,116,135408,1,0,3:0:0:0:
227,347,135558,1,8,0:0:0:0:
153,187,135708,1,0,0:0:0:0:
33,342,135858,6,0,B|10:279|10:279|25:238,1,100,4|0,0:0|0:0,0:0:0:0:
149,105,136158,1,8,0:0:0:0:
267,197,136308,2,0,P|314:183|359:150,1,100,0|2,0:0|0:0,0:0:0:0:
348,258,136608,1,0,3:0:0:0:
311,18,136758,1,8,0:0:0:0:
486,153,136908,1,0,3:0:0:0:
223,263,137063,6,0,B|196:224|196:224|216:170,1,100,2|0,3:2|3:0,0:0:0:0:
347,48,137363,2,0,B|374:87|374:87|354:141,1,100,8|0,0:0|0:0,0:0:0:0:
301,216,137663,1,2,0:0:0:0:
277,100,137813,1,0,0:0:0:0:
148,322,137963,1,8,0:0:0:0:
386,264,138113,1,0,0:0:0:0:
196,80,138263,5,2,3:2:0:0:
160,176,138413,1,0,3:0:0:0:
402,40,138563,2,0,B|423:76|423:76|414:134,1,100,8|0,0:0|0:0,0:0:0:0:
244,324,138863,2,0,B|219:260|219:260|243:225,1,100,2|0,0:0|3:0,0:0:0:0:
375,346,139163,1,8,0:0:0:0:
326,135,139313,1,0,0:0:0:0:
105,216,139463,5,2,3:2:0:0:
245,245,139613,1,0,3:0:0:0:
301,53,139763,1,8,0:0:0:0:
230,264,139913,1,0,0:0:0:0:
45,150,140058,5,0,3:0:0:0:
88,125,140133,1,0,3:0:0:0:
136,129,140208,2,0,P|161:144|178:163,1,50,0|0,3:0|3:0,0:0:0:0:
218,283,140358,1,0,3:0:0:0:
261,307,140433,1,0,3:0:0:0:
309,303,140508,2,0,P|334:287|350:268,1,50,0|0,3:0|3:0,0:0:0:0:
364,163,140658,6,0,P|367:214|389:269,1,100,4|0,3:2|3:0,0:0:0:0:
251,59,140958,1,8,0:0:0:0:
251,59,141033,1,0,3:0:0:0:
251,59,141108,1,0,3:0:0:0:
474,130,141258,1,8,0:0:0:0:
289,193,141408,1,0,3:0:0:0:
389,354,141558,1,10,0:0:0:0:
446,114,141708,1,0,3:0:0:0:
195,348,141858,6,0,B|172:304|172:304|180:253,1,100,8|0,0:0|3:0,0:0:0:0:
355,133,142158,2,0,B|376:175|376:175|368:226,1,100,8|0,0:0|3:0,0:0:0:0:
353,26,142458,1,10,0:0:0:0:
270,203,142608,1,0,3:0:0:0:
467,89,142758,1,8,0:0:0:0:
216,118,142908,1,0,3:0:0:0:
216,118,142983,1,0,3:0:0:0:
216,118,143058,6,0,B|179:87|179:87|203:13,1,120.000004577637,4|0,3:2|3:0,0:0:0:0:
29,246,143358,1,0,3:0:0:0:
72,265,143433,1,0,3:0:0:0:
116,283,143508,2,0,B|153:252|153:252|129:178,1,120.000004577637,10|0,0:0|0:0,0:0:0:0:
81,82,143808,1,0,0:0:0:0:
296,167,143958,1,10,0:0:0:0:
176,361,144108,5,0,3:0:0:0:
163,333,144183,1,0,3:0:0:0:
156,303,144258,1,0,3:0:0:0:
163,273,144333,1,0,3:0:0:0:
186,217,144408,5,10,0:0:0:0:
212,231,144483,1,0,3:0:0:0:
234,259,144558,1,0,3:0:0:0:
226,300,144633,1,0,3:0:0:0:
186,326,144708,1,0,3:0:0:0:
133,314,144783,1,0,3:0:0:0:
101,262,144858,5,10,0:0:0:0:
160,252,144933,1,0,3:0:0:0:
219,242,145008,1,0,3:0:0:0:
278,232,145083,1,0,3:0:0:0:
337,222,145158,2,0,L|398:213,1,60.0000022888184,10|0,0:0|3:0,0:0:0:0:
194,157,145308,2,0,L|133:166,1,60.0000022888184,8|0,0:0|3:0,0:0:0:0:
303,40,145451,6,0,B|316:69|316:69|289:131,1,80,4|0,3:2|0:0,0:0:0:0:
183,279,145751,1,10,0:0:0:0:
403,131,145901,2,0,B|402:162|402:162|351:207,1,80,4|0,3:2|0:0,0:0:0:0:
208,122,146201,1,2,3:2:0:0:
181,152,146276,1,0,3:0:0:0:
201,186,146351,6,0,P|255:205|329:216,1,120,8|0,0:0|0:0,0:0:0:0:
316,215,146651,1,2,3:2:0:0:
247,349,146801,1,0,3:0:0:0:
55,290,146951,1,0,3:0:0:0:
94,282,147026,1,0,3:0:0:0:
133,275,147101,1,0,3:0:0:0:
172,267,147176,1,0,3:0:0:0:
188,217,147251,5,2,3:2:0:0:
170,167,147326,1,0,3:0:0:0:
122,146,147401,1,2,3:2:0:0:
105,96,147476,1,0,3:0:0:0:
126,62,147551,5,0,3:0:0:0:
165,70,147626,1,0,3:0:0:0:
204,77,147701,1,0,3:0:0:0:
243,85,147776,1,0,3:0:0:0:
281,96,147851,6,0,B|315:117|315:117|336:157,1,80,4|0,3:2|0:0,0:0:0:0:
341,18,148151,1,10,0:0:0:0:
249,182,148301,2,0,B|236:219|236:219|246:264,1,80,4|0,0:0|0:0,0:0:0:0:
344,367,148601,1,2,0:0:0:0:
471,203,148751,5,8,0:0:0:0:
487,166,148826,1,0,3:0:0:0:
496,127,148901,1,0,3:0:0:0:
494,88,148976,1,0,3:0:0:0:
474,53,149051,1,0,3:0:0:0:
438,40,149126,1,0,3:0:0:0:
411,66,149201,5,0,3:0:0:0:
421,82,149276,1,0,3:0:0:0:
426,113,149351,1,0,3:0:0:0:
410,141,149426,1,0,3:0:0:0:
371,153,149501,1,0,3:0:0:0:
334,137,149576,1,0,3:0:0:0:
308,91,149651,1,2,3:2:0:0:
334,46,149726,1,0,3:0:0:0:
384,32,149801,6,0,L|430:42,1,40,8|0,0:0|3:0,0:0:0:0:
224,104,149951,2,0,L|263:95,1,40,8|0,0:0|3:0,0:0:0:0:
414,238,150101,1,0,3:0:0:0:
373,271,150176,1,0,3:0:0:0:
323,253,150251,6,0,P|309:218|305:167,1,80,4|0,3:2|0:0,0:0:0:0:
408,358,150551,1,10,0:0:0:0:
217,217,150701,2,0,P|197:251|188:290,1,80,4|0,3:2|0:0,0:0:0:0:
11,316,151001,1,2,3:2:0:0:
41,341,151076,1,0,3:0:0:0:
75,361,151151,6,0,L|81:312,4,40,8|0|0|0|0,0:0|3:0|3:0|3:0|3:0,0:0:0:0:
94,355,151526,1,10,3:2:0:0:
112,346,151601,1,8,3:0:0:0:
131,338,151677,1,8,3:0:0:0:
152,286,151752,5,2,3:2:0:0:
183,310,151827,1,0,3:0:0:0:
220,322,151903,1,0,3:0:0:0:
259,315,151978,1,0,3:0:0:0:
320,332,152054,5,2,3:2:0:0:
292,288,152129,1,0,3:0:0:0:
300,236,152204,1,0,3:0:0:0:
345,210,152281,1,0,3:0:0:0:
396,204,152355,2,0,L|438:225,1,40,10|0,0:0|3:0,0:0:0:0:
411,377,152506,2,0,L|432:335,1,40,2|0,3:2|3:0,0:0:0:0:
354,95,152657,5,4,3:2:0:0:
238,140,152807,1,0,0:0:0:0:
442,248,152957,1,10,0:0:0:0:
223,365,153107,2,0,L|210:281,1,80,4|0,3:2|3:0,0:0:0:0:
187,303,153332,1,0,3:0:0:0:
153,283,153407,1,2,3:2:0:0:
135,233,153482,1,0,3:0:0:0:
168,185,153557,6,0,B|362:139|277:270|471:231,1,320,2|8,3:2|0:0,0:0:0:0:
256,24,155057,5,6,0:0:0:0:
256,360,159857,5,6,0:0:0:0:
341,53,164048,5,2,3:2:0:0:
162,123,164201,1,0,3:0:0:0:
296,208,164354,1,2,3:2:0:0:
280,358,164507,1,0,3:0:0:0:
280,358,164583,1,0,3:0:0:0:
280,358,164660,6,0,P|266:304|259:237,1,120.000004577637,4|0,3:2|0:0,0:0:0:0:
300,159,165110,1,2,0:0:0:0:
115,301,165260,2,0,P|200:289|296:249,1,180.000006866455,8|0,0:0|3:0,0:0:0:0:
323,172,165850,1,2,0:0:0:0:
192,246,166000,6,0,P|183:217|180:182,1,60.0000022888184,10|0,0:0|0:0,0:0:0:0:
255,24,166300,1,0,3:0:0:0:
75,75,166450,2,0,B|101:58|138:77|131:85|161:99|189:85,1,120.000004577637,10|0,0:0|3:0,0:0:0:0:
91,176,166900,1,0,0:0:0:0:
91,176,166975,1,0,0:0:0:0:
91,176,167050,6,0,P|68:237|65:302,1,120.000004577637,2|2,3:2|0:0,0:0:0:0:
208,362,167500,1,0,3:0:0:0:
44,336,167650,2,0,P|96:305|158:304,1,120.000004577637,10|2,0:0|3:2,0:0:0:0:
300,369,168100,6,0,P|281:313|295:245,1,120,0|0,3:0|0:0,0:0:0:0:
302,159,168400,2,0,P|321:215|307:283,1,120,0|0,3:0|0:0,0:0:0:0:
311,273,168700,1,2,3:2:0:0:
460,145,168850,6,0,L|401:159,1,60.0000022888184,10|0,0:0|0:0,0:0:0:0:
511,261,169150,2,0,L|450:246,1,60.0000022888184,2|0,3:2|0:0,0:0:0:0:
351,377,169458,5,10,0:0:0:0:
274,332,169608,1,0,0:0:0:0:
253,244,169758,2,0,P|261:209|275:180,1,60.0000022888184,0|2,3:0|0:0,0:0:0:0:
179,342,170058,2,0,P|165:308|146:282,1,60.0000022888184,10|0,0:0|0:0,0:0:0:0:
74,240,170358,1,0,3:0:0:0:
162,121,170508,6,0,P|204:133|254:155,1,90.0000034332277,0|0,3:0|0:0,0:0:0:0:
246,151,170808,2,0,P|251:117|261:89,1,60.0000022888184,10|0,0:0|0:0,0:0:0:0:
317,21,171097,5,0,3:0:0:0:
477,115,171250,1,10,0:0:0:0:
383,154,171404,1,0,3:0:0:0:
465,341,171558,2,0,B|475:305|475:305|470:249,1,80,2|0,0:0|0:0,0:0:0:0:
472,263,171866,6,0,L|352:241,1,120,4|0,3:2|0:0,0:0:0:0:
353,241,172173,6,0,B|275:281|248:192|170:226,1,190,4|0,3:2|0:0,0:0:0:0:
148,269,173658,5,8,0:0:0:0:
142,241,173733,1,0,3:0:0:0:
136,213,173808,1,0,3:0:0:0:
130,185,173883,1,0,3:0:0:0:
80,218,173958,5,0,3:0:0:0:
90,175,174033,1,0,3:0:0:0:
100,132,174108,1,0,3:0:0:0:
110,89,174183,1,0,3:0:0:0:
120,46,174258,6,0,B|168:26|168:26|202:91,1,120,4|0,3:2|0:0,0:0:0:0:
238,179,174558,2,0,P|246:125|281:64,1,120,2|0,3:2|0:0,0:0:0:0:
277,68,174858,1,8,0:0:0:0:
495,131,175008,2,0,P|458:149|420:158,1,80,2|0,0:0|0:0,0:0:0:0:
382,343,175308,6,0,P|385:277|356:221,1,120,2|0,3:2|0:0,0:0:0:0:
363,230,175608,1,2,0:0:0:0:
280,202,175758,1,0,0:0:0:0:
294,294,175908,1,0,3:0:0:0:
141,353,176058,2,0,B|163:332|163:332|184:279,1,80,10|0,0:0|0:0,0:0:0:0:
163,136,176358,2,0,B|132:147|132:147|93:226,1,120,0|0,3:0|0:0,0:0:0:0:
198,128,176658,6,0,L|88:62,1,120,2|0,3:2|0:0,0:0:0:0:
94,66,176958,2,0,B|98:32|98:32|135:-1,1,80,2|0,3:2|0:0,0:0:0:0:
308,60,177258,1,10,0:0:0:0:
298,176,177408,2,0,L|284:96,1,80
468,25,177708,6,0,L|454:103,1,80,0|2,3:0|0:0,0:0:0:0:
280,210,178008,1,2,3:2:0:0:
436,350,178151,1,0,3:0:0:0:
405,260,178301,1,0,3:0:0:0:
222,329,178451,1,10,0:0:0:0:
372,283,178601,1,0,0:0:0:0:
198,118,178751,1,10,0:0:0:0:
198,118,178826,1,0,0:0:0:0:
198,118,178901,2,0,L|187:168,1,40
159,242,179051,6,0,P|209:202|274:211,1,120,4|0,3:2|0:0,0:0:0:0:
262,205,179351,2,0,L|281:127,1,80,2|0,3:2|0:0,0:0:0:0:
199,316,179651,1,10,0:0:0:0:
85,196,179801,2,0,L|163:214,1,80
301,358,180101,6,0,P|295:318|283:280,1,80,2|0,3:2|0:0,0:0:0:0:
143,127,180401,1,2,0:0:0:0:
62,348,180551,1,0,3:0:0:0:
192,299,180701,1,0,3:0:0:0:
28,182,180851,1,10,0:0:0:0:
256,240,181001,1,0,3:0:0:0:
256,240,181076,1,0,3:0:0:0:
256,240,181151,2,0,B|263:199|263:199|246:154,1,80,2|0,3:2|0:0,0:0:0:0:
430,249,181451,6,0,P|392:289|324:299,1,120,4|0,3:2|0:0,0:0:0:0:
331,301,181751,2,0,L|312:378,1,80,2|0,3:2|0:0,0:0:0:0:
234,151,182051,1,8,0:0:0:0:
262,247,182201,2,0,B|292:269|292:269|325:189,1,120,2|0,3:2|0:0,0:0:0:0:
323,193,182501,6,0,L|403:178,1,80,0|2,3:0|0:0,0:0:0:0:
382,273,182801,1,0,3:0:0:0:
250,118,182951,1,10,0:0:0:0:
341,90,183101,1,0,0:0:0:0:
165,238,183251,1,10,0:0:0:0:
402,313,183401,1,0,3:0:0:0:
277,201,183551,1,0,3:0:0:0:
285,281,183701,1,0,3:0:0:0:
117,346,183863,6,0,B|95:293|95:293|149:199,1,160,4|2,3:2|3:2,0:0:0:0:
68,285,184313,1,0,0:0:0:0:
279,181,184463,1,10,0:0:0:0:
258,335,184613,2,0,L|244:256,1,80,2|0,3:2|0:0,0:0:0:0:
100,68,184913,6,0,P|100:129|124:194,1,120,2|0,3:2|0:0,0:0:0:0:
118,184,185213,1,2,0:0:0:0:
262,133,185361,1,2,0:0:0:0:
205,241,185510,1,0,3:0:0:0:
276,16,185659,1,10,0:0:0:0:
360,211,185808,1,0,0:0:0:0:
250,114,185957,1,2,0:0:0:0:
408,46,186106,1,0,3:0:0:0:
425,56,186180,1,0,3:0:0:0:
446,69,186255,6,0,B|481:98|481:98|443:171,1,120,2|0,3:2|0:0,0:0:0:0:
446,164,186555,2,0,B|448:188|448:188|479:237,1,80,2|0,3:2|0:0,0:0:0:0:
349,117,186855,1,8,0:0:0:0:
246,241,187005,2,0,L|265:154,1,80,2|0,0:0|0:0,0:0:0:0:
195,308,187305,6,0,B|154:269|154:269|174:166,1,160,2|0,3:2|3:0,0:0:0:0:
87,357,187755,1,2,0:0:0:0:
44,243,187905,1,0,0:0:0:0:
297,261,188055,2,0,L|218:283,1,80,10|0,0:0|0:0,0:0:0:0:
164,83,188355,2,0,B|143:102|143:102|153:160,1,80,12|0,0:0|0:0,0:0:0:0:
320,289,188655,6,0,B|337:260|337:260|320:176,1,120,4|0,3:2|0:0,0:0:0:0:
319,175,188955,2,0,P|284:165|248:140,1,80,2|0,0:0|0:0,0:0:0:0:
117,48,189255,1,10,0:0:0:0:
165,123,189405,2,0,P|206:115|239:94,1,80,2|0,0:0|0:0,0:0:0:0:
94,177,189705,6,0,B|108:239|108:239|119:259|119:259|137:334,1,160,2|2,3:2|0:0,0:0:0:0:
295,175,190155,1,0,0:0:0:0:
267,265,190305,1,0,0:0:0:0:
439,356,190455,2,0,P|436:311|412:275,1,80,10|0,0:0|0:0,0:0:0:0:
171,313,190755,1,2,3:2:0:0:
340,345,190905,1,8,0:0:0:0:
372,129,191055,6,0,P|337:179|323:250,1,120,2|0,3:2|0:0,0:0:0:0:
323,235,191356,1,0,3:0:0:0:
266,101,191507,1,2,0:0:0:0:
453,49,191682,1,10,0:0:0:0:
379,159,191825,1,0,0:0:0:0:
477,302,191969,1,8,0:0:0:0:
309,215,192112,6,0,B|209:200|249:268|157:243,1,160,4|8,3:2|0:0,0:0:0:0:
205,334,192550,1,0,3:0:0:0:
278,127,192700,1,2,3:2:0:0:
330,243,192850,1,10,0:0:0:0:
138,220,193000,1,0,3:0:0:0:
308,222,193150,1,2,3:2:0:0:
119,259,193300,1,0,3:0:0:0:
119,259,193375,1,0,3:0:0:0:
119,259,193450,6,0,B|85:208|85:208|126:118,1,160,4|0,3:2|0:0,0:0:0:0:
230,287,193900,2,0,L|206:371,1,80,2|0,0:0|3:0,0:0:0:0:
302,347,194200,1,0,0:0:0:0:
354,145,194350,6,0,B|317:140|317:140|280:161,1,80,2|0,3:2|0:0,0:0:0:0:
415,312,194666,2,0,P|431:275|438:230,1,80,2|0,3:2|0:0,0:0:0:0:
397,53,194950,2,0,P|381:90|374:135,1,80,0|0,3:0|0:0,0:0:0:0:
399,153,195177,1,0,0:0:0:0:
399,153,195253,6,0,L|279:183,1,120,2|0,3:2|0:0,0:0:0:0:
154,244,195556,2,0,L|270:214,1,120,0|0,3:0|0:0,0:0:0:0:
164,210,195859,6,0,B|128:165|128:165|169:68,1,160,2|0,3:2|3:0,0:0:0:0:
191,36,196313,1,0,0:0:0:0:
30,74,196465,2,0,B|24:116|24:116|41:149,1,80,2|0,3:2|0:0,0:0:0:0:
186,239,196759,2,0,B|178:281|178:281|153:308,1,80,0|0,3:0|0:0,0:0:0:0:
141,110,197053,5,4,0:0:0:0:
75,327,197203,1,0,3:0:0:0:
267,200,197353,2,0,P|209:205|145:231,1,120,2|0,0:0|0:0,0:0:0:0:
151,227,197653,2,0,P|182:254|212:303,1,80,10|0,0:0|0:0,0:0:0:0:
97,145,197953,1,2,3:1:0:0:
190,368,198103,1,0,0:0:0:0:
358,288,198253,6,0,P|373:251|369:205,1,80,14|0,0:0|0:0,0:0:0:0:
310,43,198553,1,2,0:0:0:0:
470,156,198703,1,0,0:0:0:0:
470,156,198778,1,0,0:0:0:0:
470,156,198853,2,0,L|390:172,1,80,2|0,3:2|0:0,0:0:0:0:
219,277,199153,6,0,P|203:217|194:151,1,120,2|0,3:2|0:0,0:0:0:0:
202,127,199453,1,10,0:0:0:0:
217,99,199528,1,0,0:0:0:0:
233,71,199603,1,0,0:0:0:0:
399,199,199753,1,10,0:0:0:0:
372,215,199828,1,0,0:0:0:0:
344,231,199903,1,0,0:0:0:0:
336,10,200053,6,0,P|383:46|425:92,1,120,10|0,3:2|0:0,0:0:0:0:
423,88,200353,1,10,0:0:0:0:
296,160,200503,1,2,0:0:0:0:
157,53,200653,5,2,3:2:0:0:
155,72,200728,1,0,3:0:0:0:
153,91,200803,1,0,3:0:0:0:
151,110,200878,1,0,3:0:0:0:
149,129,200953,1,2,3:2:0:0:
147,148,201028,1,0,3:0:0:0:
145,167,201103,1,0,3:0:0:0:
143,186,201178,1,0,3:0:0:0:
140,205,201253,2,0,L|134:250,3,40,2|0|0|0,3:2|3:0|3:0|3:0,0:0:0:0:
73,338,201553,1,2,3:2:0:0:
46,307,201628,1,0,3:0:0:0:
36,268,201703,1,0,3:0:0:0:
40,227,201778,1,0,3:0:0:0:
58,190,201853,6,0,L|113:179,1,40,8|0,0:0|3:0,0:0:0:0:
148,108,202003,6,0,P|189:110|229:124,1,80,2|0,0:0|0:0,0:0:0:0:
219,229,202453,6,0,P|224:259|236:292,1,60.0000022888184,2|0,0:0|0:0,0:0:0:0:
263,114,202753,6,0,P|270:84|281:50,1,60,8|0,0:0|0:0,0:0:0:0:
278,56,203053,6,0,P|356:41|439:30,1,160,12|8,3:2|0:0,0:0:0:0:
368,217,203503,2,0,P|353:182|344:135,1,80,2|0,0:0|0:0,0:0:0:0:
358,23,203803,1,0,3:0:0:0:
499,116,203953,6,0,P|492:157|478:195,1,80,10|0,0:0|0:0,0:0:0:0:
368,340,204253,1,2,0:0:0:0:
510,280,204403,1,0,3:0:0:0:
320,211,204553,1,10,0:0:0:0:
407,360,204703,1,0,0:0:0:0:
181,307,204853,6,0,P|218:288|259:282,1,80,2|0,3:2|0:0,0:0:0:0:
412,238,205153,2,0,P|372:231|337:212,1,80,8|0,0:0|0:0,0:0:0:0:
182,111,205453,6,0,B|153:153|153:153|179:266,1,160,4|8,3:2|0:0,0:0:0:0:
26,347,205903,2,0,B|49:327|49:327|61:266,1,80,0|2,0:0|0:0,0:0:0:0:
26,185,206203,1,0,3:0:0:0:
192,341,206353,1,8,0:0:0:0:
326,209,206503,1,0,3:0:0:0:
337,239,206578,1,0,3:0:0:0:
328,269,206653,5,2,3:2:0:0:
258,108,206803,1,0,3:0:0:0:
172,244,206953,2,0,P|181:282|199:318,1,80,8|2,0:0|0:0,0:0:0:0:
448,247,207253,1,2,3:2:0:0:
452,207,207328,1,0,3:0:0:0:
456,167,207403,1,0,3:0:0:0:
460,127,207478,1,0,3:0:0:0:
428,151,207553,5,0,3:0:0:0:
421,132,207628,1,0,3:0:0:0:
414,113,207703,1,0,3:0:0:0:
407,94,207778,1,0,3:0:0:0:
400,74,207853,6,0,B|421:48|421:48|481:34,1,80,12|0,3:2|0:0,0:0:0:0:
336,203,208153,1,2,3:2:0:0:
270,31,208303,2,0,B|244:52|244:52|230:112,1,80,8|2,0:0|0:0,0:0:0:0:
346,182,208603,1,0,0:0:0:0:
237,355,208753,6,0,P|221:321|224:273,1,80,10|0,0:0|0:0,0:0:0:0:
306,240,209053,1,2,0:0:0:0:
110,349,209203,1,10,0:0:0:0:
200,157,209353,1,0,0:0:0:0:
113,134,209503,1,2,0:0:0:0:
21,277,209653,5,2,3:2:0:0:
187,325,209803,1,0,3:0:0:0:
174,72,209953,1,10,0:0:0:0:
239,253,210103,1,0,3:0:0:0:
239,253,210178,1,0,3:0:0:0:
239,253,210253,6,0,P|298:266|366:268,1,120,10|0,0:0|0:0,0:0:0:0:
393,344,210553,1,0,3:0:0:0:
406,358,210628,1,0,3:0:0:0:
418,373,210703,2,0,P|433:312|463:248,1,120,10|0,0:0|0:0,0:0:0:0:
505,181,211003,1,0,3:0:0:0:
466,170,211078,1,0,3:0:0:0:
427,159,211153,2,0,B|396:130|396:130|422:51,1,120,10|0,0:0|0:0,0:0:0:0:
420,56,211453,6,0,L|335:37,1,80,8|0,0:0|0:0,0:0:0:0:
157,59,211753,2,0,L|242:78,1,80,8|0,0:0|0:0,0:0:0:0:
379,254,212053,1,8,0:0:0:0:
164,195,212203,1,0,3:0:0:0:
203,188,212278,1,0,3:0:0:0:
245,185,212353,2,0,L|368:161,1,120,12|0,0:0|0:0,0:0:0:0:
362,162,212653,6,0,B|386:103|386:103|460:108|460:108|476:171,1,200,4|8,3:2|0:0,0:0:0:0:
423,352,213103,2,0,B|400:307|400:307|411:253,1,100,2|0,0:0|0:0,0:0:0:0:
424,75,213403,1,0,3:0:0:0:
348,188,213548,2,0,L|249:159,1,100,8|0,0:0|0:0,0:0:0:0:
159,214,213848,5,2,3:2:0:0:
207,314,213998,1,0,3:0:0:0:
265,130,214148,1,8,0:0:0:0:
202,345,214298,1,0,0:0:0:0:
99,130,214448,2,0,P|68:167|54:219,1,100,2|0,3:2|0:0,0:0:0:0:
296,353,214748,1,8,0:0:0:0:
242,108,214898,1,0,0:0:0:0:
345,272,215041,5,2,3:2:0:0:
345,272,215191,1,0,3:0:0:0:
195,222,215341,1,8,0:0:0:0:
288,186,215491,1,0,0:0:0:0:
365,367,215641,1,2,0:0:0:0:
272,331,215791,1,0,0:0:0:0:
406,155,215941,2,0,B|407:206|407:206|382:250,1,100,8|0,0:0|0:0,0:0:0:0:
228,61,216241,6,0,L|331:88,1,100,2|0,3:2|3:0,0:0:0:0:
477,258,216541,2,0,L|374:285,1,100,8|0,0:0|0:0,0:0:0:0:
318,361,216841,1,2,0:0:0:0:
264,222,216991,1,0,3:0:0:0:
445,117,217141,1,8,0:0:0:0:
391,255,217291,1,0,0:0:0:0:
171,204,217441,5,2,3:2:0:0:
278,245,217591,1,0,3:0:0:0:
333,109,217741,1,8,0:0:0:0:
100,153,217891,1,0,0:0:0:0:
100,153,217966,1,0,0:0:0:0:
100,153,218041,2,0,B|81:119|81:119|89:57,1,100,2|0,3:2|3:0,0:0:0:0:
308,3,218341,2,0,B|327:37|327:37|319:99,1,100,8|0,0:0|0:0,0:0:0:0:
171,222,218648,5,2,3:2:0:0:
269,185,218796,1,0,3:0:0:0:
181,38,218945,1,8,0:0:0:0:
350,236,219093,1,0,0:0:0:0:
467,45,219242,2,0,B|415:57|415:57|385:103,1,100,2|0,3:2|0:0,0:0:0:0:
459,272,219539,1,8,0:0:0:0:
312,223,219689,1,0,0:0:0:0:
476,140,219839,5,2,3:2:0:0:
512,232,219989,1,0,3:0:0:0:
389,354,220139,1,8,0:0:0:0:
275,204,220289,2,0,P|224:213|182:245,1,100,0|2,3:0|3:2,0:0:0:0:
150,334,220589,1,0,3:0:0:0:
26,135,220739,2,0,B|89:163|89:163|99:203,1,100,8|0,0:0|3:0,0:0:0:0:
6,231,221031,5,2,3:2:0:0:
176,124,221181,1,0,3:0:0:0:
40,17,221331,2,0,B|32:67|32:67|51:119,1,100,8|0,0:0|0:0,0:0:0:0:
276,111,221639,2,0,B|257:63|257:63|215:28,1,100,2|0,0:0|3:0,0:0:0:0:
41,233,221939,1,8,0:0:0:0:
132,49,222089,1,0,0:0:0:0:
382,148,222239,5,4,3:2:0:0:
217,218,222389,1,0,0:0:0:0:
411,309,222540,2,0,B|364:320|364:320|317:290,1,100,8|0,0:0|0:0,0:0:0:0:
238,92,222842,1,2,0:0:0:0:
195,196,222992,1,0,3:0:0:0:
24,132,223143,2,0,P|70:109|135:111,1,100,8|0,0:0|3:0,0:0:0:0:
224,319,223445,5,2,3:2:0:0:
59,247,223595,1,0,3:0:0:0:
208,345,223746,1,8,0:0:0:0:
282,255,223897,1,0,0:0:0:0:
152,125,224048,2,0,P|170:171|180:221,1,100,2|0,0:0|0:0,0:0:0:0:
361,153,224349,2,0,P|370:104|389:58,1,100,8|0,0:0|0:0,0:0:0:0:
307,273,224651,5,2,3:2:0:0:
468,207,224801,1,0,3:0:0:0:
196,69,224952,2,0,B|249:102|249:102|289:91,1,100,8|0,0:0|0:0,0:0:0:0:
48,188,225254,1,2,0:0:0:0:
193,219,225404,1,0,3:0:0:0:
79,81,225555,1,8,0:0:0:0:
191,247,225706,1,0,0:0:0:0:
174,30,225857,5,2,3:2:0:0:
103,275,226007,1,0,3:0:0:0:
244,125,226158,2,0,P|194:135|148:150,1,100,8|0,0:0|0:0,0:0:0:0:
327,225,226460,1,2,0:0:0:0:
186,41,226610,1,0,0:0:0:0:
49,170,226761,2,0,B|38:208|38:208|68:261,1,100,12|0,0:0|0:0,0:0:0:0:
208,369,227063,5,4,3:2:0:0:
261,211,227211,1,0,3:0:0:0:
75,340,227360,1,8,0:0:0:0:
297,305,227509,1,0,3:0:0:0:
297,305,227584,1,0,3:0:0:0:
297,305,227658,2,0,B|349:298|349:298|396:349,1,100,0|0,3:0|3:0,0:0:0:0:
142,247,227956,2,0,B|90:254|90:254|43:203,1,100,10|0,0:0|0:0,0:0:0:0:
239,210,228254,5,0,3:2:0:0:
208,317,228402,1,0,3:0:0:0:
373,137,228551,1,8,0:0:0:0:
343,31,228700,1,0,0:0:0:0:
464,263,228849,2,0,P|411:247|367:240,1,100,2|0,0:0|0:0,0:0:0:0:
244,365,229147,2,0,B|226:332|226:332|248:255,1,100,8|0,0:0|0:0,0:0:0:0:
51,145,229445,5,12,0:0:0:0:
51,145,229520,1,0,0:0:0:0:
51,145,229595,2,0,B|101:129|101:129|175:165,1,120.000004577637,0|0,3:0|3:0,0:0:0:0:
87,306,229895,1,8,0:0:0:0:
303,258,230045,2,0,P|302:198|283:142,1,120.000004577637,2|0,0:0|0:0,0:0:0:0:
78,58,230345,5,8,0:0:0:0:
216,242,230495,1,0,0:0:0:0:
66,340,230645,2,0,B|94:304|94:304|178:320,1,120.000004577637,8|2,0:0|0:0,0:0:0:0:
401,368,230945,1,0,3:0:0:0:
429,337,231020,1,0,3:0:0:0:
418,296,231095,1,0,3:0:0:0:
377,286,231170,1,0,3:0:0:0:
344,314,231245,5,8,0:0:0:0:
401,330,231320,1,0,3:0:0:0:
459,342,231395,2,0,B|474:317|474:317|479:272,1,60.0000022888184,0|0,3:0|3:0,0:0:0:0:
345,140,231545,6,0,B|305:180|305:180|336:299,1,180.000006866455,6|0,3:2|0:0,0:0:0:0:
336,299,231845,6,0,B|320:340|320:340|264:367,1,100,4|0,3:2|0:0,0:0:0:0:
95,248,232145,1,8,0:0:0:0:
223,85,232295,2,0,L|207:191,1,100,2|0,0:0|0:0,0:0:0:0:
19,139,232595,1,0,3:0:0:0:
229,274,232738,1,8,0:0:0:0:
90,335,232888,1,0,0:0:0:0:
118,72,233038,5,2,3:2:0:0:
154,164,233188,1,0,3:0:0:0:
297,36,233338,1,8,0:0:0:0:
217,244,233488,1,0,0:0:0:0:
362,88,233638,2,0,B|310:88|310:88|263:110,1,100,2|0,0:0|0:0,0:0:0:0:
399,291,233938,1,8,0:0:0:0:
286,185,234088,1,0,0:0:0:0:
150,351,234238,5,2,3:2:0:0:
307,318,234388,1,0,3:0:0:0:
89,221,234538,2,0,B|143:227|143:227|185:264,1,100,8|0,0:0|0:0,0:0:0:0:
26,294,234838,1,2,0:0:0:0:
69,123,234988,1,0,0:0:0:0:
281,227,235138,1,8,0:0:0:0:
159,277,235288,1,0,0:0:0:0:
236,24,235447,5,2,3:2:0:0:
331,49,235597,1,0,3:0:0:0:
190,176,235747,2,0,P|169:130|158:81,1,100,8|0,0:0|0:0,0:0:0:0:
350,138,236047,2,0,P|339:186|318:232,1,100,2|0,0:0|0:0,0:0:0:0:
153,345,236347,1,8,0:0:0:0:
337,269,236497,1,0,0:0:0:0:
57,100,236647,6,0,B|50:149|50:149|86:195,1,100,4|0,3:2|3:0,0:0:0:0:
211,32,236947,1,8,0:0:0:0:
174,247,237097,1,0,0:0:0:0:
174,247,237172,1,0,0:0:0:0:
174,247,237247,1,2,3:2:0:0:
12,162,237397,1,0,3:0:0:0:
255,112,237547,1,8,0:0:0:0:
172,336,237697,1,0,0:0:0:0:
85,104,237847,5,2,3:2:0:0:
246,280,237997,1,0,3:0:0:0:
355,169,238147,2,0,P|303:178|251:203,1,100,8|0,0:0|0:0,0:0:0:0:
456,85,238447,2,0,P|481:126|496:185,1,100,2|0,0:0|3:0,0:0:0:0:
422,382,238747,2,0,B|410:334|410:334|425:276,1,100,8|0,0:0|0:0,0:0:0:0:
324,370,239047,5,2,3:2:0:0:
511,333,239197,1,0,3:0:0:0:
293,191,239347,1,4,3:2:0:0:
242,311,239497,2,0,L|262:210,1,100,0|0,0:0|3:0,0:0:0:0:
186,57,239797,1,0,3:0:0:0:
399,200,239955,2,0,B|382:248|382:248|340:275,1,100,12|0,3:2|0:0,0:0:0:0:
139,317,240255,5,2,3:2:0:0:
116,231,240405,1,0,3:0:0:0:
161,73,240555,1,12,0:0:0:0:
17,203,240705,1,0,0:0:0:0:
236,134,240855,2,0,P|253:88|253:37,1,100,2|0,3:2|0:0,0:0:0:0:
91,230,241155,2,0,B|64:198|64:198|77:134,1,100,4|0,3:2|0:0,0:0:0:0:
352,41,241455,5,2,3:2:0:0:
212,155,241605,1,0,0:0:0:0:
428,252,241755,2,0,B|384:268|384:268|331:255,1,100,8|0,0:0|0:0,0:0:0:0:
273,59,242055,2,0,B|230:78|230:78|202:125,1,100,2|0,0:0|3:0,0:0:0:0:
369,352,242355,1,8,0:0:0:0:
310,166,242505,1,0,3:0:0:0:
128,249,242655,5,2,3:2:0:0:
218,304,242805,1,0,3:0:0:0:
287,80,242955,1,8,0:0:0:0:
90,142,243105,1,0,0:0:0:0:
274,216,243255,2,0,B|286:166|286:166|261:114,1,100,2|0,0:0|0:0,0:0:0:0:
59,22,243555,1,8,0:0:0:0:
266,38,243705,1,0,0:0:0:0:
149,256,243855,5,2,3:2:0:0:
183,160,244005,1,0,3:0:0:0:
398,287,244155,2,0,B|406:245|406:245|385:183,1,100,8|0,0:0|0:0,0:0:0:0:
309,125,244455,1,2,0:0:0:0:
405,99,244605,1,0,3:0:0:0:
301,141,244755,2,0,B|250:119|250:119|278:47,1,133.333333333333,8|0,0:0|3:0,0:0:0:0:
190,7,245061,5,0,3:0:0:0:
180,30,245136,1,0,3:0:0:0:
170,53,245211,1,0,3:0:0:0:
160,76,245286,1,0,3:0:0:0:
140,111,245361,5,0,3:0:0:0:
106,132,245436,1,0,3:0:0:0:
70,149,245511,2,0,L|41:98,1,50,0|0,3:0|3:0,0:0:0:0:
78,32,245661,5,0,3:0:0:0:
118,32,245736,1,0,3:0:0:0:
155,46,245811,1,0,3:0:0:0:
185,72,245886,1,0,3:0:0:0:
201,119,245961,5,0,3:0:0:0:
192,168,246036,1,0,3:0:0:0:
164,209,246111,1,0,3:0:0:0:
119,231,246186,1,0,3:0:0:0:
69,240,246261,6,0,B|179:302|179:302|114:338,1,200,4|8,3:2|0:0,0:0:0:0:
15,322,246711,1,0,3:0:0:0:
172,112,246861,1,8,0:0:0:0:
268,370,247011,1,0,3:0:0:0:
319,148,247161,2,0,B|269:147|269:147|220:177,1,100,10|0,0:0|3:0,0:0:0:0:
345,320,247455,5,8,0:0:0:0:
138,186,247603,1,0,3:0:0:0:
381,88,247752,1,8,0:0:0:0:
150,214,247900,1,0,3:0:0:0:
419,277,248049,2,0,B|410:315|410:315|348:352,1,100,10|0,0:0|3:0,0:0:0:0:
149,303,248346,1,8,0:0:0:0:
304,59,248494,1,0,3:0:0:0:
330,101,248568,1,0,3:0:0:0:
339,148,248643,6,0,B|319:192|282:206|282:206|219:161|198:123|193:65,1,240.000009155274,4|0,3:2|3:0,0:0:0:0:
49,228,249097,2,0,B|101:199|101:199|72:139,1,120.000004577637,10|0,0:0|0:0,0:0:0:0:
121,289,249400,1,0,0:0:0:0:
217,105,249552,1,10,0:0:0:0:
343,325,249702,5,0,3:0:0:0:
367,306,249777,1,0,3:0:0:0:
383,281,249852,1,0,3:0:0:0:
391,251,249927,1,0,3:0:0:0:
377,192,250002,5,10,0:0:0:0:
335,185,250077,1,0,3:0:0:0:
298,205,250152,1,0,3:0:0:0:
271,237,250227,1,0,3:0:0:0:
265,277,250302,1,0,3:0:0:0:
279,316,250377,1,0,3:0:0:0:
303,373,250452,5,10,0:0:0:0:
243,367,250527,1,0,3:0:0:0:
183,361,250602,1,0,3:0:0:0:
123,355,250677,1,0,3:0:0:0:
63,349,250752,2,0,L|53:284,1,60.0000022888184,10|0,0:0|3:0,0:0:0:0:
189,120,250902,2,0,L|199:185,1,60.0000022888184,8|0,0:0|3:0,0:0:0:0:
219,340,251046,5,4,3:2:0:0:
137,265,251196,1,0,0:0:0:0:
285,96,251346,1,10,0:0:0:0:
95,36,251496,2,0,B|68:67|68:67|74:139,1,100,4|0,3:2|0:0,0:0:0:0:
275,272,251796,1,0,3:0:0:0:
275,272,251871,1,0,3:0:0:0:
275,272,251946,6,0,P|284:196|225:178,1,150,10|0,0:0|0:0,0:0:0:0:
225,177,252246,2,0,L|244:75,1,100,2|0,3:0|0:0,0:0:0:0:
238,44,252471,1,0,3:0:0:0:
265,66,252546,1,0,3:0:0:0:
298,79,252621,1,0,3:0:0:0:
332,84,252696,1,0,3:0:0:0:
367,78,252771,1,0,3:0:0:0:
417,36,252846,5,10,0:0:0:0:
479,46,252921,1,0,3:0:0:0:
510,101,252996,1,0,3:0:0:0:
488,160,253071,1,0,3:0:0:0:
434,145,253146,5,0,3:0:0:0:
390,158,253221,1,0,3:0:0:0:
389,193,253296,1,0,3:0:0:0:
408,208,253371,1,0,3:0:0:0:
420,216,253446,6,0,B|433:269|433:269|415:311,1,100,4|0,3:2|0:0,0:0:0:0:
299,144,253746,1,10,0:0:0:0:
162,324,253896,2,0,L|261:295,1,100,4|2,3:2|0:0,0:0:0:0:
74,126,254196,1,2,3:2:0:0:
46,154,254271,1,0,3:0:0:0:
65,188,254346,6,0,L|164:217,1,100,8|0,0:0|0:0,0:0:0:0:
160,216,254571,1,0,0:0:0:0:
277,55,254726,1,2,0:0:0:0:
298,34,254801,1,0,3:0:0:0:
306,62,254876,1,0,3:0:0:0:
314,90,254951,1,0,3:0:0:0:
322,119,255026,1,0,3:0:0:0:
330,146,255101,1,0,3:0:0:0:
338,174,255176,1,0,3:0:0:0:
350,222,255251,6,0,L|300:243,1,50,2|0,3:2|3:0,0:0:0:0:
412,339,255401,2,0,L|362:318,1,50,0|0,3:0|3:0,0:0:0:0:
165,274,255551,5,8,0:0:0:0:
134,323,255626,1,0,3:0:0:0:
165,360,255701,1,0,3:0:0:0:
199,367,255776,1,0,0:0:0:0:
213,353,255851,6,0,B|232:320|232:320|218:250,1,100,4|0,3:2|0:0,0:0:0:0:
196,160,256151,1,10,0:0:0:0:
32,19,256301,2,0,B|15:53|15:53|35:121,1,100,6|0,3:2|0:0,0:0:0:0:
316,38,256601,1,2,3:2:0:0:
277,26,256676,1,0,3:0:0:0:
238,34,256751,6,0,B|203:54|203:54|157:108,1,100,8|0,0:0|3:0,0:0:0:0:
191,113,256976,1,0,3:0:0:0:
204,139,257051,1,0,3:0:0:0:
198,168,257126,1,0,3:0:0:0:
176,188,257201,1,0,3:0:0:0:
142,184,257276,1,0,3:0:0:0:
90,164,257351,5,2,3:2:0:0:
105,211,257426,1,0,3:0:0:0:
87,257,257501,1,0,3:0:0:0:
102,304,257576,1,0,3:0:0:0:
78,359,257651,6,0,L|134:371,1,50,2|0,3:2|3:0,0:0:0:0:
236,248,257801,2,0,L|222:308,1,50,10|0,0:0|0:0,0:0:0:0:
66,186,257951,2,0,L|79:246,1,50,10|0,0:0|0:0,0:0:0:0:
165,355,258101,1,2,0:0:0:0:
329,199,258251,5,4,3:2:0:0:
230,162,258401,1,0,0:0:0:0:
338,326,258551,1,2,0:0:0:0:
311,110,258701,5,4,3:2:0:0:
255,258,258851,1,0,0:0:0:0:
92,142,259001,1,2,0:0:0:0:
379,34,259151,5,6,3:2:0:0:
256,192,259301,12,0,263351,0:0:0:0:
