osu file format v14

[General]
AudioFilename: audio.mp3
AudioLeadIn: 0
PreviewTime: 67688
Countdown: 0
SampleSet: Soft
StackLeniency: 0.7
Mode: 0
LetterboxInBreaks: 0
WidescreenStoryboard: 1

[Editor]
DistanceSpacing: 1.25
BeatDivisor: 2
GridSize: 4
TimelineZoom: 0.9999989

[Metadata]
Title:Sad Dream
TitleUnicode:Sad Dream
Artist:UNDEAD CORPORATION
ArtistUnicode:UNDEAD CORPORATION
Creator:Hinsvar
Version:Easy
Source:
Tags:Flash Back metal English Featured Artist FA Mappers' Guild MG MPG 朱美 Akemi 窪田道元 Dougen Kubota 仁耶 Jinya 社長 Shachou YU-TO
BeatmapID:2151824
BeatmapSetID:1019827

[Difficulty]
HPDrainRate:3
CircleSize:2.5
OverallDifficulty:3
ApproachRate:4.5
SliderMultiplier:0.72
SliderTickRate:1

[Events]
//Background and Video events
0,0,"sd.jpg",0,0
//Break Periods
2,97648,100943
2,155257,158543
2,160057,162743
//Storyboard Layer 0 (Background)
//Storyboard Layer 1 (Fail)
//Storyboard Layer 2 (Pass)
//Storyboard Layer 3 (Foreground)
//Storyboard Layer 4 (Overlay)
//Storyboard Sound Samples

[TimingPoints]
1455,300,4,2,2,50,1,0
1455,-100,4,2,2,50,0,0
8655,-100,4,2,2,60,0,0
9555,-100,4,2,2,70,0,0
10305,-100,4,2,1,80,0,0
10755,-100,4,2,1,60,0,0
11055,-100,4,2,1,80,0,0
20355,-100,4,2,1,60,0,0
20655,-100,4,2,1,80,0,0
28905,-100,4,2,1,60,0,0
38655,-100,4,2,1,70,0,0
39870,300,4,2,1,80,1,0
43455,300,4,2,1,80,1,0
49155,307.692307692308,4,2,1,80,1,0
49463,300,4,2,1,80,1,0
53050,300,4,2,1,80,1,0
56040,300,4,2,1,80,1,0
56800,300,4,2,1,80,1,0
57850,300,4,2,1,80,1,0
58750,-100,4,2,1,80,0,0
59061,300,4,2,1,80,1,0
64761,294.117647058824,4,2,1,80,1,0
65055,300,4,2,1,80,1,0
66255,279.06976744186,4,2,1,80,1,0
66534,307.692307692308,4,2,1,80,1,0
67149,-100,4,2,1,80,0,0
67763,292.682926829268,4,2,1,70,1,0
67763,-100,4,2,1,70,0,0
68055,300,4,2,1,70,1,0
68655,300,4,2,1,90,1,1
68655,-100,4,2,1,90,0,1
71055,292.682926829268,4,2,1,90,1,1
71055,-100,4,2,1,90,0,1
71347,300,4,2,1,90,1,1
71347,-100,4,2,1,90,0,1
72247,297.029702970297,4,2,1,90,1,1
72247,-100,4,2,1,90,0,1
73435,300,4,2,1,90,1,1
73435,-100,4,2,1,90,0,1
78235,303.79746835443,4,2,1,90,1,1
78235,-100,4,2,1,90,0,1
79450,301.507537688442,4,2,1,90,1,1
79450,-100,4,2,1,90,0,1
81862,300,4,2,1,90,1,1
81862,-100,4,2,1,90,0,1
82462,294.117647058824,4,2,1,90,1,1
82462,-100,4,2,1,90,0,1
83050,300,4,2,1,90,1,1
83050,-100,4,2,1,90,0,1
83650,310.880829015544,4,2,1,90,1,1
83650,-100,4,2,1,90,0,1
84271,300,4,2,1,90,1,1
84271,-100,4,2,1,90,0,1
85471,-100,4,2,1,90,0,1
86358,300,4,2,1,90,1,1
86358,-100,4,2,1,90,0,1
87558,-100,4,2,1,60,0,0
87858,300,4,2,1,80,1,1
87858,-100,4,2,1,80,0,1
87933,-100,4,2,1,80,0,0
95048,300,4,2,1,80,1,0
97448,-100,4,2,1,70,0,0
102253,300,4,2,1,70,1,0
107053,-100,4,2,1,80,0,0
108396,300,4,2,1,80,1,0
109446,300,4,2,1,80,1,0
111846,294.117647058824,4,2,1,80,1,0
112140,300,4,2,1,80,1,0
113040,300,4,2,1,80,1,0
114853,300,4,2,1,80,1,0
115453,300,4,2,1,90,1,0
116653,300,4,2,1,90,1,0
126253,-100,4,2,1,90,0,1
128058,300,4,2,1,90,1,1
128058,-100,4,2,1,90,0,1
128658,300,4,2,1,90,1,1
128658,-100,4,2,1,90,0,1
137063,300,4,2,1,90,1,1
137063,-100,4,2,1,90,0,1
140058,300,4,2,1,90,1,1
140058,-100,4,2,1,90,0,1
140658,300,4,2,1,90,1,1
140658,-100,4,2,1,90,0,1
143058,-100,4,2,1,90,0,1
145451,300,4,2,1,80,1,0
151451,301.507537688442,4,2,1,80,1,0
152657,300,4,2,1,80,1,0
153557,-100,4,2,1,70,0,0
164048,306.122448979592,4,2,1,50,1,0
164660,300,4,2,1,60,1,0
164660,-100,4,2,1,60,0,0
165850,300,4,2,1,50,1,0
165850,-100,4,2,1,50,0,0
168100,-100,4,2,1,60,0,0
168700,-100,4,2,1,60,0,0
169458,300,4,2,1,50,1,0
169458,-100,4,2,1,50,0,0
170958,279.06976744186,4,2,1,50,1,0
171097,307.692307692308,4,2,1,50,1,0
171866,-100,4,2,1,60,0,0
172173,297.029702970297,4,2,1,60,1,0
173658,300,4,2,1,70,1,0
174258,300,4,2,1,80,1,0
178151,300,4,2,1,80,1,0
179051,300,4,2,1,80,1,0
183863,300,4,2,1,80,1,0
185213,297.766749379653,4,2,1,80,1,0
186255,300,4,2,1,80,1,0
191055,301.507537688442,4,2,1,80,1,0
191682,287.081339712919,4,2,1,80,1,0
192400,300,4,2,1,80,1,0
193450,300,4,2,1,80,1,0
194666,300,4,2,1,80,1,0
194950,303.030303030303,4,2,1,80,1,0
195859,303.030303030303,4,2,1,80,1,0
196465,294.117647058824,4,2,1,80,1,0
197053,300,4,2,1,80,1,0
202003,-100,4,2,1,60,0,0
202453,-100,4,2,1,60,0,0
202753,-100,4,2,1,70,0,0
202978,-100,4,2,1,15,0,0
203053,-100,4,2,1,70,0,0
212653,-100,4,2,1,90,0,1
213548,300,4,2,1,90,1,1
213548,-100,4,2,1,90,0,1
213848,300,4,2,1,90,1,1
213848,-100,4,2,1,90,0,1
215041,300,4,2,1,90,1,1
215041,-100,4,2,1,90,0,1
218648,297.029702970297,4,2,1,90,1,1
218648,-100,4,2,1,90,0,1
219539,300,4,2,1,90,1,1
219539,-100,4,2,1,90,0,1
219839,300,4,2,1,90,1,1
219839,-100,4,2,1,90,0,1
221031,300,4,2,1,90,1,1
221031,-100,4,2,1,90,0,1
221639,300,4,2,1,90,1,1
221639,-100,4,2,1,90,0,1
222239,301.507537688442,4,2,1,90,1,1
222239,-100,4,2,1,90,0,1
227063,297.766749379653,4,2,1,90,1,1
227063,-100,4,2,1,90,0,1
229445,300,4,2,1,90,1,1
229445,-100,4,2,1,90,0,1
230945,-100,4,2,1,90,0,0
231845,-100,4,2,1,90,0,1
232738,300,4,2,1,90,1,1
232738,-100,4,2,1,90,0,1
233038,300,4,2,1,90,1,1
233038,-100,4,2,1,90,0,1
235447,300,4,2,1,90,1,1
235447,-100,4,2,1,90,0,1
239955,300,4,2,1,90,1,1
239955,-100,4,2,1,90,0,1
240255,300,4,2,1,90,1,1
240255,-100,4,2,1,90,0,1
245061,300,4,2,1,90,1,1
245061,-100,4,2,1,90,0,1
247455,297.029702970297,4,2,1,90,1,1
247455,-100,4,2,1,90,0,1
248643,303.030303030303,4,2,1,90,1,1
248643,-100,4,2,1,90,0,1
249552,300,4,2,1,90,1,1
249552,-100,4,2,1,90,0,1
249852,300,4,2,1,90,1,1
249852,-100,4,2,1,90,0,1
251046,300,4,2,1,90,1,0
251046,-100,4,2,1,90,0,0
254651,300,4,2,1,90,1,0
254651,-100,4,2,1,90,0,0
259451,-100,4,2,1,70,0,0
259751,-100,4,2,1,65,0,0
260051,-100,4,2,1,60,0,0
260351,-100,4,2,1,55,0,0
260651,-100,4,2,1,50,0,0
260951,-100,4,2,1,45,0,0
261251,-100,4,2,1,40,0,0
261551,-100,4,2,1,35,0,0
261851,-100,4,2,1,30,0,0
262151,-100,4,2,1,25,0,0
262451,-100,4,2,1,20,0,0
262751,-100,4,2,1,15,0,0
263051,-100,4,2,1,10,0,0
263351,-100,4,2,1,5,0,0

[Colours]
Combo1 : 234,218,254
Combo2 : 12,209,220
Combo3 : 255,221,132
Combo4 : 0,135,200

[HitObjects]
275,69,1455,6,0,B|380:46|380:46|399:98,1,144,10|8,0:0|0:0,0:0:0:0:
420,232,2505,2,0,B|408:293|408:293|358:334,1,108,8|0,0:0|0:0,0:0:0:0:
292,363,3255,1,8,0:0:0:0:
252,187,3855,6,0,P|219:137|122:142,1,144,2|8,0:0|0:0,0:0:0:0:
49,252,4905,2,0,L|155:304,1,108,8|0,0:0|0:0,0:0:0:0:
223,344,5655,1,8,0:0:0:0:
402,340,6255,6,0,B|476:307|476:307|457:223,1,144,10|8,0:0|0:0,0:0:0:0:
413,103,7305,2,0,P|375:88|298:117,1,108,8|0,0:0|0:0,0:0:0:0:
255,174,8055,1,8,0:0:0:0:
121,53,8655,6,0,P|80:96|61:157,1,108,10|2,0:0|0:0,0:0:0:0:
153,261,9555,2,0,P|194:218|213:157,1,108,2|8,0:0|0:0,0:0:0:0:
173,22,10455,1,10,0:0:0:0:
255,57,10755,1,0,3:0:0:0:
339,25,11055,6,0,P|375:47|406:84,1,72,4|0,3:2|3:0,0:0:0:0:
370,155,11655,2,0,B|355:232|355:232|384:271,1,108,10|2,0:0|3:2,0:0:0:0:
347,342,12405,2,0,B|308:356|308:356|236:322,1,108,2|8,0:0|0:0,0:0:0:0:
184,264,13155,1,2,0:0:0:0:
219,181,13455,6,0,L|230:86,2,72,2|0|10,3:2|3:0|0:0,0:0:0:0:
73,223,14505,2,0,P|68:274|106:347,1,108,2|2,3:2|0:0,0:0:0:0:
169,364,15255,1,8,0:0:0:0:
230,298,15555,1,2,3:2:0:0:
314,329,15855,6,0,L|411:317,1,72,4|0,3:2|3:0,0:0:0:0:
406,232,16455,2,0,L|279:222,1,108,10|2,0:0|3:2,0:0:0:0:
217,183,17205,2,0,B|182:216|182:216|194:299,1,108,2|10,3:2|0:0,0:0:0:0:
246,345,17955,1,2,3:2:0:0:
324,300,18255,6,0,L|408:314,2,72,2|0|10,3:2|3:0|0:0,0:0:0:0:
396,167,19305,2,0,P|399:107|368:52,1,108,2|10,3:2|0:0,0:0:0:0:
297,26,20055,1,10,0:0:0:0:
129,93,20655,6,0,L|215:115,1,72,4|2,3:2|0:0,0:0:0:0:
231,195,21255,2,0,P|285:165|343:151,1,108,10|2,0:0|3:2,0:0:0:0:
412,186,22005,1,2,0:0:0:0:
452,331,22455,2,0,P|413:344|361:350,1,72,10|2,0:0|3:2,0:0:0:0:
294,328,23055,5,4,3:2:0:0:
210,362,23355,2,0,P|204:324|214:281,1,72,2|8,3:2|0:0,0:0:0:0:
256,147,24105,1,2,3:2:0:0:
215,66,24405,2,0,B|186:45|186:45|103:64,1,108,2|10,0:0|0:0,0:0:0:0:
40,110,25155,1,2,0:0:0:0:
71,194,25455,6,0,P|70:235|57:286,1,72,4|2,3:2|0:0,0:0:0:0:
119,336,26055,2,0,P|174:316|242:308,1,108,10|2,0:0|3:2,0:0:0:0:
302,349,26805,1,2,0:0:0:0:
437,282,27255,2,0,P|447:243|441:200,1,72,10|2,0:0|0:0,0:0:0:0:
371,158,27855,6,0,P|300:191|270:273,1,144,2|10,3:2|0:0,0:0:0:0:
384,346,28905,1,14,0:0:0:0:
384,346,30255,6,0,B|388:291|388:291|375:256|375:256|384:199,1,144,2|0,3:2|0:0,0:0:0:0:
440,135,31155,1,8,0:0:0:0:
407,50,31455,2,0,B|352:46|352:46|317:59|317:59|260:50,1,144,0|0,3:0|0:0,0:0:0:0:
177,33,32355,1,8,0:0:0:0:
207,117,32655,6,0,P|200:179|178:234,2,108,0|2|8,3:0|0:0|0:0,0:0:0:0:
262,45,33855,2,0,B|305:42|305:42|347:59,1,72,2|8,0:0|0:0,0:0:0:0:
480,154,34755,1,10,0:0:0:0:
476,244,35055,6,0,P|442:304|356:315,1,144,0|0,3:0|0:0,0:0:0:0:
294,277,35955,1,8,0:0:0:0:
342,201,36255,2,0,B|359:129|359:129|316:64,1,144,0|0,3:0|0:0,0:0:0:0:
244,21,37155,1,8,0:0:0:0:
208,103,37455,6,0,P|196:142|194:194,2,72,0|8|0,3:0|0:0|3:0,0:0:0:0:
40,36,38655,2,0,P|14:70|-1:112,1,72,10|10,0:0|0:0,0:0:0:0:
48,174,39255,1,10,0:0:0:0:
22,260,39555,1,10,0:0:0:0:
69,336,39870,6,0,P|147:331|229:310,1,144,4|0,3:2|0:0,0:0:0:0:
179,138,41070,2,0,P|167:97|169:55,2,72,0|10|0,3:0|0:0|0:0,0:0:0:0:
247,197,41970,1,8,0:0:0:0:
333,172,42270,6,0,P|351:115|355:40,2,108,0|2|8,3:0|3:2|0:0,0:0:0:0:
391,240,43455,2,0,B|382:274|382:274|298:311,1,108,2|2,3:2|3:2,0:0:0:0:
166,295,44355,1,10,0:0:0:0:
123,215,44655,6,0,P|118:141|149:55,1,144,0|0,3:0|0:0,0:0:0:0:
213,26,45555,1,8,0:0:0:0:
295,61,45855,2,0,P|321:135|317:215,1,144,2|0,3:2|3:0,0:0:0:0:
298,287,46755,1,0,3:0:0:0:
370,340,47055,6,0,P|424:323|448:259,2,108,10|2|8,0:0|3:2|0:0,0:0:0:0:
298,287,48255,1,10,0:0:0:0:
218,245,48555,2,0,P|179:230|132:226,2,72,2|0|0,3:2|3:0|3:0,0:0:0:0:
289,189,49463,6,0,P|307:125|303:56,1,108,12|10,3:2|0:0,0:0:0:0:
161,41,50363,2,0,P|143:105|147:174,1,108,2|10,3:2|0:0,0:0:0:0:
209,284,51263,1,2,0:0:0:0:
140,341,51563,1,8,0:0:0:0:
54,314,51863,6,0,B|24:266|24:266|40:157,1,144,4|2,3:2|0:0,0:0:0:0:
81,101,52763,1,10,0:0:0:0:
154,152,53050,2,0,P|195:144|235:127,1,72,2|8,3:2|0:0,0:0:0:0:
290,73,53650,1,2,3:2:0:0:
374,41,53950,1,10,0:0:0:0:
455,79,54250,6,0,B|485:119|485:119|476:201,1,108,12|8,3:2|0:0,0:0:0:0:
372,286,55150,2,0,B|342:246|342:246|351:164,1,108,10|10,0:0|0:0,0:0:0:0:
270,60,56040,2,0,P|237:50|196:50,1,72,10|10,0:0|0:0,0:0:0:0:
126,102,56640,5,4,3:2:0:0:
84,185,56950,2,0,P|41:196|-7:200,2,72,10|10|10,0:0|0:0|0:0,0:0:0:0:
170,212,57850,2,0,P|202:273|181:340,1,144,10|2,0:0|3:2,0:0:0:0:
100,381,58750,1,8,0:0:0:0:
26,324,59061,6,0,P|25:285|63:196,1,108,12|2,3:2|3:2,0:0:0:0:
61,67,59961,2,0,P|124:70|200:116,1,144,8|8,0:0|0:0,0:0:0:0:
240,185,60861,1,2,3:2:0:0:
222,273,61161,1,8,0:0:0:0:
289,331,61461,6,0,P|357:324|428:276,1,144,4|2,3:2|0:0,0:0:0:0:
460,204,62361,1,10,0:0:0:0:
364,51,62961,2,0,P|333:54|283:77,2,72,8|2|0,0:0|3:2|3:0,0:0:0:0:
354,140,63861,6,0,P|304:165|231:161,1,108,12|8,3:2|0:0,0:0:0:0:
151,283,64761,1,8,0:0:0:0:
272,369,65205,2,0,P|328:365|386:344,1,108,0|10,3:0|0:0,0:0:0:0:
444,289,65955,1,10,0:0:0:0:
400,204,66255,5,10,0:0:0:0:
258,204,66687,1,10,0:0:0:0:
233,351,67149,1,2,3:2:0:0:
233,351,68655,6,0,P|186:322|114:303,2,108,4|2|8,0:0|0:0|0:0,0:0:0:0:
314,311,69855,1,2,3:2:0:0:
329,222,70155,2,0,P|321:183|300:144,2,72,8|2|8,0:0|0:0|0:0,0:0:0:0:
456,345,71347,6,0,B|481:320|481:320|492:282,1,72,8|2,0:0|0:0,0:0:0:0:
485,195,71947,1,8,0:0:0:0:
391,39,72544,2,0,P|364:28|305:19,1,72,8|2,0:0|3:2,0:0:0:0:
234,40,73138,1,8,0:0:0:0:
86,141,73735,5,8,0:0:0:0:
73,230,74035,2,0,P|42:243|-9:249,2,72,2|8|2,3:2|0:0|3:2,0:0:0:0:
147,280,74935,1,8,0:0:0:0:
326,273,75535,1,8,0:0:0:0:
341,184,75835,6,0,P|342:128|324:74,2,108,2|0|8,3:2|3:0|0:0,0:0:0:0:
161,198,77335,2,0,B|170:133|170:133|180:122|180:122|195:50,1,144,8|8,0:0|0:0,0:0:0:0:
268,12,78235,6,0,B|330:24|330:24|342:34|342:34|406:44,1,144,4|0,0:0|0:0,0:0:0:0:
484,88,79146,1,8,0:0:0:0:
464,267,79751,1,8,0:0:0:0:
392,321,80053,1,2,0:0:0:0:
312,280,80354,1,8,0:0:0:0:
208,130,80957,6,0,P|174:117|138:115,1,72,8|2,0:0|3:2,0:0:0:0:
67,60,81560,2,0,B|35:100|35:100|17:196,1,144,8|8,0:0|0:0,0:0:0:0:
49,275,82462,1,0,3:0:0:0:
195,170,83050,5,4,3:2:0:0:
273,126,83350,1,8,0:0:0:0:
359,149,83650,2,0,P|401:205|417:279,1,144,8|8,0:0|0:0,0:0:0:0:
371,354,84571,2,0,P|334:361|299:356,1,72,8|10,0:0|0:0,0:0:0:0:
264,273,85171,1,8,0:0:0:0:
174,260,85471,6,0,P|144:300|131:363,1,108,14|10,3:2|0:0,0:0:0:0:
21,251,86358,2,0,P|51:211|64:148,1,108,10|10,0:0|0:0,0:0:0:0:
173,34,87258,2,0,P|211:36|248:50,1,72,10|2,0:0|0:0,0:0:0:0:
288,124,87858,5,4,3:2:0:0:
358,68,88158,1,2,0:0:0:0:
445,88,88458,2,0,P|471:126|479:194,1,108,10|2,0:0|3:2,0:0:0:0:
434,264,89208,1,2,0:0:0:0:
307,345,89658,2,0,L|235:329,1,72,8|2,0:0|0:0,0:0:0:0:
153,364,90258,6,0,P|141:330|139:276,1,72,4|2,3:2|0:0,0:0:0:0:
61,245,90858,2,0,P|82:201|99:135,1,108,10|2,0:0|3:2,0:0:0:0:
67,58,91608,1,0,3:0:0:0:
212,17,92058,2,0,P|250:22|290:36,1,72,8|4,0:0|3:2,0:0:0:0:
319,114,92658,5,2,3:2:0:0:
403,144,92958,1,0,3:0:0:0:
491,129,93258,2,0,P|508:177|496:239,1,108,10|0,0:0|3:0,0:0:0:0:
468,316,94008,1,2,0:0:0:0:
320,346,94458,2,0,P|323:304|330:267,1,72,10|2,0:0|0:0,0:0:0:0:
274,205,95048,6,0,P|237:193|198:187,2,72,4|0|8,3:2|0:0|0:0,0:0:0:0:
418,251,96098,2,0,P|435:195|436:129,1,108,4|0,3:2|3:0,0:0:0:0:
387,71,96848,1,2,3:2:0:0:
302,101,97148,1,2,0:0:0:0:
237,38,97448,5,4,3:2:0:0:
438,114,102253,6,0,B|465:183|465:183|447:256,1,144,4|0,3:2|3:0,0:0:0:0:
294,344,103453,2,0,B|267:275|267:275|285:202,1,144,0|8,3:0|0:0,0:0:0:0:
312,122,104353,1,8,0:0:0:0:
267,43,104653,6,0,P|216:24|151:33,2,108,10|2|0,0:0|0:0|3:0,0:0:0:0:
349,79,105853,2,0,B|418:62|418:62|442:33,1,108,2|2,3:2|3:2,0:0:0:0:
509,168,106753,1,0,3:0:0:0:
483,254,107053,6,0,P|439:287|373:297,1,108,4|10,3:2|0:0,0:0:0:0:
329,158,107953,1,10,0:0:0:0:
182,131,108396,1,10,0:0:0:0:
53,211,108846,1,10,0:0:0:0:
27,297,109146,1,8,0:0:0:0:
95,355,109446,6,0,P|166:357|209:304,1,144,4|2,3:2|0:0,0:0:0:0:
189,216,110346,1,10,0:0:0:0:
221,130,110646,2,0,P|257:116|298:118,1,72,0|10,3:0|0:0,0:0:0:0:
374,147,111246,1,2,3:2:0:0:
430,217,111546,1,10,0:0:0:0:
411,305,111846,5,12,0:0:0:0:
268,350,112290,1,12,0:0:0:0:
211,208,112740,2,0,B|220:132|220:132|252:109,1,108,10|10,0:0|0:0,0:0:0:0:
380,43,113640,1,10,0:0:0:0:
457,88,113940,1,10,0:0:0:0:
467,177,114240,6,0,P|463:216|453:257,2,72,4|10|0,3:2|0:0|0:0,0:0:0:0:
377,186,115153,1,10,0:0:0:0:
305,132,115453,2,0,B|262:127|230:146|243:152|213:167|164:160,1,144,0|10,3:0|0:0,0:0:0:0:
102,97,116353,1,2,3:2:0:0:
32,154,116653,6,0,B|16:216|16:216|47:258,1,108,12|2,3:2|0:0,0:0:0:0:
164,340,117553,2,0,B|248:300|248:300|226:249,1,144,10|10,0:0|0:0,0:0:0:0:
191,171,118453,1,2,3:2:0:0:
245,99,118753,1,8,0:0:0:0:
332,78,119053,6,0,B|410:124|410:124|398:181,1,144,4|2,3:2|0:0,0:0:0:0:
436,258,119953,2,0,L|519:242,2,72,10|2|8,0:0|0:0|0:0,0:0:0:0:
301,377,121153,1,2,0:0:0:0:
228,323,121453,6,0,B|205:273|205:273|232:222,1,108,12|8,0:0|0:0,0:0:0:0:
176,84,122353,2,0,B|226:61|226:61|277:88,1,108,10|10,0:0|0:0,0:0:0:0:
391,179,123253,1,2,3:2:0:0:
449,110,123553,1,8,0:0:0:0:
408,29,123853,6,0,P|367:1|309:7,1,108,10|10,0:0|0:0,0:0:0:0:
194,102,124753,1,10,0:0:0:0:
241,178,125053,2,0,P|233:217|218:253,1,72,10|10,0:0|0:0,0:0:0:0:
250,332,125653,2,0,P|215:351|177:362,1,72,10|8,0:0|0:0,0:0:0:0:
114,303,126253,6,0,B|52:273|52:273|10:285,2,108,4|2|8,3:2|0:0|0:0,0:0:0:0:
198,143,127753,1,8,0:0:0:0:
286,156,128058,2,0,P|300:190|310:242,1,72,2|8,0:0|0:0,0:0:0:0:
257,300,128658,5,2,3:2:0:0:
321,363,128958,2,0,P|359:373|398:376,1,72,8|2,0:0|0:0,0:0:0:0:
423,291,129558,2,0,P|440:226|505:180,2,144,8|8|8,0:0|0:0|0:0,0:0:0:0:
337,262,131058,6,0,P|318:229|304:182,1,72,2|8,3:2|0:0,0:0:0:0:
285,109,131658,2,0,L|206:93,2,72,2|8|2,3:2|0:0|3:2,0:0:0:0:
366,71,132558,1,8,0:0:0:0:
421,242,133158,1,8,0:0:0:0:
359,307,133458,6,0,P|310:323|246:326,2,108,2|0|8,3:2|3:0|0:0,0:0:0:0:
319,225,134658,1,2,3:2:0:0:
349,140,134958,2,0,P|283:112|203:125,1,144,8|8,0:0|0:0,0:0:0:0:
166,198,135858,6,0,L|151:273,2,72,4|8|2,0:0|0:0|0:0,0:0:0:0:
77,179,136758,1,8,0:0:0:0:
16,16,137363,1,8,0:0:0:0:
103,38,137663,2,0,L|175:56,1,72,2|8,0:0|0:0,0:0:0:0:
326,149,138563,6,0,P|341:120|348:73,1,72,8|2,0:0|0:0,0:0:0:0:
434,55,139163,2,0,P|460:118|474:197,1,144,8|8,0:0|0:0,0:0:0:0:
480,280,140058,1,0,3:0:0:0:
321,359,140658,6,0,P|285:351|248:337,1,72,4|8,3:2|0:0,0:0:0:0:
205,261,141258,2,0,P|264:220|333:204,1,144,8|8,0:0|0:0,0:0:0:0:
406,151,142158,2,0,P|404:113|391:72,1,72,8|10,0:0|0:0,0:0:0:0:
317,34,142758,1,8,0:0:0:0:
227,23,143058,6,0,P|177:23|128:59,1,108,4|10,3:2|0:0,0:0:0:0:
157,205,143958,2,0,P|206:204|255:168,1,108,10|10,0:0|0:0,0:0:0:0:
327,39,144858,1,10,0:0:0:0:
400,90,145158,1,10,0:0:0:0:
432,173,145451,6,0,P|439:222|440:292,1,108,4|4,3:2|3:2,0:0:0:0:
316,365,146351,1,8,0:0:0:0:
226,369,146651,1,2,3:2:0:0:
169,298,146951,2,0,P|135:280|88:269,2,72,0|2|0,3:0|3:2|3:0,0:0:0:0:
251,260,147851,6,0,P|294:220|311:165,1,108,4|4,3:2|0:0,0:0:0:0:
252,32,148751,1,8,0:0:0:0:
338,8,149051,2,0,L|420:23,1,72,0|0,3:0|3:0,0:0:0:0:
481,74,149651,1,2,3:2:0:0:
476,163,149951,1,8,0:0:0:0:
462,251,150251,6,0,B|441:282|441:282|367:299,1,108,4|4,3:2|3:2,0:0:0:0:
236,243,151151,1,8,0:0:0:0:
167,301,151451,2,0,B|142:283|142:283|119:227,1,72,0|2,3:0|3:2,0:0:0:0:
98,159,152054,1,2,3:2:0:0:
135,77,152355,1,10,0:0:0:0:
213,31,152657,6,0,P|265:19|324:34,1,108,4|4,3:2|3:2,0:0:0:0:
391,164,153557,2,0,B|355:203|225:179|278:160|168:139|113:184,1,288,2|8,3:2|0:0,0:0:0:0:
150,265,155057,5,6,0:0:0:0:
362,119,159857,5,6,0:0:0:0:
44,170,164048,5,2,3:2:0:0:
110,108,164354,1,2,3:2:0:0:
174,171,164660,6,0,P|236:209|317:210,1,144,4|8,3:2|0:0,0:0:0:0:
446,157,165710,1,0,3:0:0:0:
465,72,166000,1,10,0:0:0:0:
324,15,166450,2,0,L|312:94,1,72,10|0,0:0|3:0,0:0:0:0:
240,140,167050,5,2,3:2:0:0:
184,68,167350,2,0,P|158:52|113:38,1,72,2|10,0:0|0:0,0:0:0:0:
19,130,168100,2,0,L|30:210,1,72,0|0,3:0|3:0,0:0:0:0:
120,321,168850,1,10,0:0:0:0:
198,364,169150,1,2,3:2:0:0:
274,316,169458,6,0,P|307:293|344:281,2,72,10|0|10,0:0|3:0|0:0,0:0:0:0:
176,199,170508,2,0,L|165:120,1,72,0|10,3:0|0:0,0:0:0:0:
280,28,171250,2,0,P|317:29|353:39,1,72,10|2,0:0|0:0,0:0:0:0:
421,93,171866,5,4,3:2:0:0:
393,178,172173,2,0,B|308:220|218:147|244:134|145:66|61:100,1,360,4|8,3:2|0:0,0:0:0:0:
1,168,173958,1,0,3:0:0:0:
63,232,174258,6,0,L|143:220,2,72,4|2|8,3:2|3:2|0:0,0:0:0:0:
127,368,175308,1,2,3:2:0:0:
216,360,175608,2,0,B|287:343|287:343|312:304,1,108,2|10,0:0|0:0,0:0:0:0:
344,231,176358,1,0,3:0:0:0:
302,151,176658,6,0,P|273:143|217:143,1,72,2|2,3:2|3:2,0:0:0:0:
152,185,177258,2,0,P|128:154|120:82,1,108,10|0,0:0|3:0,0:0:0:0:
174,16,178008,1,2,3:2:0:0:
307,87,178451,2,0,P|345:81|378:63,1,72,10|10,0:0|0:0,0:0:0:0:
450,16,179051,5,4,3:2:0:0:
486,98,179351,2,0,P|493:130|497:169,1,72,2|10,3:2|0:0,0:0:0:0:
472,318,180101,1,2,3:2:0:0:
335,252,180551,2,0,P|301:251|259:265,2,72,0|10|2,3:0|0:0|3:2,0:0:0:0:
384,176,181451,5,4,3:2:0:0:
406,88,181751,1,2,3:2:0:0:
325,47,182051,2,0,B|279:37|279:37|239:131,1,144,8|2,0:0|0:0,0:0:0:0:
280,207,182951,1,10,0:0:0:0:
264,295,183251,2,0,P|237:313|172:323,1,72,10|0,0:0|3:0,0:0:0:0:
105,315,183863,5,4,3:2:0:0:
56,240,184163,1,2,3:2:0:0:
62,150,184463,2,0,P|81:97|119:57,1,108,10|2,0:0|3:2,0:0:0:0:
206,52,185213,1,2,0:0:0:0:
311,161,185659,2,0,P|320:191|325:233,1,72,10|2,0:0|0:0,0:0:0:0:
298,317,186255,5,2,3:2:0:0:
376,361,186555,1,2,3:2:0:0:
459,322,186855,2,0,P|479:269|475:210,1,108,8|2,0:0|3:2,0:0:0:0:
444,134,187605,1,0,3:0:0:0:
332,32,188055,1,10,0:0:0:0:
265,92,188355,1,12,0:0:0:0:
182,55,188655,6,0,P|149:48|98:48,1,72,4|2,3:2|0:0,0:0:0:0:
77,130,189255,2,0,P|120:155|184:173,1,108,10|2,0:0|3:2,0:0:0:0:
262,147,190005,1,2,0:0:0:0:
374,221,190455,2,0,P|380:258|380:301,1,72,10|2,0:0|3:2,0:0:0:0:
312,351,191055,6,0,P|277:338|237:334,1,72,2|0,3:2|3:0,0:0:0:0:
157,362,191682,1,10,0:0:0:0:
35,270,192112,1,4,3:2:0:0:
53,185,192400,2,0,B|75:161|75:161|152:143,1,108,8|10,0:0|0:0,0:0:0:0:
210,210,193150,1,2,3:2:0:0:
291,171,193450,6,0,P|311:123|310:52,1,108,4|2,3:2|0:0,0:0:0:0:
169,20,194350,1,2,3:2:0:0:
40,109,194816,1,0,0:0:0:0:
62,252,195253,2,0,P|85:279|124:291,1,72,2|0,3:2|3:0,0:0:0:0:
206,266,195859,6,0,P|269:238|341:250,1,144,2|2,3:2|3:2,0:0:0:0:
420,293,196759,1,0,3:0:0:0:
482,228,197053,1,4,0:0:0:0:
408,63,197653,2,0,P|370:68|332:84,1,72,10|2,0:0|3:1,0:0:0:0:
310,165,198253,6,0,P|257:155|202:133,1,108,14|0,0:0|0:0,0:0:0:0:
108,18,199153,2,0,P|55:28|0:50,1,108,2|0,3:2|0:0,0:0:0:0:
78,179,200053,2,0,P|77:215|66:253,1,72,10|10,3:2|0:0,0:0:0:0:
120,322,200653,6,0,P|161:294|200:239,2,108,2|0|2,3:2|3:0|3:2,0:0:0:0:
40,364,201853,1,8,0:0:0:0:
40,364,203053,6,0,P|80:327|150:317,1,108,12|2,3:2|0:0,0:0:0:0:
235,204,203953,2,0,P|275:241|345:251,1,108,10|0,0:0|3:0,0:0:0:0:
446,161,204853,1,2,3:2:0:0:
476,76,205153,1,8,0:0:0:0:
405,19,205453,6,0,P|334:21|252:53,1,144,4|2,3:2|0:0,0:0:0:0:
204,110,206353,1,8,0:0:0:0:
143,176,206653,2,0,P|106:178|65:168,2,72,2|8|2,3:2|0:0|3:2,0:0:0:0:
237,328,207853,6,0,P|270:289|292:225,1,108,12|8,3:2|0:0,0:0:0:0:
410,145,208753,2,0,P|392:96|348:45,1,108,10|10,0:0|0:0,0:0:0:0:
211,11,209653,1,2,3:2:0:0:
148,75,209953,1,10,0:0:0:0:
63,44,210253,6,0,P|36:89|29:161,2,108,10|10|10,0:0|0:0|0:0,0:0:0:0:
138,86,211453,2,0,P|151:119|157:154,1,72,8|8,0:0|0:0,0:0:0:0:
159,244,212053,1,8,0:0:0:0:
226,303,212353,1,12,0:0:0:0:
315,309,212653,6,0,P|359:279|412:199,1,144,4|0,3:2|0:0,0:0:0:0:
419,117,213548,1,8,0:0:0:0:
242,86,214148,2,0,P|223:115|203:165,1,72,8|2,0:0|3:2,0:0:0:0:
235,234,214748,1,8,0:0:0:0:
185,306,215041,5,2,3:2:0:0:
95,318,215341,2,0,P|63:295|35:266,1,72,8|2,0:0|0:0,0:0:0:0:
52,182,215941,2,0,B|89:141|89:141|188:132,1,144,8|8,0:0|0:0,0:0:0:0:
263,161,216841,2,0,P|274:125|281:84,1,72,2|8,0:0|0:0,0:0:0:0:
235,14,217441,5,2,3:2:0:0:
413,35,218041,2,0,P|433:62|450:97,1,72,2|8,3:2|0:0,0:0:0:0:
403,173,218648,1,2,3:2:0:0:
451,248,218945,2,0,P|389:281|312:295,1,144,8|8,0:0|0:0,0:0:0:0:
254,230,219839,6,0,P|251:177|240:121,2,108,2|0|8,3:2|3:0|0:0,0:0:0:0:
133,360,221331,1,8,0:0:0:0:
27,211,221939,1,8,0:0:0:0:
34,121,222239,6,0,P|97:87|181:77,1,144,4|2,3:2|0:0,0:0:0:0:
255,98,223143,1,8,0:0:0:0:
355,247,223746,2,0,P|352:286|341:326,1,72,8|2,0:0|0:0,0:0:0:0:
267,365,224349,1,8,0:0:0:0:
194,312,224651,6,0,P|154:319|118:335,2,72,2|8|2,3:2|0:0|0:0,0:0:0:0:
163,227,225555,2,0,P|166:151|203:88,1,144,8|8,0:0|0:0,0:0:0:0:
364,23,226761,1,12,0:0:0:0:
437,76,227063,6,0,L|429:151,1,72,4|8,3:2|0:0,0:0:0:0:
464,225,227658,2,0,B|442:314|442:314|381:343,1,144,0|0,3:0|3:2,0:0:0:0:
306,355,228551,1,8,0:0:0:0:
219,331,228849,2,0,P|204:301|197:254,1,72,2|8,0:0|0:0,0:0:0:0:
215,174,229445,6,0,P|241:108|223:27,1,144,12|2,0:0|0:0,0:0:0:0:
143,8,230345,2,0,P|86:51|62:130,1,144,8|0,0:0|3:0,0:0:0:0:
65,207,231245,1,8,0:0:0:0:
102,288,231545,1,6,3:2:0:0:
177,336,231845,6,0,P|225:336|289:319,1,108,4|2,3:2|0:0,0:0:0:0:
359,191,232738,1,8,0:0:0:0:
305,121,233038,1,2,3:2:0:0:
357,48,233338,2,0,P|391:34|437:34,2,72,8|2|8,0:0|0:0|0:0,0:0:0:0:
221,166,234538,6,0,P|188:144|166:119,1,72,8|2,0:0|0:0,0:0:0:0:
118,43,235138,1,8,0:0:0:0:
13,192,235747,2,0,P|21:227|40:264,1,72,8|2,0:0|0:0,0:0:0:0:
116,300,236347,1,8,0:0:0:0:
193,253,236647,6,0,B|274:209|274:209|325:236,1,144,4|2,3:2|3:2,0:0:0:0:
391,287,237547,1,8,0:0:0:0:
471,246,237847,1,2,3:2:0:0:
486,157,238147,2,0,B|439:120|439:120|350:132,1,144,8|8,0:0|0:0,0:0:0:0:
328,217,239047,5,2,3:2:0:0:
254,268,239347,1,4,3:2:0:0:
89,189,239955,1,12,3:2:0:0:
206,51,240555,2,0,B|267:38|267:38|287:40|287:40|352:31,1,144,12|4,0:0|3:2,0:0:0:0:
409,97,241455,6,0,P|414:133|404:175,2,72,2|8|2,3:2|0:0|0:0,0:0:0:0:
465,26,242355,1,8,0:0:0:0:
287,24,242955,2,0,L|211:34,2,72,8|2|8,0:0|0:0|0:0,0:0:0:0:
337,98,243855,5,2,3:2:0:0:
284,170,244155,2,0,P|244:170|209:162,1,72,8|2,0:0|0:0,0:0:0:0:
131,123,244755,1,8,0:0:0:0:
31,275,245361,1,0,3:0:0:0:
86,345,245661,2,0,P|126:345|169:338,1,72,0|0,3:0|3:0,0:0:0:0:
230,288,246261,5,4,3:2:0:0:
290,354,246561,1,8,0:0:0:0:
434,246,247161,1,10,0:0:0:0:
469,164,247455,1,8,0:0:0:0:
414,92,247752,2,0,P|416:53|431:20,2,72,8|10|8,0:0|0:0|0:0,0:0:0:0:
360,161,248643,6,0,B|318:157|318:157|295:148|295:148|254:140,1,108,4|10,3:2|0:0,0:0:0:0:
131,48,249552,2,0,B|172:40|172:40|195:31|195:31|238:27,1,108,10|10,0:0|0:0,0:0:0:0:
386,46,250452,1,10,0:0:0:0:
431,123,250752,1,10,0:0:0:0:
427,211,251046,6,0,P|417:264|386:309,1,108,4|4,3:2|3:2,0:0:0:0:
261,359,251946,2,0,P|218:319|178:229,1,144,10|0,0:0|3:0,0:0:0:0:
172,153,252846,1,10,0:0:0:0:
218,76,253146,1,0,3:0:0:0:
297,34,253446,6,0,P|352:22|420:32,2,108,4|4|8,3:2|3:2|0:0,0:0:0:0:
129,104,254951,1,0,3:0:0:0:
77,177,255251,2,0,P|78:216|90:248,1,72,2|8,3:2|0:0,0:0:0:0:
161,300,255851,6,0,P|202:276|269:263,1,108,4|6,3:2|3:2,0:0:0:0:
391,337,256751,1,8,0:0:0:0:
472,296,257051,2,0,B|498:226|498:226|481:154,1,144,0|2,3:0|3:2,0:0:0:0:
458,71,257951,1,10,0:0:0:0:
380,25,258251,5,4,3:2:0:0:
262,120,258701,1,4,3:2:0:0:
118,73,259151,5,6,3:2:0:0:
256,192,259301,12,0,263351,0:0:0:0:
