osu file format v14

[General]
AudioFilename: audio.mp3
AudioLeadIn: 0
PreviewTime: 154
Countdown: 1
SampleSet: Soft
StackLeniency: 0.2
Mode: 0
LetterboxInBreaks: 0
WidescreenStoryboard: 0

[Editor]
Bookmarks: 15582,29296,43011,56725,68725,82439,96154,111582,125296,139011,157296,171010,184724,198438,212153,227581
DistanceSpacing: 0.6
BeatDivisor: 3
GridSize: 4
TimelineZoom: 2.899999

[Metadata]
Title:Put curse on you
TitleUnicode:Put curse on you
Artist:UNDEAD CORPORATION
ArtistUnicode:UNDEAD CORPORATION
Creator:Halfslashed
Version:Malediction
Source:東方妖々夢 ~ Perfect Cherry Blossom.
Tags:touhou youyomu th7 pcb アリス・マーガトロイド alice margatroid 一撃 ichigeki c81 ningyou saiban ~ hito no katachi moeasobishi shoujo 人形裁判 人の形弄びし少女 mpg mappers' guild featured artist corsace gf nm2 scubdomino [keqing] lmt aeril itswinter english metal
BeatmapID:2651771
BeatmapSetID:1276314

[Difficulty]
HPDrainRate:6
CircleSize:4
OverallDifficulty:9.5
ApproachRate:9.8
SliderMultiplier:2.7
SliderTickRate:1

[Events]
//Background and Video events
0,0,"alice-margatroid-wallpaper-full-hd-1920x1080-221113.png",0,0
//Break Periods
//Storyboard Layer 0 (Background)
//Storyboard Layer 1 (Fail)
//Storyboard Layer 2 (Pass)
//Storyboard Layer 3 (Foreground)
//Storyboard Layer 4 (Overlay)
//Storyboard Sound Samples

[TimingPoints]
154,428.571428571429,3,2,1,80,1,0
1439,-100,3,2,1,90,0,0
1868,-100,3,2,1,80,0,0
2296,-83.3333333333333,3,2,1,90,0,0
2725,-100,3,2,1,80,0,0
4011,-100,3,2,1,90,0,0
4439,-100,3,2,1,80,0,0
4868,-83.3333333333333,3,2,1,90,0,0
5296,-83.3333333333333,3,2,1,90,0,0
15582,428.571428571429,4,2,1,90,1,0
15582,-100,4,2,1,90,0,0
15653,-100,4,2,1,80,0,0
29296,428.571428571429,3,2,1,90,1,0
29438,-100,3,2,1,80,0,0
37439,-200,3,2,1,80,0,0
37868,-100,3,2,1,80,0,0
39154,-200,3,2,1,80,0,0
39583,-100,3,2,1,80,0,0
40868,-200,3,2,1,80,0,0
41297,-100,3,2,1,80,0,0
43010,428.571428571429,4,2,1,90,1,0
43081,-100,4,2,1,80,0,0
56724,-100,4,2,1,90,0,0
59295,428.571428571429,4,2,1,80,1,0
61009,428.571428571429,4,2,1,90,1,0
61009,-66.6666666666667,4,2,1,90,0,0
67009,428.571428571429,4,2,1,80,1,0
67009,-66.6666666666667,4,2,1,80,0,0
68723,428.571428571429,4,2,1,90,1,1
68725,-55.5555555555556,4,2,1,90,0,1
82437,-100,4,2,1,80,0,0
96151,428.571428571429,3,2,1,90,1,0
98293,-83.3333333333333,3,2,1,90,0,0
98722,-100,3,2,1,90,0,0
98793,-100,3,2,1,80,0,0
100008,-100,3,2,1,90,0,0
100436,-100,3,2,1,80,0,0
100865,-83.3333333333333,3,2,1,90,0,0
101294,-83.3333333333333,3,2,1,80,0,0
102579,-83.3333333333333,3,2,1,90,0,0
103008,-83.3333333333333,3,2,1,80,0,0
103436,-83.3333333333333,3,2,1,90,0,0
111579,428.571428571429,4,2,1,80,1,0
111579,-200,4,2,1,80,0,0
114793,-200,4,2,1,70,0,0
115007,-200,4,2,1,80,0,0
121864,-200,4,2,1,90,0,0
121936,-200,4,2,1,80,0,0
122721,-200,4,2,1,90,0,0
122793,-200,4,2,1,80,0,0
123579,-200,4,2,1,90,0,0
123864,-200,4,2,1,80,0,0
125293,-100,4,2,1,90,0,0
125436,-100,4,2,1,80,0,0
139007,285.714285714286,4,2,1,90,1,0
157292,428.571428571429,4,2,1,90,1,0
157292,-200,4,2,1,90,0,0
158149,-200,4,2,1,80,0,0
160720,-200,4,2,1,90,0,0
161577,-200,4,2,1,80,0,0
162434,-100,4,2,1,80,0,0
164149,-100,4,2,1,90,0,0
164220,-100,4,2,1,80,0,0
179149,-200,4,2,1,80,0,0
179577,-100,4,2,1,80,0,0
180863,-200,4,2,1,80,0,0
181291,-100,4,2,1,80,0,0
182577,-200,4,2,1,80,0,0
183005,-100,4,2,1,80,0,0
184720,-100,4,2,1,90,0,0
184792,-100,4,2,1,80,0,0
198434,-55.5555555555556,4,2,1,90,0,1
212148,428.571428571429,3,2,1,80,1,0
214290,-83.3333333333333,3,2,1,80,0,0
214719,-100,3,2,1,80,0,0
216005,-100,3,2,1,90,0,0
216433,-100,3,2,1,80,0,0
216862,-83.3333333333333,3,2,1,90,0,0
217291,-83.3333333333333,3,2,1,80,0,0
218576,-83.3333333333333,3,2,1,90,0,0
219005,-83.3333333333333,3,2,1,80,0,0
219433,-83.3333333333333,3,2,1,90,0,0
227576,-395.569620253165,3,2,1,90,0,0
227719,-395.569620253165,3,2,0,85,0,0
228148,-395.569620253165,3,2,1,80,0,0
228576,-395.569620253165,3,2,0,75,0,0
229005,-395.569620253165,3,2,1,70,0,0
229433,-395.569620253165,3,2,0,65,0,0
229862,-395.569620253165,3,2,1,60,0,0
230290,-395.569620253165,3,2,0,55,0,0
230718,-395.569620253165,3,2,0,50,0,0
231148,-395.569620253165,3,2,1,45,0,0
231576,-395.569620253165,3,2,0,40,0,0
232076,-395.569620253165,3,2,1,35,0,0
232504,-395.569620253165,3,2,0,30,0,0
233005,-395.569620253165,3,2,1,25,0,0
233433,-395.569620253165,3,2,0,20,0,0
233942,-395.569620253165,3,2,1,15,0,0
234370,-395.569620253165,3,2,0,10,0,0
234777,-395.569620253165,3,2,1,5,0,0

[Colours]
Combo1 : 204,0,0
Combo2 : 242,242,223

[HitObjects]
39,21,154,5,4,1:2:0:0:
67,41,225,5,0,3:2:0:0:
61,57,296,1,0,0:0:0:0:
54,73,368,1,0,3:2:0:0:
46,89,439,1,0,3:2:0:0:
38,105,511,1,0,3:2:0:0:
25,138,582,5,10,3:2:0:0:
60,145,654,5,0,3:2:0:0:
71,166,725,1,0,0:0:0:0:
84,185,796,1,0,3:2:0:0:
98,204,868,1,0,3:2:0:0:
110,225,939,1,0,3:2:0:0:
130,254,1011,5,10,3:2:0:0:
103,269,1082,5,0,3:2:0:0:
95,291,1154,1,0,0:0:0:0:
87,314,1225,1,0,3:2:0:0:
80,337,1296,1,0,3:2:0:0:
73,360,1368,1,0,3:2:0:0:
66,383,1439,6,0,P|142:365|210:400,1,135,4|0,3:2|0:0,0:0:0:0:
242,295,1725,2,0,L|301:284,1,45,4|0,3:2|0:0,0:0:0:0:
512,350,1868,5,10,3:2:0:0:
488,325,1939,5,0,3:2:0:0:
463,329,2011,1,0,3:2:0:0:
438,335,2082,1,0,3:2:0:0:
414,340,2154,1,0,3:2:0:0:
390,347,2225,1,0,3:2:0:0:
367,356,2296,6,0,P|319:334|258:239,1,161.999995056153,4|0,3:2|0:0,0:0:0:0:
368,200,2582,2,0,L|386:129,1,53.9999983520508,4|0,3:2|0:0,0:0:0:0:
271,15,2725,5,2,1:2:0:0:
296,48,2796,5,0,3:2:0:0:
314,45,2868,1,0,0:0:0:0:
331,43,2939,1,0,3:2:0:0:
348,40,3011,1,0,3:2:0:0:
365,35,3082,1,0,3:2:0:0:
401,27,3154,5,10,3:2:0:0:
386,60,3225,5,0,3:2:0:0:
409,67,3296,1,0,0:0:0:0:
432,75,3368,1,0,3:2:0:0:
454,83,3439,1,0,3:2:0:0:
477,90,3511,1,0,3:2:0:0:
511,101,3582,5,10,3:2:0:0:
489,129,3654,5,0,3:2:0:0:
486,153,3725,1,0,0:0:0:0:
484,182,3796,1,0,3:2:0:0:
481,206,3868,1,0,3:2:0:0:
478,230,3939,1,0,3:2:0:0:
473,253,4011,6,0,P|400:213|340:202,1,135,4|0,3:2|0:0,0:0:0:0:
317,297,4296,2,0,L|271:336,1,45,4|0,3:2|0:0,0:0:0:0:
169,205,4439,5,10,3:2:0:0:
150,234,4511,5,0,3:2:0:0:
125,236,4582,1,0,3:2:0:0:
100,239,4654,1,0,3:2:0:0:
77,243,4725,1,0,3:2:0:0:
52,246,4796,1,0,3:2:0:0:
27,248,4868,6,0,P|23:182|-26:96,1,161.999995056153,4|0,3:2|0:0,0:0:0:0:
173,120,5154,2,0,L|215:79,1,53.9999983520508,4|0,3:2|0:0,0:0:0:0:
368,5,5296,5,2,1:2:0:0:
422,5,5368,1,8,3:2:0:0:
470,28,5439,1,2,3:2:0:0:
499,73,5511,1,8,3:2:0:0:
502,126,5582,1,2,3:2:0:0:
478,175,5654,1,8,3:2:0:0:
430,200,5725,5,2,3:2:0:0:
405,151,5796,1,8,3:2:0:0:
351,140,5868,1,2,3:2:0:0:
305,168,5939,1,8,3:2:0:0:
299,222,6011,1,2,3:2:0:0:
336,260,6082,1,8,3:2:0:0:
389,269,6154,5,2,3:2:0:0:
352,307,6225,1,8,3:2:0:0:
298,304,6296,1,2,3:2:0:0:
260,264,6368,1,8,3:2:0:0:
255,210,6439,1,2,3:2:0:0:
288,167,6511,1,0,3:2:0:0:
331,199,6582,6,0,P|379:219|484:190,1,161.999995056153,4|0,3:2|3:0,0:0:0:0:
267,320,6868,2,0,L|207:314,1,53.9999983520508,4|0,3:2|0:0,0:0:0:0:
172,112,7011,5,8,3:2:0:0:
150,101,7082,1,2,3:2:0:0:
126,92,7154,1,8,3:2:0:0:
103,81,7225,1,2,3:2:0:0:
80,71,7296,1,8,3:2:0:0:
58,60,7368,1,0,3:2:0:0:
35,50,7439,6,0,P|0:101|11:199,1,161.999995056153,4|0,3:2|3:0,0:0:0:0:
54,358,7725,2,0,L|78:303,1,53.9999983520508,4|0,3:2|0:0,0:0:0:0:
302,229,7868,5,2,1:2:0:0:
322,179,7939,1,8,3:2:0:0:
313,125,8011,1,2,3:2:0:0:
276,82,8082,1,8,3:2:0:0:
220,68,8154,1,2,3:2:0:0:
167,86,8225,1,8,3:2:0:0:
149,136,8296,5,2,3:2:0:0:
202,147,8368,1,8,3:2:0:0:
247,118,8439,1,2,3:2:0:0:
253,63,8511,1,8,3:2:0:0:
228,15,8582,1,2,3:2:0:0:
173,9,8654,1,8,3:2:0:0:
129,40,8725,5,2,3:2:0:0:
169,75,8796,1,8,3:2:0:0:
172,129,8868,1,2,3:2:0:0:
143,174,8939,1,8,3:2:0:0:
91,191,9011,1,2,3:2:0:0:
38,179,9082,1,0,3:2:0:0:
9,132,9154,6,0,P|63:102|108:9,1,161.999995056153,4|0,3:2|3:0,0:0:0:0:
72,230,9439,2,0,L|61:284,1,53.9999983520508,4|0,3:2|0:0,0:0:0:0:
228,174,9582,5,8,3:2:0:0:
237,150,9654,1,2,3:2:0:0:
247,127,9725,1,8,3:2:0:0:
257,104,9796,1,2,3:2:0:0:
267,81,9868,1,8,3:2:0:0:
278,58,9939,1,0,3:2:0:0:
286,34,10011,5,4,3:2:0:0:
339,32,10082,1,8,3:2:0:0:
375,72,10154,1,0,3:0:0:0:
423,94,10225,1,0,3:0:0:0:
474,78,10296,2,0,L|461:137,1,53.9999983520508,4|0,3:2|0:0,0:0:0:0:
250,231,10439,5,2,1:2:0:0:
218,275,10511,1,8,3:2:0:0:
221,328,10582,1,2,3:2:0:0:
251,372,10654,1,8,3:2:0:0:
303,383,10725,1,2,3:2:0:0:
353,364,10796,1,8,3:2:0:0:
375,314,10868,5,2,3:2:0:0:
323,320,10939,1,8,3:2:0:0:
284,281,11011,1,2,3:2:0:0:
275,228,11082,1,8,3:2:0:0:
302,180,11154,1,2,3:2:0:0:
352,161,11225,1,8,3:2:0:0:
397,189,11296,5,2,3:2:0:0:
369,235,11368,1,8,3:2:0:0:
316,246,11439,1,2,3:2:0:0:
267,222,11511,1,8,3:2:0:0:
239,175,11582,1,2,3:2:0:0:
188,153,11654,1,0,3:2:0:0:
140,177,11725,6,0,P|104:228|10:263,1,161.999995056153,4|0,3:2|3:0,0:0:0:0:
217,285,12011,2,0,L|279:315,1,53.9999983520508,4|0,3:2|0:0,0:0:0:0:
33,384,12154,5,2,3:2:0:0:
27,353,12225,1,8,3:2:0:0:
23,320,12296,1,2,3:2:0:0:
16,287,12368,1,8,3:2:0:0:
10,254,12439,1,2,3:2:0:0:
5,221,12511,1,0,3:2:0:0:
0,188,12582,6,0,P|4:125|72:47,1,161.999995056153,4|0,3:2|3:0,0:0:0:0:
245,90,12868,2,0,L|301:69,1,53.9999983520508,4|0,3:2|0:0,0:0:0:0:
425,0,13011,5,4,1:0:0:0:
461,35,13082,5,0,3:1:0:0:
458,44,13154,1,0,3:0:0:0:
454,51,13225,1,4,3:0:0:0:
451,59,13296,1,4,3:0:0:0:
447,66,13368,1,8,3:0:0:0:
423,111,13439,5,0,3:0:0:0:
473,125,13511,5,0,3:0:0:0:
480,128,13582,1,0,3:0:0:0:
488,130,13654,1,4,3:0:0:0:
495,133,13725,1,4,3:0:0:0:
502,137,13796,1,8,3:0:0:0:
512,188,13868,5,0,3:0:0:0:
463,202,13939,5,0,3:0:0:0:
463,210,14011,1,0,3:0:0:0:
463,218,14082,1,4,3:0:0:0:
463,226,14154,1,4,3:0:0:0:
463,234,14225,1,8,3:0:0:0:
463,242,14296,6,0,P|422:289|406:388,1,161.999995056153,4|0,3:2|3:0,0:0:0:0:
257,207,14582,2,0,L|232:137,1,53.9999983520508,4|0,3:2|0:0,0:0:0:0:
257,350,14725,5,8,3:0:0:0:
224,355,14796,1,4,3:0:0:0:
190,360,14868,1,4,3:0:0:0:
157,365,14939,1,0,3:0:0:0:
123,371,15011,1,0,3:0:0:0:
90,378,15082,1,0,3:0:0:0:
56,384,15154,6,0,P|43:322|-39:233,1,161.999995056153,4|0,3:2|3:0,0:0:0:0:
149,158,15439,2,0,L|167:100,1,53.9999983520508,4|0,3:2|0:0,0:0:0:0:
11,11,15582,5,2,1:0:0:0:
10,15,15654,1,0,3:2:0:0:
9,19,15725,1,0,3:2:0:0:
9,23,15796,1,0,3:2:0:0:
10,27,15868,1,0,3:2:0:0:
12,30,15939,1,0,3:2:0:0:
15,33,16011,1,10,3:2:0:0:
19,45,16082,1,0,3:2:0:0:
29,53,16154,1,0,3:2:0:0:
41,56,16225,1,0,3:2:0:0:
54,54,16296,1,0,3:2:0:0:
66,49,16368,1,0,3:2:0:0:
76,40,16439,1,2,3:2:0:0:
97,31,16511,1,0,3:2:0:0:
119,29,16582,1,0,3:2:0:0:
140,35,16654,1,0,3:2:0:0:
155,50,16725,1,0,3:2:0:0:
164,70,16796,1,0,3:2:0:0:
168,92,16868,1,10,3:2:0:0:
190,114,16939,1,0,3:2:0:0:
221,115,17011,1,0,3:2:0:0:
247,97,17082,1,0,3:2:0:0:
254,66,17154,1,0,3:2:0:0:
236,40,17225,1,0,3:2:0:0:
206,28,17296,5,4,3:1:0:0:
246,34,17368,1,0,3:2:0:0:
284,22,17439,1,0,3:2:0:0:
323,12,17511,1,0,3:2:0:0:
361,23,17582,1,0,3:2:0:0:
397,40,17654,1,0,3:2:0:0:
436,31,17725,1,10,3:2:0:0:
460,10,17796,1,0,3:2:0:0:
491,16,17868,1,0,3:2:0:0:
499,46,17939,1,0,3:2:0:0:
477,69,18011,1,0,3:2:0:0:
470,99,18082,1,0,3:2:0:0:
471,130,18154,1,2,3:2:0:0:
477,160,18225,1,0,3:2:0:0:
492,187,18296,1,0,3:2:0:0:
493,218,18368,1,0,3:2:0:0:
479,246,18439,1,0,3:2:0:0:
448,255,18511,1,0,3:2:0:0:
418,245,18582,1,10,3:2:0:0:
407,224,18654,1,0,3:2:0:0:
386,215,18725,1,0,3:2:0:0:
364,220,18796,1,0,3:2:0:0:
349,237,18868,1,0,3:2:0:0:
350,259,18939,1,0,3:2:0:0:
357,264,19011,5,6,3:2:0:0:
348,266,19082,1,0,3:2:0:0:
339,261,19154,1,0,3:2:0:0:
334,253,19225,1,0,3:2:0:0:
331,244,19296,1,0,3:2:0:0:
331,234,19368,1,0,3:2:0:0:
336,226,19439,1,10,3:2:0:0:
349,213,19511,1,0,3:2:0:0:
366,210,19582,1,0,3:2:0:0:
386,215,19654,1,0,3:2:0:0:
396,229,19724,1,0,3:2:0:0:
395,247,19796,1,0,3:2:0:0:
387,263,19868,1,2,3:2:0:0:
361,254,19939,1,0,3:2:0:0:
334,253,20011,1,0,3:2:0:0:
311,268,20082,1,0,3:2:0:0:
297,291,20154,1,0,3:2:0:0:
293,317,20225,1,0,3:2:0:0:
297,343,20296,1,10,3:2:0:0:
275,371,20367,1,0,3:2:0:0:
239,376,20439,1,0,3:2:0:0:
203,366,20511,1,0,3:2:0:0:
184,335,20582,1,0,3:2:0:0:
191,299,20654,1,0,3:2:0:0:
220,279,20725,5,4,3:1:0:0:
188,274,20796,1,0,3:2:0:0:
176,244,20868,1,0,3:2:0:0:
188,215,20939,1,0,3:2:0:0:
218,205,21011,1,0,3:2:0:0:
242,224,21082,1,0,3:2:0:0:
242,255,21153,1,10,3:2:0:0:
225,270,21225,1,0,3:2:0:0:
204,278,21296,1,0,3:2:0:0:
181,278,21368,1,0,3:2:0:0:
161,288,21439,1,0,3:2:0:0:
150,308,21511,1,0,3:2:0:0:
142,319,21581,5,2,3:2:0:0:
129,317,21653,1,0,3:2:0:0:
118,307,21725,1,0,3:2:0:0:
113,294,21795,1,0,3:2:0:0:
107,281,21867,1,0,3:2:0:0:
94,274,21938,1,0,3:2:0:0:
80,274,22009,1,10,3:2:0:0:
77,277,22082,1,0,3:2:0:0:
74,280,22153,1,0,3:2:0:0:
71,283,22224,1,0,3:2:0:0:
68,286,22296,1,0,3:2:0:0:
66,290,22367,1,0,3:2:0:0:
63,294,22439,5,6,1:2:0:0:
58,306,22511,1,0,3:2:0:0:
57,319,22582,1,0,3:2:0:0:
59,332,22654,1,0,3:2:0:0:
63,344,22725,1,0,3:2:0:0:
72,353,22796,1,0,3:2:0:0:
82,361,22868,1,10,3:2:0:0:
104,364,22939,1,0,3:2:0:0:
125,356,23011,1,0,3:2:0:0:
140,339,23082,1,0,3:2:0:0:
147,317,23154,1,0,3:2:0:0:
158,297,23225,1,0,3:2:0:0:
178,285,23296,1,2,3:2:0:0:
209,284,23368,1,0,3:2:0:0:
236,298,23439,1,0,3:2:0:0:
248,327,23511,1,0,3:2:0:0:
269,349,23582,1,0,3:2:0:0:
299,357,23654,1,0,3:2:0:0:
329,352,23725,1,10,3:2:0:0:
363,330,23796,1,0,3:2:0:0:
403,327,23868,1,0,3:2:0:0:
438,346,23939,1,0,3:2:0:0:
478,348,24011,1,0,3:2:0:0:
511,325,24082,1,0,3:2:0:0:
507,284,24154,5,4,3:1:0:0:
470,316,24225,1,0,3:2:0:0:
421,324,24296,1,0,3:2:0:0:
375,302,24368,1,0,3:2:0:0:
348,260,24439,1,0,3:2:0:0:
346,210,24511,1,0,3:2:0:0:
359,162,24582,1,10,3:2:0:0:
394,142,24654,1,0,3:2:0:0:
434,145,24725,1,0,3:2:0:0:
468,165,24796,1,0,3:2:0:0:
476,204,24868,1,0,3:2:0:0:
454,237,24939,1,0,3:2:0:0:
413,240,25011,1,2,3:2:0:0:
384,226,25082,1,0,3:2:0:0:
372,196,25154,1,0,3:2:0:0:
379,165,25225,1,0,3:2:0:0:
401,143,25296,1,0,3:2:0:0:
431,133,25368,1,0,3:2:0:0:
459,146,25439,1,10,3:2:0:0:
462,169,25511,1,0,3:2:0:0:
449,187,25582,1,0,3:2:0:0:
426,188,25654,1,0,3:2:0:0:
408,175,25725,1,0,3:2:0:0:
407,152,25796,1,0,3:2:0:0:
418,132,25868,5,6,3:2:0:0:
412,138,25939,1,0,3:2:0:0:
409,146,26011,1,0,3:2:0:0:
405,154,26082,1,0,3:2:0:0:
403,163,26154,1,0,3:2:0:0:
402,172,26224,1,0,3:2:0:0:
401,181,26296,1,10,3:2:0:0:
384,188,26368,1,0,3:2:0:0:
366,193,26439,1,0,3:2:0:0:
348,197,26511,1,0,3:2:0:0:
330,194,26582,1,0,3:2:0:0:
315,182,26654,1,0,3:2:0:0:
307,165,26725,1,2,3:2:0:0:
285,148,26796,1,0,3:2:0:0:
258,141,26868,1,0,3:2:0:0:
231,144,26939,1,0,3:2:0:0:
210,162,27011,1,0,3:2:0:0:
204,188,27082,1,0,3:2:0:0:
185,207,27154,1,10,3:2:0:0:
146,206,27225,1,0,3:2:0:0:
117,184,27296,1,0,3:2:0:0:
113,147,27368,1,0,3:2:0:0:
133,117,27439,1,0,3:2:0:0:
140,81,27511,1,0,3:2:0:0:
128,47,27582,5,4,3:1:0:0:
152,58,27654,1,0,3:2:0:0:
178,59,27725,1,0,3:2:0:0:
205,52,27796,1,0,3:2:0:0:
228,37,27868,1,0,3:2:0:0:
254,31,27939,1,0,3:2:0:0:
280,38,28011,1,10,3:2:0:0:
291,51,28082,1,0,3:2:0:0:
307,59,28154,1,0,3:2:0:0:
324,61,28225,1,0,3:2:0:0:
341,59,28296,1,0,3:2:0:0:
357,52,28368,1,0,3:2:0:0:
366,36,28439,5,2,1:2:0:0:
370,37,28511,1,0,3:2:0:0:
374,38,28582,1,8,3:0:0:0:
378,39,28654,1,0,3:2:0:0:
382,40,28725,1,4,3:0:0:0:
385,42,28796,1,0,3:2:0:0:
398,86,28868,5,10,1:2:0:0:
401,88,28939,1,0,3:2:0:0:
404,91,29011,1,4,3:0:0:0:
406,94,29082,1,0,3:2:0:0:
408,97,29154,1,4,3:0:0:0:
410,100,29225,1,0,3:2:0:0:
417,155,29296,5,2,3:1:0:0:
437,228,29439,1,0,3:0:0:0:
457,302,29582,1,0,3:0:0:0:
344,212,29725,5,10,3:2:0:0:
411,248,29868,1,0,3:0:0:0:
478,286,30011,1,0,3:0:0:0:
325,350,30154,5,2,3:2:0:0:
297,355,30225,1,0,3:0:0:0:
270,361,30296,1,0,3:0:0:0:
242,367,30368,1,0,3:0:0:0:
215,372,30439,1,0,3:0:0:0:
187,379,30511,1,0,3:0:0:0:
160,384,30582,1,10,3:2:0:0:
17,92,31011,5,2,3:2:0:0:
126,62,31154,1,0,3:0:0:0:
234,33,31296,1,0,3:0:0:0:
0,0,31439,5,10,3:2:0:0:
106,28,31582,1,0,3:0:0:0:
210,57,31724,1,0,3:0:0:0:
49,126,31868,5,2,3:2:0:0:
45,153,31939,1,0,3:0:0:0:
40,180,32011,1,0,3:0:0:0:
35,207,32082,1,0,3:0:0:0:
29,234,32154,1,0,3:0:0:0:
25,261,32225,1,0,3:0:0:0:
20,288,32296,1,10,3:2:0:0:
464,180,32725,5,2,3:2:0:0:
439,88,32868,1,0,3:0:0:0:
415,0,33010,1,0,3:0:0:0:
496,138,33154,5,10,3:2:0:0:
410,88,33297,1,0,3:0:0:0:
327,41,33439,1,0,3:0:0:0:
350,237,33582,5,2,3:2:0:0:
377,233,33653,1,0,3:0:0:0:
404,228,33725,1,0,3:0:0:0:
431,223,33796,1,0,3:0:0:0:
458,217,33868,1,0,3:0:0:0:
485,213,33939,1,0,3:0:0:0:
512,208,34010,1,10,3:2:0:0:
73,217,34439,5,2,3:2:0:0:
51,291,34581,1,0,3:0:0:0:
32,364,34724,1,0,3:0:0:0:
140,261,34867,5,10,3:2:0:0:
81,311,35009,1,0,3:0:0:0:
22,359,35152,1,0,3:0:0:0:
0,215,35296,5,2,3:2:0:0:
27,210,35367,1,0,3:0:0:0:
54,206,35438,1,0,3:0:0:0:
81,200,35510,1,0,3:0:0:0:
108,195,35581,1,0,3:0:0:0:
135,190,35653,1,0,3:0:0:0:
162,185,35724,5,10,3:2:0:0:
137,222,35796,1,0,3:0:0:0:
155,271,35868,1,8,3:0:0:0:
199,275,35939,1,8,3:0:0:0:
234,246,36011,2,0,L|250:188,1,45,4|4,3:0|3:0,0:0:0:0:
242,86,36154,5,6,3:2:0:0:
319,75,36296,1,0,3:0:0:0:
396,66,36439,1,0,3:0:0:0:
476,227,36582,5,10,3:2:0:0:
398,216,36724,1,0,3:0:0:0:
320,207,36867,1,0,3:0:0:0:
335,381,37011,5,2,3:2:0:0:
361,372,37082,1,0,3:0:0:0:
387,363,37154,1,0,3:0:0:0:
413,355,37225,1,0,3:0:0:0:
439,347,37296,1,0,3:0:0:0:
465,337,37368,1,0,3:0:0:0:
492,329,37439,2,0,P|498:297|481:226,1,90,10|0,3:2|0:0,0:0:0:0:
263,255,37868,5,2,3:2:0:0:
285,148,38011,1,0,3:0:0:0:
307,39,38154,1,0,3:0:0:0:
150,103,38296,5,10,3:2:0:0:
171,212,38439,1,0,3:0:0:0:
194,319,38582,1,0,3:0:0:0:
19,290,38725,5,2,3:2:0:0:
28,264,38796,1,0,3:0:0:0:
37,238,38868,1,0,3:0:0:0:
45,212,38939,1,0,3:0:0:0:
53,186,39010,1,0,3:0:0:0:
63,160,39082,1,0,3:0:0:0:
71,133,39154,2,0,P|50:101|-1:68,1,90,10|0,3:2|0:0,0:0:0:0:
12,362,39582,5,2,3:2:0:0:
107,373,39725,1,0,3:0:0:0:
203,384,39868,1,0,3:0:0:0:
296,248,40011,5,10,3:2:0:0:
201,260,40154,1,0,3:0:0:0:
106,271,40297,1,0,3:0:0:0:
0,125,40439,5,2,3:2:0:0:
26,131,40510,1,0,3:0:0:0:
53,138,40582,1,0,3:0:0:0:
79,144,40653,1,0,3:0:0:0:
105,149,40724,1,0,3:0:0:0:
132,157,40796,1,0,3:0:0:0:
159,163,40868,2,0,P|208:155|250:127,1,90,10|0,3:2|0:0,0:0:0:0:
411,0,41296,5,2,3:2:0:0:
433,75,41439,1,0,3:0:0:0:
455,149,41582,1,0,3:0:0:0:
355,238,41725,5,10,3:2:0:0:
372,167,41868,1,0,3:0:0:0:
389,92,42011,1,0,3:0:0:0:
244,0,42154,5,2,3:2:0:0:
250,26,42225,1,0,3:0:0:0:
257,53,42297,1,0,3:0:0:0:
263,79,42368,1,0,3:0:0:0:
268,105,42439,1,0,3:0:0:0:
276,131,42511,1,0,3:0:0:0:
281,158,42582,1,10,3:2:0:0:
281,158,43011,5,6,1:2:0:0:
287,146,43081,1,0,3:2:0:0:
287,132,43152,1,0,3:2:0:0:
285,118,43224,1,0,3:2:0:0:
279,105,43295,1,0,3:2:0:0:
268,95,43368,1,0,3:2:0:0:
255,91,43439,1,10,3:2:0:0:
233,96,43511,1,0,3:2:0:0:
215,109,43582,1,0,3:2:0:0:
195,119,43652,1,0,3:2:0:0:
172,120,43724,1,0,3:2:0:0:
150,113,43795,1,0,3:2:0:0:
133,97,43867,1,2,3:2:0:0:
115,71,43938,1,0,3:2:0:0:
115,39,44010,1,0,3:2:0:0:
127,10,44082,1,0,3:2:0:0:
157,1,44152,1,0,3:2:0:0:
186,11,44224,1,0,3:2:0:0:
208,33,44295,1,10,3:2:0:0:
224,70,44367,1,0,3:2:0:0:
251,99,44438,1,0,3:2:0:0:
291,101,44510,1,0,3:2:0:0:
327,83,44581,1,0,3:2:0:0:
344,46,44652,1,0,3:2:0:0:
334,6,44724,5,4,3:1:0:0:
374,34,44794,1,0,3:2:0:0:
388,81,44866,1,0,3:2:0:0:
382,129,44937,1,0,3:2:0:0:
350,167,45009,1,0,3:2:0:0:
332,212,45080,1,0,3:2:0:0:
348,259,45152,1,10,3:2:0:0:
383,277,45223,1,0,3:2:0:0:
398,315,45294,1,0,3:2:0:0:
387,355,45366,1,0,3:2:0:0:
358,382,45437,1,0,3:2:0:0:
321,384,45509,1,0,3:2:0:0:
321,384,45581,5,2,3:2:0:0:
345,372,45652,1,0,3:2:0:0:
370,362,45724,1,0,3:2:0:0:
394,351,45795,1,0,3:2:0:0:
419,340,45867,1,0,3:2:0:0:
447,332,45938,1,0,3:2:0:0:
447,332,46010,5,10,3:2:0:0:
416,307,46081,1,0,3:2:0:0:
420,266,46153,1,0,3:2:0:0:
450,248,46223,1,0,3:2:0:0:
450,248,46294,5,0,3:2:0:0:
490,251,46366,1,0,3:2:0:0:
510,282,46438,5,6,3:2:0:0:
512,291,46509,1,0,3:2:0:0:
512,300,46581,1,0,3:2:0:0:
510,308,46653,1,0,3:2:0:0:
508,316,46724,1,0,3:2:0:0:
504,323,46795,1,0,3:2:0:0:
497,329,46867,1,10,3:2:0:0:
481,338,46937,1,0,3:2:0:0:
462,338,47010,1,0,3:2:0:0:
447,332,47081,1,0,3:2:0:0:
428,312,47152,1,0,3:2:0:0:
425,285,47223,1,0,3:2:0:0:
406,265,47294,1,2,3:2:0:0:
378,260,47367,1,0,3:2:0:0:
352,269,47438,1,0,3:2:0:0:
334,290,47510,1,0,3:2:0:0:
329,316,47581,1,0,3:2:0:0:
311,336,47652,1,0,3:2:0:0:
284,341,47724,1,10,3:2:0:0:
250,328,47795,1,0,3:2:0:0:
230,297,47867,1,0,3:2:0:0:
196,283,47938,1,0,3:2:0:0:
160,287,48010,1,0,3:2:0:0:
127,301,48081,1,0,3:2:0:0:
102,332,48153,5,4,3:1:0:0:
107,305,48224,1,0,3:2:0:0:
101,279,48295,1,0,3:2:0:0:
82,258,48367,1,0,3:2:0:0:
57,247,48438,1,0,3:2:0:0:
36,229,48510,1,0,3:2:0:0:
26,204,48581,1,10,3:2:0:0:
26,185,48653,1,0,3:2:0:0:
31,168,48724,1,0,3:2:0:0:
40,153,48795,1,0,3:2:0:0:
55,143,48867,1,0,3:2:0:0:
72,138,48938,1,0,3:2:0:0:
94,145,49010,1,2,3:2:0:0:
94,145,49081,5,0,3:2:0:0:
89,118,49153,1,0,3:2:0:0:
84,91,49224,1,0,3:2:0:0:
82,68,49295,1,0,3:2:0:0:
82,68,49366,5,0,3:2:0:0:
58,79,49438,1,10,3:2:0:0:
31,79,49509,1,0,3:2:0:0:
5,68,49581,1,0,3:2:0:0:
0,46,49652,1,0,3:2:0:0:
0,46,49724,5,0,3:2:0:0:
24,14,49795,1,0,3:2:0:0:
62,1,49867,5,6,1:2:0:0:
72,9,49938,1,0,3:2:0:0:
82,17,50010,1,0,3:2:0:0:
87,28,50080,1,0,3:2:0:0:
92,40,50153,1,0,3:2:0:0:
95,52,50224,1,0,3:2:0:0:
98,64,50295,1,10,3:2:0:0:
99,86,50366,1,0,3:2:0:0:
100,108,50438,1,0,3:2:0:0:
103,130,50510,1,0,3:2:0:0:
112,150,50581,1,0,3:2:0:0:
128,165,50653,1,0,3:2:0:0:
149,171,50724,1,2,3:2:0:0:
180,168,50795,1,0,3:2:0:0:
208,183,50867,1,0,3:2:0:0:
226,208,50938,1,0,3:2:0:0:
219,239,51010,1,0,3:2:0:0:
192,256,51081,1,0,3:2:0:0:
160,256,51153,1,10,3:2:0:0:
133,286,51224,1,0,3:2:0:0:
132,326,51295,1,0,3:2:0:0:
154,360,51367,1,0,3:2:0:0:
191,373,51438,1,0,3:2:0:0:
225,350,51510,1,0,3:2:0:0:
240,312,51581,5,4,3:1:0:0:
256,359,51653,1,0,3:2:0:0:
297,383,51723,1,0,3:2:0:0:
345,376,51794,1,0,3:2:0:0:
375,335,51867,1,0,3:2:0:0:
367,286,51938,1,0,3:2:0:0:
327,256,52009,1,10,3:2:0:0:
323,215,52080,1,0,3:2:0:0:
352,186,52153,1,0,3:2:0:0:
391,196,52223,1,0,3:2:0:0:
411,232,52295,1,0,3:2:0:0:
397,270,52367,1,0,3:2:0:0:
397,270,52438,5,2,3:2:0:0:
415,250,52509,1,0,3:2:0:0:
432,229,52580,1,0,3:2:0:0:
448,207,52651,1,0,3:2:0:0:
466,191,52723,1,0,3:2:0:0:
466,191,52794,5,0,3:2:0:0:
470,164,52866,1,10,3:2:0:0:
461,139,52938,1,0,3:2:0:0:
437,128,53009,1,0,3:2:0:0:
413,132,53081,1,0,3:2:0:0:
413,132,53153,5,0,3:2:0:0:
385,102,53224,1,0,3:2:0:0:
395,63,53295,5,6,3:2:0:0:
402,67,53367,1,0,3:2:0:0:
410,66,53438,1,0,3:2:0:0:
416,59,53510,1,0,3:2:0:0:
414,50,53581,1,0,3:2:0:0:
407,43,53653,1,0,3:2:0:0:
389,41,53723,1,10,3:2:0:0:
372,49,53795,1,0,3:2:0:0:
363,64,53867,1,0,3:2:0:0:
349,75,53938,1,0,3:2:0:0:
331,77,54010,1,0,3:2:0:0:
314,70,54081,1,0,3:2:0:0:
305,54,54153,1,2,3:2:0:0:
317,29,54224,1,0,3:2:0:0:
340,16,54295,1,0,3:2:0:0:
367,16,54367,1,0,3:2:0:0:
392,24,54438,1,0,3:2:0:0:
414,39,54510,1,0,3:2:0:0:
424,63,54581,1,10,3:2:0:0:
413,97,54653,1,0,3:2:0:0:
382,114,54723,1,0,3:2:0:0:
345,118,54795,1,0,3:2:0:0:
310,108,54867,1,0,3:2:0:0:
284,82,54938,1,0,3:2:0:0:
272,38,55010,5,4,3:1:0:0:
227,58,55081,1,0,3:0:0:0:
182,77,55151,1,8,3:2:0:0:
136,99,55224,1,8,3:2:0:0:
91,119,55295,5,8,3:2:0:0:
99,65,55367,1,8,3:2:0:0:
127,30,55438,1,8,3:0:0:0:
162,24,55510,1,0,3:2:0:0:
185,26,55581,1,4,3:0:0:0:
200,35,55651,1,0,3:2:0:0:
205,53,55724,1,0,3:2:0:0:
204,67,55795,1,0,3:2:0:0:
202,74,55867,5,6,3:2:0:0:
163,51,55938,1,0,3:2:0:0:
121,38,56010,1,10,3:2:0:0:
76,43,56081,1,0,3:2:0:0:
34,60,56153,1,2,3:2:0:0:
0,88,56224,5,0,3:2:0:0:
46,89,56295,1,4,3:1:0:0:
87,108,56367,1,0,3:2:0:0:
110,146,56438,1,2,3:2:0:0:
107,191,56510,1,0,3:2:0:0:
81,228,56581,5,2,3:2:0:0:
52,193,56653,1,0,3:2:0:0:
64,150,56724,5,14,1:2:0:0:
511,374,57582,1,14,1:2:0:0:
493,13,58011,1,14,1:2:0:0:
388,136,58153,1,14,3:2:0:0:
420,58,58296,1,14,3:2:0:0:
403,213,58439,5,14,1:2:0:0:
0,24,59011,1,0,0:0:0:0:
7,23,59081,1,8,3:0:0:0:
14,22,59152,1,4,3:0:0:0:
21,21,59224,1,0,3:0:0:0:
28,20,59295,6,0,L|33:96,1,45,4|0,1:2|0:0,0:0:0:0:
192,188,59437,1,0,3:0:0:0:
246,187,59509,1,8,3:2:0:0:
295,165,59580,1,8,3:2:0:0:
317,115,59652,1,8,3:2:0:0:
303,63,59723,6,0,L|381:46,1,45,4|0,1:0|0:0,0:0:0:0:
504,143,59866,1,0,3:0:0:0:
512,168,59937,1,8,3:0:0:0:
511,195,60009,1,8,3:0:0:0:
500,220,60080,1,8,3:0:0:0:
481,239,60152,6,0,L|429:277,1,45,4|0,1:2|0:0,0:0:0:0:
291,384,60294,1,0,3:0:0:0:
286,339,60366,1,4,3:0:0:0:
253,309,60437,1,4,3:0:0:0:
209,296,60509,1,4,3:0:0:0:
168,314,60580,5,4,1:0:0:0:
0,384,60723,1,8,3:2:0:0:
104,260,60866,1,8,3:2:0:0:
286,339,61009,5,4,1:2:0:0:
325,365,61080,1,8,3:2:0:0:
371,376,61152,1,2,3:2:0:0:
374,329,61223,1,8,3:2:0:0:
408,297,61294,1,2,3:2:0:0:
439,334,61366,1,8,3:2:0:0:
482,354,61437,6,0,L|378:330,1,67.5000025749208,2|8,3:2|3:2,0:0:0:0:
460,243,61580,2,0,L|492:140,1,67.5000025749208,2|8,3:2|3:2,0:0:0:0:
303,137,61723,2,0,L|323:202,1,67.5000025749208,2|8,3:2|3:2,0:0:0:0:
244,232,61866,5,2,3:2:0:0:
206,202,61937,1,8,3:2:0:0:
158,194,62009,1,2,3:2:0:0:
145,239,62080,1,8,3:2:0:0:
104,264,62152,1,2,3:2:0:0:
74,227,62223,1,8,3:2:0:0:
27,222,62294,6,0,L|-3:324,1,67.5000025749208,2|8,3:2|3:2,0:0:0:0:
56,132,62437,2,0,L|0:95,1,67.5000025749208,2|8,3:2|3:2,0:0:0:0:
184,2,62580,2,0,L|235:96,1,67.5000025749208,2|8,3:2|3:2,0:0:0:0:
300,125,62723,5,4,3:2:0:0:
343,142,62794,1,8,3:2:0:0:
390,135,62866,1,2,3:2:0:0:
371,91,62937,1,8,3:2:0:0:
384,45,63009,1,2,3:2:0:0:
420,74,63080,1,8,3:2:0:0:
467,74,63152,6,0,L|486:168,1,67.5000025749208,2|8,3:2|3:2,0:0:0:0:
453,223,63294,2,0,L|389:151,1,67.5000025749208,2|8,3:2|3:2,0:0:0:0:
310,1,63437,2,0,L|279:91,1,67.5000025749208,2|0,3:2|3:2,0:0:0:0:
52,107,63580,5,4,3:2:0:0:
221,103,63723,1,8,2:0:0:0:
168,134,63794,1,8,2:0:0:0:
114,163,63866,1,8,2:0:0:0:
63,195,63937,1,8,2:0:0:0:
9,224,64009,5,10,3:2:0:0:
218,203,64152,1,10,3:2:0:0:
188,0,64294,1,10,3:2:0:0:
84,147,64437,5,4,1:2:0:0:
45,175,64509,1,8,3:2:0:0:
31,220,64580,1,2,3:2:0:0:
77,228,64652,1,8,3:2:0:0:
107,263,64723,1,2,3:2:0:0:
65,284,64794,1,8,3:2:0:0:
48,328,64866,6,0,L|98:372,1,67.5000025749208,2|8,3:2|3:2,0:0:0:0:
0,253,65009,2,0,L|5:185,1,67.5000025749208,2|8,3:2|3:2,0:0:0:0:
193,384,65152,2,0,L|255:312,1,67.5000025749208,2|8,3:2|3:2,0:0:0:0:
374,294,65294,5,2,3:2:0:0:
385,247,65366,1,8,3:2:0:0:
422,218,65437,1,2,3:2:0:0:
391,181,65509,1,8,3:2:0:0:
344,176,65580,1,2,3:2:0:0:
352,129,65652,1,8,3:2:0:0:
395,110,65723,6,0,L|485:78,1,67.5000025749208,2|8,3:2|3:2,0:0:0:0:
287,0,65866,2,0,L|325:55,1,67.5000025749208,2|8,3:2|3:2,0:0:0:0:
422,218,66009,2,0,L|331:186,1,67.5000025749208,2|8,3:2|3:2,0:0:0:0:
235,140,66152,5,4,3:2:0:0:
187,141,66223,1,8,3:2:0:0:
159,179,66294,1,2,3:2:0:0:
118,154,66366,1,8,3:2:0:0:
109,107,66437,1,2,3:2:0:0:
62,116,66509,1,8,3:2:0:0:
32,152,66580,6,0,L|2:62,1,67.5000025749208,2|8,3:2|3:2,0:0:0:0:
160,221,66723,2,0,L|99:191,1,67.5000025749208,2|8,3:2|3:2,0:0:0:0:
30,324,66866,2,0,L|59:384,1,67.5000025749208,2|0,3:2|3:2,0:0:0:0:
163,384,67009,6,0,L|253:376,1,67.5000025749207,4|0,3:2|0:0,0:0:0:0:
275,181,67151,1,8,2:0:0:0:
217,199,67222,1,8,2:0:0:0:
160,221,67293,1,8,2:0:0:0:
100,237,67365,1,8,2:0:0:0:
83,294,67437,6,0,L|2:238,1,67.5000025749207,4|0,3:1|0:0,0:0:0:0:
107,115,67579,1,0,3:0:0:0:
114,89,67651,1,4,3:0:0:0:
110,61,67722,1,4,3:0:0:0:
96,38,67793,1,8,3:0:0:0:
71,28,67866,6,0,L|162:8,1,67.5000025749207,4|0,3:2|0:0,0:0:0:0:
280,133,68008,1,0,3:0:0:0:
307,161,68079,1,4,3:0:0:0:
346,174,68151,1,4,3:0:0:0:
385,169,68222,1,8,3:0:0:0:
420,153,68293,5,4,3:1:0:0:
330,372,68437,1,8,3:2:0:0:
107,115,68579,1,8,3:2:0:0:
0,384,68723,5,6,1:0:0:0:
6,380,68794,1,10,2:0:0:0:
12,379,68865,1,0,3:0:0:0:
19,377,68937,1,10,2:0:0:0:
26,376,69008,1,0,3:0:0:0:
32,374,69080,1,10,2:0:0:0:
39,373,69151,1,0,3:0:0:0:
46,371,69222,1,10,2:0:0:0:
53,370,69294,1,0,3:0:0:0:
61,368,69365,1,10,2:0:0:0:
68,366,69437,1,0,3:0:0:0:
75,364,69508,1,10,2:0:0:0:
83,363,69580,1,0,3:2:0:0:
118,342,69651,1,10,2:0:0:0:
129,303,69723,1,0,3:0:0:0:
120,263,69794,1,10,2:0:0:0:
85,241,69865,1,0,3:0:0:0:
44,246,69937,1,10,2:0:0:0:
18,279,70008,1,0,3:0:0:0:
0,242,70080,1,10,2:0:0:0:
2,201,70151,1,0,3:0:0:0:
19,163,70223,1,10,2:0:0:0:
53,142,70294,1,0,3:0:0:0:
93,139,70365,1,10,2:0:0:0:
130,153,70436,5,0,3:2:0:0:
111,198,70508,1,10,2:0:0:0:
113,246,70579,1,0,3:0:0:0:
150,278,70651,1,10,2:0:0:0:
198,280,70722,1,0,3:0:0:0:
238,253,70793,1,10,2:0:0:0:
244,204,70865,1,0,3:0:0:0:
197,217,70936,1,10,2:0:0:0:
176,261,71008,1,0,3:0:0:0:
178,309,71079,1,10,2:0:0:0:
208,347,71151,1,0,3:0:0:0:
256,347,71222,1,10,2:0:0:0:
289,312,71293,5,0,3:2:0:0:
322,358,71365,1,10,2:0:0:0:
373,380,71436,1,0,3:0:0:0:
430,377,71508,1,10,2:0:0:0:
476,344,71579,1,0,3:0:0:0:
495,290,71651,1,10,2:0:0:0:
486,231,71722,5,0,3:2:0:0:
427,204,71793,1,8,2:0:0:0:
369,172,71865,1,8,3:2:0:0:
312,142,71936,1,8,2:0:0:0:
254,112,72008,1,8,3:2:0:0:
195,83,72079,1,8,2:0:0:0:
130,89,72151,5,6,1:0:0:0:
126,104,72222,1,10,2:0:0:0:
117,117,72293,1,0,3:0:0:0:
107,130,72365,1,10,2:0:0:0:
94,140,72437,1,0,3:0:0:0:
79,146,72508,1,10,2:0:0:0:
62,147,72580,1,0,3:0:0:0:
47,140,72651,1,10,2:0:0:0:
39,125,72723,1,0,3:0:0:0:
34,109,72794,1,10,2:0:0:0:
35,93,72865,1,0,3:0:0:0:
41,78,72937,1,10,2:0:0:0:
52,67,73008,1,0,3:2:0:0:
15,84,73080,1,10,2:0:0:0:
2,122,73151,1,0,3:0:0:0:
7,162,73223,1,10,2:0:0:0:
21,199,73294,1,0,3:0:0:0:
27,238,73365,1,10,2:0:0:0:
17,277,73437,1,0,3:0:0:0:
52,257,73508,1,10,2:0:0:0:
92,260,73580,1,0,3:0:0:0:
126,281,73651,1,10,2:0:0:0:
123,288,73723,1,0,3:0:0:0:
121,295,73794,1,10,2:0:0:0:
117,302,73865,5,0,3:2:0:0:
84,232,73937,1,10,2:0:0:0:
103,161,74008,1,0,3:0:0:0:
159,120,74080,1,10,2:0:0:0:
223,119,74151,1,0,3:0:0:0:
275,152,74223,1,10,2:0:0:0:
297,203,74294,1,0,3:0:0:0:
286,250,74365,1,10,2:0:0:0:
258,280,74437,1,0,3:0:0:0:
248,311,74508,1,10,2:0:0:0:
253,336,74580,1,0,3:0:0:0:
267,346,74651,1,10,2:0:0:0:
276,346,74723,6,0,L|189:330,5,80.9999975280763,4|0|0|4|4|8,1:0|3:1|3:0|3:0|3:0|3:0,0:0:0:0:
335,208,75151,2,0,L|256:222,5,80.9999975280763,4|0|0|4|4|8,1:2|3:0|3:0|3:0|3:0|3:0,0:0:0:0:
188,152,75580,5,6,1:0:0:0:
171,179,75652,1,10,2:0:0:0:
167,210,75723,1,0,3:0:0:0:
169,242,75794,1,10,2:0:0:0:
181,272,75866,1,0,3:0:0:0:
200,297,75937,1,10,2:0:0:0:
226,316,76009,1,0,3:0:0:0:
254,330,76080,1,10,2:0:0:0:
286,333,76152,1,0,3:0:0:0:
317,329,76223,1,10,2:0:0:0:
348,333,76294,1,0,3:0:0:0:
379,341,76366,1,10,2:0:0:0:
405,359,76437,1,0,3:2:0:0:
372,322,76509,1,10,2:0:0:0:
367,274,76579,1,0,3:0:0:0:
385,228,76651,1,10,2:0:0:0:
419,194,76722,1,0,3:0:0:0:
467,198,76793,1,10,2:0:0:0:
503,231,76865,1,0,3:0:0:0:
478,273,76937,1,10,2:0:0:0:
431,282,77008,1,0,3:0:0:0:
386,262,77080,1,10,2:0:0:0:
359,222,77151,1,0,3:0:0:0:
361,173,77223,1,10,2:0:0:0:
393,137,77294,5,0,3:2:0:0:
445,158,77365,1,10,2:0:0:0:
495,130,77436,1,0,3:0:0:0:
507,73,77508,1,10,2:0:0:0:
479,24,77579,1,0,3:0:0:0:
428,0,77651,1,10,2:0:0:0:
378,28,77722,1,0,3:0:0:0:
410,73,77793,1,10,2:0:0:0:
415,129,77865,1,0,3:0:0:0:
393,181,77936,1,10,2:0:0:0:
404,236,78008,1,0,3:0:0:0:
436,282,78079,1,10,2:0:0:0:
492,297,78151,5,0,3:2:0:0:
485,232,78222,1,10,2:0:0:0:
440,185,78293,1,0,3:0:0:0:
377,166,78365,1,10,2:0:0:0:
313,183,78437,1,0,3:0:0:0:
270,231,78508,1,10,2:0:0:0:
264,296,78580,1,4,3:2:0:0:
215,253,78651,1,10,2:0:0:0:
202,188,78723,1,0,3:0:0:0:
219,125,78794,1,10,2:0:0:0:
264,78,78865,1,0,3:0:0:0:
328,67,78937,1,10,2:0:0:0:
383,99,79008,5,6,1:0:0:0:
381,107,79079,1,10,2:0:0:0:
379,114,79151,1,0,3:0:0:0:
377,121,79223,1,10,2:0:0:0:
374,129,79294,1,0,3:0:0:0:
371,136,79365,1,10,2:0:0:0:
369,143,79436,1,0,3:0:0:0:
366,151,79508,1,10,2:0:0:0:
364,157,79580,1,0,3:0:0:0:
361,165,79651,1,10,2:0:0:0:
359,172,79722,1,0,3:0:0:0:
357,179,79794,1,10,2:0:0:0:
354,186,79865,5,0,3:2:0:0:
334,248,79937,1,10,2:0:0:0:
281,285,80008,1,0,3:0:0:0:
216,291,80079,1,10,2:0:0:0:
154,269,80151,1,0,3:0:0:0:
215,249,80222,1,10,2:0:0:0:
257,201,80293,1,0,3:0:0:0:
260,135,80365,1,10,2:0:0:0:
207,99,80436,1,0,3:0:0:0:
202,105,80508,1,10,2:0:0:0:
196,111,80579,1,0,3:0:0:0:
191,117,80651,1,10,2:0:0:0:
185,123,80722,5,4,1:2:0:0:
136,69,80793,1,0,3:0:0:0:
166,1,80865,1,8,3:2:0:0:
238,1,80936,1,8,3:2:0:0:
284,58,81008,1,8,3:2:0:0:
262,127,81079,1,8,3:2:0:0:
205,173,81151,5,8,3:0:0:0:
250,187,81222,1,8,3:0:0:0:
294,169,81293,1,8,3:2:0:0:
314,125,81365,1,8,3:2:0:0:
321,53,81436,5,4,3:0:0:0:
357,53,81508,1,4,3:0:0:0:
386,74,81579,1,8,3:2:0:0:
394,110,81651,1,0,3:0:0:0:
377,181,81722,5,8,3:0:0:0:
374,205,81793,1,0,3:0:0:0:
371,229,81865,1,4,3:0:0:0:
367,253,81936,1,0,3:0:0:0:
426,296,82008,2,0,L|441:390,5,80.9999975280763,8|8|4|4|8|8,1:3|3:0|3:0|3:0|3:0|3:0,0:0:0:0:
231,217,82437,5,2,1:2:0:0:
192,204,82508,1,0,3:2:0:0:
154,190,82579,1,0,3:2:0:0:
115,177,82651,1,0,3:2:0:0:
77,165,82722,1,0,3:2:0:0:
38,151,82794,1,0,3:2:0:0:
0,137,82865,2,0,L|11:60,1,45,10|0,3:2|0:0,0:0:0:0:
80,0,83008,2,0,L|91:77,1,45,0|0,3:2|0:0,0:0:0:0:
0,222,83151,2,0,L|48:283,1,45,0|0,3:2|0:0,0:0:0:0:
111,297,83294,5,2,3:2:0:0:
150,301,83365,1,0,3:2:0:0:
191,306,83436,1,0,3:2:0:0:
232,310,83508,1,0,3:2:0:0:
272,315,83579,1,0,3:2:0:0:
311,318,83651,1,0,3:2:0:0:
351,322,83723,2,0,L|342:244,1,45,10|0,3:2|0:0,0:0:0:0:
276,196,83865,2,0,L|353:186,1,45,0|0,3:2|0:0,0:0:0:0:
466,20,84008,2,0,L|430:47,1,45,0|0,3:2|0:0,0:0:0:0:
390,130,84151,5,2,3:2:0:0:
402,169,84222,1,0,3:2:0:0:
413,207,84293,1,0,3:2:0:0:
425,247,84365,1,0,3:2:0:0:
436,285,84436,1,0,3:2:0:0:
446,323,84508,1,0,3:2:0:0:
453,363,84580,2,0,L|525:332,1,45,10|0,3:2|0:0,0:0:0:0:
512,236,84723,2,0,L|465:173,1,45,0|0,3:2|0:0,0:0:0:0:
336,69,84865,2,0,L|259:60,1,45,0|0,3:2|0:0,0:0:0:0:
265,164,85008,5,2,3:2:0:0:
230,185,85080,1,0,3:2:0:0:
194,204,85151,1,0,3:2:0:0:
157,222,85223,1,0,3:2:0:0:
121,239,85294,1,0,3:2:0:0:
85,257,85365,1,0,3:2:0:0:
47,273,85437,2,0,L|38:350,1,45,10|0,3:2|0:0,0:0:0:0:
117,384,85580,2,0,L|163:321,1,45,0|0,3:2|0:0,0:0:0:0:
166,129,85723,2,0,L|160:173,1,45,0|0,3:2|0:0,0:0:0:0:
79,173,85865,5,2,3:2:0:0:
60,127,85937,1,0,3:2:0:0:
64,78,86008,1,0,3:2:0:0:
96,40,86080,1,0,3:2:0:0:
143,27,86151,1,0,3:2:0:0:
190,42,86223,1,0,3:2:0:0:
217,83,86294,2,0,L|207:160,1,45,10|0,3:2|0:0,0:0:0:0:
301,244,86437,2,0,L|274:208,1,45,0|0,3:2|0:0,0:0:0:0:
56,157,86580,2,0,L|61:201,1,45,0|0,3:2|0:0,0:0:0:0:
153,265,86723,5,2,3:2:0:0:
147,317,86794,1,0,3:2:0:0:
177,356,86865,1,0,3:2:0:0:
225,368,86937,1,0,3:2:0:0:
271,351,87008,1,0,3:2:0:0:
290,305,87080,1,0,3:2:0:0:
275,258,87151,2,0,L|243:183,1,45,10|0,3:2|0:0,0:0:0:0:
368,138,87294,2,0,L|337:213,1,45,0|0,3:2|0:0,0:0:0:0:
406,384,87437,2,0,L|412:339,1,45,0|0,3:2|0:0,0:0:0:0:
512,328,87580,5,2,3:2:0:0:
506,279,87651,1,0,3:2:0:0:
468,246,87723,1,0,3:2:0:0:
418,242,87794,1,0,3:2:0:0:
379,272,87865,1,0,3:2:0:0:
379,321,87937,1,0,3:2:0:0:
409,359,88008,1,10,3:2:0:0:
416,300,88080,1,0,3:2:0:0:
384,251,88151,1,0,3:2:0:0:
335,241,88223,1,0,3:2:0:0:
292,265,88294,1,0,3:2:0:0:
280,303,88365,1,0,3:2:0:0:
298,339,88437,5,8,3:0:0:0:
290,350,88508,1,0,3:2:0:0:
282,361,88580,1,4,3:0:0:0:
274,372,88651,5,0,3:2:0:0:
258,339,88723,1,0,3:2:0:0:
248,304,88794,1,0,3:2:0:0:
240,269,88865,1,8,3:0:0:0:
231,233,88937,1,0,3:0:0:0:
222,198,89008,5,4,3:0:0:0:
227,186,89080,1,0,3:2:0:0:
232,173,89151,1,0,3:2:0:0:
237,161,89223,1,0,3:2:0:0:
242,148,89294,5,2,1:2:0:0:
202,138,89365,1,0,3:2:0:0:
161,131,89437,1,0,3:2:0:0:
121,124,89508,1,0,3:2:0:0:
80,117,89580,1,0,3:2:0:0:
40,111,89651,1,0,3:2:0:0:
0,104,89723,2,0,L|66:76,1,45,10|0,3:2|0:0,0:0:0:0:
106,5,89865,2,0,L|172:31,1,45,0|0,3:2|0:0,0:0:0:0:
265,127,90008,2,0,L|271:172,1,45,0|0,3:2|0:0,0:0:0:0:
342,245,90151,5,2,3:2:0:0:
352,205,90222,1,0,3:2:0:0:
359,164,90294,1,0,3:2:0:0:
366,124,90365,1,0,3:2:0:0:
373,83,90437,1,0,3:2:0:0:
379,43,90508,1,0,3:2:0:0:
386,3,90580,2,0,L|414:69,1,45,10|0,3:2|0:0,0:0:0:0:
486,111,90723,2,0,L|476:181,1,45,0|0,3:2|0:0,0:0:0:0:
415,331,90865,2,0,L|387:397,1,45,0|0,3:2|0:0,0:0:0:0:
429,251,91008,5,2,3:2:0:0:
389,261,91079,1,0,3:2:0:0:
348,268,91151,1,0,3:2:0:0:
308,275,91222,1,0,3:2:0:0:
267,282,91294,1,0,3:2:0:0:
227,288,91365,1,0,3:2:0:0:
187,295,91437,2,0,L|121:267,1,45,10|0,3:2|0:0,0:0:0:0:
47,237,91580,2,0,L|41:192,1,45,0|0,3:2|0:0,0:0:0:0:
161,367,91723,2,0,L|119:384,1,45,0|0,3:2|0:0,0:0:0:0:
30,369,91865,5,2,3:2:0:0:
58,339,91936,1,0,3:2:0:0:
85,307,92008,1,0,3:2:0:0:
111,275,92079,1,0,3:2:0:0:
138,243,92151,1,0,3:2:0:0:
163,211,92222,1,0,3:2:0:0:
189,180,92294,2,0,L|260:188,1,45,10|0,3:2|0:0,0:0:0:0:
288,279,92437,2,0,L|359:270,1,45,0|0,3:2|0:0,0:0:0:0:
503,97,92580,2,0,L|476:133,1,45,0|0,3:2|0:0,0:0:0:0:
512,260,92723,5,2,3:2:0:0:
479,223,92794,1,0,3:2:0:0:
432,210,92865,1,0,3:2:0:0:
387,231,92937,1,0,3:2:0:0:
356,268,93008,1,0,3:2:0:0:
355,317,93080,1,0,3:2:0:0:
385,357,93151,2,0,L|413:293,1,45,10|0,3:2|0:0,0:0:0:0:
276,301,93294,2,0,L|264:232,1,45,0|0,3:2|0:0,0:0:0:0:
381,81,93437,2,0,L|369:149,1,45,0|0,3:2|0:0,0:0:0:0:
278,163,93580,5,2,3:2:0:0:
232,181,93651,1,0,3:2:0:0:
182,171,93723,1,0,3:2:0:0:
146,136,93794,1,0,3:2:0:0:
141,87,93865,1,0,3:2:0:0:
160,41,93937,1,0,3:2:0:0:
203,18,94008,2,0,L|134:6,1,45,10|0,3:2|0:0,0:0:0:0:
36,74,94151,2,0,L|-20:114,1,45,0|0,3:2|0:0,0:0:0:0:
87,340,94294,2,0,L|98:408,1,45,0|0,3:2|0:0,0:0:0:0:
0,325,94437,5,8,3:2:0:0:
34,278,94508,1,8,3:2:0:0:
90,262,94580,1,0,3:0:0:0:
147,266,94651,5,0,3:0:0:0:
159,278,94723,1,8,3:0:0:0:
171,290,94794,1,4,3:0:0:0:
182,303,94865,1,0,3:0:0:0:
195,314,94937,1,0,3:0:0:0:
208,326,95008,5,8,3:2:0:0:
216,276,95080,1,8,3:2:0:0:
223,227,95151,1,8,3:2:0:0:
230,177,95223,1,8,3:2:0:0:
235,128,95294,5,0,3:0:0:0:
238,130,95365,1,0,3:0:0:0:
241,133,95437,1,8,3:0:0:0:
244,136,95508,1,4,3:0:0:0:
247,139,95580,1,0,3:0:0:0:
250,142,95651,1,0,3:0:0:0:
253,144,95723,6,0,L|301:193,1,45,4|0,3:1|0:0,0:0:0:0:
512,381,95865,2,0,L|464:332,1,45,10|0,3:2|0:0,0:0:0:0:
346,221,96008,2,0,L|334:177,1,45,10|0,3:2|0:0,0:0:0:0:
512,54,96151,5,14,1:2:0:0:
463,43,96222,2,0,L|450:-12,4,45
512,136,96579,5,2,0:0:0:0:
501,87,96650,2,0,L|446:74,4,45
360,153,97008,5,2,0:0:0:0:
409,142,97079,2,0,L|422:87,4,45
356,274,97436,6,0,P|267:260|226:207,1,135,10|0,1:2|0:0,0:0:0:0:
247,99,97722,2,0,L|203:55,1,45,10|0,1:2|0:0,0:0:0:0:
3,79,97865,5,2,0:0:0:0:
3,83,97936,1,0,0:0:0:0:
4,87,98008,1,0,0:0:0:0:
4,91,98079,1,0,0:0:0:0:
4,95,98151,1,0,0:0:0:0:
4,99,98222,1,0,0:0:0:0:
4,104,98293,6,0,P|76:157|149:149,1,161.999995056153,10|0,1:2|0:0,0:0:0:0:
86,313,98579,2,0,L|106:410,1,53.9999983520508,10|0,1:2|0:0,0:0:0:0:
290,384,98722,5,4,1:2:0:0:
321,366,98793,5,0,3:2:0:0:
313,344,98865,1,0,0:0:0:0:
305,322,98936,1,0,3:2:0:0:
298,300,99008,1,0,3:2:0:0:
292,278,99079,1,0,3:2:0:0:
282,244,99151,5,10,3:2:0:0:
249,275,99222,5,0,3:2:0:0:
227,280,99293,1,0,0:0:0:0:
204,285,99365,1,0,3:2:0:0:
182,289,99436,1,0,3:2:0:0:
159,294,99508,1,0,3:2:0:0:
124,301,99579,5,10,3:2:0:0:
146,273,99651,5,0,3:2:0:0:
150,251,99722,1,0,0:0:0:0:
154,229,99793,1,0,3:2:0:0:
157,206,99865,1,0,3:2:0:0:
160,183,99936,1,0,3:2:0:0:
164,160,100008,6,0,P|248:127|310:153,1,135,6|0,3:2|0:0,0:0:0:0:
319,241,100293,2,0,L|363:285,1,45,4|0,3:2|0:0,0:0:0:0:
467,384,100436,5,10,3:2:0:0:
470,361,100508,1,0,3:2:0:0:
473,338,100579,1,0,3:2:0:0:
476,315,100651,1,0,3:2:0:0:
480,293,100722,1,0,3:2:0:0:
484,271,100793,1,0,3:2:0:0:
488,248,100865,6,0,P|451:165|385:136,1,161.999995056153,6|0,3:2|0:0,0:0:0:0:
250,153,101151,2,0,L|233:92,1,53.9999983520508,4|0,3:2|0:0,0:0:0:0:
423,22,101293,5,2,1:2:0:0:
389,64,101365,1,8,3:2:0:0:
339,85,101436,1,2,3:2:0:0:
284,82,101508,1,8,3:2:0:0:
231,71,101579,1,2,3:2:0:0:
183,43,101651,1,8,3:2:0:0:
150,1,101722,5,2,3:2:0:0:
120,45,101793,1,8,3:2:0:0:
111,98,101865,1,2,3:2:0:0:
124,149,101936,1,8,3:2:0:0:
154,193,102008,1,2,3:2:0:0:
200,220,102079,1,8,3:2:0:0:
253,229,102151,5,2,3:2:0:0:
218,187,102222,1,8,3:2:0:0:
165,173,102293,1,2,3:2:0:0:
111,180,102365,1,8,3:2:0:0:
69,213,102436,1,2,3:2:0:0:
55,265,102508,1,0,3:2:0:0:
62,318,102579,6,0,P|151:332|196:388,1,161.999995056153,4|0,3:2|3:0,0:0:0:0:
150,214,102865,2,0,L|121:151,1,53.9999983520508,4|0,3:2|0:0,0:0:0:0:
0,138,103008,1,8,3:2:0:0:
12,116,103079,1,2,3:2:0:0:
23,93,103151,1,8,3:2:0:0:
33,70,103222,1,2,3:2:0:0:
44,47,103293,1,8,3:2:0:0:
55,24,103365,1,0,3:2:0:0:
65,0,103436,6,0,P|82:77|147:123,1,161.999995056153,4|0,3:2|3:0,0:0:0:0:
368,49,103722,2,0,L|302:24,1,53.9999983520508,4|0,3:2|0:0,0:0:0:0:
224,157,103865,5,2,1:2:0:0:
207,207,103936,1,8,3:2:0:0:
204,261,104008,1,2,3:2:0:0:
215,313,104079,1,8,3:2:0:0:
250,354,104151,1,2,3:2:0:0:
297,379,104222,1,8,3:2:0:0:
350,384,104293,5,2,3:2:0:0:
336,331,104365,1,8,3:2:0:0:
345,278,104436,1,2,3:2:0:0:
380,236,104508,1,8,3:2:0:0:
433,228,104579,1,2,3:2:0:0:
485,242,104651,1,8,3:2:0:0:
512,288,104722,5,2,3:2:0:0:
458,290,104793,1,8,3:2:0:0:
420,250,104865,1,2,3:2:0:0:
414,196,104936,1,8,3:2:0:0:
426,142,105008,1,2,3:2:0:0:
456,98,105079,1,0,3:2:0:0:
508,84,105151,6,0,P|430:66|384:1,1,161.999995056153,4|0,3:2|3:0,0:0:0:0:
376,201,105436,2,0,L|400:266,1,53.9999983520508,4|0,3:2|0:0,0:0:0:0:
273,362,105579,5,8,3:2:0:0:
248,358,105651,1,2,3:2:0:0:
222,354,105722,1,8,3:2:0:0:
197,350,105793,1,2,3:2:0:0:
171,347,105865,1,8,3:2:0:0:
146,344,105936,1,0,3:2:0:0:
120,341,106008,5,4,3:2:0:0:
138,290,106079,1,0,3:2:0:0:
98,252,106151,1,0,3:0:0:0:
83,200,106222,1,0,3:0:0:0:
114,156,106293,2,0,L|125:87,1,53.9999983520508,4|0,3:2|3:2,0:0:0:0:
298,0,106436,5,2,1:2:0:0:
304,53,106508,1,8,3:2:0:0:
278,100,106579,1,2,3:2:0:0:
228,121,106651,1,8,3:2:0:0:
174,118,106722,1,2,3:2:0:0:
135,80,106793,1,8,3:2:0:0:
130,25,106865,5,2,3:2:0:0:
96,66,106936,1,8,3:2:0:0:
97,120,107008,1,2,3:2:0:0:
135,157,107079,1,8,3:2:0:0:
188,167,107151,1,2,3:2:0:0:
238,147,107222,1,8,3:2:0:0:
256,96,107293,5,2,3:2:0:0:
210,125,107365,1,8,3:2:0:0:
201,178,107436,1,2,3:2:0:0:
222,227,107508,1,8,3:2:0:0:
268,254,107579,1,2,3:2:0:0:
320,238,107651,1,0,3:2:0:0:
350,193,107722,6,0,P|368:113|433:68,1,161.999995056153,4|0,3:2|3:0,0:0:0:0:
431,250,108008,2,0,L|407:315,1,53.9999983520508,4|0,3:2|0:0,0:0:0:0:
255,361,108151,5,8,3:2:0:0:
249,336,108222,1,2,3:2:0:0:
245,311,108293,1,8,3:2:0:0:
241,286,108365,1,2,3:2:0:0:
236,261,108436,1,8,3:2:0:0:
231,236,108508,1,0,3:2:0:0:
226,211,108579,6,0,P|158:168|79:182,1,161.999995056153,4|0,3:2|3:0,0:0:0:0:
22,351,108865,2,0,L|87:375,1,53.9999983520508,4|0,3:2|0:0,0:0:0:0:
286,336,109008,5,4,1:0:0:0:
325,373,109079,5,0,3:1:0:0:
330,373,109151,1,0,3:0:0:0:
335,373,109222,1,4,3:0:0:0:
340,373,109293,1,4,3:0:0:0:
345,373,109365,1,8,3:0:0:0:
395,369,109436,5,0,3:0:0:0:
348,347,109508,5,0,3:0:0:0:
346,341,109579,1,0,3:0:0:0:
344,335,109651,1,4,3:0:0:0:
342,329,109722,1,4,3:0:0:0:
340,323,109793,1,8,3:0:0:0:
331,273,109865,5,0,3:0:0:0:
381,275,109936,5,0,3:0:0:0:
383,270,110008,1,0,3:0:0:0:
385,265,110079,1,4,3:0:0:0:
387,260,110151,1,4,3:0:0:0:
389,255,110222,1,8,3:0:0:0:
392,250,110293,6,0,P|337:191|258:184,1,161.999995056153,4|0,3:2|3:0,0:0:0:0:
462,103,110579,2,0,L|527:79,1,53.9999983520508,4|0,3:2|0:0,0:0:0:0:
288,1,110722,1,8,3:0:0:0:
283,27,110793,1,4,3:0:0:0:
280,53,110865,1,4,3:0:0:0:
276,79,110936,1,0,3:0:0:0:
272,104,111008,1,0,3:0:0:0:
268,129,111079,1,0,3:0:0:0:
263,154,111151,6,0,P|208:212|129:219,1,161.999995056153,4|0,3:2|3:0,0:0:0:0:
0,107,111436,2,0,L|24:42,1,53.9999983520508,4|0,3:2|0:0,0:0:0:0:
250,0,111579,6,0,B|350:24|421:68|431:153|418:221|418:221|371:322|219:333|219:333|307:173|399:181|485:205|485:205|522:176|509:96,1,978.75,6|0,1:0|0:0,0:0:0:0:
393,0,114793,1,0,3:0:0:0:
332,44,114900,1,0,3:0:0:0:
312,116,115007,6,0,B|398:122|402:189|400:195|398:200|438:267|505:280|505:280|351:242|255:346|255:346|194:333|157:292|128:215|190:172|190:172|246:180|264:267|158:334,1,978.75,6|0,1:0|0:0,0:0:0:0:
82,365,118221,1,0,3:0:0:0:
67,372,118328,1,0,3:0:0:0:
47,380,118436,5,0,3:0:0:0:
13,302,118579,1,0,3:0:0:0:
51,232,118721,1,0,3:0:0:0:
27,97,118864,1,0,3:0:0:0:
99,131,119007,1,0,3:0:0:0:
153,77,119150,1,0,3:0:0:0:
197,142,119293,1,0,3:0:0:0:
172,50,119436,1,0,3:0:0:0:
206,31,119507,1,0,3:0:0:0:
249,38,119579,1,0,3:0:0:0:
304,92,119721,1,0,3:0:0:0:
374,58,119864,1,0,3:0:0:0:
467,142,120007,1,0,3:0:0:0:
512,79,120150,1,0,3:0:0:0:
469,16,120293,1,0,3:0:0:0:
394,38,120436,1,0,3:0:0:0:
324,4,120579,1,0,3:0:0:0:
365,68,120721,1,0,3:0:0:0:
318,132,120864,1,0,3:0:0:0:
368,192,121007,1,0,3:0:0:0:
417,134,121150,1,0,3:0:0:0:
458,143,121221,1,0,3:0:0:0:
480,178,121293,1,0,3:0:0:0:
467,249,121436,1,0,3:0:0:0:
398,284,121579,1,0,3:0:0:0:
390,359,121721,1,0,3:0:0:0:
354,290,121864,5,2,1:2:0:0:
56,364,122007,1,0,3:0:0:0:
55,361,122079,1,0,3:0:0:0:
54,358,122150,1,8,3:0:0:0:
44,314,122221,1,8,3:0:0:0:
54,279,122293,1,0,3:0:0:0:
79,254,122364,1,0,3:0:0:0:
106,256,122436,1,4,3:0:0:0:
117,269,122507,1,4,3:0:0:0:
126,284,122579,1,0,3:0:0:0:
128,301,122650,1,0,3:0:0:0:
123,318,122721,5,2,1:2:0:0:
239,67,122864,1,0,3:0:0:0:
240,69,122936,1,0,3:0:0:0:
241,71,123007,1,8,3:0:0:0:
276,81,123079,1,8,3:0:0:0:
293,102,123150,1,0,3:0:0:0:
293,120,123221,1,0,3:0:0:0:
288,128,123293,1,4,3:0:0:0:
263,117,123364,1,4,3:0:0:0:
244,116,123436,1,0,3:0:0:0:
235,118,123507,1,0,3:0:0:0:
235,118,123579,1,0,1:0:0:0:
172,53,123793,1,0,0:0:0:0:
172,53,123864,2,0,L|137:42,1,22.5,4|8,3:0|3:0,0:0:0:0:
0,23,124007,5,8,3:2:0:0:
41,353,124221,1,0,0:0:0:0:
41,353,124293,2,0,L|35:375,1,22.5,4|8,3:0|3:0,0:0:0:0:
0,287,124436,1,8,3:2:0:0:
109,250,124579,1,8,3:2:0:0:
191,338,124721,1,8,3:2:0:0:
350,91,124864,2,0,L|363:26,2,45,10|0|0,3:2|0:0|0:0,0:0:0:0:
420,242,125293,5,4,3:2:0:0:
512,280,125436,1,0,3:0:0:0:
415,275,125579,1,0,1:2:0:0:
372,339,125721,1,10,3:2:0:0:
284,329,125864,1,0,3:0:0:0:
367,372,126007,1,0,3:0:0:0:
291,374,126150,1,2,3:2:0:0:
340,261,126293,1,0,3:0:0:0:
324,219,126364,1,0,3:0:0:0:
282,202,126436,1,0,3:0:0:0:
191,198,126579,1,10,3:2:0:0:
117,251,126721,1,0,3:0:0:0:
43,302,126864,1,0,3:0:0:0:
0,145,127007,5,2,3:2:0:0:
52,56,127149,1,0,3:0:0:0:
40,155,127292,1,0,3:0:0:0:
107,192,127436,1,10,3:2:0:0:
131,95,127578,1,0,3:0:0:0:
148,192,127721,1,0,3:0:0:0:
194,136,127864,5,2,3:2:0:0:
272,187,128007,1,0,3:0:0:0:
398,183,128150,1,0,3:0:0:0:
359,249,128293,5,10,3:2:0:0:
419,68,128436,1,0,3:0:0:0:
339,9,128579,1,0,3:0:0:0:
384,70,128721,5,2,1:2:0:0:
300,109,128863,1,0,3:0:0:0:
401,113,129006,1,0,3:0:0:0:
473,140,129150,1,10,3:2:0:0:
370,189,129292,1,0,3:0:0:0:
483,179,129435,1,0,3:0:0:0:
448,114,129579,1,2,3:2:0:0:
354,218,129721,1,0,3:0:0:0:
310,233,129793,1,0,3:0:0:0:
277,200,129864,1,0,3:0:0:0:
305,115,130007,1,10,3:2:0:0:
370,189,130150,1,0,3:0:0:0:
440,260,130293,1,0,3:0:0:0:
328,366,130436,5,2,3:2:0:0:
334,267,130578,1,0,3:0:0:0:
294,357,130721,1,0,3:0:0:0:
219,381,130864,1,10,3:2:0:0:
181,291,131006,1,0,3:0:0:0:
188,384,131149,1,0,3:0:0:0:
221,288,131293,5,2,3:2:0:0:
139,224,131436,1,0,3:2:0:0:
53,322,131579,1,0,3:2:0:0:
213,255,131721,5,10,3:2:0:0:
117,91,131864,1,8,3:2:0:0:
209,272,132007,1,8,3:2:0:0:
189,346,132151,5,4,1:2:0:0:
90,343,132293,1,0,3:0:0:0:
185,304,132436,1,0,3:0:0:0:
209,231,132579,1,10,3:2:0:0:
119,262,132721,1,0,3:0:0:0:
187,195,132864,1,0,3:0:0:0:
261,219,133007,1,2,3:2:0:0:
275,78,133150,1,0,3:0:0:0:
247,40,133221,1,0,3:0:0:0:
204,48,133293,1,0,3:0:0:0:
167,118,133436,1,10,3:2:0:0:
268,109,133579,1,0,3:0:0:0:
369,97,133721,1,0,3:0:0:0:
512,183,133864,5,2,3:2:0:0:
461,268,134006,1,0,3:0:0:0:
472,173,134149,1,0,3:0:0:0:
398,183,134293,5,10,3:2:0:0:
416,282,134435,1,0,3:0:0:0:
359,194,134578,1,0,3:0:0:0:
464,143,134721,5,2,3:2:0:0:
390,212,134864,1,0,3:0:0:0:
264,177,135007,1,0,3:0:0:0:
188,261,135150,5,10,3:2:0:0:
152,21,135293,1,0,3:0:0:0:
5,107,135436,1,0,3:0:0:0:
69,163,135579,6,0,L|60:207,1,45,2|4,1:2|3:0,0:0:0:0:
23,365,135721,1,0,3:0:0:0:
24,372,135793,1,0,3:0:0:0:
26,379,135864,1,8,3:0:0:0:
62,384,135936,1,8,3:0:0:0:
90,362,136007,1,0,3:0:0:0:
67,329,136079,1,0,3:0:0:0:
66,293,136150,1,4,3:0:0:0:
85,262,136221,1,4,3:0:0:0:
119,249,136293,1,0,3:0:0:0:
126,249,136364,1,0,3:0:0:0:
133,250,136436,6,0,L|129:302,1,45,2|4,1:2|3:0,0:0:0:0:
252,353,136579,1,0,3:0:0:0:
296,382,136650,1,0,3:0:0:0:
350,374,136722,1,8,3:0:0:0:
314,368,136793,1,8,3:0:0:0:
300,336,136864,1,0,3:0:0:0:
302,299,136936,1,0,3:0:0:0:
320,269,137007,1,4,3:0:0:0:
348,247,137079,1,4,3:0:0:0:
382,240,137150,1,0,3:0:0:0:
417,242,137221,1,0,3:0:0:0:
447,261,137293,6,0,L|463:209,1,45,2|0,1:2|0:0,0:0:0:0:
485,141,137436,1,0,3:0:0:0:
512,43,137579,1,4,3:0:0:0:
355,192,137721,1,0,3:0:0:0:
385,95,137864,1,4,3:0:0:0:
412,0,138007,1,0,3:0:0:0:
200,85,138150,5,2,3:2:0:0:
185,95,138292,1,8,3:2:0:0:
170,104,138435,1,8,3:2:0:0:
153,110,138578,1,8,3:2:0:0:
135,114,138721,1,8,3:2:0:0:
117,114,138864,1,8,3:2:0:0:
23,23,139007,5,6,1:0:0:0:
13,48,139078,1,0,3:2:0:0:
10,74,139149,1,0,3:2:0:0:
14,100,139221,1,0,3:2:0:0:
23,125,139292,1,0,3:2:0:0:
39,146,139364,1,0,3:2:0:0:
59,162,139435,1,0,3:2:0:0:
19,199,139507,1,0,3:2:0:0:
11,252,139578,1,10,3:2:0:0:
31,301,139649,1,0,3:2:0:0:
79,324,139721,1,0,3:2:0:0:
132,316,139792,1,0,3:2:0:0:
170,277,139864,1,0,3:2:0:0:
129,278,139935,1,0,3:2:0:0:
99,249,140007,1,0,3:2:0:0:
90,209,140078,1,0,3:2:0:0:
96,169,140149,5,2,1:2:0:0:
118,183,140221,1,0,3:2:0:0:
134,203,140292,1,0,3:2:0:0:
144,228,140364,1,0,3:2:0:0:
145,254,140435,1,0,3:2:0:0:
136,279,140507,1,0,3:2:0:0:
114,295,140578,1,0,3:2:0:0:
137,343,140649,1,0,3:2:0:0:
184,368,140721,1,10,3:2:0:0:
236,378,140792,1,0,3:2:0:0:
290,377,140864,1,0,3:2:0:0:
340,358,140935,1,0,3:2:0:0:
383,325,141007,1,0,3:2:0:0:
348,326,141078,1,0,3:2:0:0:
306,313,141149,1,0,3:2:0:0:
298,272,141221,1,0,3:2:0:0:
309,233,141292,5,6,1:2:0:0:
333,257,141364,1,0,3:2:0:0:
366,261,141435,1,0,3:2:0:0:
398,250,141507,1,0,3:2:0:0:
418,223,141578,1,0,3:2:0:0:
422,189,141649,1,0,3:2:0:0:
409,157,141721,1,0,3:2:0:0:
358,189,141792,1,0,3:2:0:0:
297,181,141864,1,10,3:2:0:0:
261,132,141935,1,0,3:2:0:0:
267,71,142007,1,0,3:2:0:0:
311,30,142078,1,0,3:2:0:0:
372,28,142149,1,0,3:2:0:0:
338,62,142221,1,0,3:2:0:0:
336,108,142292,1,0,3:2:0:0:
358,150,142364,1,0,3:2:0:0:
402,166,142435,5,2,1:2:0:0:
385,136,142507,1,0,3:2:0:0:
392,103,142578,1,0,3:2:0:0:
412,76,142649,1,0,3:2:0:0:
444,66,142721,1,0,3:2:0:0:
476,74,142792,1,0,3:2:0:0:
500,97,142864,1,0,3:2:0:0:
446,125,142935,1,0,3:2:0:0:
414,177,143007,1,10,3:2:0:0:
405,236,143078,1,0,3:2:0:0:
415,295,143149,1,0,3:2:0:0:
442,349,143221,1,0,3:2:0:0:
495,377,143292,1,0,3:2:0:0:
479,346,143364,1,0,3:2:0:0:
472,313,143435,1,0,3:2:0:0:
472,278,143507,1,0,3:2:0:0:
478,245,143578,5,4,1:0:0:0:
496,264,143649,1,0,3:2:0:0:
505,289,143721,1,0,3:2:0:0:
501,315,143792,1,0,3:2:0:0:
492,340,143864,1,0,3:2:0:0:
474,360,143935,1,0,3:2:0:0:
451,374,144007,1,0,3:2:0:0:
428,325,144078,1,0,3:2:0:0:
381,297,144149,1,10,3:2:0:0:
328,283,144221,1,0,3:2:0:0:
275,293,144292,1,0,3:2:0:0:
231,325,144364,1,0,3:2:0:0:
211,375,144435,1,0,3:2:0:0:
243,350,144507,1,0,3:2:0:0:
282,341,144578,1,0,3:2:0:0:
321,346,144649,1,0,3:2:0:0:
354,369,144721,5,2,1:2:0:0:
328,377,144792,1,0,3:2:0:0:
300,375,144864,1,0,3:2:0:0:
278,359,144935,1,0,3:2:0:0:
269,333,145007,1,0,3:2:0:0:
274,306,145078,1,0,3:2:0:0:
292,286,145149,1,0,3:2:0:0:
247,254,145221,1,0,3:2:0:0:
193,254,145292,1,10,3:2:0:0:
143,277,145364,1,0,3:2:0:0:
90,285,145435,1,0,3:2:0:0:
36,272,145507,1,0,3:2:0:0:
0,231,145578,1,0,3:2:0:0:
40,235,145649,1,0,3:2:0:0:
79,223,145721,1,0,3:2:0:0:
106,193,145792,1,0,3:2:0:0:
116,153,145864,5,6,1:2:0:0:
87,170,145935,1,0,3:2:0:0:
75,202,146007,1,0,3:2:0:0:
81,234,146078,1,0,3:2:0:0:
103,258,146149,1,0,3:2:0:0:
134,271,146221,1,0,3:2:0:0:
166,263,146292,1,0,3:2:0:0:
167,324,146364,1,0,3:2:0:0:
132,373,146435,1,10,3:2:0:0:
71,382,146507,1,0,3:2:0:0:
14,359,146578,1,0,3:2:0:0:
0,300,146649,1,0,3:2:0:0:
26,244,146721,1,0,3:2:0:0:
55,280,146792,1,0,3:2:0:0:
100,292,146864,1,0,3:2:0:0:
144,276,146935,1,0,3:2:0:0:
168,235,147007,5,2,1:2:0:0:
198,248,147078,1,0,3:2:0:0:
218,274,147149,1,0,3:2:0:0:
224,307,147221,1,0,3:2:0:0:
214,339,147292,1,0,3:2:0:0:
189,363,147364,1,0,3:2:0:0:
155,367,147435,1,0,3:2:0:0:
166,306,147507,1,0,3:2:0:0:
209,263,147578,1,10,3:2:0:0:
266,244,147649,1,0,3:2:0:0:
327,246,147721,1,0,3:2:0:0:
385,231,147792,1,0,3:2:0:0:
427,186,147864,1,0,3:2:0:0:
401,164,147935,1,0,3:2:0:0:
392,131,148007,1,0,3:2:0:0:
395,97,148078,1,0,3:2:0:0:
412,68,148149,5,6,1:0:0:0:
401,62,148221,1,0,3:2:0:0:
389,59,148292,1,0,3:2:0:0:
376,58,148364,1,0,3:2:0:0:
363,58,148435,1,0,3:2:0:0:
350,60,148507,1,0,3:2:0:0:
338,67,148578,1,0,3:2:0:0:
357,94,148649,1,0,3:2:0:0:
363,127,148721,1,10,3:2:0:0:
359,160,148792,1,0,3:2:0:0:
344,190,148864,1,0,3:2:0:0:
313,204,148935,1,0,3:2:0:0:
279,202,149007,1,0,3:2:0:0:
277,242,149078,1,0,3:2:0:0:
295,277,149149,1,0,3:2:0:0:
332,292,149221,1,0,3:2:0:0:
370,280,149292,5,2,1:2:0:0:
367,252,149364,1,0,3:2:0:0:
375,226,149435,1,0,3:2:0:0:
393,206,149507,1,0,3:2:0:0:
417,194,149578,1,0,3:2:0:0:
443,194,149649,1,0,3:2:0:0:
468,203,149721,1,0,3:2:0:0:
451,254,149792,1,0,3:2:0:0:
409,289,149864,1,10,3:2:0:0:
357,303,149935,1,0,3:2:0:0:
302,299,150007,1,0,3:2:0:0:
252,278,150078,1,0,3:2:0:0:
228,229,150149,1,0,3:2:0:0:
219,268,150221,1,0,3:2:0:0:
222,308,150292,1,0,3:2:0:0:
239,345,150364,1,0,3:2:0:0:
269,373,150435,5,6,1:2:0:0:
274,353,150507,1,0,3:2:0:0:
271,332,150578,1,0,3:2:0:0:
264,312,150649,1,0,3:2:0:0:
251,295,150721,1,0,3:2:0:0:
234,283,150792,1,0,3:2:0:0:
214,278,150864,1,0,3:2:0:0:
238,222,150935,1,0,3:2:0:0:
227,161,151007,1,10,3:2:0:0:
178,125,151078,1,0,3:2:0:0:
117,129,151149,1,0,3:2:0:0:
76,174,151221,1,0,3:2:0:0:
84,233,151292,1,0,3:2:0:0:
104,189,151364,1,0,3:2:0:0:
146,167,151435,1,0,3:2:0:0:
193,172,151507,1,0,3:2:0:0:
225,206,151578,5,2,1:2:0:0:
191,206,151649,1,0,3:2:0:0:
160,220,151721,1,0,3:2:0:0:
136,243,151792,1,0,3:2:0:0:
121,273,151864,1,0,3:2:0:0:
117,306,151935,1,0,3:2:0:0:
121,339,152007,1,0,3:2:0:0:
88,288,152078,1,0,3:2:0:0:
33,260,152149,1,10,3:2:0:0:
15,201,152221,1,0,3:2:0:0:
30,142,152292,1,0,3:2:0:0:
72,98,152364,1,0,3:2:0:0:
130,84,152435,1,0,3:2:0:0:
117,129,152507,1,0,3:2:0:0:
138,170,152578,1,0,3:2:0:0:
180,190,152649,1,0,3:2:0:0:
221,166,152721,5,4,1:0:0:0:
207,164,152792,1,0,3:2:0:0:
193,165,152864,1,0,3:2:0:0:
181,171,152935,1,0,3:2:0:0:
174,183,153007,1,0,3:2:0:0:
170,196,153078,1,0,3:2:0:0:
170,209,153149,1,0,3:2:0:0:
217,182,153221,1,0,3:2:0:0:
270,182,153292,1,10,3:2:0:0:
321,198,153364,1,0,3:2:0:0:
362,231,153435,1,0,3:2:0:0:
415,241,153507,1,0,3:2:0:0:
461,214,153578,1,0,3:2:0:0:
458,254,153649,1,0,3:2:0:0:
442,292,153721,1,0,3:2:0:0:
414,322,153792,1,0,3:2:0:0:
375,336,153864,5,2,1:2:0:0:
371,310,153935,1,0,3:2:0:0:
383,286,154007,1,0,3:2:0:0:
404,271,154078,1,0,3:2:0:0:
431,273,154149,1,0,3:2:0:0:
453,290,154221,1,0,3:2:0:0:
459,317,154292,1,0,3:2:0:0:
497,278,154364,1,0,3:2:0:0:
507,225,154435,1,10,3:2:0:0:
503,170,154507,1,0,3:2:0:0:
485,119,154578,1,0,3:2:0:0:
457,72,154649,1,0,3:2:0:0:
412,38,154721,1,0,3:2:0:0:
416,79,154792,1,0,3:2:0:0:
397,115,154864,1,0,3:2:0:0:
365,139,154935,1,0,3:2:0:0:
325,147,155007,6,0,L|241:121,1,67.5,4|0,1:0|3:2,0:0:0:0:
79,112,155149,1,8,3:2:0:0:
66,106,155221,1,8,3:2:0:0:
55,97,155292,1,8,3:2:0:0:
48,85,155364,1,0,3:2:0:0:
45,71,155435,6,0,L|71:155,3,67.5,4|0|0|0,3:2|3:2|3:0|3:0,0:0:0:0:
1,283,155721,1,8,3:2:0:0:
41,309,155792,1,8,3:2:0:0:
82,335,155864,5,8,3:0:0:0:
80,341,155935,1,0,3:2:0:0:
78,347,156007,1,8,3:2:0:0:
76,353,156078,1,8,3:2:0:0:
128,384,156149,5,8,3:0:0:0:
130,378,156220,1,0,3:2:0:0:
132,372,156292,1,8,3:2:0:0:
134,366,156364,1,8,3:2:0:0:
126,305,156435,5,4,3:0:0:0:
128,299,156507,1,0,3:2:0:0:
130,293,156578,1,0,3:2:0:0:
132,286,156649,1,0,3:2:0:0:
174,285,156721,5,4,3:0:0:0:
176,278,156792,1,0,3:2:0:0:
178,271,156864,1,0,3:2:0:0:
180,264,156935,1,0,3:2:0:0:
153,231,157007,5,4,3:0:0:0:
199,192,157078,1,0,3:2:0:0:
248,157,157149,1,0,3:2:0:0:
300,125,157221,1,0,3:2:0:0:
351,93,157292,6,0,B|401:133|380:188|377:196|374:205|346:258|451:338|451:338|357:275|221:292,1,517.5,2|0,1:0|0:0,0:0:0:0:
65,288,159006,6,0,B|1:227|-39:133|16:53|16:53|113:41|131:119|131:124|131:129|185:188|249:155,1,517.5,4|0,1:2|0:0,0:0:0:0:
271,305,160720,6,0,B|366:186|510:152|510:152|398:164|276:98,1,517.5,6|0,1:0|0:0,0:0:0:0:
172,24,162434,5,4,1:2:0:0:
139,56,162506,1,0,3:0:0:0:
124,98,162577,1,8,3:2:0:0:
127,143,162649,1,8,3:2:0:0:
149,181,162720,1,8,3:2:0:0:
153,226,162792,1,8,3:2:0:0:
138,268,162863,5,8,3:0:0:0:
120,263,162934,1,0,3:2:0:0:
102,265,163006,1,4,3:0:0:0:
86,274,163077,1,0,3:2:0:0:
77,290,163149,1,0,3:2:0:0:
77,307,163220,1,0,3:2:0:0:
85,323,163292,5,6,3:2:0:0:
119,331,163363,1,0,3:2:0:0:
153,338,163434,1,10,3:2:0:0:
188,347,163506,1,0,3:2:0:0:
222,355,163577,1,2,3:2:0:0:
257,363,163649,1,0,3:2:0:0:
292,371,163720,2,0,L|312:309,5,45,4|0|2|0|2|0,3:1|3:2|3:2|3:2|3:2|3:2,0:0:0:0:
476,312,164149,5,6,1:2:0:0:
480,299,164220,1,0,3:2:0:0:
480,285,164292,1,0,3:2:0:0:
476,272,164363,1,0,3:2:0:0:
466,262,164434,1,0,3:2:0:0:
452,258,164506,1,0,3:2:0:0:
439,262,164577,1,10,3:2:0:0:
421,276,164649,1,0,3:2:0:0:
402,288,164720,1,0,3:2:0:0:
380,293,164792,1,0,3:2:0:0:
357,289,164863,1,0,3:2:0:0:
338,276,164934,1,0,3:2:0:0:
325,257,165006,1,2,3:2:0:0:
316,226,165077,1,0,3:2:0:0:
321,194,165149,1,0,3:2:0:0:
338,168,165220,1,0,3:2:0:0:
368,159,165292,1,0,3:2:0:0:
398,167,165363,1,0,3:2:0:0:
422,187,165434,1,10,3:2:0:0:
462,186,165506,1,0,3:2:0:0:
486,154,165577,1,0,3:2:0:0:
479,113,165649,1,0,3:2:0:0:
446,88,165720,1,0,3:2:0:0:
405,89,165792,1,0,3:2:0:0:
370,109,165863,5,4,3:1:0:0:
387,63,165934,1,0,3:2:0:0:
360,20,166006,1,0,3:2:0:0:
311,12,166077,1,0,3:2:0:0:
269,40,166149,1,0,3:2:0:0:
249,84,166220,1,0,3:2:0:0:
252,133,166292,1,10,3:2:0:0:
237,170,166363,1,0,3:2:0:0:
203,191,166434,1,0,3:2:0:0:
162,183,166506,1,0,3:2:0:0:
130,157,166577,1,0,3:2:0:0:
123,116,166649,1,0,3:2:0:0:
137,78,166720,1,2,3:2:0:0:
167,68,166792,1,0,3:2:0:0:
195,80,166863,1,0,3:2:0:0:
210,107,166934,1,0,3:2:0:0:
205,138,167006,1,0,3:2:0:0:
182,160,167077,1,0,3:2:0:0:
150,162,167149,1,10,3:2:0:0:
133,177,167220,1,0,3:2:0:0:
129,199,167292,1,0,3:2:0:0:
132,221,167363,1,0,3:2:0:0:
143,240,167434,1,0,3:2:0:0:
159,255,167506,1,0,3:2:0:0:
180,261,167577,5,6,3:2:0:0:
179,270,167649,1,0,3:2:0:0:
174,277,167720,1,0,3:2:0:0:
167,283,167792,1,0,3:2:0:0:
159,287,167863,1,0,3:2:0:0:
151,291,167934,1,0,3:2:0:0:
142,293,168006,1,10,3:2:0:0:
124,292,168077,1,0,3:2:0:0:
107,286,168149,1,0,3:2:0:0:
95,272,168220,1,0,3:2:0:0:
90,255,168292,1,0,3:2:0:0:
91,237,168363,1,0,3:2:0:0:
99,221,168434,1,2,3:2:0:0:
119,202,168506,1,0,3:2:0:0:
144,193,168577,1,0,3:2:0:0:
170,200,168649,1,0,3:2:0:0:
189,218,168720,1,0,3:2:0:0:
194,244,168792,1,0,3:2:0:0:
184,269,168863,1,10,3:2:0:0:
186,304,168934,1,0,3:2:0:0:
206,333,169006,1,0,3:2:0:0:
241,339,169077,1,0,3:2:0:0:
274,324,169149,1,0,3:2:0:0:
287,290,169220,1,0,3:2:0:0:
278,254,169292,5,4,3:1:0:0:
249,288,169363,1,0,3:2:0:0:
256,332,169434,1,0,3:2:0:0:
296,353,169506,1,0,3:2:0:0:
340,352,169577,1,0,3:2:0:0:
374,322,169649,1,0,3:2:0:0:
366,277,169720,1,10,3:2:0:0:
336,255,169792,1,0,3:2:0:0:
300,248,169863,1,0,3:2:0:0:
266,260,169934,1,0,3:2:0:0:
237,283,170006,1,0,3:2:0:0:
201,285,170077,1,0,3:2:0:0:
167,271,170149,5,2,1:2:0:0:
165,266,170220,1,0,3:2:0:0:
164,261,170292,1,8,3:0:0:0:
163,256,170363,1,0,3:2:0:0:
162,251,170434,1,4,3:0:0:0:
161,246,170506,1,0,3:2:0:0:
185,203,170577,5,10,1:2:0:0:
183,198,170649,1,0,3:2:0:0:
181,193,170720,1,4,3:0:0:0:
179,188,170792,1,0,3:2:0:0:
178,183,170863,1,4,3:0:0:0:
177,178,170934,1,0,3:2:0:0:
143,148,171006,5,2,1:0:0:0:
81,198,171149,1,0,3:0:0:0:
84,277,171292,1,0,3:0:0:0:
115,131,171434,5,10,3:2:0:0:
110,211,171577,1,0,3:0:0:0:
51,264,171720,1,0,3:0:0:0:
143,384,171863,5,2,3:2:0:0:
169,379,171934,1,0,3:0:0:0:
196,374,172005,1,0,3:0:0:0:
222,369,172077,1,0,3:0:0:0:
249,364,172148,1,0,3:0:0:0:
275,359,172220,1,0,3:0:0:0:
302,354,172291,1,10,3:2:0:0:
499,0,172720,5,2,3:2:0:0:
438,89,172863,1,0,3:0:0:0:
329,103,173006,1,0,3:0:0:0:
489,35,173149,5,10,3:2:0:0:
379,48,173292,1,0,3:0:0:0:
318,138,173435,1,0,3:0:0:0:
141,0,173577,5,2,3:2:0:0:
145,26,173648,1,0,3:0:0:0:
150,53,173719,1,0,3:0:0:0:
155,79,173791,1,0,3:0:0:0:
160,106,173862,1,0,3:0:0:0:
165,132,173934,1,0,3:0:0:0:
170,159,174005,1,10,3:2:0:0:
349,384,174434,5,2,3:2:0:0:
323,287,174577,1,0,3:0:0:0:
238,250,174720,1,0,3:0:0:0:
369,372,174862,5,10,3:2:0:0:
281,334,175005,1,0,3:0:0:0:
259,235,175148,1,0,3:0:0:0:
158,357,175292,5,2,3:2:0:0:
132,353,175363,1,0,3:0:0:0:
105,348,175434,1,0,3:0:0:0:
79,343,175506,1,0,3:0:0:0:
53,338,175577,1,0,3:0:0:0:
27,333,175649,1,0,3:0:0:0:
0,328,175720,1,10,3:2:0:0:
20,110,176149,5,2,3:2:0:0:
83,160,176292,1,0,3:0:0:0:
161,143,176434,1,0,3:0:0:0:
43,101,176577,5,10,3:2:0:0:
120,84,176719,1,0,3:0:0:0:
182,133,176862,1,0,3:0:0:0:
345,48,177006,5,2,3:2:0:0:
341,74,177077,1,0,3:0:0:0:
336,101,177148,1,0,3:0:0:0:
331,127,177220,1,0,3:0:0:0:
326,153,177291,1,0,3:0:0:0:
321,179,177363,1,0,3:0:0:0:
316,206,177434,5,10,3:2:0:0:
361,203,177506,1,0,3:0:0:0:
400,224,177577,1,8,3:0:0:0:
403,269,177649,1,8,3:0:0:0:
372,302,177720,2,0,L|303:288,1,45,4|4,3:0|3:0,0:0:0:0:
189,362,177863,5,6,3:2:0:0:
264,340,178006,1,0,3:0:0:0:
324,384,178149,1,0,3:0:0:0:
352,262,178292,5,10,3:2:0:0:
291,305,178435,1,0,3:0:0:0:
215,284,178578,1,0,3:0:0:0:
78,384,178720,5,2,3:2:0:0:
74,358,178791,1,0,3:0:0:0:
69,331,178862,1,0,3:0:0:0:
64,305,178934,1,0,3:0:0:0:
59,279,179005,1,0,3:0:0:0:
54,253,179077,1,0,3:0:0:0:
49,226,179149,2,0,P|31:179|-8:146,1,90,10|0,3:2|0:0,0:0:0:0:
258,63,179577,5,2,3:2:0:0:
366,96,179720,1,0,3:0:0:0:
452,21,179863,1,0,3:0:0:0:
467,171,180006,5,10,3:2:0:0:
360,141,180149,1,0,3:0:0:0:
281,216,180292,1,0,3:0:0:0:
145,91,180434,5,2,3:2:0:0:
171,87,180505,1,0,3:0:0:0:
198,82,180576,1,0,3:0:0:0:
224,77,180648,1,0,3:0:0:0:
250,72,180719,1,0,3:0:0:0:
276,67,180791,1,0,3:0:0:0:
303,62,180863,2,0,P|350:44|383:5,1,90,10|0,3:2|0:0,0:0:0:0:
484,207,181292,5,2,3:2:0:0:
413,273,181434,1,0,3:0:0:0:
439,367,181577,1,0,3:0:0:0:
308,358,181720,5,10,3:2:0:0:
379,290,181862,1,0,3:0:0:0:
354,193,182005,1,0,3:0:0:0:
512,222,182149,5,2,3:2:0:0:
486,218,182220,1,0,3:0:0:0:
459,213,182291,1,0,3:0:0:0:
433,208,182363,1,0,3:0:0:0:
407,203,182434,1,0,3:0:0:0:
381,198,182506,1,0,3:0:0:0:
354,193,182578,2,0,P|307:175|274:136,1,90,10|0,3:2|0:0,0:0:0:0:
126,0,183006,5,2,3:2:0:0:
119,76,183149,1,0,3:0:0:0:
182,120,183292,1,0,3:0:0:0:
130,276,183434,5,10,3:2:0:0:
136,197,183577,1,0,3:0:0:0:
71,151,183720,1,0,3:0:0:0:
222,70,183863,5,2,3:2:0:0:
226,96,183934,1,0,3:0:0:0:
231,123,184005,1,0,3:0:0:0:
236,149,184077,1,0,3:0:0:0:
241,175,184148,1,0,3:0:0:0:
246,201,184220,1,0,3:0:0:0:
251,228,184292,1,10,3:2:0:0:
251,229,184720,5,2,1:2:0:0:
279,200,184791,1,0,3:2:0:0:
308,172,184862,1,0,3:2:0:0:
337,143,184934,1,0,3:2:0:0:
366,115,185005,1,0,3:2:0:0:
395,86,185077,1,0,3:2:0:0:
424,58,185149,2,0,L|342:74,1,45,10|0,3:2|0:0,0:0:0:0:
286,82,185292,2,0,L|211:46,1,45,0|0,3:2|0:0,0:0:0:0:
493,99,185434,2,0,L|529:174,1,45,0|0,3:2|0:0,0:0:0:0:
512,218,185577,5,2,3:2:0:0:
472,228,185648,1,0,3:2:0:0:
433,239,185719,1,0,3:2:0:0:
394,249,185791,1,0,3:2:0:0:
355,260,185862,1,0,3:2:0:0:
316,270,185934,1,0,3:2:0:0:
277,281,186006,2,0,L|207:233,1,45,10|0,3:2|0:0,0:0:0:0:
249,147,186149,2,0,L|212:71,1,45,0|0,3:2|0:0,0:0:0:0:
50,290,186292,2,0,L|54:246,1,45,0|0,3:2|0:0,0:0:0:0:
171,225,186434,5,2,3:2:0:0:
155,187,186505,1,0,3:2:0:0:
140,149,186576,1,0,3:2:0:0:
125,112,186648,1,0,3:2:0:0:
110,74,186719,1,0,3:2:0:0:
94,37,186791,1,0,3:2:0:0:
79,0,186863,2,0,L|72:83,1,45,10|0,3:2|0:0,0:0:0:0:
25,134,187006,2,0,L|-23:203,1,45,0|0,3:2|0:0,0:0:0:0:
0,318,187149,2,0,L|44:310,1,45,0|0,3:2|0:0,0:0:0:0:
140,271,187292,5,2,3:2:0:0:
176,288,187363,1,0,3:2:0:0:
213,305,187434,1,0,3:2:0:0:
249,323,187506,1,0,3:2:0:0:
286,340,187577,1,0,3:2:0:0:
322,357,187649,1,0,3:2:0:0:
359,375,187720,2,0,L|372:309,1,45,10|0,3:2|0:0,0:0:0:0:
465,336,187863,2,0,L|452:269,1,45,0|0,3:2|0:0,0:0:0:0:
238,276,188006,2,0,L|298:246,1,45,0|0,3:2|0:0,0:0:0:0:
386,202,188149,5,2,3:2:0:0:
424,171,188220,1,0,3:2:0:0:
431,122,188292,1,0,3:2:0:0:
399,84,188363,1,0,3:2:0:0:
350,74,188434,1,0,3:2:0:0:
306,98,188506,1,0,3:2:0:0:
300,147,188577,2,0,L|337:206,1,45,10|0,3:2|0:0,0:0:0:0:
431,122,188720,2,0,L|497:142,1,45,0|0,3:2|0:0,0:0:0:0:
396,310,188863,2,0,L|383:353,1,45,0|0,3:2|0:0,0:0:0:0:
285,379,189006,5,2,3:2:0:0:
237,368,189077,1,0,3:2:0:0:
219,321,189149,1,0,3:2:0:0:
234,274,189220,1,0,3:2:0:0:
278,248,189292,1,0,3:2:0:0:
327,253,189363,1,0,3:2:0:0:
358,291,189434,2,0,L|290:307,1,45,10|0,3:2|0:0,0:0:0:0:
193,355,189577,2,0,L|145:304,1,45,0|0,3:2|0:0,0:0:0:0:
0,215,189720,2,0,L|67:230,1,45,0|0,3:2|0:0,0:0:0:0:
78,117,189863,5,2,3:2:0:0:
121,94,189934,1,0,3:2:0:0:
169,105,190006,1,0,3:2:0:0:
196,146,190077,1,0,3:2:0:0:
184,195,190149,1,0,3:2:0:0:
145,225,190220,1,0,3:2:0:0:
95,222,190292,5,10,3:2:0:0:
128,186,190363,1,0,3:2:0:0:
126,136,190434,1,0,3:2:0:0:
103,91,190506,1,0,3:2:0:0:
59,68,190577,1,0,3:2:0:0:
10,77,190649,1,0,3:2:0:0:
2,125,190720,5,8,3:0:0:0:
15,119,190792,1,0,3:2:0:0:
28,114,190863,1,4,3:0:0:0:
41,109,190934,1,0,3:2:0:0:
54,103,191006,1,0,3:2:0:0:
67,98,191077,5,0,3:2:0:0:
102,106,191149,1,8,3:0:0:0:
137,112,191220,1,0,3:0:0:0:
172,120,191292,1,4,3:0:0:0:
207,126,191363,5,0,3:2:0:0:
220,124,191434,1,0,3:2:0:0:
233,121,191506,1,0,3:2:0:0:
246,119,191577,5,2,1:2:0:0:
254,158,191648,1,0,3:2:0:0:
260,198,191719,1,0,3:2:0:0:
265,238,191791,1,0,3:2:0:0:
271,278,191862,1,0,3:2:0:0:
276,318,191934,1,0,3:2:0:0:
282,358,192006,2,0,L|340:337,1,45,10|0,3:2|0:0,0:0:0:0:
411,308,192149,2,0,L|421:247,1,45,0|0,3:2|0:0,0:0:0:0:
383,13,192292,2,0,L|392:58,1,45,0|0,3:2|0:0,0:0:0:0:
509,115,192434,5,2,3:2:0:0:
473,135,192505,1,0,3:2:0:0:
438,155,192576,1,0,3:2:0:0:
403,175,192648,1,0,3:2:0:0:
368,195,192719,1,0,3:2:0:0:
333,215,192791,1,0,3:2:0:0:
298,236,192863,2,0,L|240:215,1,45,10|0,3:2|0:0,0:0:0:0:
191,139,193006,2,0,L|133:160,1,45,0|0,3:2|0:0,0:0:0:0:
64,375,193149,2,0,L|57:331,1,45,0|0,3:2|0:0,0:0:0:0:
89,242,193292,5,2,3:2:0:0:
127,255,193363,1,0,3:2:0:0:
165,268,193434,1,0,3:2:0:0:
203,281,193506,1,0,3:2:0:0:
242,294,193577,1,0,3:2:0:0:
280,307,193649,1,0,3:2:0:0:
318,321,193720,2,0,L|274:265,1,45,10|0,3:2|0:0,0:0:0:0:
220,191,193863,2,0,L|292:180,1,45,0|0,3:2|0:0,0:0:0:0:
418,160,194006,2,0,L|424:115,1,45,0|0,3:2|0:0,0:0:0:0:
427,31,194149,5,2,3:2:0:0:
387,41,194220,1,0,3:2:0:0:
348,51,194291,1,0,3:2:0:0:
309,62,194363,1,0,3:2:0:0:
270,72,194434,1,0,3:2:0:0:
231,83,194506,1,0,3:2:0:0:
192,93,194577,2,0,L|135:43,1,45,10|0,3:2|0:0,0:0:0:0:
65,7,194720,2,0,L|79:49,1,45,0|0,3:2|0:0,0:0:0:0:
0,296,194863,2,0,L|14:254,1,45,0|0,3:2|0:0,0:0:0:0:
6,164,195006,5,8,3:2:0:0:
61,147,195077,1,8,3:2:0:0:
117,162,195149,1,0,3:0:0:0:
158,202,195220,1,0,3:0:0:0:
155,215,195292,1,8,3:0:0:0:
152,228,195363,1,4,3:0:0:0:
147,240,195434,1,0,3:0:0:0:
142,252,195506,1,0,3:0:0:0:
138,264,195577,5,8,3:2:0:0:
170,312,195649,1,8,3:2:0:0:
227,322,195720,1,8,3:2:0:0:
281,300,195792,1,8,3:2:0:0:
315,253,195863,1,0,3:0:0:0:
306,242,195934,1,0,3:0:0:0:
293,237,196006,1,8,3:0:0:0:
279,237,196077,1,4,3:0:0:0:
268,245,196149,1,0,3:0:0:0:
265,258,196220,1,0,3:0:0:0:
265,271,196292,6,0,L|283:343,1,45,4|0,3:1|0:0,0:0:0:0:
448,81,196434,2,0,L|438:124,1,45,10|0,3:2|0:0,0:0:0:0:
395,384,196577,2,0,L|434:362,1,45,10|0,3:2|0:0,0:0:0:0:
484,197,196720,5,12,1:2:0:0:
435,198,196792,1,0,3:2:0:0:
396,228,196863,1,8,3:2:0:0:
388,277,196934,1,8,3:2:0:0:
415,320,197006,1,8,3:2:0:0:
464,330,197077,1,8,3:2:0:0:
512,314,197149,5,4,3:1:0:0:
498,311,197220,1,0,3:2:0:0:
487,307,197292,1,8,3:0:0:0:
475,304,197363,1,4,3:0:0:0:
463,301,197434,1,0,3:0:0:0:
451,297,197506,1,0,3:0:0:0:
415,342,197577,5,12,1:2:0:0:
402,346,197649,1,0,3:0:0:0:
389,350,197720,1,0,3:0:0:0:
376,353,197792,1,0,3:0:0:0:
363,356,197863,1,0,3:0:0:0:
350,360,197934,1,0,3:0:0:0:
337,364,198006,2,0,L|287:376,5,45,4|0|0|0|0|0,3:1|3:0|3:0|3:0|3:0|3:0,0:0:0:0:
188,384,198434,5,6,1:0:0:0:
180,381,198505,1,10,2:0:0:0:
172,378,198576,1,0,3:0:0:0:
164,375,198648,1,10,2:0:0:0:
156,372,198719,1,0,3:0:0:0:
148,369,198791,1,10,2:0:0:0:
140,366,198862,1,0,3:0:0:0:
132,363,198934,1,10,2:0:0:0:
124,360,199005,1,0,3:0:0:0:
116,357,199076,1,10,2:0:0:0:
108,354,199148,1,0,3:0:0:0:
100,351,199219,1,10,2:0:0:0:
92,348,199291,1,0,3:2:0:0:
125,325,199362,1,10,2:0:0:0:
139,287,199434,1,0,3:0:0:0:
133,247,199505,1,10,2:0:0:0:
113,211,199576,1,0,3:0:0:0:
82,184,199648,1,10,2:0:0:0:
42,175,199719,1,0,3:0:0:0:
81,165,199791,1,10,2:0:0:0:
112,140,199862,1,0,3:0:0:0:
137,108,199934,1,10,2:0:0:0:
140,67,200005,1,0,3:0:0:0:
123,30,200076,1,10,2:0:0:0:
86,11,200148,5,0,3:2:0:0:
134,7,200219,1,10,2:0:0:0:
176,32,200291,1,0,3:0:0:0:
202,72,200362,1,10,2:0:0:0:
192,120,200434,1,0,3:0:0:0:
210,164,200505,1,10,2:0:0:0:
254,183,200576,1,0,3:0:0:0:
256,134,200648,1,10,2:0:0:0:
286,96,200719,1,0,3:0:0:0:
334,92,200791,1,10,2:0:0:0:
373,119,200862,1,0,3:0:0:0:
389,165,200934,1,10,2:0:0:0:
366,207,201005,5,0,3:2:0:0:
421,194,201076,1,10,2:0:0:0:
449,144,201148,1,0,3:0:0:0:
446,87,201219,1,10,2:0:0:0:
421,35,201291,1,0,3:0:0:0:
371,9,201362,1,10,2:0:0:0:
315,5,201434,5,0,3:2:0:0:
334,66,201505,1,8,2:0:0:0:
348,128,201576,1,8,3:2:0:0:
361,192,201648,1,8,2:0:0:0:
376,254,201719,1,8,3:2:0:0:
391,317,201791,1,8,2:0:0:0:
411,378,201862,5,6,1:0:0:0:
426,372,201934,1,10,2:0:0:0:
437,360,202005,1,0,3:0:0:0:
441,344,202076,1,10,2:0:0:0:
438,327,202148,1,0,3:0:0:0:
429,313,202219,1,10,2:0:0:0:
414,305,202291,1,0,3:0:0:0:
397,305,202362,1,10,2:0:0:0:
383,314,202434,1,0,3:0:0:0:
378,329,202505,1,10,2:0:0:0:
381,344,202576,1,0,3:0:0:0:
388,358,202648,1,10,2:0:0:0:
401,366,202719,1,0,3:2:0:0:
362,380,202791,1,10,2:0:0:0:
322,384,202862,1,0,3:0:0:0:
282,372,202934,1,10,2:0:0:0:
258,339,203005,1,0,3:0:0:0:
258,298,203076,1,10,2:0:0:0:
289,272,203148,1,0,3:0:0:0:
248,246,203219,1,10,2:0:0:0:
199,243,203291,1,0,3:0:0:0:
157,267,203362,1,10,2:0:0:0:
155,275,203434,1,0,3:0:0:0:
153,282,203505,1,10,2:0:0:0:
151,289,203576,5,0,3:2:0:0:
115,220,203648,1,10,2:0:0:0:
112,148,203719,1,0,3:0:0:0:
138,84,203791,1,10,2:0:0:0:
197,57,203862,1,0,3:0:0:0:
258,61,203934,1,10,2:0:0:0:
304,93,204005,1,0,3:0:0:0:
320,138,204076,1,10,2:0:0:0:
314,179,204148,1,0,3:0:0:0:
294,204,204219,1,10,2:0:0:0:
271,211,204291,1,0,3:0:0:0:
256,203,204362,1,10,2:0:0:0:
252,196,204434,6,0,L|231:82,5,80.9999975280763,4|0|0|4|4|8,1:0|3:1|3:0|3:0|3:0|3:0,0:0:0:0:
357,79,204862,2,0,L|371:0,5,80.9999975280763,4|0|0|4|4|8,1:2|3:0|3:0|3:0|3:0|3:0,0:0:0:0:
511,3,205291,5,6,1:0:0:0:
486,1,205362,1,10,2:0:0:0:
463,10,205434,1,0,3:0:0:0:
448,29,205505,1,10,2:0:0:0:
438,51,205576,1,0,3:0:0:0:
437,75,205648,1,10,2:0:0:0:
439,98,205719,1,0,3:0:0:0:
452,118,205791,1,10,2:0:0:0:
473,129,205862,1,0,3:0:0:0:
497,125,205934,1,10,2:0:0:0:
512,105,206005,1,0,3:0:0:0:
512,80,206076,1,10,2:0:0:0:
491,65,206148,1,0,3:2:0:0:
459,101,206219,1,10,2:0:0:0:
411,112,206291,1,0,3:0:0:0:
362,112,206362,1,10,2:0:0:0:
317,92,206434,1,0,3:0:0:0:
284,56,206505,1,10,2:0:0:0:
280,7,206576,1,0,3:0:0:0:
232,0,206648,1,10,2:0:0:0:
185,10,206719,1,0,3:0:0:0:
150,43,206791,1,10,2:0:0:0:
136,89,206862,1,0,3:0:0:0:
142,138,206934,1,10,2:0:0:0:
161,182,207005,5,0,3:2:0:0:
216,171,207076,1,10,2:0:0:0:
268,192,207148,1,0,3:0:0:0:
294,243,207219,1,10,2:0:0:0:
272,293,207291,1,0,3:0:0:0:
221,317,207362,1,10,2:0:0:0:
165,303,207434,1,0,3:0:0:0:
147,249,207505,1,10,2:0:0:0:
178,203,207576,1,0,3:0:0:0:
234,205,207648,1,10,2:0:0:0:
276,242,207719,1,0,3:0:0:0:
333,244,207791,1,10,2:0:0:0:
363,196,207862,5,0,3:2:0:0:
304,224,207934,1,10,2:0:0:0:
279,283,208005,1,0,3:0:0:0:
290,346,208076,1,10,2:0:0:0:
346,379,208148,1,0,3:0:0:0:
408,364,208219,1,10,2:0:0:0:
449,313,208291,1,4,3:2:0:0:
386,326,208362,1,10,2:0:0:0:
346,274,208434,1,0,3:0:0:0:
361,211,208505,1,10,2:0:0:0:
414,175,208576,1,0,3:0:0:0:
433,112,208648,1,10,2:0:0:0:
407,52,208719,5,6,1:0:0:0:
406,60,208791,1,10,2:0:0:0:
405,67,208862,1,0,3:0:0:0:
403,75,208934,1,10,2:0:0:0:
401,82,209005,1,0,3:0:0:0:
399,89,209076,1,10,2:0:0:0:
397,96,209148,1,0,3:0:0:0:
395,103,209219,1,10,2:0:0:0:
393,110,209291,1,0,3:0:0:0:
391,117,209362,1,10,2:0:0:0:
389,125,209434,1,0,3:0:0:0:
387,132,209505,1,10,2:0:0:0:
385,139,209576,1,0,3:2:0:0:
328,172,209648,1,10,2:0:0:0:
266,151,209719,1,0,3:0:0:0:
240,91,209791,1,10,2:0:0:0:
266,32,209862,1,0,3:0:0:0:
213,71,209934,1,10,2:0:0:0:
149,82,210005,1,0,3:0:0:0:
86,67,210076,1,10,2:0:0:0:
44,16,210148,1,0,3:0:0:0:
51,18,210219,1,10,2:0:0:0:
58,20,210291,1,0,3:0:0:0:
65,22,210362,1,10,2:0:0:0:
72,24,210434,5,4,1:2:0:0:
108,86,210505,1,0,3:0:0:0:
91,156,210576,1,8,3:2:0:0:
37,205,210648,1,8,3:2:0:0:
31,277,210719,1,8,3:2:0:0:
76,334,210791,1,8,3:2:0:0:
147,343,210862,5,8,3:0:0:0:
113,305,210934,1,8,3:0:0:0:
109,256,211005,1,8,3:2:0:0:
135,215,211076,1,8,3:2:0:0:
195,171,211148,5,4,3:0:0:0:
164,150,211219,1,4,3:0:0:0:
129,161,211291,1,8,3:2:0:0:
123,196,211362,1,0,3:0:0:0:
162,258,211434,5,8,3:0:0:0:
185,263,211505,1,0,3:0:0:0:
208,269,211577,1,4,3:0:0:0:
231,274,211648,1,0,3:0:0:0:
255,343,211719,2,0,L|169:348,5,80.9999975280763,8|8|4|4|8|8,1:3|3:0|3:0|3:0|3:0|3:0,0:0:0:0:
384,381,212148,5,14,1:2:0:0:
343,355,212219,2,0,L|331:293,4,45
423,220,212576,5,2,0:0:0:0:
449,261,212647,2,0,L|511:273,4,45
295,255,213005,5,2,0:0:0:0:
305,302,213076,2,0,L|269:354,4,45
373,188,213433,6,0,P|362:128|265:86,1,135,10|0,1:2|0:0,0:0:0:0:
185,157,213719,2,0,L|130:100,1,45,10|0,1:2|0:0,0:0:0:0:
116,3,213862,5,2,0:0:0:0:
116,7,213933,1,0,0:0:0:0:
116,11,214005,1,0,0:0:0:0:
116,15,214076,1,0,0:0:0:0:
116,19,214148,1,0,0:0:0:0:
116,23,214219,1,0,0:0:0:0:
116,27,214290,6,0,P|59:66|57:189,1,161.999995056153,10|0,1:2|0:0,0:0:0:0:
141,239,214576,2,0,L|115:334,1,53.9999983520508,10|0,1:2|0:0,0:0:0:0:
12,374,214719,5,4,1:2:0:0:
61,371,214790,5,0,3:2:0:0:
54,349,214862,1,0,0:0:0:0:
48,327,214933,1,0,3:2:0:0:
42,304,215005,1,0,3:2:0:0:
37,282,215076,1,0,3:2:0:0:
23,234,215148,5,10,3:2:0:0:
1,278,215219,5,0,3:2:0:0:
22,273,215290,1,0,0:0:0:0:
44,268,215362,1,0,3:2:0:0:
66,264,215433,1,0,3:2:0:0:
88,260,215505,1,0,3:2:0:0:
136,254,215576,5,10,3:2:0:0:
123,206,215648,5,0,3:2:0:0:
125,183,215719,1,0,0:0:0:0:
129,160,215790,1,0,3:2:0:0:
131,137,215862,1,0,3:2:0:0:
134,114,215933,1,0,3:2:0:0:
137,91,216005,6,0,P|231:122|297:104,1,135,6|0,3:2|0:0,0:0:0:0:
310,16,216290,2,0,L|386:-13,1,45,4|0,3:2|0:0,0:0:0:0:
501,60,216433,5,10,3:2:0:0:
486,77,216505,1,0,3:2:0:0:
470,92,216576,1,0,3:2:0:0:
454,108,216647,1,0,3:2:0:0:
438,124,216719,1,0,3:2:0:0:
422,140,216790,1,0,3:2:0:0:
405,158,216862,6,0,P|316:150|226:206,1,161.999995056153,6|0,3:2|0:0,0:0:0:0:
295,309,217148,2,0,L|246:351,1,53.9999983520508,4|0,3:2|0:0,0:0:0:0:
137,215,217290,5,2,1:2:0:0:
99,175,217362,1,8,3:2:0:0:
45,173,217433,1,2,3:2:0:0:
4,209,217505,1,8,3:2:0:0:
4,262,217576,1,2,3:2:0:0:
28,310,217648,1,8,3:2:0:0:
74,336,217719,5,2,3:2:0:0:
60,284,217790,1,8,3:2:0:0:
90,238,217862,1,2,3:2:0:0:
143,234,217933,1,8,3:2:0:0:
180,273,218005,1,2,3:2:0:0:
164,324,218076,1,8,3:2:0:0:
116,350,218148,5,2,3:2:0:0:
167,365,218219,1,8,3:2:0:0:
220,357,218290,1,2,3:2:0:0:
263,324,218362,1,8,3:2:0:0:
274,271,218433,1,2,3:2:0:0:
259,218,218505,1,0,3:2:0:0:
212,190,218576,6,0,P|300:182|391:247,1,161.999995056153,4|0,3:2|3:0,0:0:0:0:
337,61,218862,2,0,L|309:-34,1,53.9999983520508,4|0,3:2|0:0,0:0:0:0:
497,114,219005,5,8,3:2:0:0:
491,140,219076,1,2,3:2:0:0:
486,166,219148,1,8,3:2:0:0:
479,192,219219,1,2,3:2:0:0:
472,218,219290,1,8,3:2:0:0:
464,244,219362,1,0,3:2:0:0:
458,270,219433,6,0,P|376:332|307:333,1,161.999995056153,4|0,3:2|3:0,0:0:0:0:
212,220,219719,2,0,L|224:146,1,53.9999983520508,4|0,3:2|0:0,0:0:0:0:
157,13,219862,5,2,1:2:0:0:
103,14,219933,1,8,3:2:0:0:
53,36,220005,1,2,3:2:0:0:
20,78,220076,1,8,3:2:0:0:
25,132,220148,1,2,3:2:0:0:
64,168,220219,1,8,3:2:0:0:
117,169,220290,5,2,3:2:0:0:
95,118,220362,1,8,3:2:0:0:
120,70,220433,1,2,3:2:0:0:
173,61,220505,1,8,3:2:0:0:
219,88,220576,1,2,3:2:0:0:
232,140,220648,1,8,3:2:0:0:
207,188,220719,5,2,3:2:0:0:
202,134,220790,1,8,3:2:0:0:
239,94,220862,1,2,3:2:0:0:
292,90,220933,1,8,3:2:0:0:
338,118,221005,1,2,3:2:0:0:
347,170,221076,1,0,3:2:0:0:
318,216,221148,6,0,P|230:208|139:273,1,161.999995056153,4|0,3:2|3:0,0:0:0:0:
80,96,221433,2,0,L|6:84,1,53.9999983520508,4|0,3:2|0:0,0:0:0:0:
216,7,221576,5,2,3:2:0:0:
242,13,221648,1,8,3:2:0:0:
268,18,221719,1,2,3:2:0:0:
294,23,221790,1,8,3:2:0:0:
320,28,221862,1,2,3:2:0:0:
346,33,221933,1,8,3:2:0:0:
374,41,222005,5,4,3:2:0:0:
344,85,222076,1,8,3:2:0:0:
381,124,222148,1,8,3:0:0:0:
390,176,222219,1,8,3:2:0:0:
352,213,222290,2,0,L|369:290,1,53.9999983520508,4|8,3:2|3:2,0:0:0:0:
455,369,222433,5,2,1:2:0:0:
499,336,222505,1,8,3:2:0:0:
504,283,222576,1,2,3:2:0:0:
472,238,222648,1,8,3:2:0:0:
419,225,222719,1,2,3:2:0:0:
371,250,222790,1,8,3:2:0:0:
358,302,222862,5,2,3:2:0:0:
402,272,222933,1,8,3:2:0:0:
403,217,223005,1,2,3:2:0:0:
379,168,223076,1,8,3:2:0:0:
325,155,223148,1,2,3:2:0:0:
279,184,223219,1,8,3:2:0:0:
266,236,223290,5,2,3:2:0:0:
320,240,223362,1,8,3:2:0:0:
356,279,223433,1,2,3:2:0:0:
351,333,223505,1,8,3:2:0:0:
310,367,223576,1,2,3:2:0:0:
255,361,223648,1,0,3:2:0:0:
222,318,223719,6,0,P|171:274|67:273,1,161.999995056153,4|0,3:2|3:0,0:0:0:0:
220,174,224005,2,0,L|300:143,1,53.9999983520508,4|0,3:2|0:0,0:0:0:0:
4,158,224148,5,2,3:2:0:0:
9,131,224219,1,8,3:2:0:0:
14,104,224290,1,2,3:2:0:0:
19,78,224362,1,8,3:2:0:0:
24,51,224433,1,2,3:2:0:0:
29,25,224505,1,8,3:2:0:0:
35,0,224576,6,0,P|101:-12|191:38,1,161.999995056153,4|0,3:2|3:0,0:0:0:0:
113,209,224862,2,0,L|91:131,1,53.9999983520508,4|0,3:2|0:0,0:0:0:0:
229,22,225005,5,4,1:0:0:0:
207,71,225076,5,0,3:1:0:0:
208,76,225148,1,0,3:0:0:0:
209,81,225219,1,4,3:0:0:0:
210,86,225290,1,4,3:0:0:0:
211,91,225362,1,8,3:0:0:0:
223,144,225433,5,0,3:0:0:0:
266,111,225505,5,0,3:0:0:0:
270,113,225576,1,0,3:0:0:0:
274,115,225648,1,4,3:0:0:0:
279,116,225719,1,4,3:0:0:0:
284,117,225790,1,8,3:0:0:0:
336,135,225862,5,0,3:0:0:0:
302,177,225933,5,0,3:0:0:0:
304,182,226005,1,0,3:0:0:0:
305,187,226076,1,4,3:0:0:0:
306,192,226148,1,4,3:0:0:0:
307,197,226219,1,8,3:0:0:0:
308,201,226290,6,0,P|240:205|166:278,1,161.999995056153,4|0,3:2|3:0,0:0:0:0:
407,257,226576,2,0,L|422:187,1,53.9999983520508,4|0,3:2|0:0,0:0:0:0:
512,384,226719,1,8,3:0:0:0:
507,379,226790,1,4,3:0:0:0:
503,375,226862,1,4,3:0:0:0:
499,371,226933,1,0,3:0:0:0:
495,367,227005,1,0,3:0:0:0:
491,362,227076,1,0,3:0:0:0:
488,356,227148,6,0,P|436:312|333:311,1,161.999995056153,4|0,3:2|3:0,0:0:0:0:
156,378,227433,2,0,L|82:313,1,53.9999983520508,4|0,3:2|0:0,0:0:0:0:
161,128,227576,6,0,B|180:107|167:93|153:69|153:69|123:28|128:-15|161:-30|187:-25|200:-19|221:-2|221:-2|236:10|234:28|235:28|241:11|260:7|260:7|287:2|301:3|327:13|363:62|283:104|283:104|259:117|241:123|249:150|249:150|249:150|268:170|282:157|306:142|306:142|348:113|392:118|407:150|402:177|396:190|378:211|378:211|365:226|348:224|349:225|364:230|368:250|368:250|373:277|372:291|362:317|334:337|293:320|271:273|271:273|259:248|253:230|226:238|225:238|204:258|217:272|232:296|232:296|261:337|257:382|224:397|197:392|184:386|163:368|163:368|149:355|151:337|151:338|144:354|124:358|124:358|97:363|83:362|58:352|37:324|55:283|101:261|101:261|126:248|144:242|137:216|136:215|115:194|101:207|77:222|77:222|36:251|-8:246|-23:214|-18:187|-12:174|5:153|5:153|18:138|36:140|19:133|15:114|15:114|10:87|11:73|21:47|50:27|90:44|112:91|112:91|125:116|131:133|153:131|153:131,1,2047.68004999219,6|0,1:0|0:0,0:0:0:0:
