osu file format v14

[General]
AudioFilename: audio.mp3
AudioLeadIn: 0
PreviewTime: 154
Countdown: 1
SampleSet: Soft
StackLeniency: 0.2
Mode: 0
LetterboxInBreaks: 0
WidescreenStoryboard: 1

[Editor]
Bookmarks: 12296,15582,29296,43011,56725,68725,82439,96154,111582,125296,139011,157296,171010,184724,198438,212153,227581
DistanceSpacing: 0.2
BeatDivisor: 6
GridSize: 4
TimelineZoom: 2.899999

[Metadata]
Title:Put curse on you
TitleUnicode:Put curse on you
Artist:UNDEAD CORPORATION
ArtistUnicode:UNDEAD CORPORATION
Creator:Halfslashed
Version:ItsWinter's Lunatic
Source:東方妖々夢 ~ Perfect Cherry Blossom.
Tags:touhou youyomu th7 pcb アリス・マーガトロイド alice margatroid 一撃 ichigeki c81 ningyou saiban ~ hito no katachi moeasobishi shoujo 人形裁判 人の形弄びし少女 mpg mappers' guild featured artist corsace gf nm2 scubdomino [keqing] lmt aeril itswinter english metal
BeatmapID:3496211
BeatmapSetID:1276314

[Difficulty]
HPDrainRate:6
CircleSize:3
OverallDifficulty:8.5
ApproachRate:9
SliderMultiplier:2.7
SliderTickRate:1

[Events]
//Background and Video events
0,0,"alice-margatroid-wallpaper-full-hd-1920x1080-221113.png",0,0
//Break Periods
//Storyboard Layer 0 (Background)
//Storyboard Layer 1 (Fail)
//Storyboard Layer 2 (Pass)
//Storyboard Layer 3 (Foreground)
//Storyboard Layer 4 (Overlay)
//Storyboard Sound Samples

[TimingPoints]
154,428.571428571429,3,2,1,80,1,0
1439,-100,3,2,1,90,0,0
1868,-100,3,2,1,80,0,0
2296,-83.3333333333333,3,2,1,90,0,0
2725,-100,3,2,1,80,0,0
4011,-100,3,2,1,90,0,0
4439,-100,3,2,1,80,0,0
4868,-83.3333333333333,3,2,1,90,0,0
5296,-83.3333333333333,3,2,1,90,0,0
15582,428.571428571429,4,2,1,90,1,0
15582,-100,4,2,1,90,0,0
15653,-100,4,2,1,80,0,0
29296,428.571428571429,3,2,1,90,1,0
29438,-100,3,2,1,80,0,0
37439,-200,3,2,1,80,0,0
37868,-100,3,2,1,80,0,0
39154,-200,3,2,1,80,0,0
39583,-100,3,2,1,80,0,0
40868,-200,3,2,1,80,0,0
41297,-100,3,2,1,80,0,0
43010,428.571428571429,4,2,1,90,1,0
43081,-100,4,2,1,80,0,0
56724,-100,4,2,1,90,0,0
59295,428.571428571429,4,2,1,80,1,0
61009,428.571428571429,4,2,1,90,1,0
67009,428.571428571429,4,2,1,80,1,0
67009,-66.6666666666667,4,2,1,80,0,0
68723,428.571428571429,4,2,1,90,1,1
68725,-55.5555555555556,4,2,1,90,0,1
69723,-76.9230769230769,4,2,1,90,0,1
70437,-55.5555555555556,4,2,1,90,0,1
74865,-76.9230769230769,4,2,1,90,0,1
75580,-55.5555555555556,4,2,1,90,0,1
76580,-76.9230769230769,4,2,1,90,0,1
77294,-55.5555555555556,4,2,1,90,0,1
81723,-76.9230769230769,4,2,1,90,0,1
82437,-100,4,2,1,80,0,0
95723,-66.6666666666667,4,2,1,80,0,0
96151,428.571428571429,3,2,1,90,1,0
98293,-83.3333333333333,3,2,1,90,0,0
98722,-100,3,2,1,90,0,0
98793,-100,3,2,1,80,0,0
100008,-100,3,2,1,90,0,0
100436,-100,3,2,1,80,0,0
100865,-83.3333333333333,3,2,1,90,0,0
101294,-83.3333333333333,3,2,1,80,0,0
102579,-83.3333333333333,3,2,1,90,0,0
103008,-83.3333333333333,3,2,1,80,0,0
103436,-83.3333333333333,3,2,1,90,0,0
111579,428.571428571429,4,2,1,80,1,0
111579,-200,4,2,1,80,0,0
114793,-200,4,2,1,70,0,0
115007,-200,4,2,1,80,0,0
121864,-200,4,2,1,90,0,0
121936,-200,4,2,1,80,0,0
122721,-200,4,2,1,90,0,0
122793,-200,4,2,1,80,0,0
123579,-200,4,2,1,90,0,0
123864,-200,4,2,1,80,0,0
125293,-100,4,2,1,90,0,0
125436,-100,4,2,1,80,0,0
139007,285.714285714286,4,2,1,90,1,0
139007,-133.333333333333,4,2,1,90,0,0
157292,428.571428571429,4,2,1,90,1,0
157292,-200,4,2,1,90,0,0
158149,-200,4,2,1,80,0,0
160720,-200,4,2,1,90,0,0
161577,-200,4,2,1,80,0,0
162434,-100,4,2,1,80,0,0
164149,-100,4,2,1,90,0,0
164220,-100,4,2,1,80,0,0
179149,-200,4,2,1,80,0,0
179577,-100,4,2,1,80,0,0
180863,-200,4,2,1,80,0,0
181291,-100,4,2,1,80,0,0
182577,-200,4,2,1,80,0,0
183005,-100,4,2,1,80,0,0
184720,-100,4,2,1,90,0,0
184792,-100,4,2,1,80,0,0
196292,-66.6666666666667,4,2,1,80,0,0
196720,-100,4,2,1,80,0,0
198434,-55.5555555555556,4,2,1,90,0,1
199292,-76.9230769230769,4,2,1,90,0,1
208292,-55.5555555555556,4,2,1,90,0,1
210863,-71.4285714285714,4,2,1,90,0,1
212148,428.571428571429,3,2,1,80,1,0
214290,-83.3333333333333,3,2,1,80,0,0
214719,-100,3,2,1,80,0,0
216005,-100,3,2,1,90,0,0
216433,-100,3,2,1,80,0,0
216862,-83.3333333333333,3,2,1,90,0,0
217291,-83.3333333333333,3,2,1,80,0,0
218576,-83.3333333333333,3,2,1,90,0,0
219005,-83.3333333333333,3,2,1,80,0,0
219433,-83.3333333333333,3,2,1,90,0,0
227576,-395.569620253165,3,2,1,90,0,0
227719,-395.569620253165,3,2,0,85,0,0
228148,-395.569620253165,3,2,1,80,0,0
228576,-395.569620253165,3,2,0,75,0,0
229005,-395.569620253165,3,2,1,70,0,0
229433,-395.569620253165,3,2,0,65,0,0
229862,-395.569620253165,3,2,1,60,0,0
230290,-395.569620253165,3,2,0,55,0,0
230718,-395.569620253165,3,2,0,50,0,0
231148,-395.569620253165,3,2,1,45,0,0
231576,-395.569620253165,3,2,0,40,0,0
232076,-395.569620253165,3,2,1,35,0,0
232504,-395.569620253165,3,2,0,30,0,0
233005,-395.569620253165,3,2,1,25,0,0
233433,-395.569620253165,3,2,0,20,0,0
233942,-395.569620253165,3,2,1,15,0,0
234370,-395.569620253165,3,2,0,10,0,0
234777,-395.569620253165,3,2,1,5,0,0

[Colours]
Combo1 : 204,0,0
Combo2 : 242,242,223

[HitObjects]
341,354,154,6,0,P|327:328|311:309,5,45,4|0|0|0|0|0,1:2|3:2|0:0|3:2|3:2|3:2,0:0:0:0:
205,253,582,2,0,P|225:263|243:276,5,45,10|0|0|0|0|0,3:2|3:2|0:0|3:2|3:2|3:2,0:0:0:0:
338,195,1011,2,0,P|327:215|314:233,5,45,10|0|0|0|0|0,3:2|3:2|0:0|3:2|3:2|3:2,0:0:0:0:
241,175,1439,6,0,L|216:-6,1,180,4|4,3:2|3:2,0:0:0:0:
129,16,1868,5,10,3:2:0:0:
122,21,1939,1,0,3:2:0:0:
114,26,2011,1,0,3:2:0:0:
107,31,2082,1,0,3:2:0:0:
100,36,2154,1,0,3:2:0:0:
0,56,2296,6,0,L|234:85,1,215.999993408203,4|4,3:2|3:2,0:0:0:0:
339,12,2725,6,0,P|318:34|301:56,5,45,2|0|0|0|0|0,1:2|3:2|0:0|3:2|3:2|3:2,0:0:0:0:
412,120,3154,2,0,P|382:112|354:109,5,45,10|0|0|0|0|0,3:2|3:2|0:0|3:2|3:2|3:2,0:0:0:0:
354,237,3582,2,0,P|345:207|334:182,5,45,10|0|0|0|0|0,3:2|3:2|0:0|3:2|3:2|3:2,0:0:0:0:
259,129,4011,6,0,B|173:144|173:144|167:149|167:149|54:169,1,180,4|4,3:2|3:2,0:0:0:0:
175,255,4439,5,10,3:2:0:0:
170,262,4510,1,0,3:2:0:0:
165,270,4582,1,0,3:2:0:0:
160,277,4653,1,0,3:2:0:0:
155,284,4725,1,0,3:2:0:0:
135,384,4868,6,0,L|106:150,1,215.999993408203,4|4,3:2|3:2,0:0:0:0:
188,14,5296,6,0,B|198:37|198:37|189:39|189:39|191:10,1,53.9999983520508,2|8,1:2|3:2,0:0:0:0:
280,28,5439,2,0,B|283:52|283:52|274:52|274:52|283:24,1,53.9999983520508,2|8,3:2|3:2,0:0:0:0:
365,70,5582,2,0,B|362:94|362:94|353:92|353:92|369:68,1,53.9999983520508,2|8,3:2|3:2,0:0:0:0:
419,155,5725,6,0,B|409:178|409:178|418:180|418:180|416:151,1,53.9999983520508,2|8,3:2|3:2,0:0:0:0:
327,169,5868,2,0,B|323:193|323:193|332:193|332:193|323:165,1,53.9999983520508,2|8,3:2|3:2,0:0:0:0:
242,211,6011,2,0,B|244:235|244:235|253:233|253:233|237:209,1,53.9999983520508,2|8,3:2|3:2,0:0:0:0:
187,301,6154,6,0,B|197:324|197:324|188:326|188:326|190:297,1,53.9999983520508,2|8,3:2|3:2,0:0:0:0:
279,315,6297,2,0,B|282:339|282:339|273:339|273:339|282:311,1,53.9999983520508,2|8,3:2|3:2,0:0:0:0:
364,357,6440,2,0,B|361:381|361:381|352:379|352:379|368:355,1,53.9999983520508,2|0,3:2|3:2,0:0:0:0:
464,344,6582,6,0,L|478:280,3,53.9999983520508,4|0|0|0,3:2|0:0|0:0|3:0,0:0:0:0:
466,262,6868,1,4,3:2:0:0:
377,271,7011,6,0,B|348:272|348:272|396:242,1,53.9999983520508,8|2,3:2|3:2,0:0:0:0:
344,181,7154,2,0,B|318:167|318:167|374:165,1,53.9999983520508,8|2,3:2|3:2,0:0:0:0:
360,86,7296,2,0,B|344:61|344:61|394:87,1,53.9999983520508,8|0,3:2|3:2,0:0:0:0:
442,24,7439,6,0,P|465:38|488:77,3,53.9999983520508,4|0|0|0,3:2|0:0|0:0|3:0,0:0:0:0:
493,140,7725,1,4,3:2:0:0:
467,245,7868,6,0,P|467:229|464:240,1,53.9999983520508,2|8,1:2|3:2,0:0:0:0:
391,186,8011,2,0,P|383:172|386:183,1,53.9999983520508,2|8,3:2|3:2,0:0:0:0:
291,173,8154,2,0,P|277:164|286:173,1,53.9999983520508,2|8,3:2|3:2,0:0:0:0:
250,321,8296,6,0,P|238:305|253:317,1,53.9999983520508,2|8,3:2|3:2,0:0:0:0:
335,267,8439,2,0,P|332:247|339:265,1,53.9999983520508,2|8,3:2|3:2,0:0:0:0:
431,264,8582,2,0,P|438:246|435:265,1,53.9999983520508,2|8,3:2|3:2,0:0:0:0:
419,378,8725,6,0,P|430:362|415:374,1,53.9999983520508,2|8,3:2|3:2,0:0:0:0:
334,330,8868,2,0,P|336:310|329:328,1,53.9999983520508,2|8,3:2|3:2,0:0:0:0:
238,327,9011,2,0,P|230:309|233:328,1,53.9999983520508,2|0,3:2|3:2,0:0:0:0:
144,370,9154,6,0,L|83:356,3,53.9999983520508,4|0|0|0,3:2|0:0|0:0|3:0,0:0:0:0:
35,293,9439,1,4,3:2:0:0:
89,213,9582,6,0,B|89:198|89:198|79:189|79:189|76:204|76:204|96:219,1,53.9999983520508,8|2,3:2|3:2,0:0:0:0:
159,264,9725,2,0,B|159:279|159:279|149:288|149:288|146:273|146:273|166:258,1,53.9999983520508,8|2,3:2|3:2,0:0:0:0:
168,185,9868,2,0,B|168:170|168:170|178:161|178:161|181:176|181:176|161:191,1,53.9999983520508,8|0,3:2|3:2,0:0:0:0:
242,238,10011,6,0,L|317:248,3,53.9999983520508,4|8|0|0,3:2|3:2|3:0|3:0,0:0:0:0:
339,317,10296,2,0,P|329:340|316:388,1,53.9999983520508,4|0,3:2|0:0,0:0:0:0:
421,374,10439,6,0,B|452:379|452:379|411:360,1,53.9999983520508,2|8,1:2|3:2,0:0:0:0:
456,297,10582,2,0,B|481:278|481:278|439:294,1,53.9999983520508,2|8,3:2|3:2,0:0:0:0:
426,217,10725,2,0,B|430:186|430:186|412:227,1,53.9999983520508,2|8,3:2|3:2,0:0:0:0:
345,306,10868,6,0,B|370:287|370:287|328:303,1,53.9999983520508,2|8,3:2|3:2,0:0:0:0:
315,226,11011,2,0,B|319:195|319:195|301:236,1,53.9999983520508,2|8,3:2|3:2,0:0:0:0:
237,191,11154,2,0,B|218:165|218:165|234:207,1,53.9999983520508,2|8,3:2|3:2,0:0:0:0:
244,306,11296,6,0,B|249:275|249:275|230:316,1,53.9999983520508,2|8,3:2|3:2,0:0:0:0:
167,271,11439,2,0,B|148:245|148:245|164:287,1,53.9999983520508,2|8,3:2|3:2,0:0:0:0:
87,301,11582,2,0,B|56:296|56:296|97:315,1,53.9999983520508,2|0,3:2|3:2,0:0:0:0:
70,212,11725,6,0,L|60:132,3,53.9999983520508,4|0|0|0,3:2|0:0|0:0|3:0,0:0:0:0:
16,88,12011,1,4,3:2:0:0:
196,18,12154,6,0,B|181:44|181:44|174:7,1,53.9999983520508,2|8,3:2|3:2,0:0:0:0:
274,88,12296,2,0,B|266:59|266:59|297:80,1,53.9999983520508,2|8,3:2|3:2,0:0:0:0:
197,157,12439,2,0,B|203:126|203:126|223:157,1,53.9999983520508,2|0,3:2|3:2,0:0:0:0:
116,100,12582,6,0,P|101:69|59:35,3,53.9999983520508,4|0|0|0,3:2|0:0|0:0|3:0,0:0:0:0:
16,88,12868,1,4,3:2:0:0:
69,203,13011,5,4,1:0:0:0:
79,206,13082,1,0,3:1:0:0:
88,210,13154,2,0,L|104:332,1,107.999996704102,0|4,3:0|3:0,0:0:0:0:
186,233,13439,5,0,3:0:0:0:
196,236,13510,1,0,3:0:0:0:
205,240,13582,2,0,L|221:362,1,107.999996704102,0|4,3:0|3:0,0:0:0:0:
303,263,13868,5,0,3:0:0:0:
313,266,13939,1,0,3:0:0:0:
322,270,14011,2,0,L|338:392,1,107.999996704102,0|4,3:0|3:0,0:0:0:0:
438,374,14296,6,0,L|430:300,3,53.9999983520508,4|0|0|0,3:2|0:0|0:0|3:0,0:0:0:0:
491,245,14582,1,4,3:2:0:0:
399,205,14725,5,8,3:0:0:0:
389,202,14796,1,4,3:0:0:0:
380,198,14868,2,0,L|364:76,1,107.999996704102,4|0,3:0|3:0,0:0:0:0:
235,19,15154,6,0,B|244:108|244:108|241:112|241:112|257:270,1,215.999993408203,4|4,3:2|3:2,0:0:0:0:
247,323,15582,5,2,1:0:0:0:
238,325,15653,1,0,3:2:0:0:
229,327,15724,1,0,3:2:0:0:
220,329,15796,1,0,3:2:0:0:
211,331,15867,1,0,3:2:0:0:
161,251,16010,2,0,P|134:256|114:265,5,45,10|0|0|0|0|0,3:2|3:2|3:2|3:2|3:2|3:2,0:0:0:0:
112,384,16439,2,0,P|97:361|89:341,5,45,2|0|0|0|0|0,3:2|3:2|3:2|3:2|3:2|3:2,0:0:0:0:
23,284,16867,2,0,P|28:257|37:237,5,45,10|0|0|0|0|0,3:2|3:2|3:2|3:2|3:2|3:2,0:0:0:0:
116,161,17296,5,4,3:1:0:0:
116,161,17367,1,0,3:2:0:0:
116,161,17439,2,0,L|241:141,1,90,0|0,3:2|3:2,0:0:0:0:
277,37,17724,2,0,P|263:60|258:100,5,45,10|0|0|0|0|0,3:2|3:2|3:2|3:2|3:2|3:2,0:0:0:0:
365,152,18153,2,0,P|342:138|302:133,5,45,2|0|0|0|0|0,3:2|3:2|3:2|3:2|3:2|3:2,0:0:0:0:
250,240,18582,2,0,P|264:217|269:177,5,45,10|0|0|0|0|0,3:2|3:2|3:2|3:2|3:2|3:2,0:0:0:0:
161,265,19010,5,6,3:2:0:0:
158,273,19082,1,0,3:2:0:0:
156,281,19153,1,0,3:2:0:0:
154,289,19224,1,0,3:2:0:0:
152,297,19296,1,0,3:2:0:0:
213,368,19439,2,0,L|293:355,5,45,10|0|0|0|0|0,3:2|3:2|3:2|3:2|3:2|3:2,0:0:0:0:
322,292,19867,2,0,L|402:305,5,45,2|0|0|0|0|0,3:2|3:2|3:2|3:2|3:2|3:2,0:0:0:0:
426,368,20296,2,0,L|506:355,5,45,10|0|0|0|0|0,3:2|3:2|3:2|3:2|3:2|3:2,0:0:0:0:
469,263,20724,5,4,3:1:0:0:
460,259,20796,1,0,3:2:0:0:
451,255,20867,2,0,L|467:127,1,90,0|0,3:2|3:2,0:0:0:0:
449,32,21153,2,0,L|462:101,5,45,10|0|0|0|0|0,3:2|3:2|3:2|3:2|3:2|3:2,0:0:0:0:
370,163,21582,2,0,L|383:94,5,45,2|0|0|0|0|0,3:2|3:2|3:2|3:2|3:2|3:2,0:0:0:0:
291,32,22010,2,0,L|304:101,5,45,10|0|0|0|0|0,3:2|3:2|3:2|3:2|3:2|3:2,0:0:0:0:
215,148,22439,5,6,1:2:0:0:
202,142,22510,1,0,3:2:0:0:
191,133,22582,1,0,3:2:0:0:
183,121,22653,1,0,3:2:0:0:
178,108,22724,1,0,3:2:0:0:
298,94,22867,2,0,L|286:170,5,45,10|0|0|0|0|0,3:2|3:2|3:2|3:2|3:2|3:2,0:0:0:0:
258,215,23296,2,0,L|270:291,5,45,2|0|0|0|0|0,3:2|3:2|3:2|3:2|3:2|3:2,0:0:0:0:
300,335,23724,2,0,L|288:411,5,45,10|0|0|0|0|0,3:2|3:2|3:2|3:2|3:2|3:2,0:0:0:0:
144,376,24153,5,4,3:1:0:0:
154,367,24224,1,0,3:2:0:0:
161,355,24296,2,0,P|126:308|64:313,1,90,0|0,3:2|3:2,0:0:0:0:
5,205,24582,2,0,P|30:224|48:245,5,45,10|0|0|0|0|0,3:2|3:2|3:2|3:2|3:2|3:2,0:0:0:0:
94,126,25010,2,0,P|62:130|35:128,5,45,2|0|0|0|0|0,3:2|3:2|3:2|3:2|3:2|3:2,0:0:0:0:
122,220,25439,2,0,P|141:195|162:177,5,45,10|0|0|0|0|0,3:2|3:2|3:2|3:2|3:2|3:2,0:0:0:0:
240,142,25867,5,6,3:2:0:0:
253,141,25939,1,0,3:2:0:0:
265,144,26010,1,0,3:2:0:0:
277,150,26082,1,0,3:2:0:0:
287,158,26153,1,0,3:2:0:0:
354,211,26296,2,0,P|333:237|319:268,5,45,10|0|0|0|0|0,3:2|3:2|3:2|3:2|3:2|3:2,0:0:0:0:
246,244,26725,2,0,P|249:277|261:309,5,45,2|0|0|0|0|0,3:2|3:2|3:2|3:2|3:2|3:2,0:0:0:0:
192,343,27153,2,0,P|218:364|249:378,5,45,10|0|0|0|0|0,3:2|3:2|3:2|3:2|3:2|3:2,0:0:0:0:
358,357,27582,6,0,L|284:343,5,45,4|0|0|0|0|0,3:1|3:2|3:2|3:2|3:2|3:2,0:0:0:0:
423,298,28010,2,0,L|497:284,5,45,10|0|0|0|0|0,3:2|3:2|3:2|3:2|3:2|3:2,0:0:0:0:
373,208,28439,5,2,1:2:0:0:
380,197,28510,1,0,3:2:0:0:
385,184,28582,2,0,L|374:62,1,90,8|4,3:0|3:0,0:0:0:0:
271,160,28867,5,10,1:2:0:0:
278,149,28938,1,0,3:2:0:0:
283,136,29010,2,0,L|272:14,1,90,4|4,3:0|3:0,0:0:0:0:
161,17,29296,5,2,3:1:0:0:
144,22,29438,1,0,3:0:0:0:
127,28,29581,1,0,3:0:0:0:
155,169,29724,2,0,P|174:124|224:77,2,90,10|0|0,3:2|3:0|3:0,0:0:0:0:
86,223,30153,1,2,3:2:0:0:
81,230,30224,1,0,3:0:0:0:
76,237,30296,1,0,3:0:0:0:
71,244,30367,1,0,3:0:0:0:
66,251,30438,1,0,3:0:0:0:
133,322,30581,5,10,3:2:0:0:
144,339,31010,5,2,3:2:0:0:
161,344,31152,1,0,3:0:0:0:
178,350,31295,1,0,3:0:0:0:
282,286,31438,2,0,P|241:279|175:263,2,90,10|0|0,3:2|3:0|3:0,0:0:0:0:
350,362,31867,1,2,3:2:0:0:
360,353,31938,1,0,3:0:0:0:
371,345,32010,1,0,3:0:0:0:
383,338,32081,1,0,3:0:0:0:
395,332,32153,1,0,3:0:0:0:
482,333,32296,5,10,3:2:0:0:
482,181,32724,6,0,P|457:215|435:278,1,90,2|0,3:2|3:0,0:0:0:0:
308,135,33010,2,0,L|415:143,2,90,0|10|0,3:0|3:2|3:0,0:0:0:0:
237,195,33438,1,0,3:0:0:0:
168,141,33581,1,2,3:2:0:0:
162,128,33653,1,0,3:0:0:0:
157,115,33724,1,0,3:0:0:0:
151,102,33796,1,0,3:0:0:0:
146,89,33867,1,0,3:0:0:0:
194,7,34010,5,10,3:2:0:0:
207,16,34438,5,2,3:2:0:0:
227,27,34581,1,0,3:0:0:0:
251,27,34724,1,0,3:0:0:0:
331,64,34867,2,0,P|304:114|286:175,2,90,10|0|0,3:2|3:0|3:0,0:0:0:0:
446,14,35296,5,2,3:2:0:0:
436,23,35367,1,0,3:0:0:0:
427,33,35438,1,0,3:0:0:0:
419,44,35510,1,0,3:0:0:0:
412,55,35581,1,0,3:0:0:0:
451,131,35724,2,0,P|475:171|497:245,1,90,10|8,3:2|3:0,0:0:0:0:
435,294,36010,1,4,3:0:0:0:
435,294,36081,1,4,3:0:0:0:
435,294,36153,6,0,P|407:331|382:378,2,90,6|0|0,3:2|3:0|3:0,0:0:0:0:
328,258,36581,2,0,P|300:221|275:174,2,90,10|0|0,3:2|3:0|3:0,0:0:0:0:
270,353,37010,1,2,3:2:0:0:
260,343,37081,1,0,3:0:0:0:
248,335,37153,1,0,3:0:0:0:
236,328,37224,1,0,3:0:0:0:
223,322,37296,1,0,3:0:0:0:
141,334,37438,5,10,3:2:0:0:
126,327,37867,5,2,3:2:0:0:
99,323,38010,1,0,3:0:0:0:
73,331,38153,1,0,3:0:0:0:
58,250,38296,2,0,L|47:140,2,90,10|0|0,3:2|3:0|3:0,0:0:0:0:
161,233,38724,1,2,3:2:0:0:
173,237,38796,1,0,3:0:0:0:
184,244,38867,1,0,3:0:0:0:
193,253,38938,1,0,3:0:0:0:
201,263,39010,1,0,3:0:0:0:
212,349,39153,5,10,3:2:0:0:
226,360,39581,5,2,3:2:0:0:
251,365,39724,1,0,3:0:0:0:
277,358,39867,1,0,3:0:0:0:
332,283,40010,2,0,P|395:257|449:266,2,90,10|0|0,3:2|3:0|3:0,0:0:0:0:
257,216,40438,1,2,3:2:0:0:
261,200,40510,1,0,3:0:0:0:
259,183,40581,1,0,3:0:0:0:
253,168,40653,1,0,3:0:0:0:
242,156,40724,1,0,3:0:0:0:
165,123,40867,5,10,3:2:0:0:
147,127,41296,5,2,3:2:0:0:
128,140,41438,1,0,3:0:0:0:
118,157,41581,1,0,3:0:0:0:
36,113,41724,2,0,L|27:13,2,90,10|0|0,3:2|3:0|3:0,0:0:0:0:
40,202,42153,1,2,3:2:0:0:
35,214,42224,1,0,3:0:0:0:
30,226,42296,1,0,3:0:0:0:
26,238,42367,1,0,3:0:0:0:
22,250,42438,1,0,3:0:0:0:
62,320,42581,5,10,3:2:0:0:
69,335,43010,6,0,L|83:265,5,45,6|0|0|0|0|0,1:2|3:2|3:2|3:2|3:2|3:2,0:0:0:0:
158,328,43438,2,0,L|144:398,5,45,10|0|0|0|0|0,3:2|3:2|3:2|3:2|3:2|3:2,0:0:0:0:
243,338,43867,2,0,L|257:408,5,45,2|0|0|0|0|0,3:2|3:2|3:2|3:2|3:2|3:2,0:0:0:0:
332,345,44295,2,0,L|318:275,5,45,10|0|0|0|0|0,3:2|3:2|3:2|3:2|3:2|3:2,0:0:0:0:
250,246,44724,5,4,3:1:0:0:
243,234,44795,1,0,3:2:0:0:
236,222,44867,1,0,3:2:0:0:
229,210,44938,1,0,3:2:0:0:
221,198,45010,1,0,3:2:0:0:
240,119,45152,2,0,L|307:130,5,45,10|0|0|0|0|0,3:2|3:2|3:2|3:2|3:2|3:2,0:0:0:0:
335,12,45581,2,0,L|350:68,3,45,2|0|0|0,3:2|3:2|3:2|3:2,0:0:0:0:
466,58,45867,2,0,L|420:109,3,45,0|0|10|0,3:2|3:2|3:2|3:2,0:0:0:0:
367,143,46152,2,0,P|316:163|288:190,1,90,0|0,3:2|3:2,0:0:0:0:
366,257,46438,5,6,3:2:0:0:
369,270,46510,1,0,3:2:0:0:
371,283,46581,1,0,3:2:0:0:
373,296,46652,1,0,3:2:0:0:
375,309,46724,1,0,3:2:0:0:
455,284,46867,2,0,P|479:252|500:232,5,45,10|0|0|0|0|0,3:2|3:2|3:2|3:2|3:2|3:2,0:0:0:0:
375,309,47295,2,0,P|369:269|370:240,5,45,2|0|0|0|0|0,3:2|3:2|3:2|3:2|3:2|3:2,0:0:0:0:
336,383,47724,2,0,P|304:359|284:338,5,45,10|0|0|0|0|0,3:2|3:2|3:2|3:2|3:2|3:2,0:0:0:0:
237,273,48152,5,4,3:1:0:0:
223,274,48224,1,0,3:2:0:0:
210,278,48295,2,0,P|171:318|141:370,1,90,0|0,3:2|3:2,0:0:0:0:
54,360,48581,2,0,P|40:332|21:308,5,45,10|0|0|0|0|0,3:2|3:2|3:2|3:2|3:2|3:2,0:0:0:0:
79,236,49010,2,0,P|49:226|18:222,3,45,2|0|0|0,3:2|3:2|3:2|3:2,0:0:0:0:
152,188,49295,2,0,P|137:159|118:134,3,45,0|0|10|0,3:2|3:2|3:2|3:2,0:0:0:0:
160,273,49581,2,0,P|210:307|240:336,1,90,0|0,3:2|3:2,0:0:0:0:
249,190,49867,5,6,1:2:0:0:
248,176,49938,1,0,3:2:0:0:
247,162,50010,1,0,3:2:0:0:
246,148,50081,1,0,3:2:0:0:
246,134,50152,1,0,3:2:0:0:
143,96,50295,2,0,P|124:102|92:119,5,45,10|0|0|0|0|0,3:2|3:2|3:2|3:2|3:2|3:2,0:0:0:0:
126,237,50724,2,0,P|124:198|114:174,5,45,2|0|0|0|0|0,3:2|3:2|3:2|3:2|3:2|3:2,0:0:0:0:
2,172,51152,2,0,P|30:178|63:170,5,45,10|0|0|0|0|0,3:2|3:2|3:2|3:2|3:2|3:2,0:0:0:0:
109,93,51581,5,4,3:1:0:0:
112,79,51652,1,0,3:2:0:0:
114,66,51724,2,0,L|230:48,1,90,0|0,3:2|3:2,0:0:0:0:
322,14,52010,2,0,P|292:51|281:80,5,45,10|0|0|0|0|0,3:2|3:2|3:2|3:2|3:2|3:2,0:0:0:0:
355,107,52438,2,0,P|359:154|372:182,5,45,2|0|0|0|0|0,3:2|3:2|3:2|3:2|3:2|3:2,0:0:0:0:
452,249,52867,2,0,P|488:219|518:208,2,45,10|0|0,3:2|3:2|3:2,0:0:0:0:
454,144,53081,2,0,P|500:136|531:142,2,45,0|0|0,3:2|3:2|3:2,0:0:0:0:
483,39,53295,5,6,3:2:0:0:
472,48,53367,1,0,3:2:0:0:
460,54,53438,1,0,3:2:0:0:
447,60,53510,1,0,3:2:0:0:
433,63,53581,1,0,3:2:0:0:
348,83,53724,2,0,P|330:106|319:128,5,45,10|0|0|0|0|0,3:2|3:2|3:2|3:2|3:2|3:2,0:0:0:0:
343,239,54152,2,0,P|331:219|317:202,5,45,2|0|0|0|0|0,3:2|3:2|3:2|3:2|3:2|3:2,0:0:0:0:
204,140,54581,2,0,P|247:158|270:165,5,45,10|0|0|0|0|0,3:2|3:2|3:2|3:2|3:2|3:2,0:0:0:0:
254,68,55010,5,4,3:1:0:0:
173,27,55152,1,8,3:2:0:0:
173,27,55224,1,8,3:2:0:0:
173,27,55295,1,8,3:2:0:0:
101,101,55438,2,0,L|88:176,5,45,8|0|4|0|0|0,3:0|3:2|3:0|3:2|3:2|3:2,0:0:0:0:
10,192,55867,6,0,P|34:217|44:242,2,45,6|0|10,3:2|3:2|3:2,0:0:0:0:
125,247,56152,2,0,P|124:281|113:306,2,45,2|0|4,3:2|3:2|3:1,0:0:0:0:
200,344,56438,2,0,P|175:368|150:378,2,45,2|0|2,3:2|3:2|3:2,0:0:0:0:
301,337,56724,5,14,1:2:0:0:
453,222,57581,6,0,L|345:236,1,90,14|0,1:2|0:0,0:0:0:0:
356,58,58010,6,0,B|342:52|342:52|341:44|341:44|353:47|353:47|361:66,1,45,14|0,1:2|0:0,0:0:0:0:
440,81,58152,2,0,B|446:67|446:67|454:66|454:66|451:78|451:78|432:86,1,45,14|0,3:2|0:0,0:0:0:0:
382,140,58295,2,0,B|379:155|379:155|372:157|372:157|372:145|372:145|388:133,1,45,14|0,3:2|0:0,0:0:0:0:
291,114,58438,5,14,1:2:0:0:
187,76,59081,5,8,3:0:0:0:
182,63,59152,1,4,3:0:0:0:
176,50,59224,1,0,3:0:0:0:
170,37,59295,6,0,P|119:21|75:47,1,90,4|0,1:2|3:0,0:0:0:0:
28,130,59580,1,8,3:2:0:0:
28,130,59652,1,8,3:2:0:0:
28,130,59723,2,0,L|45:239,1,90,4|0,1:0|3:0,0:0:0:0:
147,269,60009,5,8,3:0:0:0:
147,269,60080,1,8,3:0:0:0:
147,269,60152,2,0,P|94:281|53:323,1,90,4|0,1:2|3:0,0:0:0:0:
211,369,60437,1,4,3:0:0:0:
211,369,60508,1,4,3:0:0:0:
211,369,60580,2,0,P|264:357|305:315,1,90,4|8,1:0|3:2,0:0:0:0:
280,239,60866,1,8,3:2:0:0:
366,278,61009,6,0,L|443:294,5,45,4|8|2|8|2|8,1:2|3:2|3:2|3:2|3:2|3:2,0:0:0:0:
490,209,61437,6,0,B|470:200|470:200|517:211,1,45,2|8,3:2|3:2,0:0:0:0:
389,152,61580,2,0,B|409:143|409:143|362:154,1,45,2|8,3:2|3:2,0:0:0:0:
494,90,61723,2,0,B|474:81|474:81|521:92,1,45,2|8,3:2|3:2,0:0:0:0:
387,57,61866,6,0,L|377:1,5,45,2|8|2|8|2|8,3:2|3:2|3:2|3:2|3:2|3:2,0:0:0:0:
240,30,62294,6,0,P|244:26|236:31,1,45,2|8,3:2|3:2,0:0:0:0:
293,105,62437,2,0,P|297:109|292:101,1,45,2|8,3:2|3:2,0:0:0:0:
277,195,62580,2,0,P|277:200|279:191,1,45,2|8,3:2|3:2,0:0:0:0:
197,235,62723,6,0,L|137:228,5,45,4|8|2|8|2|8,3:2|3:2|3:2|3:2|3:2|3:2,0:0:0:0:
116,146,63151,6,0,B|111:131|111:131|118:125|118:125|124:134|124:134|118:156,1,45,2|8,3:2|3:2,0:0:0:0:
66,223,63294,2,0,B|61:238|61:238|68:244|68:244|74:235|74:235|68:213,1,45,2|8,3:2|3:2,0:0:0:0:
22,150,63437,2,0,B|17:135|17:135|24:129|24:129|30:138|30:138|24:160,1,45,2|0,3:2|3:2,0:0:0:0:
72,49,63580,6,0,L|181:31,1,90,4|8,3:2|2:0,0:0:0:0:
278,19,63866,1,8,2:0:0:0:
278,19,63937,1,8,2:0:0:0:
278,19,64009,6,0,L|346:29,1,45,10|0,3:2|0:0,0:0:0:0:
280,105,64151,2,0,L|321:160,1,45,10|0,3:2|0:0,0:0:0:0:
220,167,64294,2,0,L|210:235,1,45,10|0,3:2|0:0,0:0:0:0:
133,168,64437,6,0,L|77:209,5,45,4|8|2|8|2|8,1:2|3:2|3:2|3:2|3:2|3:2,0:0:0:0:
53,290,64866,6,0,P|61:283|53:292,1,45,2|8,3:2|3:2,0:0:0:0:
121,365,65009,2,0,P|129:372|121:363,1,45,2|8,3:2|3:2,0:0:0:0:
149,272,65151,2,0,P|157:265|149:274,1,45,2|8,3:2|3:2,0:0:0:0:
218,348,65294,6,0,L|305:359,5,45,2|8|2|8|2|8,3:2|3:2|3:2|3:2|3:2|3:2,0:0:0:0:
336,271,65723,6,0,B|321:292|321:292|349:269,1,45,2|8,3:2|3:2,0:0:0:0:
395,335,65866,2,0,B|399:360|399:360|402:324,1,45,2|8,3:2|3:2,0:0:0:0:
487,336,66009,2,0,B|508:351|508:351|485:323,1,45,2|8,3:2|3:2,0:0:0:0:
455,258,66151,6,0,L|401:237,5,45,4|8|2|8|2|8,3:2|3:2|3:2|3:2|3:2|3:2,0:0:0:0:
342,171,66580,6,0,L|400:160,1,45,2|8,3:2|3:2,0:0:0:0:
426,85,66723,2,0,L|368:74,1,45,2|8,3:2|3:2,0:0:0:0:
296,10,66866,2,0,L|354:-1,1,45,2|0,3:2|3:2,0:0:0:0:
490,5,67009,6,0,P|458:84|486:150,1,135.000005149841,4|8,3:2|2:0,0:0:0:0:
479,247,67294,1,8,2:0:0:0:
479,247,67366,1,8,2:0:0:0:
479,247,67437,2,0,P|414:208|349:228,1,135.000005149841,4|0,3:1|3:0,0:0:0:0:
271,317,67723,5,4,3:0:0:0:
271,317,67794,1,8,3:0:0:0:
271,317,67866,2,0,L|258:149,1,135.000005149841,4|0,3:2|3:0,0:0:0:0:
134,97,68151,1,4,3:0:0:0:
134,97,68222,1,8,3:0:0:0:
134,97,68294,2,0,L|147:265,1,135.000005149841,4|8,3:1|3:2,0:0:0:0:
69,316,68580,1,8,3:2:0:0:
39,222,68723,5,6,1:0:0:0:
42,214,68794,1,10,2:0:0:0:
45,206,68865,1,0,3:0:0:0:
48,198,68937,1,10,2:0:0:0:
50,190,69008,1,0,3:0:0:0:
52,182,69080,1,10,2:0:0:0:
54,174,69151,2,0,B|37:138|37:138|41:180,5,80.9999975280763,0|10|0|10|0|10,3:0|2:0|3:0|2:0|3:0|2:0,0:0:0:0:
139,116,69580,5,0,3:2:0:0:
136,124,69651,1,10,2:0:0:0:
133,132,69723,2,0,L|154:254,1,116.999994644165,0|0,3:0|3:0,0:0:0:0:
243,211,70008,5,0,3:0:0:0:
240,219,70080,1,10,2:0:0:0:
237,227,70150,2,0,L|258:349,1,116.999994644165,0|0,3:0|3:0,0:0:0:0:
384,330,70437,6,0,P|407:316|382:327,5,80.9999975280763,0|10|0|10|0|10,3:2|2:0|3:0|2:0|3:0|2:0,0:0:0:0:
377,195,70865,2,0,P|369:220|374:193,5,80.9999975280763,0|10|0|10|0|10,3:0|2:0|3:0|2:0|3:0|2:0,0:0:0:0:
486,254,71294,2,0,P|460:246|487:251,5,80.9999975280763,0|10|0|10|0|10,3:2|2:0|3:0|2:0|3:0|2:0,0:0:0:0:
499,113,71723,5,0,3:2:0:0:
491,114,71794,1,8,2:0:0:0:
483,115,71865,1,8,3:2:0:0:
474,116,71937,1,8,2:0:0:0:
466,117,72008,1,8,3:2:0:0:
457,118,72080,1,8,2:0:0:0:
447,117,72151,6,0,P|388:105|350:117,5,80.9999975280763,6|10|0|10|0|10,1:0|2:0|3:0|2:0|3:0|2:0,0:0:0:0:
337,9,72580,2,0,P|286:42|268:77,5,80.9999975280763,0|10|0|10|0|10,3:0|2:0|3:0|2:0|3:0|2:0,0:0:0:0:
264,173,73008,6,0,B|288:139|288:139|238:191,3,80.9999975280763,0|10|0|10,3:2|2:0|3:0|2:0,0:0:0:0:
202,239,73294,6,0,B|160:242|160:242|230:225,3,80.9999975280763,0|10|0|10,3:0|2:0|3:0|2:0,0:0:0:0:
291,261,73580,6,0,B|332:264|332:264|262:247,3,80.9999975280763,0|10|0|10,3:0|2:0|3:0|2:0,0:0:0:0:
229,324,73865,5,0,3:2:0:0:
227,332,73937,1,10,2:0:0:0:
225,339,74008,1,0,3:0:0:0:
223,347,74080,1,10,2:0:0:0:
221,354,74151,1,0,3:0:0:0:
219,362,74223,1,10,2:0:0:0:
216,369,74294,2,0,P|179:352|128:352,5,80.9999975280763,0|10|0|10|0|10,3:0|2:0|3:0|2:0|3:0|2:0,0:0:0:0:
39,326,74723,5,4,1:0:0:0:
42,318,74794,1,0,3:1:0:0:
45,310,74865,2,0,L|24:188,1,116.999994644165,0|4,3:0|3:0,0:0:0:0:
128,259,75151,5,4,1:2:0:0:
131,251,75222,1,0,3:0:0:0:
134,243,75293,2,0,L|113:121,1,116.999994644165,0|4,3:0|3:0,0:0:0:0:
60,23,75580,5,6,1:0:0:0:
54,28,75651,1,10,2:0:0:0:
48,34,75723,1,0,3:0:0:0:
44,41,75794,1,10,2:0:0:0:
41,48,75865,1,0,3:0:0:0:
39,55,75937,1,10,2:0:0:0:
37,62,76008,2,0,P|80:78|112:122,5,80.9999975280763,0|10|0|10|0|10,3:0|2:0|3:0|2:0|3:0|2:0,0:0:0:0:
41,205,76437,5,0,3:2:0:0:
46,198,76508,1,10,2:0:0:0:
51,191,76580,2,0,L|209:206,1,116.999994644165,0|0,3:0|3:0,0:0:0:0:
105,297,76865,5,0,3:0:0:0:
110,290,76936,1,10,2:0:0:0:
115,283,77008,2,0,L|273:298,1,116.999994644165,0|0,3:0|3:0,0:0:0:0:
322,138,77294,6,0,P|285:167|270:223,5,80.9999975280763,0|10|0|10|0|10,3:2|2:0|3:0|2:0|3:0|2:0,0:0:0:0:
332,266,77723,2,0,P|326:312|355:362,5,80.9999975280763,0|10|0|10|0|10,3:0|2:0|3:0|2:0|3:0|2:0,0:0:0:0:
427,334,78151,2,0,P|456:371|512:386,5,80.9999975280763,0|10|0|10|0|10,3:2|2:0|3:0|2:0|3:0|2:0,0:0:0:0:
511,228,78580,6,0,P|409:247|92:345,1,404.999987640381,4|10,3:2|2:0,0:0:0:0:
44,279,79008,5,6,1:0:0:0:
40,271,79080,1,10,2:0:0:0:
37,263,79151,1,0,3:0:0:0:
35,255,79223,1,10,2:0:0:0:
33,247,79294,1,0,3:0:0:0:
32,238,79365,1,10,2:0:0:0:
31,229,79437,2,0,B|24:210|24:210|39:197|39:197|46:216|46:216|31:234,5,80.9999975280763,0|10|0|10|0|10,3:0|2:0|3:0|2:0|3:0|2:0,0:0:0:0:
137,212,79865,6,0,B|125:173|125:173|145:229,3,80.9999975280763,0|10|0|10,3:2|2:0|3:0|2:0,0:0:0:0:
217,258,80151,6,0,B|236:221|236:221|210:275,3,80.9999975280763,0|10|0|10,3:0|2:0|3:0|2:0,0:0:0:0:
142,304,80437,6,0,B|130:343|130:343|150:287,3,80.9999975280763,0|10|0|10,3:0|2:0|3:0|2:0,0:0:0:0:
235,365,80723,5,4,1:2:0:0:
250,346,80794,1,0,3:0:0:0:
269,331,80865,1,8,3:2:0:0:
289,318,80937,1,8,3:2:0:0:
311,310,81008,1,8,3:2:0:0:
422,351,81151,5,8,3:0:0:0:
425,335,81223,1,8,3:0:0:0:
428,319,81294,1,8,3:2:0:0:
475,248,81437,1,4,3:0:0:0:
361,221,81580,5,8,3:2:0:0:
364,205,81651,1,0,3:0:0:0:
367,189,81723,2,0,L|534:173,1,116.999994644165,8|4,3:0|3:0,0:0:0:0:
288,137,82008,5,8,1:3:0:0:
291,121,82079,1,8,3:0:0:0:
294,105,82151,2,0,L|405:93,3,58.4999973220826,4|4|8|8,3:0|3:0|3:0|3:0,0:0:0:0:
436,59,82437,6,0,L|448:1,5,45,2|0|0|0|0|0,1:2|3:2|3:2|3:2|3:2|3:2,0:0:0:0:
431,156,82865,1,10,3:2:0:0:
431,156,82937,1,0,0:0:0:0:
431,156,83008,2,0,L|319:183,1,90,0|0,3:2|3:2,0:0:0:0:
265,136,83294,6,0,L|192:158,5,45,2|0|0|0|0|0,3:2|3:2|3:2|3:2|3:2|3:2,0:0:0:0:
200,59,83723,6,0,B|203:33|203:33|216:63,1,45,10|0,3:2|0:0,0:0:0:0:
128,115,83865,2,0,B|112:94|112:94|142:106,3,45,0|0|0|0,3:2|0:0|3:2|0:0,0:0:0:0:
47,156,84151,6,0,L|-21:141,5,45,2|0|0|0|0|0,3:2|3:2|3:2|3:2|3:2|3:2,0:0:0:0:
32,267,84580,6,0,P|44:256|31:264,1,45,10|0,3:2|0:0,0:0:0:0:
132,245,84723,2,0,P|144:234|131:242,1,45,0|0,3:2|0:0,0:0:0:0:
231,217,84865,2,0,P|243:206|230:214,1,45,0|0,3:2|0:0,0:0:0:0:
216,314,85008,6,0,L|198:368,3,45,2|0|0|0,3:2|3:2|3:2|3:2,0:0:0:0:
313,362,85294,6,0,L|299:320,3,45,0|0|10|0,3:2|3:2|3:2|0:0,0:0:0:0:
368,275,85580,6,0,L|410:312,3,45,0|0|0|0,3:2|0:0|3:2|0:0,0:0:0:0:
296,223,85865,6,0,L|231:239,5,45,2|0|0|0|0|0,3:2|3:2|3:2|3:2|3:2|3:2,0:0:0:0:
180,178,86294,6,0,L|147:149,1,45,10|0,3:2|0:0,0:0:0:0:
248,133,86437,2,0,L|233:90,1,45,0|0,3:2|0:0,0:0:0:0:
331,139,86580,2,0,L|346:97,1,45,0|0,3:2|0:0,0:0:0:0:
397,198,86723,6,0,L|466:180,5,45,2|0|0|0|0|0,3:2|3:2|3:2|3:2|3:2|3:2,0:0:0:0:
354,105,87151,1,10,3:2:0:0:
354,105,87223,1,0,0:0:0:0:
354,105,87294,2,0,P|304:101|250:105,1,90,0|0,3:2|3:2,0:0:0:0:
161,15,87580,6,0,P|180:37|195:73,5,45,2|0|0|0|0|0,3:2|3:2|3:2|3:2|3:2|3:2,0:0:0:0:
157,130,88008,2,0,P|154:158|140:195,5,45,10|0|0|0|0|0,3:2|3:2|3:2|3:2|3:2|3:2,0:0:0:0:
51,177,88437,6,0,P|32:204|17:237,3,45,8|0|4|0,3:0|3:2|3:0|3:2,0:0:0:0:
108,254,88723,6,0,P|113:286|126:320,3,45,0|0|8|0,3:2|3:2|3:0|3:0,0:0:0:0:
202,268,89008,6,0,P|229:287|262:302,3,45,4|0|0|0,3:0|3:2|3:2|3:2,0:0:0:0:
318,366,89294,6,0,L|245:384,5,45,2|0|0|0|0|0,1:2|3:2|3:2|3:2|3:2|3:2,0:0:0:0:
188,367,89723,6,0,P|158:355|126:354,1,45,10|0,3:2|0:0,0:0:0:0:
239,292,89865,2,0,P|226:262|204:238,1,45,0|0,3:2|0:0,0:0:0:0:
328,275,90008,2,0,P|340:244|341:212,1,45,0|0,3:2|0:0,0:0:0:0:
401,329,90151,6,0,L|454:339,5,45,2|0|0|0|0|0,3:2|3:2|3:2|3:2|3:2|3:2,0:0:0:0:
505,244,90580,6,0,L|419:258,1,45,10|0,3:2|0:0,0:0:0:0:
421,176,90723,2,0,L|466:169,1,45,0|0,3:2|0:0,0:0:0:0:
484,85,90865,2,0,L|398:99,1,45,0|0,3:2|0:0,0:0:0:0:
363,51,91008,6,0,L|371:-22,5,45,2|0|0|0|0|0,3:2|3:2|3:2|3:2|3:2|3:2,0:0:0:0:
333,143,91437,1,10,3:2:0:0:
333,143,91508,1,0,0:0:0:0:
333,143,91580,2,0,P|278:167|228:194,1,90,0|0,3:2|3:2,0:0:0:0:
191,103,91865,1,2,3:2:0:0:
191,103,91936,1,0,3:2:0:0:
191,103,92008,2,0,P|155:151|125:199,1,90,0|0,3:2|3:2,0:0:0:0:
48,139,92294,1,10,3:2:0:0:
48,139,92365,1,0,0:0:0:0:
48,139,92437,2,0,P|41:198|39:255,1,90,0|0,3:2|3:2,0:0:0:0:
122,308,92723,6,0,P|130:279|128:252,5,45,2|0|0|0|0|0,3:2|3:2|3:2|3:2|3:2|3:2,0:0:0:0:
139,176,93151,2,0,B|128:159|128:159|143:179,1,45,10|0,3:2|0:0,0:0:0:0:
226,196,93294,2,0,B|225:176|225:176|228:201,1,45,0|0,3:2|0:0,0:0:0:0:
293,252,93437,2,0,B|302:234|302:234|292:257,1,45,0|0,3:2|0:0,0:0:0:0:
219,328,93580,6,0,P|211:299|213:272,5,45,2|0|0|0|0|0,3:2|3:2|3:2|3:2|3:2|3:2,0:0:0:0:
308,348,94008,6,0,P|320:339|311:354,1,45,10|0,3:2|0:0,0:0:0:0:
396,298,94151,2,0,P|398:283|402:300,1,45,0|0,3:2|0:0,0:0:0:0:
308,251,94294,2,0,P|298:239|313:248,1,45,0|0,3:2|0:0,0:0:0:0:
414,202,94437,6,0,L|432:145,2,45,8|8|0,3:2|3:2|3:0,0:0:0:0:
356,115,94723,2,0,L|347:53,2,45,8|4|0,3:0|3:0|3:0,0:0:0:0:
265,79,95008,5,8,3:2:0:0:
247,74,95080,1,8,3:2:0:0:
229,69,95151,1,8,3:2:0:0:
211,65,95223,1,8,3:2:0:0:
193,61,95294,6,0,L|181:117,3,45,0|0|8|4,3:0|3:0|3:0|3:0,0:0:0:0:
106,166,95580,5,0,3:0:0:0:
106,166,95651,1,0,3:0:0:0:
106,166,95723,2,0,L|42:135,1,67.5000025749207,4|0,3:1|0:0,0:0:0:0:
181,197,95865,2,0,L|250:167,1,67.5000025749207,10|0,3:2|0:0,0:0:0:0:
116,251,96008,2,0,L|88:318,1,67.5000025749207,10|0,3:2|0:0,0:0:0:0:
236,318,96151,5,14,1:2:0:0:
286,330,97436,6,0,B|147:304|147:304|112:336,1,180,10|10,1:2|1:2,0:0:0:0:
106,320,98293,6,0,B|140:288|140:288|306:319,1,215.999993408203,10|10,1:2|1:2,0:0:0:0:
433,358,98722,6,0,P|480:282|468:255,1,90,4|0,1:2|0:0,0:0:0:0:
425,209,99008,1,0,3:2:0:0:
425,209,99079,1,0,3:2:0:0:
425,209,99151,2,0,L|308:227,1,90,10|0,3:2|0:0,0:0:0:0:
363,126,99436,1,0,3:2:0:0:
363,126,99507,1,0,3:2:0:0:
363,126,99579,2,0,L|246:144,1,90,10|0,3:2|0:0,0:0:0:0:
301,43,99865,1,0,3:2:0:0:
301,43,99936,1,0,3:2:0:0:
301,43,100008,6,0,L|117:71,1,180,6|4,3:2|3:2,0:0:0:0:
127,180,100436,5,10,3:2:0:0:
139,167,100508,1,0,3:2:0:0:
151,154,100579,1,0,3:2:0:0:
163,141,100651,1,0,3:2:0:0:
175,128,100722,1,0,3:2:0:0:
131,26,100865,6,0,P|154:92|193:249,1,215.999993408203,6|4,3:2|3:2,0:0:0:0:
208,332,101293,6,0,P|201:349|201:335,1,53.9999983520508,2|8,1:2|3:2,0:0:0:0:
276,266,101436,2,0,P|283:249|283:263,1,53.9999983520508,2|8,3:2|3:2,0:0:0:0:
305,352,101579,2,0,P|312:368|302:359,1,53.9999983520508,2|8,3:2|3:2,0:0:0:0:
213,320,101722,6,0,P|205:336|206:322,1,53.9999983520508,2|8,3:2|3:2,0:0:0:0:
287,260,101865,2,0,P|295:244|294:257,1,53.9999983520508,2|8,3:2|3:2,0:0:0:0:
308,348,102008,2,0,P|314:366|305:355,1,53.9999983520508,2|8,3:2|3:2,0:0:0:0:
225,304,102151,6,0,P|215:319|217:305,1,53.9999983520508,2|8,3:2|3:2,0:0:0:0:
303,251,102294,2,0,P|312:235|310:249,1,53.9999983520508,2|8,3:2|3:2,0:0:0:0:
317,341,102437,2,0,P|321:358|312:347,1,53.9999983520508,2|0,3:2|3:2,0:0:0:0:
389,297,102579,6,0,B|416:271|416:271|434:126|434:126|414:176,1,215.999993408203,4|4,3:2|3:2,0:0:0:0:
340,120,103008,6,0,L|361:48,1,53.9999983520508,8|2,3:2|3:2,0:0:0:0:
261,89,103151,2,0,L|282:17,1,53.9999983520508,8|2,3:2|3:2,0:0:0:0:
181,67,103293,2,0,L|202:-5,1,53.9999983520508,8|0,3:2|3:2,0:0:0:0:
63,135,103436,6,0,P|119:115|288:74,1,215.999993408203,4|4,3:2|3:2,0:0:0:0:
362,32,103865,6,0,B|355:13|355:13|370:14|370:14|363:33,1,53.9999983520508,2|8,1:2|3:2,0:0:0:0:
401,109,104008,2,0,B|413:125|413:125|420:111|420:111|400:107,1,53.9999983520508,2|8,3:2|3:2,0:0:0:0:
314,104,104151,2,0,B|301:120|301:120|294:106|294:106|314:102,1,53.9999983520508,2|8,3:2|3:2,0:0:0:0:
377,39,104293,6,0,B|371:19|371:19|386:22|386:22|378:40,1,53.9999983520508,2|8,3:2|3:2,0:0:0:0:
409,119,104436,2,0,B|420:136|420:136|429:123|429:123|409:118,1,53.9999983520508,2|8,3:2|3:2,0:0:0:0:
323,106,104579,2,0,B|309:122|309:122|303:107|303:107|323:105,1,53.9999983520508,2|8,3:2|3:2,0:0:0:0:
384,45,104722,6,0,B|380:25|380:25|395:28|395:28|385:46,1,53.9999983520508,2|8,3:2|3:2,0:0:0:0:
409,127,104865,2,0,B|418:145|418:145|428:133|428:133|409:126,1,53.9999983520508,2|8,3:2|3:2,0:0:0:0:
324,107,105008,2,0,B|310:121|310:121|304:106|304:106|325:106,1,53.9999983520508,2|0,3:2|3:2,0:0:0:0:
352,196,105151,6,0,B|365:379|365:379|388:345,1,215.999993408203,4|4,3:2|3:2,0:0:0:0:
499,265,105579,6,0,P|482:289|465:326,1,53.9999983520508,8|2,3:2|3:2,0:0:0:0:
397,259,105722,2,0,P|386:286|379:326,1,53.9999983520508,8|2,3:2|3:2,0:0:0:0:
296,279,105865,2,0,P|293:308|297:348,1,53.9999983520508,8|0,3:2|3:2,0:0:0:0:
208,369,106008,6,0,P|189:339|163:316,3,53.9999983520508,4|0|0|0,3:2|3:2|3:0|3:0,0:0:0:0:
91,308,106293,1,4,3:2:0:0:
155,238,106436,6,0,P|202:242|216:251,1,53.9999983520508,2|8,1:2|3:2,0:0:0:0:
73,210,106579,2,0,P|42:173|39:157,1,53.9999983520508,2|8,3:2|3:2,0:0:0:0:
89,297,106722,2,0,P|73:333|69:359,1,53.9999983520508,2|8,3:2|3:2,0:0:0:0:
155,242,106865,6,0,P|202:250|215:260,1,53.9999983520508,2|8,3:2|3:2,0:0:0:0:
76,207,107008,2,0,P|49:168|47:152,1,53.9999983520508,2|8,3:2|3:2,0:0:0:0:
84,295,107151,2,0,P|65:329|59:355,1,53.9999983520508,2|8,3:2|3:2,0:0:0:0:
156,246,107293,6,0,P|201:258|213:270,1,53.9999983520508,2|8,3:2|3:2,0:0:0:0:
80,204,107436,2,0,P|56:164|55:147,1,53.9999983520508,2|8,3:2|3:2,0:0:0:0:
80,293,107579,2,0,P|58:326|50:350,1,53.9999983520508,2|0,3:2|3:2,0:0:0:0:
159,161,107722,6,0,B|261:152|261:152|267:155|267:155|395:142,1,215.999993408203,4|4,3:2|3:2,0:0:0:0:
465,175,108151,6,0,L|457:103,1,53.9999983520508,8|2,3:2|3:2,0:0:0:0:
380,153,108293,2,0,L|372:81,1,53.9999983520508,8|2,3:2|3:2,0:0:0:0:
295,131,108436,2,0,L|287:59,1,53.9999983520508,8|0,3:2|3:2,0:0:0:0:
194,32,108579,6,0,L|216:261,1,215.999993408203,4|4,3:2|3:2,0:0:0:0:
173,352,109008,5,4,1:0:0:0:
173,352,109079,1,0,3:1:0:0:
173,352,109151,2,0,L|43:339,1,107.999996704102,0|4,3:0|3:0,0:0:0:0:
227,258,109436,5,0,3:0:0:0:
227,258,109507,1,0,3:0:0:0:
227,258,109579,2,0,L|97:245,1,107.999996704102,0|4,3:0|3:0,0:0:0:0:
281,164,109865,5,0,3:0:0:0:
281,164,109936,1,0,3:0:0:0:
281,164,110008,2,0,L|151:151,1,107.999996704102,0|4,3:0|3:0,0:0:0:0:
44,56,110293,6,0,L|282:78,1,215.999993408203,4|4,3:2|3:2,0:0:0:0:
357,101,110722,5,8,3:0:0:0:
357,101,110793,1,4,3:0:0:0:
357,101,110865,2,0,L|487:88,1,107.999996704102,4|0,3:0|3:0,0:0:0:0:
512,238,111151,6,0,L|274:216,1,215.999993408203,4|4,3:2|3:2,0:0:0:0:
211,273,111579,5,6,1:0:0:0:
256,192,111650,12,0,114579,0:0:0:0:
331,268,114793,6,0,L|391:261,1,33.75,0|0,3:0|3:0,0:0:0:0:
452,291,115007,1,6,1:0:0:0:
256,192,115114,12,0,118007,0:0:0:0:
181,268,118221,6,0,L|121:261,1,33.75,0|0,3:0|3:0,0:0:0:0:
256,192,118436,6,0,L|256:114,2,45,0|0|0,3:0|3:0|3:0,0:0:0:0:
329,232,118864,2,0,L|384:176,2,45,0|0|0,3:0|3:0|3:0,0:0:0:0:
355,315,119293,1,0,3:0:0:0:
265,295,119436,2,0,L|233:307,2,22.5,0|0|0,3:0|3:0|3:0,0:0:0:0:
108,239,119721,6,0,L|47:228,2,45,0|0|0,3:0|3:0|3:0,0:0:0:0:
154,321,120150,2,0,L|143:382,2,45,0|0|0,3:0|3:0|3:0,0:0:0:0:
225,257,120579,2,0,L|286:268,2,45,0|0|0,3:0|3:0|3:0,0:0:0:0:
180,178,121007,5,0,3:0:0:0:
201,91,121150,2,0,L|210:54,2,22.5,0|0|0,3:0|3:0|3:0,0:0:0:0:
109,114,121436,2,0,L|61:105,2,45,0|0|0,3:0|3:0|3:0,0:0:0:0:
273,162,121864,6,0,P|304:125|306:116,1,45,2|0,1:2|3:0,0:0:0:0:
356,31,122150,1,8,3:0:0:0:
356,31,122221,1,8,3:0:0:0:
356,31,122293,1,0,3:0:0:0:
438,85,122436,1,4,3:0:0:0:
438,85,122507,1,4,3:0:0:0:
438,85,122579,1,0,3:0:0:0:
391,164,122721,6,0,P|371:193|357:217,1,45,2|0,1:2|3:0,0:0:0:0:
415,280,123007,1,8,3:0:0:0:
415,280,123079,1,8,3:0:0:0:
415,280,123150,1,0,3:0:0:0:
366,355,123293,1,4,3:0:0:0:
366,355,123364,1,4,3:0:0:0:
366,355,123436,1,0,3:0:0:0:
457,357,123579,6,0,L|497:352,3,22.5,0|0|0|0,1:0|0:0|0:0|0:0,0:0:0:0:
501,277,123900,1,0,0:0:0:0:
504,264,124007,1,8,3:2:0:0:
351,263,124221,6,0,L|357:302,2,22.5,0|4|8,0:0|3:0|3:0,0:0:0:0:
283,200,124436,1,8,3:2:0:0:
198,233,124579,1,8,3:2:0:0:
206,327,124721,1,8,3:2:0:0:
301,353,124864,5,10,3:2:0:0:
114,285,125293,6,0,P|62:319|32:376,2,90,4|0|0,3:2|3:0|1:2,0:0:0:0:
282,181,125721,2,0,L|69:196,1,180,10|0,3:2|3:0,0:0:0:0:
51,30,126150,5,2,3:2:0:0:
131,106,126293,2,0,L|141:54,2,45,0|0|0,3:0|3:0|3:0,0:0:0:0:
262,8,126579,2,0,P|238:58|199:189,1,180,10|0,3:2|3:0,0:0:0:0:
369,203,127007,6,0,P|344:176|291:148,2,90,2|0|0,3:2|3:0|3:0,0:0:0:0:
389,312,127436,2,0,L|415:99,1,180,10|0,3:2|3:0,0:0:0:0:
353,21,127864,5,2,3:2:0:0:
372,30,128007,1,0,3:0:0:0:
391,40,128150,1,0,3:0:0:0:
296,138,128293,5,10,3:2:0:0:
373,79,128436,1,0,3:0:0:0:
289,42,128579,1,0,3:0:0:0:
286,149,128721,6,0,L|273:253,2,90,2|0|0,1:2|3:0|3:0,0:0:0:0:
200,76,129150,2,0,B|144:47|94:86|129:75|78:138|11:112,1,180,10|0,3:2|3:0,0:0:0:0:
26,17,129579,5,2,3:2:0:0:
27,125,129721,2,0,L|11:182,2,45,0|0|0,3:0|3:0|3:0,0:0:0:0:
170,190,130007,2,0,P|116:200|72:253,2,90,10|0|0,3:2|3:0|3:0,0:0:0:0:
221,290,130436,6,0,L|207:402,2,90,2|0|0,3:2|3:0|3:0,0:0:0:0:
24,317,130864,2,0,L|240:287,1,180,10|0,3:2|3:0,0:0:0:0:
369,243,131293,5,2,3:2:0:0:
346,227,131436,1,0,3:2:0:0:
322,237,131579,1,0,3:2:0:0:
370,365,131721,5,10,3:2:0:0:
390,265,131864,1,8,3:2:0:0:
410,165,132007,1,8,3:2:0:0:
348,98,132150,6,0,L|232:118,2,90,4|0|0,1:2|3:0|3:0,0:0:0:0:
501,231,132579,2,0,P|450:183|337:207,1,180,10|0,3:2|3:0,0:0:0:0:
332,368,133007,5,2,3:2:0:0:
407,308,133150,2,0,L|416:250,2,45,0|0|0,3:0|3:0|3:0,0:0:0:0:
285,290,133436,2,0,L|176:318,2,90,10|0|0,3:2|3:0|3:0,0:0:0:0:
291,120,133864,6,0,P|245:187|249:216,2,90,2|0|0,3:2|3:0|3:0,0:0:0:0:
292,7,134293,2,0,L|309:208,1,180,10|0,3:2|3:0,0:0:0:0:
191,253,134721,5,2,3:2:0:0:
199,215,134864,1,0,3:0:0:0:
234,229,135007,1,0,3:0:0:0:
252,321,135150,5,10,3:2:0:0:
169,283,135293,1,0,3:0:0:0:
107,349,135436,1,0,3:0:0:0:
75,263,135579,6,0,L|61:145,1,90,2|0,1:2|3:0,0:0:0:0:
147,111,135864,1,8,3:0:0:0:
147,111,135936,1,8,3:0:0:0:
147,111,136007,2,0,L|159:12,1,90,0|4,3:0|3:0,0:0:0:0:
307,167,136293,5,0,3:0:0:0:
307,167,136365,1,0,3:0:0:0:
307,167,136436,2,0,B|267:147|267:147|212:160,1,90,2|0,1:2|3:0,0:0:0:0:
367,314,136721,2,0,L|385:209,1,90,8|0,3:0|3:0,0:0:0:0:
451,142,137007,1,4,3:0:0:0:
451,142,137079,1,4,3:0:0:0:
451,142,137150,1,0,3:0:0:0:
377,64,137293,6,0,L|252:54,2,90,2|0|4,1:2|3:0|3:0,0:0:0:0:
423,176,137721,2,0,L|548:166,2,90,0|4|0,3:0|3:0|3:0,0:0:0:0:
313,198,138150,5,2,3:2:0:0:
366,271,138293,1,8,3:2:0:0:
326,347,138436,1,8,3:2:0:0:
210,199,138579,5,8,3:2:0:0:
157,272,138722,1,8,3:2:0:0:
197,348,138865,1,8,3:2:0:0:
302,358,139007,6,0,L|314:284,7,50.6250019311906,6|0|0|0|0|0|0|0,1:0|3:2|3:2|3:2|3:2|3:2|3:2|3:2,0:0:0:0:
402,286,139578,6,0,P|430:303|469:306,3,50.6250019311906,10|0|0|0,3:2|3:2|3:2|3:2,0:0:0:0:
475,219,139864,2,0,P|447:202|408:199,3,50.6250019311906,0|0|0|0,3:2|3:2|3:2|3:2,0:0:0:0:
334,209,140149,6,0,L|328:138,7,50.6250019311906,2|0|0|0|0|0|0|0,1:2|3:2|3:2|3:2|3:2|3:2|3:2|3:2,0:0:0:0:
241,145,140721,6,0,P|213:162|174:165,3,50.6250019311906,10|0|0|0,3:2|3:2|3:2|3:2,0:0:0:0:
168,78,141007,2,0,P|196:61|235:58,3,50.6250019311906,0|0|0|0,3:2|3:2|3:2|3:2,0:0:0:0:
304,70,141292,5,6,1:2:0:0:
308,68,141364,1,0,3:2:0:0:
312,66,141435,1,0,3:2:0:0:
316,64,141507,1,0,3:2:0:0:
320,61,141578,1,0,3:2:0:0:
323,57,141649,1,0,3:2:0:0:
326,53,141721,1,0,3:2:0:0:
423,55,141864,6,0,P|406:83|400:117,3,50.6250019311906,10|0|0|0,3:2|3:2|3:2|3:2,0:0:0:0:
460,165,142149,2,0,P|467:196|487:225,3,50.6250019311906,0|0|0|0,3:2|3:2|3:2|3:2,0:0:0:0:
415,275,142435,5,2,1:2:0:0:
411,277,142507,1,0,3:2:0:0:
407,279,142578,1,0,3:2:0:0:
403,281,142650,1,0,3:2:0:0:
399,284,142721,1,0,3:2:0:0:
396,288,142792,1,0,3:2:0:0:
393,292,142864,1,0,3:2:0:0:
301,314,143007,6,0,P|307:284|318:247,3,50.6250019311906,10|0|0|0,3:2|3:2|3:2|3:2,0:0:0:0:
230,376,143292,2,0,P|213:350|194:316,3,50.6250019311906,0|0|0|0,3:2|3:2|3:2|3:2,0:0:0:0:
126,272,143578,6,0,P|76:288|61:298,7,50.6250019311906,4|0|0|0|0|0|0|0,1:0|3:2|3:2|3:2|3:2|3:2|3:2|3:2,0:0:0:0:
22,209,144149,6,0,L|14:131,3,50.6250019311906,10|0|0|0,3:2|3:2|3:2|3:2,0:0:0:0:
108,178,144435,2,0,L|100:100,3,50.6250019311906,0|0|0|0,3:2|3:2|3:2|3:2,0:0:0:0:
38,75,144721,6,0,L|31:2,7,50.6250019311906,2|0|0|0|0|0|0|0,1:2|3:2|3:2|3:2|3:2|3:2|3:2|3:2,0:0:0:0:
170,12,145292,2,0,P|142:38|127:59,3,50.6250019311906,10|0|0|0,3:2|3:2|3:2|3:2,0:0:0:0:
199,111,145578,2,0,P|197:149|201:174,3,50.6250019311906,0|0|0|0,3:2|3:2|3:2|3:2,0:0:0:0:
273,227,145864,5,6,1:2:0:0:
268,229,145935,1,0,3:2:0:0:
263,231,146007,1,0,3:2:0:0:
258,234,146078,1,0,3:2:0:0:
254,236,146149,1,0,3:2:0:0:
248,238,146221,1,0,3:2:0:0:
244,241,146292,1,0,3:2:0:0:
205,319,146435,6,0,L|212:254,3,50.6250019311906,10|0|0|0,3:2|3:2|3:2|3:2,0:0:0:0:
292,350,146721,2,0,L|299:285,3,50.6250019311906,0|0|0|0,3:2|3:2|3:2|3:2,0:0:0:0:
373,262,147007,5,2,1:2:0:0:
378,260,147078,1,0,3:2:0:0:
383,258,147150,1,0,3:2:0:0:
388,255,147221,1,0,3:2:0:0:
392,253,147292,1,0,3:2:0:0:
398,251,147364,1,0,3:2:0:0:
402,248,147435,1,0,3:2:0:0:
446,174,147578,6,0,L|439:239,3,50.6250019311906,10|0|0|0,3:2|3:2|3:2|3:2,0:0:0:0:
359,143,147864,2,0,L|352:208,3,50.6250019311906,0|0|0|0,3:2|3:2|3:2|3:2,0:0:0:0:
261,234,148149,6,0,P|234:197|217:181,7,50.6250019311906,6|0|0|0|0|0|0|0,1:0|3:2|3:2|3:2|3:2|3:2|3:2|3:2,0:0:0:0:
157,137,148721,6,0,P|141:100|142:75,3,50.6250019311906,10|0|0|0,3:2|3:2|3:2|3:2,0:0:0:0:
236,57,149007,2,0,P|252:94|251:119,3,50.6250019311906,0|0|0|0,3:2|3:2|3:2|3:2,0:0:0:0:
230,193,149292,6,0,P|247:212|261:234,7,50.6250019311906,2|0|0|0|0|0|0|0,1:2|3:2|3:2|3:2|3:2|3:2|3:2|3:2,0:0:0:0:
268,376,149864,6,0,P|284:339|283:314,3,50.6250019311906,10|0|0|0,3:2|3:2|3:2|3:2,0:0:0:0:
189,296,150150,2,0,P|173:333|174:358,3,50.6250019311906,0|0|0|0,3:2|3:2|3:2|3:2,0:0:0:0:
85,363,150435,5,6,1:2:0:0:
85,357,150507,1,0,3:2:0:0:
84,351,150578,1,0,3:2:0:0:
83,345,150649,1,0,3:2:0:0:
81,340,150721,1,0,3:2:0:0:
79,335,150792,1,0,3:2:0:0:
77,330,150864,1,0,3:2:0:0:
7,277,151007,6,0,L|23:193,3,50.6250019311906,10|0|0|0,3:2|3:2|3:2|3:2,0:0:0:0:
98,250,151292,2,0,L|114:166,3,50.6250019311906,0|0|0|0,3:2|3:2|3:2|3:2,0:0:0:0:
194,163,151578,5,2,1:2:0:0:
194,169,151650,1,0,3:2:0:0:
195,175,151721,1,0,3:2:0:0:
196,181,151792,1,0,3:2:0:0:
198,186,151864,1,0,3:2:0:0:
200,191,151935,1,0,3:2:0:0:
202,196,152007,1,0,3:2:0:0:
272,249,152150,6,0,L|256:333,3,50.6250019311906,10|0|0|0,3:2|3:2|3:2|3:2,0:0:0:0:
181,276,152435,2,0,L|165:360,3,50.6250019311906,0|0|0|0,3:2|3:2|3:2|3:2,0:0:0:0:
278,372,152721,6,0,P|313:349|346:339,7,50.6250019311906,4|0|0|0|0|0|0|0,1:0|3:2|3:2|3:2|3:2|3:2|3:2|3:2,0:0:0:0:
421,367,153292,6,0,L|435:298,3,50.6250019311906,10|0|0|0,3:2|3:2|3:2|3:2,0:0:0:0:
352,256,153578,2,0,L|341:305,3,50.6250019311906,0|0|0|0,3:2|3:2|3:2|3:2,0:0:0:0:
438,221,153864,6,0,P|417:189|400:174,7,50.6250019311906,2|0|0|0|0|0|0|0,1:2|3:2|3:2|3:2|3:2|3:2|3:2|3:2,0:0:0:0:
312,148,154435,6,0,L|298:79,3,50.6250019311906,10|0|0|0,3:2|3:2|3:2|3:2,0:0:0:0:
381,37,154721,2,0,L|391:86,3,50.6250019311906,0|0|0|0,3:2|3:2|3:2|3:2,0:0:0:0:
411,180,155007,5,4,1:0:0:0:
422,189,155078,1,0,3:2:0:0:
438,194,155149,1,8,3:2:0:0:
498,283,155292,1,8,3:2:0:0:
498,283,155364,1,0,3:2:0:0:
498,283,155435,2,0,L|376:305,1,101.250003862381,4|0,3:2|3:0,0:0:0:0:
321,368,155721,5,8,3:2:0:0:
321,368,155793,1,8,3:2:0:0:
321,368,155864,2,0,L|199:346,1,101.250003862381,8|8,3:0|3:2,0:0:0:0:
143,297,156078,5,8,3:2:0:0:
136,290,156149,2,0,L|129:221,3,50.6250019311906,8|0|8|8,3:0|3:2|3:2|3:2,0:0:0:0:
56,197,156435,2,0,L|49:128,3,50.6250019311906,4|0|0|0,3:0|3:2|3:2|3:2,0:0:0:0:
112,58,156721,5,4,3:0:0:0:
126,62,156792,1,0,3:2:0:0:
140,66,156864,1,0,3:2:0:0:
177,148,157007,5,4,3:0:0:0:
184,160,157078,1,0,3:2:0:0:
191,173,157150,1,0,3:2:0:0:
134,258,157292,5,2,1:0:0:0:
256,192,157399,12,4,159006,1:2:0:0:
256,192,159033,12,6,160720,1:0:0:0:
256,192,160747,12,0,162327,0:0:0:0:
298,255,162434,5,4,1:2:0:0:
306,257,162506,1,0,3:0:0:0:
314,259,162577,2,0,L|330:374,1,90,8|8,3:2|3:2,0:0:0:0:
203,291,162863,5,8,3:0:0:0:
211,293,162935,1,0,3:2:0:0:
219,295,163006,2,0,L|235:410,1,90,4|0,3:0|3:2,0:0:0:0:
87,370,163292,6,0,L|37:355,2,45,6|0|10,3:2|3:2|3:2,0:0:0:0:
140,287,163506,2,0,L|190:272,2,45,0|2|0,3:2|3:2|3:2,0:0:0:0:
47,284,163720,2,0,L|-3:269,2,45,4|0|2,3:1|3:2|3:2,0:0:0:0:
100,201,163934,2,0,L|150:186,2,45,0|2|0,3:2|3:2|3:2,0:0:0:0:
32,141,164149,5,6,1:2:0:0:
35,132,164220,1,0,3:2:0:0:
38,123,164292,1,0,3:2:0:0:
41,114,164363,1,0,3:2:0:0:
44,105,164434,1,0,3:2:0:0:
61,22,164577,6,0,P|91:32|122:58,5,45,10|0|0|0|0|0,3:2|3:2|3:2|3:2|3:2|3:2,0:0:0:0:
195,21,165006,2,0,P|209:49|212:89,5,45,2|0|0|0|0|0,3:2|3:2|3:2|3:2|3:2|3:2,0:0:0:0:
290,115,165434,2,0,P|279:145|254:176,5,45,10|0|0|0|0|0,3:2|3:2|3:2|3:2|3:2|3:2,0:0:0:0:
186,214,165863,5,4,3:1:0:0:
186,214,165934,1,0,3:2:0:0:
186,214,166006,2,0,B|158:255|158:255|178:300,1,90,0|0,3:2|3:2,0:0:0:0:
269,292,166292,6,0,B|270:305|270:305|259:315|259:315|260:301|260:301|267:293,5,45,10|0|0|0|0|0,3:2|3:2|3:2|3:2|3:2|3:2,0:0:0:0:
351,333,166720,2,0,B|360:341|360:341|360:356|360:356|351:345|351:345|350:335,5,45,2|0|0|0|0|0,3:2|3:2|3:2|3:2|3:2|3:2,0:0:0:0:
437,304,167149,2,0,B|450:303|450:303|460:314|460:314|446:313|446:313|438:306,5,45,10|0|0|0|0|0,3:2|3:2|3:2|3:2|3:2|3:2,0:0:0:0:
363,243,167577,5,6,3:2:0:0:
365,234,167649,1,0,3:2:0:0:
367,225,167720,1,0,3:2:0:0:
369,216,167792,1,0,3:2:0:0:
371,207,167863,1,0,3:2:0:0:
463,165,168006,6,0,P|479:158|464:168,5,45,10|0|0|0|0|0,3:2|3:2|3:2|3:2|3:2|3:2,0:0:0:0:
385,107,168434,2,0,P|386:89|388:107,5,45,2|0|0|0|0|0,3:2|3:2|3:2|3:2|3:2|3:2,0:0:0:0:
295,145,168863,2,0,P|280:134|297:142,5,45,10|0|0|0|0|0,3:2|3:2|3:2|3:2|3:2|3:2,0:0:0:0:
237,230,169292,5,4,3:1:0:0:
231,223,169363,1,0,3:2:0:0:
225,216,169434,2,0,L|108:238,1,90,0|0,3:2|3:2,0:0:0:0:
95,313,169720,2,0,P|69:293|44:282,5,45,10|0|0|0|0|0,3:2|3:2|3:2|3:2|3:2|3:2,0:0:0:0:
57,205,170149,5,2,1:2:0:0:
50,194,170220,1,0,3:2:0:0:
45,181,170292,2,0,L|56:59,1,90,8|4,3:0|3:0,0:0:0:0:
159,157,170577,5,10,1:2:0:0:
152,146,170648,1,0,3:2:0:0:
147,133,170720,2,0,L|158:11,1,90,4|4,3:0|3:0,0:0:0:0:
273,9,171006,5,2,1:0:0:0:
286,32,171149,1,0,3:0:0:0:
307,48,171292,1,0,3:0:0:0:
396,22,171434,2,0,P|361:66|342:110,2,90,10|0|0,3:2|3:0|3:0,0:0:0:0:
496,134,171863,5,2,3:2:0:0:
484,126,171934,1,0,3:0:0:0:
471,120,172006,1,0,3:0:0:0:
458,115,172077,1,0,3:0:0:0:
444,111,172149,1,0,3:0:0:0:
351,130,172292,5,10,3:2:0:0:
333,134,172720,5,2,3:2:0:0:
341,159,172863,1,0,3:0:0:0:
349,184,173006,1,0,3:0:0:0:
423,260,173149,2,0,P|459:234|508:211,2,90,10|0|0,3:2|3:0|3:0,0:0:0:0:
361,343,173577,5,2,3:2:0:0:
350,334,173649,1,0,3:0:0:0:
338,326,173720,1,0,3:0:0:0:
326,319,173792,1,0,3:0:0:0:
313,313,173863,1,0,3:0:0:0:
224,315,174006,5,10,3:2:0:0:
210,332,174434,5,2,3:2:0:0:
226,302,174577,1,0,3:0:0:0:
214,277,174720,1,0,3:0:0:0:
101,284,174863,2,0,P|123:331|135:381,2,90,10|0|0,3:2|3:0|3:0,0:0:0:0:
33,208,175292,5,2,3:2:0:0:
37,195,175363,1,0,3:0:0:0:
43,183,175434,1,0,3:0:0:0:
51,172,175506,1,0,3:0:0:0:
60,162,175577,1,0,3:0:0:0:
146,146,175720,5,10,3:2:0:0:
158,152,176149,6,0,P|143:77|142:45,1,90,2|0,3:2|3:0,0:0:0:0:
211,8,176434,1,0,3:0:0:0:
289,115,176577,2,0,P|244:169|225:209,2,90,10|0|0,3:2|3:0|3:0,0:0:0:0:
416,25,177006,5,2,3:2:0:0:
403,20,177077,1,0,3:0:0:0:
389,17,177149,1,0,3:0:0:0:
375,16,177220,1,0,3:0:0:0:
361,17,177292,1,0,3:0:0:0:
381,124,177434,6,0,P|443:148|482:184,1,90,10|8,3:2|3:0,0:0:0:0:
479,266,177720,1,4,3:0:0:0:
479,266,177792,1,4,3:0:0:0:
479,266,177863,6,0,P|452:318|441:356,2,90,6|0|0,3:2|3:0|3:0,0:0:0:0:
360,292,178292,2,0,P|342:236|323:201,2,90,10|0|0,3:2|3:0|3:0,0:0:0:0:
283,367,178720,5,2,3:2:0:0:
274,356,178792,1,0,3:0:0:0:
264,346,178863,1,0,3:0:0:0:
254,336,178934,1,0,3:0:0:0:
243,327,179006,1,0,3:0:0:0:
154,310,179149,5,10,3:2:0:0:
139,313,179577,5,2,3:2:0:0:
117,324,179720,1,0,3:0:0:0:
102,345,179863,1,0,3:0:0:0:
45,269,180006,2,0,P|27:210|4:160,2,90,10|0|0,3:2|3:0|3:0,0:0:0:0:
197,204,180434,5,2,3:2:0:0:
188,193,180506,1,0,3:0:0:0:
177,184,180577,1,0,3:0:0:0:
164,177,180649,1,0,3:0:0:0:
151,173,180720,1,0,3:0:0:0:
101,97,180863,5,10,3:2:0:0:
81,90,181292,5,2,3:2:0:0:
113,80,181434,1,0,3:0:0:0:
150,68,181577,1,0,3:0:0:0:
239,122,181720,2,0,L|348:142,2,90,10|0|0,3:2|3:0|3:0,0:0:0:0:
170,219,182149,5,2,3:2:0:0:
181,232,182220,1,0,3:0:0:0:
195,242,182292,1,0,3:0:0:0:
210,250,182363,1,0,3:0:0:0:
226,256,182434,1,0,3:0:0:0:
315,238,182577,5,10,3:2:0:0:
330,230,183006,5,2,3:2:0:0:
363,250,183149,1,0,3:0:0:0:
361,289,183292,1,0,3:0:0:0:
251,327,183434,2,0,P|261:277|277:229,2,90,10|0|0,3:2|3:0|3:0,0:0:0:0:
345,382,183863,5,2,3:2:0:0:
361,376,183934,1,0,3:0:0:0:
378,370,184006,1,0,3:0:0:0:
395,364,184077,1,0,3:0:0:0:
412,358,184149,1,0,3:0:0:0:
474,294,184292,5,10,3:2:0:0:
385,241,184720,6,0,P|375:232|380:240,5,45,2|0|0|0|0|0,1:2|3:2|3:2|3:2|3:2|3:2,0:0:0:0:
301,177,185149,6,0,P|280:199|271:217,1,45,10|0,3:2|0:0,0:0:0:0:
382,140,185292,2,0,P|411:147|431:145,1,45,0|0,3:2|0:0,0:0:0:0:
313,87,185434,2,0,P|291:66|273:57,1,45,0|0,3:2|0:0,0:0:0:0:
407,45,185577,6,0,P|402:38|407:46,5,45,2|0|0|0|0|0,3:2|3:2|3:2|3:2|3:2|3:2,0:0:0:0:
313,87,186006,6,0,P|287:70|268:64,2,45,10|0|0,3:2|0:0|3:2,0:0:0:0:
265,191,186220,2,0,P|259:161|249:143,2,45,0|0|0,0:0|3:2|0:0,0:0:0:0:
170,124,186434,6,0,P|143:100|117:93,5,45,2|0|0|0|0|0,3:2|3:2|3:2|3:2|3:2|3:2,0:0:0:0:
48,117,186863,6,0,B|40:143|40:143|46:120,1,45,10|0,3:2|0:0,0:0:0:0:
114,187,187006,2,0,B|122:213|122:213|116:190,1,45,0|0,3:2|0:0,0:0:0:0:
34,240,187149,2,0,B|26:266|26:266|32:243,1,45,0|0,3:2|0:0,0:0:0:0:
109,304,187292,6,0,L|122:358,3,45,2|0|0|0,3:2|3:2|3:2|3:2,0:0:0:0:
212,252,187577,2,0,L|153:241,3,45,0|0|10|0,3:2|3:2|3:2|0:0,0:0:0:0:
209,364,187863,2,0,L|258:310,3,45,0|0|0|0,3:2|0:0|3:2|0:0,0:0:0:0:
315,277,188149,6,0,P|342:288|367:312,5,45,2|0|0|0|0|0,3:2|3:2|3:2|3:2|3:2|3:2,0:0:0:0:
418,368,188577,6,0,P|435:343|455:323,1,45,10|0,3:2|0:0,0:0:0:0:
423,243,188720,2,0,P|404:255|387:270,1,45,0|0,3:2|0:0,0:0:0:0:
309,243,188863,2,0,P|315:221|325:201,1,45,0|0,3:2|0:0,0:0:0:0:
406,145,189006,6,0,L|470:158,5,45,2|0|0|0|0|0,3:2|3:2|3:2|3:2|3:2|3:2,0:0:0:0:
486,52,189434,1,10,3:2:0:0:
486,52,189506,1,0,0:0:0:0:
486,52,189577,2,0,P|426:22|393:31,1,90,0|0,3:2|3:2,0:0:0:0:
321,98,189863,5,2,3:2:0:0:
319,106,189934,1,0,3:2:0:0:
317,115,190006,2,0,L|337:228,1,90,0|0,3:2|3:2,0:0:0:0:
219,73,190292,5,10,3:2:0:0:
217,81,190363,1,0,3:2:0:0:
215,90,190435,2,0,L|235:203,1,90,0|0,3:2|3:2,0:0:0:0:
95,83,190720,6,0,L|105:22,3,45,8|0|4|0,3:0|3:2|3:0|3:2,0:0:0:0:
16,132,191006,6,0,L|23:176,3,45,0|0|8|0,3:2|3:2|3:0|3:0,0:0:0:0:
97,219,191292,6,0,L|89:263,3,45,4|0|0|0,3:0|3:2|3:2|3:2,0:0:0:0:
0,294,191577,6,0,B|58:273|120:331|70:334|117:366|177:359,1,180,2|0,1:2|3:2,0:0:0:0:
207,279,192006,6,0,P|209:267|208:280,1,45,10|0,3:2|0:0,0:0:0:0:
275,355,192149,2,0,P|277:343|276:356,1,45,0|0,3:2|0:0,0:0:0:0:
316,264,192292,2,0,P|314:252|315:265,1,45,0|0,3:2|0:0,0:0:0:0:
370,342,192434,6,0,P|396:354|424:375,5,45,2|0|0|0|0|0,3:2|3:2|3:2|3:2|3:2|3:2,0:0:0:0:
458,285,192863,6,0,P|479:279|499:268,1,45,10|0,3:2|0:0,0:0:0:0:
382,245,193006,2,0,P|393:225|400:204,1,45,0|0,3:2|0:0,0:0:0:0:
298,269,193149,2,0,P|292:247|281:227,1,45,0|0,3:2|0:0,0:0:0:0:
255,345,193292,6,0,P|235:333|213:327,5,45,2|0|0|0|0|0,3:2|3:2|3:2|3:2|3:2|3:2,0:0:0:0:
110,366,193720,5,10,3:2:0:0:
115,358,193792,1,0,0:0:0:0:
120,350,193863,2,0,L|106:228,1,90,0|0,3:2|3:2,0:0:0:0:
193,259,194149,1,2,3:2:0:0:
198,251,194221,1,0,3:2:0:0:
203,243,194292,2,0,L|189:121,1,90,0|0,3:2|3:2,0:0:0:0:
276,152,194577,1,10,3:2:0:0:
281,144,194649,1,0,0:0:0:0:
286,136,194720,2,0,L|272:14,1,90,0|0,3:2|3:2,0:0:0:0:
355,14,195006,5,8,3:2:0:0:
361,20,195077,1,8,3:2:0:0:
367,26,195149,1,0,3:0:0:0:
404,109,195292,6,0,P|429:83|438:66,2,45,8|4|0,3:0|3:0|3:0,0:0:0:0:
504,135,195577,5,8,3:2:0:0:
504,127,195648,1,8,3:2:0:0:
503,119,195720,1,8,3:2:0:0:
429,197,195863,6,0,L|411:271,5,45,0|0|8|4|0|0,3:0|3:0|3:0|3:0|3:0|3:0,0:0:0:0:
470,320,196292,6,0,L|501:252,1,67.5000025749207,4|0,3:1|0:0,0:0:0:0:
384,312,196434,2,0,L|376:237,1,67.5000025749207,10|0,3:2|0:0,0:0:0:0:
305,348,196577,2,0,L|261:287,1,67.5000025749207,10|0,3:2|0:0,0:0:0:0:
211,371,196720,6,0,P|149:350|106:346,1,90,12|8,1:2|3:2,0:0:0:0:
51,287,197006,1,8,3:2:0:0:
51,287,197077,1,8,3:2:0:0:
51,287,197149,2,0,L|36:162,1,90,4|8,3:1|3:0,0:0:0:0:
132,159,197434,5,0,3:0:0:0:
132,159,197505,1,0,3:0:0:0:
132,159,197577,2,0,L|147:284,1,90,12|0,1:2|3:0,0:0:0:0:
250,273,197863,1,0,3:0:0:0:
250,273,197934,1,0,3:0:0:0:
250,273,198006,2,0,L|237:189,5,45,4|0|0|0|0|0,3:1|3:0|3:0|3:0|3:0|3:0,0:0:0:0:
279,143,198434,5,6,1:0:0:0:
285,138,198506,1,10,2:0:0:0:
291,133,198577,1,0,3:0:0:0:
297,128,198649,1,10,2:0:0:0:
303,123,198720,1,0,3:0:0:0:
310,119,198792,1,10,2:0:0:0:
316,113,198863,2,0,B|341:110|341:110|356:127|356:127|335:131|335:131|316:113,5,80.9999975280763,0|10|0|10|0|10,3:0|2:0|3:0|2:0|3:0|2:0,0:0:0:0:
237,30,199292,5,0,3:2:0:0:
240,38,199363,1,10,2:0:0:0:
243,46,199435,2,0,L|222:168,1,116.999994644165,0|0,3:0|3:0,0:0:0:0:
133,125,199720,5,0,3:0:0:0:
136,133,199792,1,10,2:0:0:0:
139,141,199862,2,0,L|118:263,1,116.999994644165,0|0,3:0|3:0,0:0:0:0:
63,330,200149,6,0,B|37:345|37:345|53:301,5,58.4999973220826,0|10|0|10|0|10,3:2|2:0|3:0|2:0|3:0|2:0,0:0:0:0:
84,243,200577,2,0,B|69:217|69:217|113:233,5,58.4999973220826,0|10|0|10|0|10,3:0|2:0|3:0|2:0|3:0|2:0,0:0:0:0:
159,300,201006,2,0,B|184:315|184:315|138:323,5,58.4999973220826,0|10|0|10|0|10,3:2|2:0|3:0|2:0|3:0|2:0,0:0:0:0:
77,289,201434,5,0,3:2:0:0:
74,271,201506,1,8,2:0:0:0:
71,253,201577,1,8,3:2:0:0:
68,235,201649,1,8,2:0:0:0:
65,217,201720,1,8,3:2:0:0:
62,199,201792,1,8,2:0:0:0:
59,181,201863,6,0,P|44:162|50:188,5,58.4999973220826,6|10|0|10|0|10,1:0|2:0|3:0|2:0|3:0|2:0,0:0:0:0:
122,105,202292,2,0,P|124:80|110:103,5,58.4999973220826,0|10|0|10|0|10,3:0|2:0|3:0|2:0|3:0|2:0,0:0:0:0:
166,205,202720,6,0,B|185:229|185:229|201:192,3,58.4999973220826,0|10|0|10,3:2|2:0|3:0|2:0,0:0:0:0:
218,107,203006,6,0,B|230:82|230:82|249:106,3,58.4999973220826,0|10|0|10,3:0|2:0|3:0|2:0,0:0:0:0:
300,183,203292,6,0,B|319:207|319:207|335:170,3,58.4999973220826,0|10|0|10,3:0|2:0|3:0|2:0,0:0:0:0:
337,71,203577,5,0,3:2:0:0:
344,62,203649,1,10,2:0:0:0:
352,54,203720,1,0,3:0:0:0:
361,46,203792,1,10,2:0:0:0:
370,39,203863,1,0,3:0:0:0:
380,33,203934,1,10,2:0:0:0:
390,28,204006,2,0,P|429:37|453:50,5,58.4999973220826,0|10|0|10|0|10,3:0|2:0|3:0|2:0|3:0|2:0,0:0:0:0:
490,135,204434,5,4,1:0:0:0:
487,143,204505,1,0,3:1:0:0:
484,151,204577,2,0,L|505:273,1,116.999994644165,0|4,3:0|3:0,0:0:0:0:
401,202,204862,5,4,1:2:0:0:
398,210,204933,1,0,3:0:0:0:
395,218,205006,2,0,L|416:340,1,116.999994644165,0|4,3:0|3:0,0:0:0:0:
283,363,205292,5,6,1:0:0:0:
292,355,205363,1,10,2:0:0:0:
300,346,205434,1,0,3:0:0:0:
305,334,205506,1,10,2:0:0:0:
308,322,205577,1,0,3:0:0:0:
308,310,205649,1,10,2:0:0:0:
304,298,205720,2,0,P|280:288|245:287,5,58.4999973220826,0|10|0|10|0|10,3:0|2:0|3:0|2:0|3:0|2:0,0:0:0:0:
190,346,206149,5,0,3:2:0:0:
185,353,206220,1,10,2:0:0:0:
180,360,206292,2,0,L|22:345,1,116.999994644165,0|0,3:0|3:0,0:0:0:0:
126,254,206577,5,0,3:0:0:0:
121,261,206648,1,10,2:0:0:0:
116,268,206720,2,0,L|-42:253,1,116.999994644165,0|0,3:0|3:0,0:0:0:0:
120,158,207006,6,0,B|123:137|123:137|113:131|113:131|109:140|109:140|112:159,5,58.4999973220826,0|10|0|10|0|10,3:2|2:0|3:0|2:0|3:0|2:0,0:0:0:0:
203,205,207434,2,0,B|220:192|220:192|217:182|217:182|207:184|207:184|196:200,5,58.4999973220826,0|10|0|10|0|10,3:0|2:0|3:0|2:0|3:0|2:0,0:0:0:0:
228,296,207863,2,0,B|248:299|248:299|254:289|254:289|245:285|245:285|226:288,5,58.4999973220826,0|10|0|10|0|10,3:2|2:0|3:0|2:0|3:0|2:0,0:0:0:0:
184,385,208292,6,0,P|199:314|291:-8,1,404.999987640381,4|10,3:2|2:0,0:0:0:0:
375,12,208720,5,6,1:0:0:0:
382,15,208792,1,10,2:0:0:0:
389,18,208863,1,0,3:0:0:0:
396,21,208934,1,10,2:0:0:0:
403,25,209006,1,0,3:0:0:0:
410,28,209077,1,10,2:0:0:0:
418,29,209149,2,0,P|391:73|381:111,5,80.9999975280763,0|10|0|10|0|10,3:0|2:0|3:0|2:0|3:0|2:0,0:0:0:0:
374,194,209577,6,0,B|363:208|343:223|343:223|365:217|401:221,3,80.9999975280763,0|10|0|10,3:2|2:0|3:0|2:0,0:0:0:0:
484,228,209863,6,0,B|488:248|497:267|497:267|480:248|450:231,3,80.9999975280763,0|10|0|10,3:0|2:0|3:0|2:0,0:0:0:0:
448,118,210149,6,0,B|465:108|480:93|480:93|478:114|481:142,3,80.9999975280763,0|10|0|10,3:0|2:0|3:0|2:0,0:0:0:0:
362,111,210434,5,4,1:2:0:0:
347,102,210506,1,0,3:0:0:0:
332,96,210577,1,8,3:2:0:0:
316,91,210649,1,8,3:2:0:0:
300,87,210720,1,8,3:2:0:0:
221,124,210863,6,0,B|211:159|211:179|211:179|221:197,2,62.9999980773926,8|8|8,3:0|3:0|3:2,0:0:0:0:
103,185,211149,2,0,B|120:216|134:230|134:230|168:243,2,62.9999980773926,4|4|8,3:0|3:0|3:2,0:0:0:0:
121,83,211434,1,8,3:0:0:0:
26,113,211577,1,4,3:0:0:0:
102,184,211720,5,8,1:3:0:0:
105,196,211792,1,8,3:0:0:0:
108,207,211863,1,4,3:0:0:0:
111,218,211934,1,4,3:0:0:0:
114,230,212006,1,8,3:0:0:0:
84,318,212148,5,14,1:2:0:0:
85,337,213433,6,0,B|113:318|113:318|282:367,1,180,10|10,1:2|1:2,0:0:0:0:
282,346,214290,6,0,B|113:297|113:297|79:319,1,215.999993408203,10|10,1:2|1:2,0:0:0:0:
1,165,214719,6,0,L|129:147,1,90,4|0,1:2|0:0,0:0:0:0:
99,55,215005,1,0,3:2:0:0:
99,55,215076,1,0,3:2:0:0:
99,55,215148,2,0,L|227:70,1,90,10|0,3:2|0:0,0:0:0:0:
277,18,215433,1,0,3:2:0:0:
277,18,215504,1,0,3:2:0:0:
277,18,215576,2,0,L|356:119,1,90,10|0,3:2|0:0,0:0:0:0:
436,101,215862,1,0,3:2:0:0:
436,101,215933,1,0,3:2:0:0:
436,101,216005,6,0,L|414:279,1,180,6|4,3:2|3:2,0:0:0:0:
260,233,216433,5,10,3:2:0:0:
272,227,216505,1,0,3:2:0:0:
284,221,216576,1,0,3:2:0:0:
296,215,216648,1,0,3:2:0:0:
308,209,216719,1,0,3:2:0:0:
310,327,216862,6,0,L|283:113,1,215.999993408203,6|4,3:2|3:2,0:0:0:0:
126,35,217290,6,0,P|111:24|123:37,1,53.9999983520508,2|8,1:2|3:2,0:0:0:0:
148,126,217433,2,0,P|159:141|154:122,1,53.9999983520508,2|8,3:2|3:2,0:0:0:0:
225,55,217576,2,0,P|220:37|220:55,1,53.9999983520508,2|8,3:2|3:2,0:0:0:0:
121,30,217719,6,0,P|101:35|120:41,1,53.9999983520508,2|8,3:2|3:2,0:0:0:0:
152,128,217862,2,0,P|165:142|158:123,1,53.9999983520508,2|8,3:2|3:2,0:0:0:0:
224,49,218005,2,0,P|215:32|219:50,1,53.9999983520508,2|8,3:2|3:2,0:0:0:0:
119,42,218148,6,0,P|101:36|117:45,1,53.9999983520508,2|8,3:2|3:2,0:0:0:0:
157,128,218291,2,0,P|170:142|162:124,1,53.9999983520508,2|8,3:2|3:2,0:0:0:0:
222,43,218434,2,0,P|208:28|216:46,1,53.9999983520508,2|0,3:2|3:2,0:0:0:0:
64,128,218576,6,0,P|40:212|6:351,1,215.999993408203,4|4,3:2|3:2,0:0:0:0:
116,373,219005,6,0,P|101:333|90:314,1,53.9999983520508,8|2,3:2|3:2,0:0:0:0:
206,261,219148,2,0,P|190:298|178:334,1,53.9999983520508,8|2,3:2|3:2,0:0:0:0:
289,375,219290,2,0,P|282:340|272:308,1,53.9999983520508,8|0,3:2|3:2,0:0:0:0:
367,314,219433,6,0,P|385:274|408:240,3,53.9999983520508,4|0|0|0,3:2|0:0|0:0|3:0,0:0:0:0:
493,255,219719,1,4,3:2:0:0:
313,133,219862,6,0,P|296:88|299:72,1,53.9999983520508,2|8,1:2|3:2,0:0:0:0:
323,220,220005,2,0,P|302:263|289:273,1,53.9999983520508,2|8,3:2|3:2,0:0:0:0:
395,168,220148,2,0,P|434:167|459:159,1,53.9999983520508,2|8,3:2|3:2,0:0:0:0:
317,132,220291,6,0,P|304:86|307:70,1,53.9999983520508,2|8,3:2|3:2,0:0:0:0:
319,218,220434,2,0,P|295:258|281:267,1,53.9999983520508,2|8,3:2|3:2,0:0:0:0:
395,174,220577,2,0,P|433:176|459:171,1,53.9999983520508,2|8,3:2|3:2,0:0:0:0:
320,129,220719,6,0,P|311:83|317:67,1,53.9999983520508,2|8,3:2|3:2,0:0:0:0:
314,216,220862,2,0,P|287:254|272:262,1,53.9999983520508,2|8,3:2|3:2,0:0:0:0:
395,178,221005,2,0,P|434:183|459:181,1,53.9999983520508,2|0,3:2|3:2,0:0:0:0:
401,276,221148,6,0,L|387:359,3,53.9999983520508,4|0|0|0,3:2|0:0|0:0|3:0,0:0:0:0:
317,373,221433,1,4,3:2:0:0:
226,283,221576,6,0,L|242:364,1,53.9999983520508,2|8,3:2|3:2,0:0:0:0:
136,269,221719,2,0,L|152:350,1,53.9999983520508,2|8,3:2|3:2,0:0:0:0:
49,267,221862,2,0,L|65:348,1,53.9999983520508,2|8,3:2|3:2,0:0:0:0:
94,173,222005,6,0,L|331:199,1,215.999993408203,4|4,3:2|3:2,0:0:0:0:
362,62,222433,6,0,B|380:53|380:53|380:68|380:68|361:63,1,53.9999983520508,2|8,1:2|3:2,0:0:0:0:
289,108,222576,2,0,B|274:121|274:121|288:127|288:127|290:106,1,53.9999983520508,2|8,3:2|3:2,0:0:0:0:
285,21,222719,2,0,B|267:9|267:9|280:1|280:1|286:20,1,53.9999983520508,2|8,3:2|3:2,0:0:0:0:
362,65,222861,6,0,B|381:56|381:56|379:72|379:72|361:66,1,53.9999983520508,2|8,3:2|3:2,0:0:0:0:
286,106,223004,2,0,B|270:118|270:118|284:126|284:126|286:105,1,53.9999983520508,2|8,3:2|3:2,0:0:0:0:
290,19,223147,2,0,B|272:6|272:6|286:0|286:0|290:18,1,53.9999983520508,2|8,3:2|3:2,0:0:0:0:
361,70,223290,6,0,B|380:63|380:63|379:79|379:79|360:71,1,53.9999983520508,2|8,3:2|3:2,0:0:0:0:
282,103,223433,2,0,B|265:113|265:113|278:122|278:122|282:102,1,53.9999983520508,2|8,3:2|3:2,0:0:0:0:
293,16,223576,2,0,B|277:3|277:3|291:-3|291:-3|294:16,1,53.9999983520508,2|0,3:2|3:2,0:0:0:0:
472,31,223719,6,0,P|451:97|409:245,1,215.999993408203,4|4,3:2|3:2,0:0:0:0:
437,330,224148,6,0,L|516:310,1,53.9999983520508,2|8,3:2|3:2,0:0:0:0:
339,317,224290,2,0,L|383:253,1,53.9999983520508,2|8,3:2|3:2,0:0:0:0:
241,359,224433,2,0,L|252:271,1,53.9999983520508,2|8,3:2|3:2,0:0:0:0:
147,223,224576,6,0,P|86:261|127:380,1,215.999993408203,4|4,3:2|3:2,0:0:0:0:
244,343,225005,5,4,1:0:0:0:
244,343,225076,1,0,3:1:0:0:
244,343,225148,2,0,L|232:223,1,107.999996704102,0|4,3:0|3:0,0:0:0:0:
329,276,225433,5,0,3:0:0:0:
329,276,225504,1,0,3:0:0:0:
329,276,225576,2,0,L|317:156,1,107.999996704102,0|4,3:0|3:0,0:0:0:0:
414,209,225862,5,0,3:0:0:0:
414,209,225933,1,0,3:0:0:0:
414,209,226005,2,0,L|402:89,1,107.999996704102,0|4,3:0|3:0,0:0:0:0:
331,8,226290,6,0,B|277:37|277:37|173:18|173:18|120:55,1,215.999993408203,4|4,3:2|3:2,0:0:0:0:
36,117,226719,1,8,3:0:0:0:
51,121,226790,1,4,3:0:0:0:
66,126,226862,1,4,3:0:0:0:
76,129,226933,1,0,3:0:0:0:
86,132,227005,1,0,3:0:0:0:
113,252,227148,6,0,P|96:132|82:4,1,215.999993408203,4|4,3:2|3:2,0:0:0:0:
229,308,227576,5,6,1:0:0:0:
256,192,227648,12,0,240433,0:0:0:0:
