osu file format v14

[General]
AudioFilename: audio.mp3
AudioLeadIn: 0
PreviewTime: 154
Countdown: 1
SampleSet: Soft
StackLeniency: 0.6
Mode: 0
LetterboxInBreaks: 0
WidescreenStoryboard: 0

[Editor]
Bookmarks: 15582,29296,43011,56725,68725,82439,83723,96154,111582,125296,139011,157296,171010,184724,198438,212153,227581
DistanceSpacing: 1.2
BeatDivisor: 6
GridSize: 4
TimelineZoom: 2.899999

[Metadata]
Title:Put curse on you
TitleUnicode:Put curse on you
Artist:UNDEAD CORPORATION
ArtistUnicode:UNDEAD CORPORATION
Creator:Halfslashed
Version:Aeril's Hard
Source:東方妖々夢 ~ Perfect Cherry Blossom.
Tags:touhou youyomu th7 pcb アリス・マーガトロイド alice margatroid 一撃 ichigeki c81 ningyou saiban ~ hito no katachi moeasobishi shoujo 人形裁判 人の形弄びし少女 mpg mappers' guild featured artist corsace gf nm2 scubdomino [keqing] lmt aeril itswinter english metal
BeatmapID:3388226
BeatmapSetID:1276314

[Difficulty]
HPDrainRate:5
CircleSize:4
OverallDifficulty:7
ApproachRate:8
SliderMultiplier:1.6
SliderTickRate:1

[Events]
//Background and Video events
0,0,"alice-margatroid-wallpaper-full-hd-1920x1080-221113.png",0,0
//Break Periods
2,142635,147399
//Storyboard Layer 0 (Background)
//Storyboard Layer 1 (Fail)
//Storyboard Layer 2 (Pass)
//Storyboard Layer 3 (Foreground)
//Storyboard Layer 4 (Overlay)
//Storyboard Sound Samples

[TimingPoints]
154,428.571428571429,3,2,1,80,1,0
154,-100,3,2,1,80,0,0
1439,-100,3,2,1,90,0,0
1868,-100,3,2,1,80,0,0
2296,-100,3,2,1,90,0,0
2725,-100,3,2,1,80,0,0
4011,-100,3,2,1,90,0,0
4439,-100,3,2,1,80,0,0
4868,-100,3,2,1,90,0,0
5296,-74.0740740740741,4,2,1,90,0,0
13011,-100,4,2,1,90,0,0
15582,428.571428571429,4,2,1,90,1,0
15582,-74.0740740740741,4,2,1,90,0,0
15653,-73.909830007391,4,2,1,80,0,0
17296,-62.5,4,2,1,80,0,0
19010,-74.0740740740741,4,2,1,80,0,0
20724,-62.5,4,2,1,80,0,0
21582,-74.0740740740741,4,2,1,80,0,0
24153,-62.5,4,2,1,80,0,0
25867,-74.0740740740741,4,2,1,80,0,0
27582,-62.5,4,2,1,80,0,0
28439,-74.0740740740741,4,2,1,80,0,0
29296,428.571428571429,3,2,1,90,1,0
29296,-74.0740740740741,4,2,1,90,0,0
29438,-74.0740740740741,4,2,1,80,0,0
43010,428.571428571429,4,2,1,90,1,0
43010,-74.0740740740741,4,2,1,90,0,0
43081,-74.0740740740741,4,2,1,80,0,0
44724,-62.5,4,2,1,80,0,0
46438,-74.0740740740741,4,2,1,80,0,0
48152,-62.5,4,2,1,80,0,0
49010,-74.0740740740741,4,2,1,80,0,0
51581,-62.5,4,2,1,80,0,0
53295,-74.0740740740741,4,2,1,80,0,0
55010,-62.5,4,2,1,80,0,0
55438,-100,4,2,1,80,0,0
55867,-74.0740740740741,4,2,1,80,0,0
56724,-74.0740740740741,4,2,1,90,0,0
59295,428.571428571429,4,2,1,80,1,0
59295,-62.5,4,2,1,80,0,0
61009,428.571428571429,4,2,1,90,1,0
61009,-74.0740740740741,4,2,1,90,0,0
63580,-62.5,4,2,1,90,0,0
64437,-74.0740740740741,4,2,1,90,0,0
67009,428.571428571429,4,2,1,80,1,0
67009,-62.5,4,2,1,80,0,0
68723,428.571428571429,4,2,1,90,1,1
68723,-62.5,4,2,1,90,0,1
81580,-74.0740740740741,4,2,1,90,0,1
82437,-74.0740740740741,4,2,1,80,0,0
85865,-62.5,4,2,1,80,0,0
88437,-74.0740740740741,4,2,1,80,0,0
92723,-62.5,4,2,1,80,0,0
94437,-74.0740740740741,4,2,1,80,0,0
95723,-62.5,4,2,1,80,0,0
96151,428.571428571429,3,2,1,90,1,0
98722,-100,4,2,1,90,0,0
98793,-100,4,2,1,80,0,0
100008,-100,3,2,1,90,0,0
100436,-100,3,2,1,80,0,0
100865,-100,3,2,1,90,0,0
101293,-74.0740740740741,3,2,1,80,0,0
102579,-74.0740740740741,3,2,1,90,0,0
103008,-74.0740740740741,3,2,1,80,0,0
103436,-74.0740740740741,3,2,1,90,0,0
109008,-100,3,2,1,90,0,0
111579,428.571428571429,4,2,1,80,1,0
111579,-153.846153846154,3,2,1,80,0,0
114793,-153.846153846154,4,2,1,70,0,0
115007,-153.846153846154,4,2,1,80,0,0
121864,-100,4,2,1,90,0,0
121936,-100,4,2,1,80,0,0
122293,-117.647058823529,4,2,1,80,0,0
122721,-100,4,2,1,90,0,0
122793,-100,4,2,1,80,0,0
123150,-100,4,2,1,80,0,0
123579,-74.0740740740741,4,2,1,90,0,0
123864,-74.0740740740741,4,2,1,80,0,0
125293,-100,4,2,1,90,0,0
125436,-100,4,2,1,80,0,0
139007,285.714285714286,4,2,1,90,1,0
148149,-90.9090909090909,4,2,1,90,0,0
157292,428.571428571429,4,2,1,90,1,0
157292,-153.846153846154,3,2,1,90,0,0
158934,-153.846153846154,4,2,1,5,0,0
159006,-100,4,2,1,80,0,0
160649,-100,4,2,1,5,0,0
160720,-153.846153846154,4,2,1,90,0,0
162363,-153.846153846154,4,2,1,5,0,0
162434,-100,4,2,1,80,0,0
164149,-74.0740740740741,4,2,1,90,0,0
164220,-74.0740740740741,4,2,1,80,0,0
165863,-62.5,4,2,1,80,0,0
167577,-74.0740740740741,4,2,1,80,0,0
169292,-62.5,4,2,1,80,0,0
170149,-74.0740740740741,4,2,1,80,0,0
184720,-74.0740740740741,4,2,1,90,0,0
184792,-74.0740740740741,4,2,1,80,0,0
188149,-62.5,4,2,1,80,0,0
190720,-74.0740740740741,4,2,1,80,0,0
198434,-62.5,4,2,1,90,0,1
211292,-74.0740740740741,4,2,1,90,0,1
212148,428.571428571429,3,2,1,80,1,0
212148,-100,3,2,1,80,0,0
216005,-100,3,2,1,90,0,0
216433,-100,3,2,1,80,0,0
216862,-100,3,2,1,90,0,0
217290,-74.0740740740741,3,2,1,80,0,0
218576,-74.0740740740741,3,2,1,90,0,0
219005,-74.0740740740741,3,2,1,80,0,0
219433,-74.0740740740741,3,2,1,90,0,0
225005,-100,3,2,1,90,0,0
227576,-229.885057471264,3,2,1,90,0,0
227719,-229.885057471264,3,2,0,85,0,0
228148,-229.885057471264,3,2,1,80,0,0
228576,-229.885057471264,3,2,0,75,0,0
229005,-229.885057471264,3,2,1,70,0,0
229433,-229.885057471264,3,2,0,65,0,0
229862,-229.885057471264,3,2,1,60,0,0
230290,-229.885057471264,3,2,0,55,0,0
230718,-229.885057471264,3,2,0,50,0,0
231148,-229.885057471264,3,2,1,45,0,0
231576,-229.885057471264,3,2,0,40,0,0
232076,-229.885057471264,3,2,1,35,0,0
232504,-229.885057471264,3,2,0,30,0,0
233005,-229.885057471264,3,2,1,25,0,0
233433,-229.885057471264,3,2,0,20,0,0
233942,-229.885057471264,3,2,1,15,0,0
234370,-229.885057471264,3,2,0,10,0,0
234777,-229.885057471264,3,2,1,5,0,0

[Colours]
Combo1 : 204,0,0
Combo2 : 242,242,223

[HitObjects]
91,79,154,6,0,L|62:44,5,26.6666666666667,4|0|0|0|0|0,1:2|3:2|0:0|3:2|3:2|3:2,0:0:0:0:
108,157,582,2,0,L|92:199,5,26.6666666666667,10|0|0|0|0|0,3:2|3:2|0:0|3:2|3:2|3:2,0:0:0:0:
168,104,1011,2,0,L|212:96,5,26.6666666666667,10|0|0|0|0|0,3:2|3:2|0:0|3:2|3:2|3:2,0:0:0:0:
256,48,1439,5,4,3:2:0:0:
256,48,1725,1,4,3:2:0:0:
317,99,1868,2,0,L|344:104,5,26.6666666666667,10|0|0|0|0|0,3:2|3:2|3:2|3:2|3:2|3:2,0:0:0:0:
421,121,2296,1,4,3:2:0:0:
421,121,2582,1,4,3:2:0:0:
411,199,2725,6,0,L|366:190,5,26.6666666666667,2|0|0|0|0|0,1:2|3:2|0:0|3:2|3:2|3:2,0:0:0:0:
485,169,3154,2,0,L|513:134,5,26.6666666666667,10|0|0|0|0|0,3:2|3:2|0:0|3:2|3:2|3:2,0:0:0:0:
473,248,3583,2,0,L|487:290,5,26.6666666666667,10|0|0|0|0|0,3:2|3:2|0:0|3:2|3:2|3:2,0:0:0:0:
433,333,4011,5,4,3:2:0:0:
433,333,4296,1,4,3:2:0:0:
359,301,4439,2,0,L|332:305,5,26.6666666666667,10|0|0|0|0|0,3:2|3:2|3:2|3:2|3:2|3:2,0:0:0:0:
255,322,4867,1,4,3:2:0:0:
255,322,5153,1,4,3:2:0:0:
170,304,5296,6,0,L|151:394,2,72.0000002746582,2|2|2,1:2|3:2|3:2,0:0:0:0:
134,224,5725,2,0,L|215:207,2,72.0000002746582,2|2|2,3:2|3:2|3:2,0:0:0:0:
52,254,6154,2,0,B|43:218|43:218|62:164,1,72.0000002746582,2|2,3:2|3:2,0:0:0:0:
127,138,6439,1,2,3:2:0:0:
95,62,6582,5,4,3:2:0:0:
95,62,6868,1,4,3:2:0:0:
180,73,7011,2,0,L|161:-17,2,72.0000002746582,8|8|8,3:2|3:2|3:2,0:0:0:0:
262,41,7439,1,4,3:2:0:0:
262,41,7725,1,4,3:2:0:0:
323,101,7868,6,0,L|266:183,2,72.0000002746582,2|2|2,1:2|3:2|3:2,0:0:0:0:
399,60,8296,2,0,L|495:80,2,72.0000002746582,2|2|2,3:2|3:2|3:2,0:0:0:0:
396,147,8725,2,0,B|431:155|431:155|472:199,1,72.0000002746582,2|2,3:2|3:2,0:0:0:0:
386,234,9011,1,2,3:2:0:0:
437,309,9154,5,4,3:2:0:0:
437,309,9439,1,4,3:2:0:0:
350,314,9582,2,0,L|331:404,2,72.0000002746582,8|8|8,3:2|3:2|3:2,0:0:0:0:
299,249,10011,1,4,3:2:0:0:
299,249,10296,1,4,3:2:0:0:
255,323,10439,6,0,L|174:340,2,72.0000002746582,2|2|2,1:2|3:2|3:2,0:0:0:0:
211,247,10868,2,0,L|130:230,2,72.0000002746582,2|2|2,3:2|3:2|3:2,0:0:0:0:
253,171,11296,2,0,B|243:137|243:137|259:89,1,72.0000002746582,2|2,3:2|3:2,0:0:0:0:
284,20,11582,1,2,3:2:0:0:
202,36,11725,5,4,3:2:0:0:
202,36,12011,1,4,3:2:0:0:
117,19,12154,2,0,L|136:109,2,72.0000002746582,2|2|2,3:2|3:2|3:2,0:0:0:0:
45,65,12582,1,4,3:2:0:0:
45,65,12868,1,4,3:2:0:0:
82,161,13011,6,0,L|37:149,5,26.6666666666667,4|0|0|4|4|8,1:0|3:1|3:0|3:0|3:0|3:0,0:0:0:0:
131,221,13439,2,0,L|86:209,5,26.6666666666667,0|0|0|4|4|8,3:0|3:0|3:0|3:0|3:0|3:0,0:0:0:0:
60,240,13868,2,0,L|15:228,5,26.6666666666667,0|0|0|4|4|8,3:0|3:0|3:0|3:0|3:0|3:0,0:0:0:0:
101,314,14296,5,4,3:2:0:0:
101,314,14582,1,4,3:2:0:0:
411,268,15154,1,4,3:2:0:0:
411,268,15440,1,4,3:2:0:0:
342,318,15582,6,0,L|262:332,2,72.0000002746582,2|0|0,1:0|3:2|3:2,0:0:0:0:
411,268,16010,2,0,B|436:178|375:215|403:102,1,144.000000549316,10|0,3:2|3:2,0:0:0:0:
397,128,16439,2,0,B|420:147|420:147|356:190|290:126,1,144.000000549316,2|0,3:2|3:2,0:0:0:0:
239,82,16867,2,0,L|165:105,1,72.0000002746582,10|0,3:2|3:2,0:0:0:0:
88,74,17153,1,0,3:2:0:0:
6,45,17296,6,0,P|66:108|51:204,1,170.666666666667,4|0,3:1|3:2,0:0:0:0:
104,295,17724,2,0,B|96:347|68:384|68:384|134:344,1,170.666666666667,10|0,3:2|3:2,0:0:0:0:
244,316,18153,2,0,B|309:335|309:335|326:349|326:349|413:371,1,170.666666666667,2|0,3:2|3:2,0:0:0:0:
505,311,18582,1,10,3:2:0:0:
475,245,18724,1,0,3:2:0:0:
500,177,18867,1,0,3:2:0:0:
470,111,19010,6,0,B|477:78|477:78|464:21,2,72.0000002746582,6|0|0,3:2|3:2|3:2,0:0:0:0:
388,123,19439,2,0,P|336:104|329:4,1,144.000000549316,10|0,3:2|3:2,0:0:0:0:
317,24,19867,2,0,B|324:72|324:72|281:182,1,144.000000549316,2|0,3:2|3:2,0:0:0:0:
207,216,20296,2,0,L|222:290,1,72.0000002746582,10|0,3:2|3:2,0:0:0:0:
184,365,20582,1,0,3:2:0:0:
130,296,20724,6,0,B|70:283|22:320|22:320|18:294|46:265,1,170.666666666667,4|0,3:1|3:2,0:0:0:0:
127,189,21153,2,0,P|126:135|29:105,1,170.666666666667,10|0,3:2|3:2,0:0:0:0:
132,27,21582,2,0,L|48:-7,2,72.0000002746582,2|0|0,3:2|3:2|3:2,0:0:0:0:
221,81,22010,1,10,3:2:0:0:
221,81,22153,1,0,3:2:0:0:
221,81,22296,1,0,3:2:0:0:
312,71,22439,6,0,L|324:-18,2,72.0000002746582,6|0|0,1:2|3:2|3:2,0:0:0:0:
355,145,22867,2,0,B|434:149|384:191|510:194,1,144.000000549316,10|0,3:2|3:2,0:0:0:0:
485,196,23296,2,0,B|434:206|434:206|404:300,1,144.000000549316,2|0,3:2|3:2,0:0:0:0:
326,352,23724,2,0,P|296:324|256:315,1,72.0000002746582,10|0,3:2|3:2,0:0:0:0:
198,369,24010,1,0,3:2:0:0:
115,340,24153,6,0,B|64:375|21:339|21:339|20:300|61:275,1,170.666666666667,4|0,3:1|3:2,0:0:0:0:
117,184,24582,2,0,B|149:224|149:224|288:255,1,170.666666666667,10|0,3:2|3:2,0:0:0:0:
361,317,25010,2,0,B|392:269|470:270|470:270|439:260|416:228,1,170.666666666667,2|0,3:2|3:2,0:0:0:0:
469,135,25439,1,10,3:2:0:0:
431,71,25582,1,0,3:2:0:0:
360,52,25724,1,0,3:2:0:0:
288,64,25867,6,0,B|259:45|259:45|191:40,2,72.0000002746582,6|0|0,3:2|3:2|3:2,0:0:0:0:
298,149,26296,2,0,P|360:169|431:129,1,144.000000549316,10|0,3:2|3:2,0:0:0:0:
426,134,26724,2,0,B|386:216|439:196|392:295,1,144.000000549316,2|0,3:2|3:2,0:0:0:0:
420,370,27153,2,0,L|321:344,1,72.0000002746582,10|0,3:2|3:2,0:0:0:0:
278,303,27439,1,0,3:2:0:0:
204,349,27582,6,0,B|155:374|155:374|70:348|63:294,1,170.666666666667,4|0,3:1|3:2,0:0:0:0:
33,196,28010,2,0,B|82:171|82:171|167:197|174:251,1,170.666666666667,10|0,3:2|3:2,0:0:0:0:
286,298,28439,2,0,L|366:320,2,72.0000002746582,2|8|4,1:2|3:0|3:0,0:0:0:0:
391,242,28867,1,10,1:2:0:0:
391,242,29010,1,4,3:0:0:0:
391,242,29153,1,4,3:0:0:0:
446,178,29296,6,0,B|455:105,2,72.0000002746582,2|0|0,3:1|3:0|3:0,0:0:0:0:
368,144,29724,2,0,B|345:115|345:115|232:79,1,144.000000549316,10|0,3:2|3:0,0:0:0:0:
162,54,30153,2,0,B|156:14,5,36.0000001373291,2|0|0|0|0|0,3:2|3:0|3:0|3:0|3:0|3:0,0:0:0:0:
101,113,30581,1,10,3:2:0:0:
101,113,31010,6,0,L|20:140,2,72.0000002746582,2|0|0,3:2|3:0|3:0,0:0:0:0:
148,183,31438,2,0,L|229:210,2,72.0000002746582,10|0|0,3:2|3:0|3:0,0:0:0:0:
88,244,31867,2,0,B|72:281,5,36.0000001373291,2|0|0|0|0|0,3:2|3:0|3:0|3:0|3:0|3:0,0:0:0:0:
159,293,32295,1,10,3:2:0:0:
159,293,32724,6,0,L|172:383,2,72.0000002746582,2|0|0,3:2|3:0|3:0,0:0:0:0:
228,242,33153,2,0,B|253:166|192:188|235:80,1,144.000000549316,10|0,3:2|3:0,0:0:0:0:
294,49,33581,2,0,B|300:9,5,36.0000001373291,2|0|0|0|0|0,3:2|3:0|3:0|3:0|3:0|3:0,0:0:0:0:
355,108,34009,1,10,3:2:0:0:
355,108,34438,6,0,L|453:86,2,72.0000002746582,2|0|0,3:2|3:0|3:0,0:0:0:0:
402,188,34867,1,10,3:2:0:0:
402,188,35010,1,0,3:0:0:0:
402,188,35153,1,0,3:0:0:0:
338,243,35296,2,0,B|301:227,5,36.0000001373291,2|0|0|0|0|0,3:2|3:0|3:0|3:0|3:0|3:0,0:0:0:0:
379,304,35724,2,0,B|411:279,5,36.0000001373291,10|0|8|8|4|4,3:2|3:0|3:0|3:0|3:0|3:0,0:0:0:0:
305,309,36153,6,0,B|313:385,2,72.0000002746582,6|0|0,3:2|3:0|3:0,0:0:0:0:
229,347,36581,2,0,B|162:361|162:361|152:368|152:368|65:390,1,144.000000549316,10|0,3:2|3:0,0:0:0:0:
35,319,37010,2,0,B|0:338,5,36.0000001373291,2|0|0|0|0|0,3:2|3:0|3:0|3:0|3:0|3:0,0:0:0:0:
45,234,37438,1,10,3:2:0:0:
45,234,37867,6,0,L|0:146,2,72.0000002746582,2|0|0,3:2|3:0|3:0,0:0:0:0:
126,206,38296,2,0,L|135:297,2,72.0000002746582,10|0|0,3:2|3:0|3:0,0:0:0:0:
88,130,38724,2,0,B|95:92,5,36.0000001373291,2|0|0|0|0|0,3:2|3:0|3:0|3:0|3:0|3:0,0:0:0:0:
171,61,39152,1,10,3:2:0:0:
171,61,39581,6,0,L|111:-1,2,72.0000002746582,2|0|0,3:2|3:0|3:0,0:0:0:0:
250,28,40010,2,0,P|223:92|268:176,1,144.000000549316,10|0,3:2|3:0,0:0:0:0:
220,239,40438,2,0,B|239:274,5,36.0000001373291,2|0|0|0|0|0,3:2|3:0|3:0|3:0|3:0|3:0,0:0:0:0:
140,241,40866,1,10,3:2:0:0:
140,241,41296,6,0,L|40:263,2,72.0000002746582,2|0|0,3:2|3:0|3:0,0:0:0:0:
119,329,41724,1,10,3:2:0:0:
119,329,41867,1,0,3:0:0:0:
119,329,42010,1,0,3:0:0:0:
193,370,42153,2,0,B|235:379,5,36.0000001373291,2|0|0|0|0|0,3:2|3:0|3:0|3:0|3:0|3:0,0:0:0:0:
309,351,42581,1,10,3:2:0:0:
309,351,43010,6,0,L|296:258,2,72.0000002746582,6|0|0,1:2|3:2|3:2,0:0:0:0:
228,377,43438,2,0,P|180:343|201:241,1,144.000000549316,10|0,3:2|3:2,0:0:0:0:
179,263,43867,2,0,B|188:276|181:296|181:296|135:260|80:265,1,144.000000549316,2|0,3:2|3:2,0:0:0:0:
15,191,44295,2,0,L|22:100,1,72.0000002746582,10|0,3:2|3:2,0:0:0:0:
65,44,44581,1,0,3:2:0:0:
147,17,44724,6,0,B|151:88|216:103|216:103|277:69,1,170.666666666667,4|0,3:1|3:2,0:0:0:0:
377,71,45152,1,10,3:2:0:0:
358,122,45295,1,0,3:2:0:0:
376,172,45438,1,0,3:2:0:0:
420,202,45581,2,0,B|404:266|448:323|448:323|425:305|397:303,1,170.666666666667,2|0,3:2|3:2,0:0:0:0:
329,297,46010,1,10,3:2:0:0:
329,297,46152,2,0,P|290:326|283:393,1,85.3333333333333,0|0,3:2|3:2,0:0:0:0:
201,239,46438,6,0,L|118:252,2,72.0000002746582,6|0|0,3:2|3:2|3:2,0:0:0:0:
285,224,46867,2,0,B|305:148|246:169|286:55,1,144.000000549316,10|0,3:2|3:2,0:0:0:0:
277,83,47295,2,0,P|224:98|176:14,1,144.000000549316,2|0,3:2|3:2,0:0:0:0:
76,13,47724,2,0,L|69:102,1,72.0000002746582,10|0,3:2|3:2,0:0:0:0:
124,153,48010,1,0,3:2:0:0:
44,185,48152,6,0,P|91:199|100:322,1,170.666666666667,4|0,3:1|3:2,0:0:0:0:
216,361,48581,2,0,B|260:387|260:387|232:256,1,170.666666666667,10|0,3:2|3:2,0:0:0:0:
329,301,49010,2,0,L|336:210,2,72.0000002746582,2|0|0,3:2|3:2|3:2,0:0:0:0:
428,288,49438,1,10,3:2:0:0:
428,288,49581,1,0,3:2:0:0:
428,288,49724,1,0,3:2:0:0:
415,194,49867,6,0,L|492:171,2,72.0000002746582,6|0|0,1:2|3:2|3:2,0:0:0:0:
344,147,50295,2,0,B|320:92|353:31|353:31|321:48,1,144.000000549316,10|0,3:2|3:2,0:0:0:0:
332,41,50724,2,0,B|294:68|294:68|184:46,1,144.000000549316,2|0,3:2|3:2,0:0:0:0:
153,136,51152,2,0,L|170:223,1,72.0000002746582,10|0,3:2|3:2,0:0:0:0:
234,262,51438,1,0,3:2:0:0:
317,235,51581,6,0,P|280:257|274:392,1,170.666666666667,4|0,3:1|3:2,0:0:0:0:
147,348,52010,1,10,3:2:0:0:
165,296,52152,1,0,3:2:0:0:
142,245,52296,1,0,3:2:0:0:
91,223,52438,2,0,B|33:167|67:95|67:95|107:127,1,170.666666666667,2|0,3:2|3:2,0:0:0:0:
175,87,52867,1,10,3:2:0:0:
175,87,53010,2,0,P|224:71|249:26,1,85.3333333333333,0|0,3:2|3:2,0:0:0:0:
372,105,53295,6,0,L|361:15,2,72.0000002746582,6|0|0,3:2|3:2|3:2,0:0:0:0:
365,190,53724,2,0,B|418:176|418:176|521:231,1,144.000000549316,10|0,3:2|3:2,0:0:0:0:
496,218,54152,2,0,P|478:268|385:276,1,144.000000549316,2|0,3:2|3:2,0:0:0:0:
316,341,54581,2,0,L|211:357,1,72.0000002746582,10|0,3:2|3:2,0:0:0:0:
159,335,54867,1,0,3:2:0:0:
75,312,55010,6,0,L|17:322,5,42.6666666666667,4|0|8|8|8|8,3:1|3:0|3:2|3:2|3:2|3:2,0:0:0:0:
159,335,55438,2,0,L|174:292,5,26.6666666666667,8|0|4|0|0|0,3:0|3:2|3:0|3:2|3:2|3:2,0:0:0:0:
122,238,55867,2,0,L|126:192,5,36.0000001373291,6|0|10|0|2|0,3:2|3:2|3:2|3:2|3:2|3:2,0:0:0:0:
62,144,56295,2,0,L|54:99,5,36.0000001373291,4|0|2|0|2|0,3:1|3:2|3:2|3:2|3:2|3:2,0:0:0:0:
41,28,56724,5,14,1:2:0:0:
41,28,57581,1,14,1:2:0:0:
15,243,58010,5,14,1:2:0:0:
80,192,58152,1,14,3:2:0:0:
157,223,58295,1,14,3:2:0:0:
222,172,58437,1,14,1:2:0:0:
410,329,59081,6,0,L|470:339,2,36.0000001373291,8|4|0,3:0|3:0|3:0,0:0:0:0:
362,273,59295,2,0,B|281:289|281:289|233:355|233:355|133:374,3,256,4|4|4|4,1:2|1:0|1:2|1:0,0:0:0:0:
142,372,60723,1,8,3:2:0:0:
142,372,60866,1,8,3:2:0:0:
80,310,61009,6,0,L|-8:335,2,72.0000002746582,4|2|2,1:2|3:2|3:2,0:0:0:0:
136,244,61437,1,2,3:2:0:0:
51,223,61580,2,0,L|76:135,1,72.0000002746582,2|2,3:2|3:2,0:0:0:0:
18,83,61866,2,0,L|-1:13,2,72.0000002746582,2|2|2,3:2|3:2|3:2,0:0:0:0:
103,68,62294,2,0,B|140:71|140:71|190:49,1,72.0000002746582,2|2,3:2|3:2,0:0:0:0:
246,101,62580,1,2,3:2:0:0:
299,33,62723,2,0,L|387:8,2,72.0000002746582,4|2|2,3:2|3:2|3:2,0:0:0:0:
246,101,63151,2,0,L|221:189,1,72.0000002746582,2|2,3:2|3:2,0:0:0:0:
295,223,63437,1,2,3:2:0:0:
226,170,63580,6,0,B|307:186|307:186|355:252|355:252|445:269,1,256,4|10,3:2|3:2,0:0:0:0:
445,269,64151,1,10,3:2:0:0:
445,269,64294,1,10,3:2:0:0:
443,363,64437,6,0,L|512:343,2,72.0000002746582,4|2|2,1:2|3:2|3:2,0:0:0:0:
371,312,64866,1,2,3:2:0:0:
291,346,65009,2,0,B|270:319|270:319|230:307,1,72.0000002746582,2|2,3:2|3:2,0:0:0:0:
169,250,65294,2,0,L|149:319,2,72.0000002746582,2|2|2,3:2|3:2|3:2,0:0:0:0:
253,228,65723,1,2,3:2:0:0:
195,163,65866,2,0,L|175:93,1,72.0000002746582,2|2,3:2|3:2,0:0:0:0:
104,43,66151,2,0,L|34:62,2,72.0000002746582,4|2|2,3:2|3:2|3:2,0:0:0:0:
98,129,66580,1,2,3:2:0:0:
14,149,66723,2,0,B|28:181|28:181|20:235,1,72.0000002746582,2|2,3:2|3:2,0:0:0:0:
72,289,67009,6,0,B|162:272|162:272|210:206|210:206|291:190,3,256,4|4|4|4,3:2|3:1|3:2|3:1,0:0:0:0:
291,189,68437,1,8,3:2:0:0:
291,189,68580,1,8,3:2:0:0:
339,120,68723,6,0,L|321:22,1,85.3333333333333,6|0,1:0|3:0,0:0:0:0:
422,151,69008,2,0,L|404:249,1,85.3333333333333,0|0,3:0|3:0,0:0:0:0:
423,327,69294,1,0,3:0:0:0:
423,327,69437,1,0,3:0:0:0:
423,327,69580,6,0,B|380:338|380:338|348:378,1,85.3333333333333,0|0,3:2|3:0,0:0:0:0:
267,339,69865,1,0,3:0:0:0:
267,339,70008,2,0,B|278:296|278:296|260:248,1,85.3333333333333,0|0,3:0|3:0,0:0:0:0:
335,197,70294,1,0,3:0:0:0:
335,197,70437,2,0,B|366:228|366:228|416:236,1,85.3333333333333,0|0,3:2|3:0,0:0:0:0:
386,132,70723,1,0,3:0:0:0:
304,117,70865,2,0,L|322:19,2,85.3333333333333,0|0|0,3:0|3:0|3:0,0:0:0:0:
221,141,71294,5,0,3:2:0:0:
187,62,71437,1,0,3:0:0:0:
104,38,71580,1,0,3:0:0:0:
36,90,71723,2,0,L|45:139,5,42.6666666666667,0|8|8|8|8|8,3:2|2:0|3:2|2:0|3:2|2:0,0:0:0:0:
24,169,72151,6,0,L|107:184,1,85.3333333333333,6|0,1:0|3:0,0:0:0:0:
140,264,72437,2,0,L|223:248,1,85.3333333333333,0|0,3:0|3:0,0:0:0:0:
79,329,72723,1,0,3:0:0:0:
79,329,72865,1,0,3:0:0:0:
79,329,73008,6,0,B|118:342|118:342|149:382,1,85.3333333333333,0|0,3:2|3:0,0:0:0:0:
224,343,73294,2,0,B|263:330|263:330|294:290,1,85.3333333333333,0|0,3:0|3:0,0:0:0:0:
366,334,73580,2,0,L|449:349,1,85.3333333333333,0|0,3:0|3:0,0:0:0:0:
507,286,73865,1,0,3:2:0:0:
423,267,74008,1,0,3:0:0:0:
385,190,74151,1,0,3:0:0:0:
469,171,74294,2,0,L|487:73,2,85.3333333333333,0|0|0,3:0|3:0|3:0,0:0:0:0:
385,190,74723,5,4,1:0:0:0:
385,190,74794,1,0,3:1:0:0:
385,190,74865,2,0,L|327:201,3,42.6666666666667,0|4|4|8,3:0|3:0|3:0|3:0,0:0:0:0:
295,144,75151,1,4,1:2:0:0:
295,144,75223,1,0,3:0:0:0:
295,144,75294,2,0,L|306:86,3,42.6666666666667,0|4|4|8,3:0|3:0|3:0|3:0,0:0:0:0:
279,65,75580,6,0,L|362:49,1,85.3333333333333,6|0,1:0|3:0,0:0:0:0:
205,17,75865,2,0,L|122:1,1,85.3333333333333,0|0,3:0|3:0,0:0:0:0:
33,32,76151,1,0,3:0:0:0:
33,32,76294,1,0,3:0:0:0:
33,32,76437,6,0,B|44:74|44:74|24:122,1,85.3333333333333,0|0,3:2|3:0,0:0:0:0:
97,173,76722,1,0,3:0:0:0:
97,173,76865,2,0,B|129:142|129:142|179:135,1,85.3333333333333,0|0,3:0|3:0,0:0:0:0:
188,45,77151,1,0,3:0:0:0:
188,45,77294,2,0,B|145:32|145:32|114:-6,1,85.3333333333333,0|0,3:2|3:0,0:0:0:0:
267,21,77580,1,0,3:0:0:0:
249,105,77723,2,0,L|332:89,2,85.3333333333333,0|0|0,3:0|3:0|3:0,0:0:0:0:
169,136,78151,5,0,3:2:0:0:
155,220,78294,1,0,3:0:0:0:
141,304,78437,1,0,3:0:0:0:
77,360,78580,2,0,L|28:369,5,42.6666666666667,4|10|0|10|0|10,3:2|2:0|3:0|2:0|3:0|2:0,0:0:0:0:
7,335,79008,6,0,L|25:237,1,85.3333333333333,6|0,1:0|3:0,0:0:0:0:
93,202,79294,2,0,L|75:104,1,85.3333333333333,0|0,3:0|3:0,0:0:0:0:
185,238,79580,1,0,3:0:0:0:
116,289,79723,1,0,3:0:0:0:
185,238,79865,6,0,B|211:206|211:206|217:156,1,85.3333333333333,0|0,3:2|3:0,0:0:0:0:
301,177,80151,2,0,B|341:168|341:168|388:186,1,85.3333333333333,0|0,3:0|3:0,0:0:0:0:
418,106,80437,2,0,L|400:8,1,85.3333333333333,0|0,3:0|3:0,0:0:0:0:
498,156,80723,5,4,1:2:0:0:
498,156,80794,1,0,3:0:0:0:
498,156,80865,2,0,L|485:224,3,42.6666666666667,8|8|8|8,3:2|3:2|3:2|3:2,0:0:0:0:
431,256,81151,1,8,3:0:0:0:
431,256,81223,1,8,3:0:0:0:
431,256,81294,2,0,L|436:325,3,42.6666666666667,8|8|4|4,3:2|3:2|3:0|3:0,0:0:0:0:
335,245,81580,6,0,L|358:310,5,36.0000001373291,8|0|8|0|4|0,3:2|3:0|3:0|3:0|3:0|3:0,0:0:0:0:
313,355,82008,2,0,L|352:412,5,36.0000001373291,8|8|4|4|8|8,1:3|3:0|3:0|3:0|3:0|3:0,0:0:0:0:
228,358,82437,6,0,L|238:260,2,72.0000002746582,2|0|0,1:2|3:2|3:2,0:0:0:0:
149,321,82865,1,10,3:2:0:0:
149,321,83008,2,0,L|69:329,1,72.0000002746582,0|0,3:2|3:2,0:0:0:0:
19,263,83294,2,0,L|9:165,2,72.0000002746582,2|0|0,3:2|3:2|3:2,0:0:0:0:
103,240,83723,2,0,B|133:217|133:217|149:176,1,72.0000002746582,10|0,3:2|3:2,0:0:0:0:
78,130,84008,1,0,3:2:0:0:
111,50,84151,6,0,L|31:42,2,72.0000002746582,2|0|0,3:2|3:2|3:2,0:0:0:0:
194,19,84580,1,10,3:2:0:0:
194,19,84723,2,0,L|267:51,1,72.0000002746582,0|0,3:2|3:2,0:0:0:0:
345,37,85008,2,0,L|335:135,2,72.0000002746582,2|0|0,3:2|3:2|3:2,0:0:0:0:
431,30,85437,2,0,B|456:62|456:62|457:111,1,72.0000002746582,10|0,3:2|3:2,0:0:0:0:
405,163,85723,1,0,3:2:0:0:
428,245,85865,6,0,L|519:235,2,85.3333333333333,2|0|0,3:2|3:2|3:2,0:0:0:0:
364,300,86294,1,10,3:2:0:0:
364,300,86437,2,0,L|352:392,1,85.3333333333333,0|0,3:2|3:2,0:0:0:0:
280,339,86723,2,0,L|272:248,2,85.3333333333333,2|0|0,3:2|3:2|3:2,0:0:0:0:
204,379,87151,2,0,B|189:342|189:342|202:287,1,85.3333333333333,10|0,3:2|3:2,0:0:0:0:
165,218,87437,1,0,3:2:0:0:
93,266,87580,6,0,L|-2:256,2,85.3333333333333,2|0|0,3:2|3:2|3:2,0:0:0:0:
165,218,88008,1,10,3:2:0:0:
165,218,88151,2,0,L|250:192,1,85.3333333333333,0|0,3:2|3:2,0:0:0:0:
270,116,88437,1,8,3:0:0:0:
270,116,88580,1,4,3:0:0:0:
270,116,88723,1,0,3:2:0:0:
235,37,88865,2,0,B|200:55|200:55|184:97,1,72.0000002746582,8|4,3:0|3:0,0:0:0:0:
118,138,89151,1,0,3:2:0:0:
48,87,89294,6,0,L|38:-11,2,72.0000002746582,2|0|0,1:2|3:2|3:2,0:0:0:0:
118,138,89723,1,10,3:2:0:0:
118,138,89865,2,0,L|82:220,1,72.0000002746582,0|0,3:2|3:2,0:0:0:0:
104,289,90151,2,0,L|6:279,2,72.0000002746582,2|0|0,3:2|3:2|3:2,0:0:0:0:
159,355,90580,2,0,B|181:325|181:325|238:302,1,72.0000002746582,10|0,3:2|3:2,0:0:0:0:
272,374,90865,1,0,3:2:0:0:
349,336,91008,6,0,L|447:326,2,72.0000002746582,2|0|0,3:2|3:2|3:2,0:0:0:0:
291,270,91438,1,10,3:2:0:0:
291,270,91580,2,0,L|298:198,1,72.0000002746582,0|0,3:2|3:2,0:0:0:0:
235,139,91865,2,0,L|212:62,2,72.0000002746582,2|0|0,3:2|3:2|3:2,0:0:0:0:
318,114,92294,2,0,B|339:85|339:85|384:70,1,72.0000002746582,10|0,3:2|3:2,0:0:0:0:
439,17,92580,1,0,3:2:0:0:
492,84,92723,6,0,L|500:174,2,85.3333333333333,2|0|0,3:2|3:2|3:2,0:0:0:0:
439,17,93151,1,10,3:2:0:0:
439,17,93294,2,0,L|352:25,1,85.3333333333333,0|0,3:2|3:2,0:0:0:0:
281,71,93580,2,0,L|195:43,2,85.3333333333333,2|0|0,3:2|3:2|3:2,0:0:0:0:
358,110,94008,2,0,B|331:143|331:143|324:199,1,85.3333333333333,10|0,3:2|3:2,0:0:0:0:
394,237,94294,1,0,3:2:0:0:
382,322,94437,6,0,L|419:313,5,36.0000001373291,8|8|0|0|8|4,3:2|3:2|3:0|3:0|3:0|3:0,0:0:0:0:
316,355,94865,2,0,L|353:364,2,36.0000001373291,0|0|8,3:0|3:0|3:2,0:0:0:0:
268,300,95080,2,0,L|219:311,8,36.0000001373291,8|8|8|0|0|8|4|0|0,3:2|3:2|3:2|3:0|3:0|3:0|3:0|3:0|3:0,0:0:0:0:
162,335,95723,6,0,L|150:377,5,42.6666666666667,4|0|10|0|10|0,3:1|0:0|3:2|0:0|3:2|0:0,0:0:0:0:
103,286,96151,1,14,1:2:0:0:
101,70,97436,5,10,1:2:0:0:
101,70,97722,1,10,1:2:0:0:
411,116,98293,1,10,1:2:0:0:
411,116,98579,1,10,1:2:0:0:
369,43,98722,6,0,L|409:21,5,26.6666666666667,4|0|0|0|0|0,1:2|3:2|0:0|3:2|3:2|3:2,0:0:0:0:
289,43,99151,2,0,L|251:18,5,26.6666666666667,10|0|0|0|0|0,3:2|3:2|0:0|3:2|3:2|3:2,0:0:0:0:
328,113,99579,2,0,L|326:157,5,26.6666666666667,10|0|0|0|0|0,3:2|3:2|0:0|3:2|3:2|3:2,0:0:0:0:
264,192,100008,5,6,3:2:0:0:
264,192,100294,1,4,3:2:0:0:
327,244,100436,2,0,L|328:271,5,26.6666666666667,10|0|0|0|0|0,3:2|3:2|3:2|3:2|3:2|3:2,0:0:0:0:
336,357,100865,1,6,3:2:0:0:
336,357,101151,1,4,3:2:0:0:
416,327,101293,6,0,L|506:346,2,72.0000002746582,2|2|2,1:2|3:2|3:2,0:0:0:0:
336,357,101722,2,0,L|317:267,2,72.0000002746582,2|2|2,3:2|3:2|3:2,0:0:0:0:
250,338,102151,2,0,B|216:328|216:328|178:336,1,72.0000002746582,2|2,3:2|3:2,0:0:0:0:
95,354,102436,1,2,3:2:0:0:
71,275,102579,5,4,3:2:0:0:
71,275,102865,1,4,3:2:0:0:
85,189,103008,2,0,L|-5:208,2,72.0000002746582,8|8|8,3:2|3:2|3:2,0:0:0:0:
46,117,103436,1,4,3:2:0:0:
46,117,103722,1,4,3:2:0:0:
118,69,103865,6,0,L|137:-21,2,72.0000002746582,2|2|2,1:2|3:2|3:2,0:0:0:0:
172,135,104293,2,0,L|191:225,2,72.0000002746582,2|2|2,3:2|3:2|3:2,0:0:0:0:
211,57,104722,2,0,B|248:62|248:62|298:37,1,72.0000002746582,2|2,3:2|3:2,0:0:0:0:
354,3,105008,1,2,3:2:0:0:
404,79,105151,5,4,3:2:0:0:
404,79,105436,1,4,3:2:0:0:
358,152,105579,2,0,L|268:133,2,72.0000002746582,8|8|8,3:2|3:2|3:2,0:0:0:0:
376,241,106008,1,4,3:2:0:0:
376,241,106293,1,4,3:2:0:0:
305,291,106436,6,0,L|286:201,2,72.0000002746582,2|2|2,1:2|3:2|3:2,0:0:0:0:
321,376,106865,2,0,L|231:357,2,72.0000002746582,2|2|2,3:2|3:2|3:2,0:0:0:0:
386,319,107293,2,0,B|426:313|426:313|460:277,1,72.0000002746582,2|2,3:2|3:2,0:0:0:0:
505,224,107579,1,2,3:2:0:0:
440,174,107722,5,4,3:2:0:0:
440,174,108008,1,4,3:2:0:0:
403,95,108151,2,0,L|422:5,2,72.0000002746582,8|8|8,3:2|3:2|3:2,0:0:0:0:
322,77,108579,1,4,3:2:0:0:
322,77,108865,1,4,3:2:0:0:
220,47,109008,6,0,L|207:2,5,26.6666666666667,4|0|0|4|4|8,1:0|3:1|3:0|3:0|3:0|3:0,0:0:0:0:
193,119,109436,2,0,L|180:74,5,26.6666666666667,0|0|0|4|4|8,3:0|3:0|3:0|3:0|3:0|3:0,0:0:0:0:
128,81,109865,2,0,L|115:36,5,26.6666666666667,0|0|0|4|4|8,3:0|3:0|3:0|3:0|3:0|3:0,0:0:0:0:
70,126,110293,5,4,3:2:0:0:
70,126,110579,1,4,3:2:0:0:
442,258,111151,1,4,3:2:0:0:
442,258,111436,1,4,3:2:0:0:
488,325,111579,6,0,B|412:268|298:300|261:375|261:375|337:324|336:195|266:156|266:156|160:211|178:340,1,727.999966674806,6|0,1:0|0:0,0:0:0:0:
63,308,114793,5,0,3:0:0:0:
63,308,114900,1,0,3:0:0:0:
63,308,115007,2,0,B|38:359|102:407|181:366|168:254|80:213|80:213|-8:162|25:43|25:43|129:51|149:142|149:142|123:101|155:67,1,727.999966674806,6|0,1:0|0:0,0:0:0:0:
243,68,118221,5,0,3:0:0:0:
243,68,118329,1,0,3:0:0:0:
243,68,118436,2,0,L|235:19,2,34.6666650797527,0|0|0,3:0|3:0|3:0,0:0:0:0:
323,82,118864,2,0,L|340:35,2,34.6666650797527,0|0|0,3:0|3:0|3:0,0:0:0:0:
385,134,119293,1,0,3:0:0:0:
385,134,119436,2,0,L|404:118,2,17.3333325398763,0|0|0,3:0|3:0|3:0,0:0:0:0:
412,210,119721,6,0,L|461:202,2,34.6666650797527,0|0|0,3:0|3:0|3:0,0:0:0:0:
330,214,120150,2,0,L|368:182,2,34.6666650797527,0|0|0,3:0|3:0|3:0,0:0:0:0:
260,258,120579,2,0,L|277:211,2,34.6666650797527,0|0|0,3:0|3:0|3:0,0:0:0:0:
222,331,121007,1,0,3:0:0:0:
222,331,121150,2,0,L|218:306,2,17.3333325398763,0|0|0,3:0|3:0|3:0,0:0:0:0:
139,320,121436,2,0,L|145:357,2,34.6666650797527,0|0|0,3:0|3:0|3:0,0:0:0:0:
81,265,121864,6,0,L|8:251,2,53.3333333333333,2|0|8,1:2|3:0|3:0,0:0:0:0:
137,210,122293,2,0,L|130:173,5,22.666667098999,0|0|4|4|0|0,3:0|3:0|3:0|3:0|3:0|3:0,0:0:0:0:
207,166,122721,2,0,L|274:153,2,53.3333333333333,2|0|8,1:2|3:0|3:0,0:0:0:0:
152,111,123150,2,0,L|159:74,5,26.6666666666667,0|0|4|4|0|0,3:0|3:0|3:0|3:0|3:0|3:0,0:0:0:0:
112,21,123579,6,0,L|75:28,5,36.0000001373291,0|0|0|0|4|8,1:0|0:0|0:0|0:0|3:0|3:0,0:0:0:0:
156,84,124007,2,0,L|193:77,3,36.0000001373291,8|0|0|0,3:2|0:0|0:0|0:0,0:0:0:0:
267,86,124293,2,0,L|250:0,2,72.0000002746582,4|8|8,3:0|3:2|3:2,0:0:0:0:
344,102,124721,1,8,3:2:0:0:
421,118,124864,1,10,3:2:0:0:
462,340,125293,6,0,L|410:351,1,53.3333333333333,4|0,3:2|3:0,0:0:0:0:
351,303,125579,1,0,1:2:0:0:
306,362,125721,2,0,B|274:326|274:326|286:249,1,106.666666666667,10|0,3:2|3:0,0:0:0:0:
252,199,126150,1,2,3:2:0:0:
289,134,126293,2,0,L|326:129,2,26.6666666666667,0|0|0,3:0|3:0|3:0,0:0:0:0:
245,72,126579,2,0,L|192:61,1,53.3333333333333,10|0,3:2|3:0,0:0:0:0:
123,90,126864,1,0,3:0:0:0:
49,75,127007,2,0,L|38:23,2,53.3333333333333,2|0|0,3:2|3:0|3:0,0:0:0:0:
73,146,127436,2,0,B|41:182|41:182|53:259,1,106.666666666667,10|0,3:2|3:0,0:0:0:0:
65,321,127864,5,2,3:2:0:0:
65,321,128007,1,0,3:0:0:0:
65,321,128150,1,0,3:0:0:0:
137,303,128293,2,0,L|205:318,1,53.3333333333333,10|0,3:2|3:0,0:0:0:0:
255,350,128579,1,0,3:0:0:0:
355,331,128721,6,0,L|346:259,1,53.3333333333333,2|0,1:2|3:0,0:0:0:0:
408,232,129007,1,0,3:0:0:0:
452,291,129150,2,0,B|483:255|483:255|471:178,1,106.666666666667,10|0,3:2|3:0,0:0:0:0:
428,136,129579,1,2,3:2:0:0:
434,62,129721,2,0,L|440:23,2,26.6666666666667,0|0|0,3:0|3:0|3:0,0:0:0:0:
364,91,130007,2,0,L|304:100,1,53.3333333333333,10|0,3:2|3:0,0:0:0:0:
255,49,130293,1,0,3:0:0:0:
187,81,130436,2,0,L|177:140,2,53.3333333333333,2|0|0,3:2|3:0|3:0,0:0:0:0:
120,47,130864,2,0,B|89:83|89:83|101:160,1,106.666666666667,10|0,3:2|3:0,0:0:0:0:
76,213,131293,6,0,L|15:229,2,53.3333333333333,2|0|0,3:2|3:2|3:2,0:0:0:0:
151,252,131721,1,10,3:2:0:0:
234,236,131864,1,8,3:2:0:0:
318,220,132007,1,8,3:2:0:0:
279,130,132150,6,0,L|288:58,1,53.3333333333333,4|0,1:2|3:0,0:0:0:0:
337,22,132436,1,0,3:0:0:0:
337,22,132579,2,0,B|368:58|368:58|356:135,1,106.666666666667,10|0,3:2|3:0,0:0:0:0:
413,166,133007,1,2,3:2:0:0:
478,130,133150,2,0,L|475:88,2,26.6666666666667,0|0|0,3:0|3:0|3:0,0:0:0:0:
505,200,133436,2,0,B|474:236|474:236|486:313,1,106.666666666667,10|0,3:2|3:0,0:0:0:0:
418,331,133864,2,0,L|426:388,2,53.3333333333333,2|0|0,3:2|3:0|3:0,0:0:0:0:
355,288,134293,2,0,L|287:282,1,53.3333333333333,10|0,3:2|3:0,0:0:0:0:
256,343,134579,1,0,3:0:0:0:
186,318,134721,5,2,3:2:0:0:
186,318,134864,1,0,3:0:0:0:
186,318,135007,1,0,3:0:0:0:
131,369,135150,1,10,3:2:0:0:
116,49,135579,6,0,L|121:14,5,26.6666666666667,2|4|0|0|8|8,1:2|3:0|3:0|3:0|3:0|3:0,0:0:0:0:
45,76,136007,2,0,L|40:41,5,26.6666666666667,0|0|4|4|0|0,3:0|3:0|3:0|3:0|3:0|3:0,0:0:0:0:
79,142,136436,2,0,L|74:107,5,26.6666666666667,2|4|0|0|8|8,1:2|3:0|3:0|3:0|3:0|3:0,0:0:0:0:
150,169,136864,2,0,L|155:134,5,26.6666666666667,0|0|4|4|0|0,3:0|3:0|3:0|3:0|3:0|3:0,0:0:0:0:
93,215,137293,6,0,L|30:226,2,53.3333333333333,2|0|4,1:2|3:0|3:0,0:0:0:0:
164,276,137721,2,0,L|216:285,1,53.3333333333333,0|4,3:0|3:0,0:0:0:0:
282,352,138007,1,0,3:0:0:0:
346,303,138150,6,0,L|398:293,2,53.3333333333333,2|8|8,3:2|3:2|3:2,0:0:0:0:
282,352,138579,2,0,L|230:362,2,53.3333333333333,8|8|8,3:2|3:2|3:2,0:0:0:0:
357,381,139007,1,6,1:0:0:0:
256,192,139054,12,2,142435,1:2:0:0:
446,132,148149,6,0,B|485:101|455:39|455:39|349:49|357:159,1,264.000008056641,6|0,1:0|3:2,0:0:0:0:
389,246,148721,2,0,P|448:270|471:311,1,88.000002685547,10|0,3:2|3:2,0:0:0:0:
418,365,149007,2,0,P|359:341|336:300,1,88.000002685547,0|0,3:2|3:2,0:0:0:0:
260,344,149292,2,0,B|168:372|168:372|143:253|251:206,1,264.000008056641,2|0,1:2|3:2,0:0:0:0:
246,120,149864,2,0,P|243:56|212:20,1,88.000002685547,10|0,3:2|3:2,0:0:0:0:
144,52,150149,2,0,P|146:115|177:151,1,88.000002685547,0|0,3:2|3:2,0:0:0:0:
109,208,150435,6,0,B|51:214|7:173|7:173|67:245|33:334,1,264.000008056641,6|0,1:2|3:2,0:0:0:0:
124,380,151007,2,0,L|215:358,1,88.000002685547,10|0,3:2|3:2,0:0:0:0:
286,312,151292,1,0,3:2:0:0:
286,312,151435,1,0,3:2:0:0:
286,312,151578,2,0,B|333:369|420:362|420:362|458:296|384:229,1,264.000008056641,2|0,1:2|3:2,0:0:0:0:
377,153,152149,2,0,L|390:52,1,88.000002685547,10|0,3:2|3:2,0:0:0:0:
328,15,152435,1,0,3:2:0:0:
328,15,152578,1,0,3:2:0:0:
328,15,152721,6,0,B|246:26|246:26|188:96|188:96|84:115,1,264.000008056641,4|0,1:0|3:2,0:0:0:0:
29,192,153292,2,0,B|75:188|75:188|121:214,1,88.000002685547,10|0,3:2|3:2,0:0:0:0:
90,294,153578,2,0,B|44:298|44:298|-2:272,1,88.000002685547,0|0,3:2|3:2,0:0:0:0:
176,270,153864,2,0,B|260:236|284:320|287:320|289:320|333:384|437:329,1,264.000008056641,2|0,1:2|3:2,0:0:0:0:
445,243,154435,2,0,B|449:197|449:197|423:151,1,88.000002685547,10|0,3:2|3:2,0:0:0:0:
343,182,154721,2,0,B|339:228|339:228|365:274,1,88.000002685547,0|0,3:2|3:2,0:0:0:0:
306,333,155007,6,0,L|296:393,5,44.0000013427735,4|0|8|8|8|0,1:0|3:2|3:2|3:2|3:2|3:2,0:0:0:0:
236,297,155435,2,0,L|226:237,5,44.0000013427735,4|0|0|0|8|8,3:2|3:2|3:0|3:0|3:2|3:2,0:0:0:0:
159,301,155864,2,0,L|149:361,3,44.0000013427735,8|0|8|8,3:0|3:2|3:2|3:2,0:0:0:0:
96,253,156149,6,0,B|104:208|104:208|86:161,1,88.000002685547,8|8,3:0|3:2,0:0:0:0:
177,159,156435,2,0,B|161:116|161:116|122:84,1,88.000002685547,4|0,3:0|3:2,0:0:0:0:
200,37,156721,2,0,B|165:7|165:7|115:0,1,88.000002685547,4|0,3:0|3:2,0:0:0:0:
52,51,157007,2,0,L|-3:59,3,44.0000013427735,4|0|0|0,3:0|3:2|3:2|3:2,0:0:0:0:
8,57,157292,6,0,P|30:142|122:0,1,398.666648417156,2|0,1:0|0:0,0:0:0:0:
125,5,159006,6,0,B|153:74|218:97|280:73|294:-17|341:71|407:52|407:52|369:146|288:122|264:112|264:112|340:121|357:199,1,613.333333333333,4|0,1:2|0:0,0:0:0:0:
355,189,160720,6,0,B|384:251|360:347|276:359|276:359|335:295|454:338,1,398.666648417156,6|0,1:0|0:0,0:0:0:0:
483,264,162434,6,0,L|519:270,5,26.6666666666667,4|0|8|8|8|8,1:2|3:0|3:2|3:2|3:2|3:2,0:0:0:0:
461,191,162863,2,0,L|497:185,5,26.6666666666667,8|0|4|0|0|0,3:0|3:2|3:0|3:2|3:2|3:2,0:0:0:0:
392,159,163292,2,0,L|356:165,5,26.6666666666667,6|0|10|0|2|0,3:2|3:2|3:2|3:2|3:2|3:2,0:0:0:0:
414,86,163721,2,0,L|378:80,5,26.6666666666667,4|0|2|0|2|0,3:1|3:2|3:2|3:2|3:2|3:2,0:0:0:0:
303,86,164149,6,0,L|289:6,2,72.0000002746582,6|0|0,1:2|3:2|3:2,0:0:0:0:
230,129,164577,2,0,B|141:125|190:92|89:79,1,144.000000549316,10|0,3:2|3:2,0:0:0:0:
98,80,165006,2,0,B|128:117|128:117|101:235,1,144.000000549316,2|0,3:2|3:2,0:0:0:0:
46,288,165434,2,0,L|127:326,1,72.0000002746582,10|0,3:2|3:2,0:0:0:0:
178,375,165720,1,0,3:2:0:0:
261,353,165863,6,0,B|327:348|373:377|373:377|372:338|333:316,1,170.666666666667,4|0,3:1|3:2,0:0:0:0:
443,256,166292,2,0,B|431:197|431:197|441:157|441:157|423:63,1,170.666666666667,10|0,3:2|3:2,0:0:0:0:
355,0,166720,2,0,P|380:71|283:130,1,170.666666666667,2|0,3:2|3:2,0:0:0:0:
263,235,167149,1,10,3:2:0:0:
191,249,167292,1,0,3:2:0:0:
140,301,167434,1,0,3:2:0:0:
68,314,167577,6,0,B|43:340|43:340|36:378,2,72.0000002746582,6|0|0,3:2|3:2|3:2,0:0:0:0:
8,236,168006,2,0,P|48:213|42:103,1,144.000000549316,10|0,3:2|3:2,0:0:0:0:
58,123,168434,2,0,B|41:153|41:153|166:128,1,144.000000549316,2|0,3:2|3:2,0:0:0:0:
224,68,168863,2,0,L|308:86,1,72.0000002746582,10|0,3:2|3:2,0:0:0:0:
378,59,169149,1,0,3:2:0:0:
459,28,169292,6,0,B|421:17|421:17|378:98|434:167,1,170.666666666667,4|0,3:1|3:2,0:0:0:0:
477,242,169720,2,0,B|505:306|473:367|473:367|426:335,1,170.666666666667,10|0,3:2|3:2,0:0:0:0:
327,313,170149,2,0,L|247:335,2,72.0000002746582,2|8|4,1:2|3:0|3:0,0:0:0:0:
222,257,170577,1,10,1:2:0:0:
222,257,170720,1,4,3:0:0:0:
222,257,170863,1,4,3:0:0:0:
152,308,171006,6,0,B|143:381,2,72.0000002746582,2|0|0,1:0|3:0|3:0,0:0:0:0:
72,274,171434,2,0,B|94:236|94:236|78:109,1,144.000000549316,10|0,3:2|3:0,0:0:0:0:
111,55,171863,2,0,L|105:8,5,36.0000001373291,2|0|0|0|0|0,3:2|3:0|3:0|3:0|3:0|3:0,0:0:0:0:
193,77,172292,1,10,3:2:0:0:
193,77,172720,6,0,L|175:169,2,72.0000002746582,2|0|0,3:2|3:0|3:0,0:0:0:0:
278,92,173149,2,0,L|256:-12,2,72.0000002746582,10|0|0,3:2|3:0|3:0,0:0:0:0:
358,123,173577,2,0,L|422:108,5,36.0000001373291,2|0|0|0|0|0,3:2|3:0|3:0|3:0|3:0|3:0,0:0:0:0:
409,34,174006,1,10,3:2:0:0:
409,34,174434,6,0,L|497:48,2,72.0000002746582,2|0|0,3:2|3:0|3:0,0:0:0:0:
393,114,174863,2,0,B|397:206|441:160|442:279,1,144.000000549316,10|0,3:2|3:0,0:0:0:0:
409,328,175292,2,0,L|426:374,5,36.0000001373291,2|0|0|0|0|0,3:2|3:0|3:0|3:0|3:0|3:0,0:0:0:0:
326,307,175720,1,10,3:2:0:0:
326,307,176149,6,0,L|231:328,2,72.0000002746582,2|0|0,3:2|3:0|3:0,0:0:0:0:
290,238,176577,1,10,3:2:0:0:
290,238,176720,1,0,3:0:0:0:
290,238,176863,1,0,3:0:0:0:
295,151,177006,2,0,L|348:166,5,36.0000001373291,2|0|0|0|0|0,3:2|3:0|3:0|3:0|3:0|3:0,0:0:0:0:
226,181,177434,2,0,L|186:219,5,36.0000001373291,10|0|8|8|4|4,3:2|3:0|3:0|3:0|3:0|3:0,0:0:0:0:
234,106,177863,6,0,L|213:25,2,72.0000002746582,6|0|0,3:2|3:0|3:0,0:0:0:0:
153,139,178292,2,0,B|88:130|88:130|75:123|75:123|-15:110,1,144.000000549316,10|0,3:2|3:0,0:0:0:0:
27,198,178720,2,0,L|12:252,5,36.0000001373291,2|0|0|0|0|0,3:2|3:0|3:0|3:0|3:0|3:0,0:0:0:0:
79,293,179149,1,10,3:2:0:0:
79,293,179577,6,0,L|0:327,2,72.0000002746582,2|0|0,3:2|3:0|3:0,0:0:0:0:
131,362,180006,2,0,L|214:381,2,72.0000002746582,10|0|0,3:2|3:0|3:0,0:0:0:0:
167,283,180434,2,0,L|216:263,5,36.0000001373291,2|0|0|0|0|0,3:2|3:0|3:0|3:0|3:0|3:0,0:0:0:0:
279,302,180863,1,10,3:2:0:0:
279,302,181292,6,0,L|310:224,2,72.0000002746582,2|0|0,3:2|3:0|3:0,0:0:0:0:
334,367,181720,2,0,P|381:372|436:284,1,144.000000549316,10|0,3:2|3:0,0:0:0:0:
407,221,182149,2,0,L|453:191,5,36.0000001373291,2|0|0|0|0|0,3:2|3:0|3:0|3:0|3:0|3:0,0:0:0:0:
461,120,182577,1,10,3:2:0:0:
461,120,183006,6,0,L|480:35,2,72.0000002746582,2|0|0,3:2|3:0|3:0,0:0:0:0:
391,88,183434,1,10,3:2:0:0:
391,88,183577,1,0,3:0:0:0:
391,88,183720,1,0,3:0:0:0:
321,139,183863,2,0,L|331:184,5,36.0000001373291,2|0|0|0|0|0,3:2|3:0|3:0|3:0|3:0|3:0,0:0:0:0:
242,105,184292,1,10,3:2:0:0:
242,105,184720,6,0,L|252:7,2,72.0000002746582,2|0|0,1:2|3:2|3:2,0:0:0:0:
185,171,185149,1,10,3:2:0:0:
185,171,185292,2,0,L|195:269,1,72.0000002746582,0|0,3:2|3:2,0:0:0:0:
274,216,185577,2,0,L|372:226,2,72.0000002746582,2|0|0,3:2|3:2|3:2,0:0:0:0:
261,302,186006,2,0,B|232:325|232:325|216:373,1,72.0000002746582,10|0,3:2|3:2,0:0:0:0:
135,377,186292,1,0,3:2:0:0:
93,301,186434,6,0,L|-5:311,2,72.0000002746582,2|0|0,3:2|3:2|3:2,0:0:0:0:
56,227,186863,1,10,3:2:0:0:
56,227,187006,2,0,L|66:129,1,72.0000002746582,0|0,3:2|3:2,0:0:0:0:
109,81,187292,2,0,L|84:2,2,72.0000002746582,2|0|0,3:2|3:2|3:2,0:0:0:0:
187,45,187720,2,0,B|216:71|216:71|269:78,1,72.0000002746582,10|0,3:2|3:2,0:0:0:0:
327,38,188006,1,0,3:2:0:0:
375,108,188149,6,0,L|474:80,2,85.3333333333333,2|0|0,3:2|3:2|3:2,0:0:0:0:
339,185,188577,1,10,3:2:0:0:
339,185,188720,2,0,L|231:167,1,85.3333333333333,0|0,3:2|3:2,0:0:0:0:
180,214,189006,2,0,L|152:115,2,85.3333333333333,2|0|0,3:2|3:2|3:2,0:0:0:0:
117,272,189434,2,0,B|151:297|151:297|228:301,1,85.3333333333333,10|0,3:2|3:2,0:0:0:0:
240,371,189720,1,0,3:2:0:0:
320,343,189863,6,0,L|336:237,2,85.3333333333333,2|0|0,3:2|3:2|3:2,0:0:0:0:
398,378,190292,1,10,3:2:0:0:
398,378,190434,2,0,L|483:360,1,85.3333333333333,0|0,3:2|3:2,0:0:0:0:
443,283,190720,1,8,3:0:0:0:
443,283,190863,1,4,3:0:0:0:
443,283,191006,1,0,3:2:0:0:
512,231,191149,2,0,B|486:205|486:205|436:193,1,72.0000002746582,8|4,3:0|3:0,0:0:0:0:
413,119,191434,1,0,3:2:0:0:
484,70,191577,6,0,L|494:-15,2,72.0000002746582,2|0|0,1:2|3:2|3:2,0:0:0:0:
413,119,192006,1,10,3:2:0:0:
413,119,192149,2,0,L|321:103,1,72.0000002746582,0|0,3:2|3:2,0:0:0:0:
262,139,192434,2,0,L|288:211,2,72.0000002746582,2|0|0,3:2|3:2|3:2,0:0:0:0:
256,52,192863,2,0,B|217:59|217:59|183:89,1,72.0000002746582,10|0,3:2|3:2,0:0:0:0:
118,35,193149,1,0,3:2:0:0:
70,107,193292,6,0,L|-22:123,2,72.0000002746582,2|0|0,3:2|3:2|3:2,0:0:0:0:
137,161,193720,1,10,3:2:0:0:
137,161,193863,2,0,L|124:249,1,72.0000002746582,0|0,3:2|3:2,0:0:0:0:
63,292,194149,2,0,L|73:363,2,72.0000002746582,2|0|0,3:2|3:2|3:2,0:0:0:0:
145,316,194577,2,0,B|180:306|180:306|210:268,1,72.0000002746582,10|0,3:2|3:2,0:0:0:0:
277,322,194863,1,0,3:2:0:0:
353,282,195006,6,0,L|402:287,3,36.0000001373291,8|8|0|0,3:2|3:2|3:0|3:0,0:0:0:0:
449,240,195292,2,0,L|400:245,3,36.0000001373291,8|4|0|0,3:0|3:0|3:0|3:0,0:0:0:0:
391,174,195577,2,0,L|396:125,9,36.0000001373291,8|8|8|8|0|0|8|4|0|0,3:2|3:2|3:2|3:2|3:0|3:0|3:0|3:0|3:0|3:0,0:0:0:0:
446,81,196292,6,0,L|441:32,5,36.0000001373291,4|0|10|0|10|0,3:1|0:0|3:2|0:0|3:2|0:0,0:0:0:0:
375,10,196720,6,0,L|281:-4,2,72.0000002746582,12|8|8,1:2|3:2|3:2,0:0:0:0:
360,95,197149,1,4,3:1:0:0:
276,112,197292,2,0,L|188:128,1,72.0000002746582,8|0,3:0|3:0,0:0:0:0:
135,74,197577,2,0,L|47:58,2,72.0000002746582,12|0|0,1:2|3:0|3:0,0:0:0:0:
130,168,198006,1,4,3:1:0:0:
130,168,198149,1,0,3:0:0:0:
130,168,198292,1,0,3:0:0:0:
82,238,198434,6,0,L|-16:256,1,85.3333333333333,6|0,1:0|3:0,0:0:0:0:
128,311,198720,2,0,L|226:329,1,85.3333333333333,0|0,3:0|3:0,0:0:0:0:
291,286,199006,1,0,3:0:0:0:
291,286,199149,1,0,3:0:0:0:
291,286,199292,6,0,B|312:320|312:320|316:373,1,85.3333333333333,0|0,3:2|3:0,0:0:0:0:
399,384,199577,1,0,3:0:0:0:
399,384,199720,2,0,B|418:347|418:347|461:317,1,85.3333333333333,0|0,3:0|3:0,0:0:0:0:
429,241,200006,1,0,3:0:0:0:
429,241,200149,2,0,B|387:242|387:242|340:219,1,85.3333333333333,0|0,3:2|3:0,0:0:0:0:
488,179,200434,1,0,3:0:0:0:
440,107,200577,2,0,L|458:9,2,85.3333333333333,0|0|0,3:0|3:0|3:0,0:0:0:0:
488,179,201006,5,0,3:2:0:0:
429,241,201149,1,0,3:0:0:0:
453,322,201292,1,0,3:0:0:0:
394,384,201434,2,0,L|345:375,5,42.6666666666667,0|8|8|8|8|8,3:2|2:0|3:2|2:0|3:2|2:0,0:0:0:0:
309,383,201863,6,0,L|291:285,1,85.3333333333333,6|0,1:0|3:0,0:0:0:0:
229,241,202149,2,0,L|247:143,1,85.3333333333333,0|0,3:0|3:0,0:0:0:0:
198,326,202434,1,0,3:0:0:0:
198,326,202576,1,0,3:0:0:0:
198,326,202720,6,0,B|169:289|169:289|121:266,1,85.3333333333333,0|0,3:2|3:0,0:0:0:0:
60,227,203006,2,0,B|89:190|89:190|137:167,1,85.3333333333333,0|0,3:0|3:0,0:0:0:0:
55,121,203291,2,0,L|40:38,1,85.3333333333333,0|0,3:0|3:0,0:0:0:0:
120,6,203577,1,0,3:2:0:0:
139,89,203720,1,0,3:0:0:0:
214,129,203863,1,0,3:0:0:0:
233,46,204006,2,0,L|316:31,2,85.3333333333333,0|0|0,3:0|3:0|3:0,0:0:0:0:
214,129,204434,5,4,1:0:0:0:
214,129,204506,1,0,3:1:0:0:
214,129,204577,2,0,L|223:178,3,42.6666666666667,0|4|4|8,3:0|3:0|3:0|3:0,0:0:0:0:
173,228,204863,1,4,1:2:0:0:
173,228,204935,1,0,3:0:0:0:
173,228,205006,2,0,L|124:219,3,42.6666666666667,0|4|4|8,3:0|3:0|3:0|3:0,0:0:0:0:
93,240,205292,6,0,L|78:157,1,85.3333333333333,6|0,1:0|3:0,0:0:0:0:
32,301,205577,2,0,L|17:384,1,85.3333333333333,0|0,3:0|3:0,0:0:0:0:
107,372,205863,1,0,3:0:0:0:
107,372,206006,1,0,3:0:0:0:
107,372,206149,6,0,B|149:362|149:362|196:384,1,85.3333333333333,0|0,3:2|3:0,0:0:0:0:
251,314,206434,1,0,3:0:0:0:
251,314,206577,2,0,B|221:280|221:280|215:230,1,85.3333333333333,0|0,3:0|3:0,0:0:0:0:
126,218,206863,1,0,3:0:0:0:
126,218,207006,2,0,B|111:260|111:260|72:290,1,85.3333333333333,0|0,3:2|3:0,0:0:0:0:
188,161,207292,1,0,3:0:0:0:
137,92,207434,2,0,L|54:77,2,85.3333333333333,0|0|0,3:0|3:0|3:0,0:0:0:0:
205,39,207863,5,0,3:2:0:0:
289,25,208006,1,0,3:0:0:0:
373,12,208149,1,0,3:0:0:0:
451,46,208292,2,0,L|443:87,5,42.6666666666667,4|10|0|10|0|10,3:2|2:0|3:0|2:0|3:0|2:0,0:0:0:0:
467,122,208720,6,0,L|384:137,1,85.3333333333333,6|0,1:0|3:0,0:0:0:0:
334,208,209006,2,0,L|251:193,1,85.3333333333333,0|0,3:0|3:0,0:0:0:0:
386,278,209292,1,0,3:0:0:0:
438,211,209434,1,0,3:0:0:0:
386,278,209577,6,0,B|348:295|348:295|321:337,1,85.3333333333333,0|0,3:2|3:0,0:0:0:0:
254,281,209863,2,0,B|214:271|214:271|179:234,1,85.3333333333333,0|0,3:0|3:0,0:0:0:0:
118,294,210149,2,0,L|91:389,1,85.3333333333333,0|0,3:0|3:0,0:0:0:0:
56,233,210434,5,4,1:2:0:0:
56,233,210505,1,0,3:0:0:0:
56,233,210576,2,0,L|69:165,3,42.6666666666667,8|8|8|8,3:2|3:2|3:2|3:2,0:0:0:0:
123,133,210862,1,8,3:0:0:0:
123,133,210934,1,8,3:0:0:0:
123,133,211006,2,0,L|118:64,3,42.6666666666667,8|8|4|4,3:2|3:2|3:0|3:0,0:0:0:0:
219,144,211292,6,0,L|196:79,5,36.0000001373291,8|0|8|0|4|0,3:2|3:0|3:0|3:0|3:0|3:0,0:0:0:0:
241,34,211720,2,0,L|202:-23,5,36.0000001373291,8|8|4|4|8|8,1:3|3:0|3:0|3:0|3:0|3:0,0:0:0:0:
326,44,212148,5,14,1:2:0:0:
442,126,213433,5,10,1:2:0:0:
442,126,213719,1,10,1:2:0:0:
70,258,214290,1,10,1:2:0:0:
70,258,214576,1,10,1:2:0:0:
105,330,214719,6,0,L|63:349,5,26.6666666666667,4|0|0|0|0|0,1:2|3:2|0:0|3:2|3:2|3:2,0:0:0:0:
151,264,215148,2,0,L|153:218,5,26.6666666666667,10|0|0|0|0|0,3:2|3:2|0:0|3:2|3:2|3:2,0:0:0:0:
185,337,215576,2,0,L|221:361,5,26.6666666666667,10|0|0|0|0|0,3:2|3:2|0:0|3:2|3:2|3:2,0:0:0:0:
256,288,216005,5,6,3:2:0:0:
256,288,216290,1,4,3:2:0:0:
304,351,216433,2,0,L|327:337,5,26.6666666666667,10|0|0|0|0|0,3:2|3:2|3:2|3:2|3:2|3:2,0:0:0:0:
411,354,216862,1,6,3:2:0:0:
411,354,217148,1,4,3:2:0:0:
437,272,217290,6,0,L|527:291,2,72.0000002746582,2|2|2,1:2|3:2|3:2,0:0:0:0:
390,198,217719,2,0,L|300:217,2,72.0000002746582,2|2|2,3:2|3:2|3:2,0:0:0:0:
474,177,218148,2,0,B|460:145|460:145|471:86,1,72.0000002746582,2|2,3:2|3:2,0:0:0:0:
488,24,218433,1,2,3:2:0:0:
407,8,218576,5,4,3:2:0:0:
407,8,218862,1,4,3:2:0:0:
338,61,219005,2,0,L|357:151,2,72.0000002746582,8|8|8,3:2|3:2|3:2,0:0:0:0:
257,46,219433,1,4,3:2:0:0:
257,46,219719,1,4,3:2:0:0:
173,70,219862,6,0,L|192:-20,2,72.0000002746582,2|2|2,1:2|3:2|3:2,0:0:0:0:
88,50,220290,2,0,L|-2:69,2,72.0000002746582,2|2|2,3:2|3:2|3:2,0:0:0:0:
112,133,220719,2,0,B|126:165|126:165|115:224,1,72.0000002746582,2|2,3:2|3:2,0:0:0:0:
44,245,221005,1,2,3:2:0:0:
78,324,221148,5,4,3:2:0:0:
78,324,221433,1,4,3:2:0:0:
147,375,221576,2,0,L|166:285,2,72.0000002746582,2|2|2,3:2|3:2|3:2,0:0:0:0:
236,363,222005,1,4,3:2:0:0:
236,363,222290,1,4,3:2:0:0:
318,336,222433,6,0,L|408:355,2,72.0000002746582,2|2|2,1:2|3:2|3:2,0:0:0:0:
253,277,222862,2,0,L|234:187,2,72.0000002746582,2|2|2,3:2|3:2|3:2,0:0:0:0:
336,255,223290,2,0,B|374:261|374:261|432:234,1,72.0000002746582,2|2,3:2|3:2,0:0:0:0:
482,207,223576,1,2,3:2:0:0:
442,130,223719,5,4,3:2:0:0:
442,130,224005,1,4,3:2:0:0:
442,43,224148,2,0,L|532:24,2,72.0000002746582,2|2|2,3:2|3:2|3:2,0:0:0:0:
367,9,224576,1,4,3:2:0:0:
367,9,224862,1,4,3:2:0:0:
376,115,225005,6,0,L|421:103,5,26.6666666666667,4|0|0|4|4|8,1:0|3:1|3:0|3:0|3:0|3:0,0:0:0:0:
340,180,225433,2,0,L|385:168,5,26.6666666666667,0|0|0|4|4|8,3:0|3:0|3:0|3:0|3:0|3:0,0:0:0:0:
414,189,225862,2,0,L|459:177,5,26.6666666666667,0|0|0|4|4|8,3:0|3:0|3:0|3:0|3:0|3:0,0:0:0:0:
496,244,226290,5,4,3:2:0:0:
496,244,226576,1,4,3:2:0:0:
16,140,227148,1,4,3:2:0:0:
16,140,227433,1,4,3:2:0:0:
58,212,227576,6,0,B|109:182|114:111|76:74|76:74|152:80|186:5|186:5|255:83|235:163|155:187|92:282|136:364|177:383|177:383|232:343|236:283|194:232|194:232|257:291|322:312|358:207|441:213|491:290|491:290|445:377|356:354|356:354|430:290|426:193|387:152|387:152|309:68|401:-28|515:13|523:96|474:158|437:164|387:152|387:152|325:149|292:180,1,2088.00001752319,6|0,1:0|0:0,0:0:0:0:
