osu file format v14

[General]
AudioFilename: 13. Put curse on you inst.mp3
AudioLeadIn: 0
PreviewTime: 197999
Countdown: 1
SampleSet: None
StackLeniency: 0.3
Mode: 0
LetterboxInBreaks: 0
WidescreenStoryboard: 0

[Editor]
Bookmarks: 15428,29142,42857,60857,68571,82285,98571,125142,138857
DistanceSpacing: 1
BeatDivisor: 4
GridSize: 16
TimelineZoom: 2.1

[Metadata]
Title:Put Curse On You
TitleUnicode:Put Curse On You
Artist:UNDEAD CORPORATION
ArtistUnicode:UNDEAD CORPORATION
Creator:olteR
Version:Put Stamina On You
Source:
Tags:
BeatmapID:1343195
BeatmapSetID:632805

[Difficulty]
HPDrainRate:4
CircleSize:3.9
OverallDifficulty:8
ApproachRate:9.8
SliderMultiplier:1.4
SliderTickRate:1

[Events]
//Background and Video events
0,0,"27e078c8f4276e51973849ba7adb3099.jpg",0,0
//Break Periods
//Storyboard Layer 0 (Background)
//Storyboard Layer 1 (Fail)
//Storyboard Layer 2 (Pass)
//Storyboard Layer 3 (Foreground)
//Storyboard Sound Samples

[TimingPoints]
0,214.285714285714,4,3,0,80,1,0
15428,-100,4,3,0,80,0,1
29142,-100,4,3,0,80,0,0
42857,-100,4,3,0,80,0,1
56571,-100,4,3,0,80,0,0
59142,-133.333333333333,4,3,0,80,0,0
66857,-66.6666666666667,4,3,0,80,0,0
68571,-66.6666666666667,4,3,0,80,0,1
82285,-83.3333333333333,4,3,0,80,0,0
99857,-100,4,3,0,80,0,0
114571,-100,4,3,0,5,0,0
114642,-100,4,3,0,60,0,0
117999,-100,4,3,0,5,0,0
118071,-100,4,3,0,60,0,0
138857,285.714285714286,4,3,0,70,1,1
157142,-100,4,3,0,70,0,0
157999,-100,4,3,0,50,0,0
163142,-100,4,3,0,70,0,0

[HitObjects]
80,61,0,5,8,0:3:0:0:
80,79,71,1,0,0:0:0:0:
80,97,142,1,0,0:0:0:0:
80,115,214,1,0,0:0:0:0:
80,133,285,1,0,0:0:0:0:
80,151,357,1,0,0:0:0:0:
80,169,428,1,8,0:3:0:0:
80,187,499,1,0,0:0:0:0:
80,205,571,1,0,0:0:0:0:
80,223,642,5,0,0:0:0:0:
80,241,714,1,0,0:0:0:0:
80,259,785,1,0,0:0:0:0:
91,260,857,1,8,0:3:0:0:
109,255,928,1,0,0:0:0:0:
127,253,999,1,0,0:0:0:0:
145,254,1071,1,0,0:0:0:0:
162,257,1142,1,0,0:0:0:0:
179,263,1214,1,0,0:0:0:0:
196,271,1285,6,0,P|264:277|315:161,1,186.666666666667,4|4,0:3|0:0,0:0:0:0:
256,65,1714,1,8,0:3:0:0:
235,76,1785,1,0,0:0:0:0:
219,93,1856,1,0,0:0:0:0:
209,114,1928,1,0,0:0:0:0:
206,137,1999,1,0,0:0:0:0:
209,160,2071,1,0,0:0:0:0:
219,181,2142,2,0,P|257:245|384:257,1,186.666666666667,4|4,0:0|0:0,0:0:0:0:
476,171,2571,5,8,0:0:0:0:
478,186,2642,1,0,0:0:0:0:
479,201,2713,1,0,0:0:0:0:
477,217,2785,1,0,0:0:0:0:
475,232,2856,1,0,0:0:0:0:
470,247,2928,1,0,0:0:0:0:
464,262,2999,1,8,0:0:0:0:
457,275,3071,1,0,0:0:0:0:
448,288,3142,1,0,0:0:0:0:
438,300,3213,5,0,0:0:0:0:
426,310,3285,1,0,0:0:0:0:
414,319,3356,1,0,0:0:0:0:
400,327,3428,1,8,0:0:0:0:
386,333,3499,1,0,0:0:0:0:
371,338,3571,1,0,0:0:0:0:
356,341,3642,1,0,0:0:0:0:
341,342,3713,1,0,0:0:0:0:
325,342,3785,1,0,0:0:0:0:
310,340,3857,6,0,P|248:310|114:335,1,186.666666666667,4|4,0:0|0:0,0:0:0:0:
34,238,4285,1,8,0:0:0:0:
56,233,4356,1,0,0:0:0:0:
78,224,4427,1,0,0:0:0:0:
98,212,4499,1,0,0:0:0:0:
114,195,4570,1,0,0:0:0:0:
127,176,4642,1,0,0:0:0:0:
136,155,4714,2,0,P|190:110|325:117,1,186.666666666667,4|4,0:0|0:0,0:0:0:0:
404,261,5142,6,0,L|345:233,1,46.6666666666667,10|0,0:0|0:0,0:0:0:0:
294,293,5285,2,0,L|353:321,1,46.6666666666667,2|0,0:0|0:0,0:0:0:0:
234,341,5428,2,0,L|208:303,1,46.6666666666667,2|0,0:0|0:0,0:0:0:0:
122,313,5571,6,0,L|159:366,1,46.6666666666667,10|0,0:0|0:0,0:0:0:0:
208,283,5714,2,0,L|234:244,1,46.6666666666667,2|0,0:0|0:0,0:0:0:0:
320,254,5857,2,0,L|282:307,1,46.6666666666667,2|0,0:0|0:0,0:0:0:0:
404,261,5999,6,0,L|446:241,1,46.6666666666667,10|0,0:0|0:0,0:0:0:0:
377,190,6142,2,0,L|334:210,1,46.6666666666667,2|0,0:0|0:0,0:0:0:0:
265,158,6285,2,0,L|308:139,1,46.6666666666667,2|0,0:0|0:0,0:0:0:0:
419,107,6428,6,0,P|362:62|244:61,1,186.666666666667,4|4,0:0|0:0,0:0:0:0:
64,144,6857,2,0,L|64:192,1,46.6666666666667,10|0,0:0|0:0,0:0:0:0:
144,176,6999,2,0,L|144:224,1,46.6666666666667,2|0,0:0|0:0,0:0:0:0:
224,208,7142,2,0,L|224:256,1,46.6666666666667,2|0,0:0|0:0,0:0:0:0:
304,240,7285,2,0,P|358:343|432:328,1,186.666666666667,4|4,0:0|0:0,0:0:0:0:
409,234,7714,6,0,L|354:291,1,46.6666666666667,10|0,0:0|0:0,0:0:0:0:
304,240,7857,2,0,L|336:206,1,46.6666666666667,2|0,0:0|0:0,0:0:0:0:
296,145,7999,2,0,L|263:178,1,46.6666666666667,2|0,0:0|0:0,0:0:0:0:
150,267,8142,6,0,L|205:324,1,46.6666666666667,10|0,0:0|0:0,0:0:0:0:
255,273,8285,2,0,L|222:239,1,46.6666666666667,2|0,0:0|0:0,0:0:0:0:
263,178,8427,2,0,L|295:211,1,46.6666666666667,2|0,0:0|0:0,0:0:0:0:
171,346,8571,6,0,L|181:300,1,46.6666666666667,10|0,0:0|0:0,0:0:0:0:
248,333,8713,2,0,L|235:378,1,46.6666666666667,2|0,0:0|0:0,0:0:0:0:
313,366,8856,2,0,L|323:320,1,46.6666666666667,2|0,0:0|0:0,0:0:0:0:
304,240,8999,6,0,L|469:352,1,186.666666666667,4|4,0:0|0:0,0:0:0:0:
397,209,9428,2,0,L|339:172,1,46.6666666666667,10|0,0:0|0:0,0:0:0:0:
462,251,9571,2,0,L|520:288,1,46.6666666666667,2|0,0:0|0:0,0:0:0:0:
437,149,9714,2,0,L|379:112,1,46.6666666666667,2|0,0:0|0:0,0:0:0:0:
422,311,9857,2,0,P|350:285|309:175,1,186.666666666667,4|4,0:0|0:0,0:0:0:0:
293,38,10285,5,10,0:0:0:0:
233,248,10428,1,2,0:0:0:0:
437,149,10571,1,2,0:0:0:0:
189,141,10714,5,10,0:0:0:0:
400,80,10857,1,2,0:0:0:0:
301,284,11000,1,2,0:0:0:0:
248,73,11142,5,10,0:0:0:0:
301,284,11285,1,2,0:0:0:0:
428,97,11428,1,2,0:0:0:0:
231,249,11571,6,0,L|28:249,1,186.666666666667,4|4,0:0|0:0,0:0:0:0:
174,64,11999,1,10,0:0:0:0:
133,346,12142,1,2,0:0:0:0:
69,78,12285,1,2,0:0:0:0:
231,249,12428,2,0,L|417:249,1,186.666666666667,4|4,0:0|0:0,0:0:0:0:
457,105,12857,5,0,0:0:0:0:
440,96,12928,1,0,0:0:0:0:
422,91,12999,1,0,0:0:0:0:
403,91,13071,1,0,0:0:0:0:
385,94,13142,1,0,0:0:0:0:
368,101,13214,1,0,0:0:0:0:
362,151,13285,5,0,0:0:0:0:
344,158,13356,1,0,0:0:0:0:
326,162,13427,1,0,0:0:0:0:
308,164,13499,1,0,0:0:0:0:
289,162,13570,1,0,0:0:0:0:
271,157,13642,1,0,0:0:0:0:
236,105,13714,5,0,0:0:0:0:
222,117,13785,1,0,0:0:0:0:
209,131,13856,1,0,0:0:0:0:
199,147,13928,1,0,0:0:0:0:
192,164,13999,1,0,0:0:0:0:
186,182,14071,1,0,0:0:0:0:
220,231,14142,6,0,P|188:296|71:308,1,186.666666666667,4|4,0:0|0:0,0:0:0:0:
85,169,14571,1,0,0:0:0:0:
99,180,14642,1,0,0:0:0:0:
116,188,14713,1,0,0:0:0:0:
134,192,14785,1,0,0:0:0:0:
153,193,14856,1,0,0:0:0:0:
171,189,14928,1,0,0:0:0:0:
186,182,14999,2,0,P|265:157|387:191,1,186.666666666667,4|4,0:0|0:0,0:0:0:0:
491,323,15428,5,4,0:0:0:0:
477,325,15499,1,0,0:0:0:0:
464,327,15570,1,0,0:0:0:0:
450,328,15642,1,0,0:0:0:0:
436,329,15713,1,0,0:0:0:0:
423,330,15785,1,0,0:0:0:0:
409,330,15856,1,8,0:0:0:0:
396,330,15927,1,0,0:0:0:0:
382,329,15999,1,0,0:0:0:0:
369,327,16070,1,0,0:0:0:0:
355,325,16142,1,0,0:0:0:0:
342,322,16213,1,0,0:0:0:0:
329,318,16285,5,4,0:0:0:0:
324,312,16356,1,0,0:0:0:0:
333,302,16427,1,0,0:0:0:0:
342,291,16499,1,0,0:0:0:0:
349,280,16570,1,0,0:0:0:0:
356,268,16642,1,0,0:0:0:0:
362,256,16713,1,8,0:0:0:0:
366,243,16785,1,0,0:0:0:0:
369,230,16856,1,0,0:0:0:0:
370,216,16927,1,0,0:0:0:0:
370,203,16999,1,0,0:0:0:0:
367,189,17070,1,0,0:0:0:0:
364,176,17142,5,4,0:0:0:0:
347,194,17213,1,0,0:0:0:0:
329,212,17284,1,0,0:0:0:0:
310,229,17356,1,0,0:0:0:0:
290,244,17427,1,0,0:0:0:0:
268,258,17499,1,0,0:0:0:0:
245,268,17570,1,8,0:0:0:0:
220,273,17642,1,0,0:0:0:0:
196,269,17713,1,0,0:0:0:0:
178,252,17784,1,0,0:0:0:0:
174,227,17856,1,0,0:0:0:0:
182,203,17927,1,0,0:0:0:0:
199,185,17999,5,4,0:0:0:0:
223,177,18070,1,0,0:0:0:0:
247,184,18142,1,0,0:0:0:0:
262,204,18213,1,0,0:0:0:0:
268,229,18284,1,0,0:0:0:0:
266,254,18356,1,0,0:0:0:0:
258,278,18427,1,8,0:0:0:0:
244,299,18499,1,0,0:0:0:0:
227,317,18570,1,0,0:0:0:0:
206,332,18642,1,0,0:0:0:0:
183,342,18713,1,0,0:0:0:0:
159,348,18784,1,0,0:0:0:0:
134,349,18857,5,4,0:0:0:0:
136,331,18928,1,0,0:0:0:0:
136,314,18999,1,0,0:0:0:0:
133,296,19071,1,0,0:0:0:0:
129,280,19142,1,0,0:0:0:0:
122,263,19214,1,0,0:0:0:0:
114,248,19285,1,8,0:0:0:0:
104,233,19357,1,0,0:0:0:0:
94,219,19428,1,0,0:0:0:0:
82,206,19499,1,0,0:0:0:0:
70,194,19571,1,0,0:0:0:0:
57,182,19642,1,0,0:0:0:0:
44,170,19714,5,4,0:0:0:0:
53,164,19785,1,0,0:0:0:0:
70,159,19857,1,0,0:0:0:0:
86,153,19928,1,0,0:0:0:0:
102,146,19999,1,0,0:0:0:0:
118,138,20071,1,0,0:0:0:0:
133,129,20142,1,8,0:0:0:0:
147,118,20214,1,0,0:0:0:0:
160,107,20285,1,0,0:0:0:0:
171,93,20357,1,0,0:0:0:0:
181,79,20428,1,0,0:0:0:0:
188,62,20499,1,0,0:0:0:0:
192,45,20571,6,0,L|259:45,5,46.6666666666667,4|0|0|0|0|0,0:0|0:0|0:0|0:0|0:0|0:0,0:0:0:0:
380,133,20999,2,0,L|313:133,5,46.6666666666667,8|0|0|0|0|0,0:0|0:0|0:0|0:0|0:0|0:0,0:0:0:0:
192,221,21428,2,0,L|259:221,5,46.6666666666667,4|0|0|0|0|0,0:0|0:0|0:0|0:0|0:0|0:0,0:0:0:0:
380,309,21857,2,0,L|313:309,5,46.6666666666667,8|0|0|0|0|0,0:0|0:0|0:0|0:0|0:0|0:0,0:0:0:0:
305,309,22285,5,4,0:0:0:0:
290,293,22356,1,0,0:0:0:0:
274,279,22427,1,0,0:0:0:0:
255,268,22499,1,0,0:0:0:0:
236,260,22570,1,0,0:0:0:0:
215,255,22642,1,0,0:0:0:0:
193,254,22713,1,8,0:0:0:0:
172,255,22785,1,0,0:0:0:0:
151,258,22856,1,0,0:0:0:0:
130,263,22927,1,0,0:0:0:0:
125,251,22999,1,0,0:0:0:0:
126,230,23070,1,0,0:0:0:0:
128,209,23142,5,4,0:0:0:0:
129,187,23213,1,0,0:0:0:0:
131,166,23285,1,0,0:0:0:0:
133,145,23356,1,0,0:0:0:0:
141,136,23427,1,0,0:0:0:0:
160,145,23499,1,0,0:0:0:0:
180,152,23570,1,8,0:0:0:0:
201,155,23642,1,0,0:0:0:0:
223,156,23713,1,0,0:0:0:0:
244,155,23785,1,0,0:0:0:0:
265,152,23856,1,0,0:0:0:0:
286,147,23927,1,0,0:0:0:0:
308,142,23999,5,4,0:0:0:0:
310,155,24070,1,0,0:0:0:0:
312,168,24141,1,0,0:0:0:0:
315,182,24213,1,0,0:0:0:0:
317,195,24284,1,0,0:0:0:0:
319,209,24356,1,0,0:0:0:0:
322,222,24427,1,8,0:0:0:0:
324,235,24499,1,0,0:0:0:0:
326,249,24570,1,0,0:0:0:0:
329,262,24641,1,0,0:0:0:0:
331,276,24713,1,0,0:0:0:0:
333,289,24784,1,0,0:0:0:0:
336,302,24856,5,4,0:0:0:0:
338,316,24927,1,0,0:0:0:0:
343,319,24999,1,0,0:0:0:0:
351,308,25070,1,0,0:0:0:0:
359,297,25141,1,0,0:0:0:0:
367,286,25213,1,0,0:0:0:0:
375,275,25284,1,8,0:0:0:0:
383,264,25356,1,0,0:0:0:0:
391,253,25427,1,0,0:0:0:0:
400,242,25499,1,0,0:0:0:0:
408,231,25570,1,0,0:0:0:0:
416,220,25641,1,0,0:0:0:0:
424,209,25714,5,4,0:0:0:0:
405,213,25785,1,0,0:0:0:0:
385,214,25856,1,0,0:0:0:0:
366,212,25928,1,0,0:0:0:0:
348,205,25999,1,0,0:0:0:0:
331,195,26071,1,0,0:0:0:0:
317,181,26142,1,8,0:0:0:0:
306,166,26214,1,0,0:0:0:0:
298,148,26285,1,0,0:0:0:0:
294,129,26356,1,0,0:0:0:0:
294,109,26428,1,0,0:0:0:0:
298,90,26499,1,0,0:0:0:0:
305,73,26571,5,4,0:0:0:0:
316,57,26642,1,0,0:0:0:0:
330,43,26714,1,0,0:0:0:0:
346,32,26785,1,0,0:0:0:0:
365,26,26856,1,0,0:0:0:0:
384,22,26928,1,0,0:0:0:0:
403,23,26999,1,8,0:0:0:0:
422,28,27071,1,0,0:0:0:0:
440,36,27142,1,0,0:0:0:0:
455,48,27214,1,0,0:0:0:0:
468,62,27285,1,0,0:0:0:0:
478,79,27356,1,0,0:0:0:0:
484,97,27428,6,0,L|484:154,5,46.6666666666667,4|0|0|0|0|0,0:0|0:0|0:0|0:0|0:0|0:0,0:0:0:0:
304,160,27857,2,0,L|304:217,5,46.6666666666667,8|0|0|0|0|0,0:0|0:0|0:0|0:0|0:0|0:0,0:0:0:0:
484,223,28285,2,0,L|484:280,5,46.6666666666667,4|0|0|0|0|0,0:0|0:0|0:0|0:0|0:0|0:0,0:0:0:0:
304,286,28714,2,0,L|304:343,5,46.6666666666667,8|0|0|0|0|0,0:0|0:0|0:0|0:0|0:0|0:0,0:0:0:0:
232,271,29142,6,0,P|269:218|307:207,2,93.3333333333333,6|0|0,0:3|0:0|0:0,0:0:0:0:
435,271,29571,2,0,P|398:218|360:207,2,93.3333333333333,8|0|0,0:3|0:0|0:0,0:0:0:0:
360,281,29999,5,4,0:0:0:0:
360,281,30071,1,0,0:0:0:0:
360,281,30142,1,0,0:0:0:0:
360,281,30214,1,0,0:0:0:0:
360,281,30285,1,0,0:0:0:0:
360,281,30357,1,0,0:0:0:0:
360,281,30428,2,0,P|312:318|194:308,1,140,8|0,0:0|0:0,0:0:0:0:
234,325,30857,5,4,0:0:0:0:
116,182,30999,1,0,0:0:0:0:
296,163,31142,1,0,0:0:0:0:
137,291,31285,5,8,0:0:0:0:
201,116,31427,1,0,0:0:0:0:
308,262,31570,1,0,0:0:0:0:
116,182,31714,5,4,0:0:0:0:
115,181,31785,1,0,0:0:0:0:
115,181,31857,1,0,0:0:0:0:
115,181,31928,1,0,0:0:0:0:
115,181,31999,1,0,0:0:0:0:
115,181,32071,1,0,0:0:0:0:
116,182,32142,2,0,L|116:332,1,140,8|0,0:0|0:0,0:0:0:0:
353,278,32571,5,4,0:0:0:0:
116,322,32714,1,0,0:0:0:0:
353,190,32857,1,0,0:0:0:0:
116,182,32999,5,8,0:0:0:0:
352,355,33142,1,0,0:0:0:0:
115,252,33285,1,0,0:0:0:0:
354,115,33428,5,4,0:0:0:0:
354,115,33499,1,0,0:0:0:0:
354,115,33571,1,0,0:0:0:0:
354,115,33642,1,0,0:0:0:0:
354,115,33714,1,0,0:0:0:0:
354,115,33785,1,0,0:0:0:0:
354,115,33857,2,0,L|194:115,1,140,8|0,0:0|0:0,0:0:0:0:
214,115,34285,5,4,0:0:0:0:
157,317,34428,1,0,0:0:0:0:
214,115,34571,1,0,0:0:0:0:
286,314,34714,5,8,0:0:0:0:
214,115,34857,1,0,0:0:0:0:
157,317,34999,1,0,0:0:0:0:
286,314,35142,5,4,0:0:0:0:
286,314,35214,1,0,0:0:0:0:
286,314,35285,1,0,0:0:0:0:
286,314,35357,1,0,0:0:0:0:
286,314,35428,1,0,0:0:0:0:
286,314,35499,1,0,0:0:0:0:
286,314,35571,2,0,L|286:162,1,140,8|0,0:0|0:0,0:0:0:0:
86,143,35999,5,4,0:0:0:0:
286,174,36142,1,0,0:0:0:0:
86,205,36285,1,0,0:0:0:0:
286,236,36428,5,8,0:0:0:0:
86,267,36571,1,0,0:0:0:0:
286,298,36714,1,0,0:0:0:0:
86,329,36857,5,4,0:0:0:0:
86,329,36928,1,0,0:0:0:0:
86,329,36999,1,0,0:0:0:0:
86,329,37071,1,0,0:0:0:0:
86,329,37142,1,0,0:0:0:0:
86,329,37214,1,0,0:0:0:0:
86,329,37285,2,0,L|234:329,1,140,8|0,0:0|0:0,0:0:0:0:
393,293,37714,5,4,0:0:0:0:
273,242,37857,1,0,0:0:0:0:
425,324,37999,1,0,0:0:0:0:
241,211,38142,5,8,0:0:0:0:
457,355,38285,1,0,0:0:0:0:
205,176,38428,1,0,0:0:0:0:
393,293,38571,5,4,0:0:0:0:
393,293,38642,1,0,0:0:0:0:
393,293,38714,1,0,0:0:0:0:
393,293,38785,1,0,0:0:0:0:
393,293,38857,1,0,0:0:0:0:
393,293,38928,1,0,0:0:0:0:
393,293,38999,2,0,L|269:218,1,140,8|0,0:0|0:0,0:0:0:0:
192,59,39428,5,4,0:0:0:0:
149,185,39571,1,0,0:0:0:0:
106,311,39714,1,0,0:0:0:0:
63,86,39857,5,8,0:0:0:0:
149,185,40000,1,0,0:0:0:0:
237,286,40143,1,0,0:0:0:0:
325,185,40285,5,4,0:0:0:0:
325,185,40357,1,0,0:0:0:0:
325,185,40428,1,0,0:0:0:0:
325,185,40499,1,0,0:0:0:0:
325,185,40571,1,0,0:0:0:0:
325,185,40642,1,0,0:0:0:0:
325,185,40714,2,0,P|262:166|194:196,1,140,8|0,0:0|0:0,0:0:0:0:
418,317,41142,5,4,0:0:0:0:
307,255,41285,1,0,0:0:0:0:
196,193,41428,1,0,0:0:0:0:
245,367,41571,5,8,0:0:0:0:
307,255,41714,1,0,0:0:0:0:
368,143,41857,1,0,0:0:0:0:
429,255,41999,5,4,0:0:0:0:
429,255,42071,1,0,0:0:0:0:
429,255,42142,1,0,0:0:0:0:
429,255,42214,1,0,0:0:0:0:
429,255,42285,1,0,0:0:0:0:
429,255,42357,1,0,0:0:0:0:
429,255,42428,2,0,P|388:326|317:374,1,140,8|0,0:0|0:0,0:0:0:0:
96,352,42857,5,4,0:0:0:0:
117,343,42928,1,0,0:0:0:0:
137,330,42999,1,0,0:0:0:0:
154,314,43071,1,0,0:0:0:0:
168,295,43142,1,0,0:0:0:0:
178,275,43214,1,0,0:0:0:0:
185,252,43285,1,8,0:0:0:0:
160,247,43356,1,0,0:0:0:0:
139,233,43427,1,0,0:0:0:0:
123,214,43499,1,0,0:0:0:0:
113,191,43570,1,0,0:0:0:0:
112,166,43642,1,0,0:0:0:0:
118,142,43713,5,4,0:0:0:0:
132,121,43785,1,0,0:0:0:0:
152,106,43856,1,0,0:0:0:0:
175,97,43927,1,0,0:0:0:0:
200,96,43999,1,0,0:0:0:0:
224,104,44070,1,0,0:0:0:0:
244,118,44142,1,8,0:0:0:0:
259,138,44214,1,0,0:0:0:0:
282,144,44285,1,0,0:0:0:0:
305,142,44356,1,0,0:0:0:0:
326,133,44428,1,0,0:0:0:0:
343,117,44499,1,0,0:0:0:0:
354,96,44571,5,4,0:0:0:0:
358,73,44642,1,0,0:0:0:0:
378,54,44713,1,0,0:0:0:0:
404,43,44784,1,0,0:0:0:0:
432,42,44856,1,0,0:0:0:0:
459,50,44927,1,0,0:0:0:0:
481,66,44999,1,8,0:0:0:0:
497,89,45070,1,0,0:0:0:0:
504,116,45142,1,0,0:0:0:0:
503,143,45213,1,0,0:0:0:0:
491,169,45284,1,0,0:0:0:0:
473,189,45356,1,0,0:0:0:0:
443,184,45428,5,4,0:0:0:0:
415,179,45499,1,0,0:0:0:0:
387,174,45571,1,0,0:0:0:0:
358,169,45642,1,0,0:0:0:0:
359,196,45714,1,0,0:0:0:0:
360,225,45785,1,0,0:0:0:0:
362,254,45857,1,8,0:0:0:0:
363,282,45928,1,0,0:0:0:0:
362,308,45999,1,0,0:0:0:0:
335,299,46071,1,0,0:0:0:0:
307,292,46142,1,0,0:0:0:0:
279,286,46214,1,0,0:0:0:0:
250,283,46285,5,4,0:0:0:0:
266,266,46356,1,0,0:0:0:0:
276,245,46427,1,0,0:0:0:0:
280,222,46499,1,0,0:0:0:0:
278,199,46570,1,0,0:0:0:0:
268,178,46642,1,0,0:0:0:0:
253,160,46713,1,8,0:0:0:0:
234,148,46785,1,0,0:0:0:0:
211,142,46856,1,0,0:0:0:0:
188,142,46927,1,0,0:0:0:0:
166,150,46999,1,0,0:0:0:0:
184,142,47070,1,0,0:0:0:0:
203,134,47141,5,4,0:0:0:0:
221,125,47213,1,0,0:0:0:0:
239,117,47284,1,0,0:0:0:0:
257,109,47356,1,0,0:0:0:0:
276,101,47427,1,0,0:0:0:0:
294,93,47499,1,0,0:0:0:0:
312,85,47570,1,8,0:0:0:0:
331,77,47641,1,0,0:0:0:0:
349,69,47713,1,0,0:0:0:0:
367,61,47784,1,0,0:0:0:0:
385,53,47856,1,0,0:0:0:0:
404,44,47927,1,0,0:0:0:0:
422,36,47999,6,0,L|422:98,5,46.6666666666667,4|0|0|0|0|0,0:0|0:0|0:0|0:0|0:0|0:0,0:0:0:0:
423,236,48428,2,0,L|423:174,5,46.6666666666667,8|0|0|0|0|0,0:0|0:0|0:0|0:0|0:0|0:0,0:0:0:0:
264,36,48857,2,0,L|264:98,5,46.6666666666667,4|0|0|0|0|0,0:0|0:0|0:0|0:0|0:0|0:0,0:0:0:0:
265,236,49286,2,0,L|265:174,5,46.6666666666667,8|0|0|0|0|0,0:0|0:0|0:0|0:0|0:0|0:0,0:0:0:0:
336,238,49714,5,4,0:0:0:0:
330,263,49785,1,0,0:0:0:0:
315,285,49856,1,0,0:0:0:0:
294,301,49928,1,0,0:0:0:0:
268,307,49999,1,0,0:0:0:0:
242,303,50071,1,0,0:0:0:0:
219,290,50142,1,8,0:0:0:0:
202,270,50214,1,0,0:0:0:0:
183,291,50285,1,0,0:0:0:0:
158,305,50356,1,0,0:0:0:0:
129,309,50428,1,0,0:0:0:0:
101,304,50499,1,0,0:0:0:0:
77,290,50571,5,4,0:0:0:0:
58,269,50642,1,0,0:0:0:0:
47,242,50714,1,0,0:0:0:0:
46,214,50785,1,0,0:0:0:0:
55,186,50856,1,0,0:0:0:0:
72,164,50928,1,0,0:0:0:0:
96,148,50999,1,8,0:0:0:0:
123,141,51071,1,0,0:0:0:0:
152,143,51142,1,0,0:0:0:0:
162,167,51214,1,0,0:0:0:0:
176,189,51285,1,0,0:0:0:0:
195,206,51357,1,0,0:0:0:0:
217,220,51428,5,4,0:0:0:0:
241,228,51500,1,0,0:0:0:0:
267,232,51571,1,0,0:0:0:0:
293,229,51643,1,0,0:0:0:0:
318,221,51714,1,0,0:0:0:0:
340,209,51785,1,0,0:0:0:0:
331,185,51856,1,8,0:0:0:0:
322,161,51927,1,0,0:0:0:0:
313,138,51999,1,0,0:0:0:0:
305,114,52070,1,0,0:0:0:0:
296,91,52142,1,0,0:0:0:0:
296,74,52213,1,0,0:0:0:0:
321,74,52285,5,4,0:0:0:0:
347,74,52356,1,0,0:0:0:0:
372,74,52427,1,0,0:0:0:0:
397,74,52499,1,0,0:0:0:0:
422,74,52570,1,0,0:0:0:0:
447,74,52642,1,0,0:0:0:0:
472,74,52714,1,8,0:0:0:0:
458,93,52785,1,0,0:0:0:0:
448,114,52856,1,0,0:0:0:0:
440,135,52928,1,0,0:0:0:0:
435,158,52999,1,0,0:0:0:0:
433,181,53071,1,0,0:0:0:0:
434,205,53142,5,4,0:0:0:0:
438,228,53214,1,0,0:0:0:0:
445,250,53285,1,0,0:0:0:0:
454,271,53356,1,0,0:0:0:0:
467,291,53428,1,0,0:0:0:0:
440,281,53499,1,0,0:0:0:0:
413,274,53570,1,8,0:0:0:0:
385,270,53642,1,0,0:0:0:0:
357,269,53713,1,0,0:0:0:0:
329,271,53785,1,0,0:0:0:0:
302,276,53856,1,0,0:0:0:0:
275,284,53928,1,0,0:0:0:0:
249,294,53999,5,4,0:0:0:0:
224,307,54070,1,0,0:0:0:0:
201,323,54142,1,0,0:0:0:0:
201,309,54213,1,0,0:0:0:0:
201,295,54284,1,0,0:0:0:0:
201,281,54356,1,0,0:0:0:0:
201,267,54427,1,8,0:0:0:0:
201,253,54499,1,0,0:0:0:0:
201,239,54570,1,0,0:0:0:0:
201,225,54642,1,0,0:0:0:0:
201,211,54713,1,0,0:0:0:0:
201,197,54784,1,0,0:0:0:0:
201,183,54857,6,0,L|257:183,1,35,4|0,0:0|0:0,0:0:0:0:
304,112,54964,2,2,L|248:112,1,35,6|2,0:0|0:0,0:0:0:0:
133,102,55124,5,2,0:0:0:0:
133,102,55178,1,2,0:0:0:0:
133,102,55232,2,0,L|189:102,4,35,4|8|0|0|0,0:0|0:0|0:0|0:0|0:0,0:0:0:0:
121,119,55499,5,0,0:0:0:0:
109,131,55552,1,0,0:0:0:0:
100,146,55606,1,0,0:0:0:0:
94,163,55659,1,0,0:0:0:0:
91,180,55714,6,0,L|143:180,3,35,6|0|0|0,0:0|0:0|0:0|0:0,0:0:0:0:
263,241,55928,2,0,L|211:241,3,35,2|0|0|0,0:0|0:0|0:0|0:0,0:0:0:0:
91,302,56142,2,0,L|143:302,3,35,10|0|0|0,0:0|0:0|0:0|0:0,0:0:0:0:
263,363,56357,2,0,L|211:363,3,35,2|0|0|0,0:0|0:0|0:0|0:0,0:0:0:0:
228,363,56571,5,4,0:0:0:0:
224,256,57428,5,4,0:0:0:0:
224,256,57857,5,4,0:0:0:0:
320,256,57999,1,4,0:0:0:0:
416,256,58142,1,4,0:0:0:0:
512,256,58285,1,4,0:0:0:0:
512,256,58928,5,0,0:0:0:0:
512,256,58999,1,0,0:0:0:0:
512,256,59071,1,0,0:0:0:0:
512,256,59142,6,0,P|447:306|366:277,1,157.500006008148,4|0,0:0|0:0,0:0:0:0:
434,226,59571,2,0,P|359:210|300:259,1,157.500006008148,4|0,0:0|0:0,0:0:0:0:
312,342,59999,2,0,P|236:310|220:226,1,157.500006008148,4|0,0:0|0:0,0:0:0:0:
300,259,60428,2,8,L|373:204,2,70.0000026702882
185,358,60857,6,0,L|135:396,1,35.0000013351441,6|0,0:0|0:0,0:0:0:0:
188,264,60999,2,0,L|238:226,1,35.0000013351441,2|0,0:0|0:0,0:0:0:0:
111,300,61142,2,0,L|49:308,1,35.0000013351441,2|0,0:0|0:0,0:0:0:0:
161,220,61285,6,0,L|223:212,1,35.0000013351441,6|0,0:0|0:0,0:0:0:0:
76,213,61428,2,0,L|18:189,1,35.0000013351441,2|0,0:0|0:0,0:0:0:0:
159,169,61571,2,0,L|217:193,1,35.0000013351441,2|0,0:0|0:0,0:0:0:0:
128,64,61714,6,0,L|128:0,1,35.0000013351441,6|0,0:0|0:0,0:0:0:0:
192,64,61857,2,0,L|192:0,1,35.0000013351441,2|0,0:0|0:0,0:0:0:0:
256,64,61999,2,0,L|256:0,1,35.0000013351441,2|0,0:0|0:0,0:0:0:0:
256,160,62142,6,0,L|256:195,1,35.0000013351441,6|0,0:0|0:0,0:0:0:0:
320,160,62285,2,0,L|320:210,1,35.0000013351441,2|0,0:0|0:0,0:0:0:0:
384,160,62427,2,0,L|384:195,1,35.0000013351441,2|0,0:0|0:0,0:0:0:0:
448,224,62571,6,0,L|448:288,1,35.0000013351441,6|0,0:0|0:0,0:0:0:0:
352,256,62714,2,0,L|320:311,1,35.0000013351441,2|0,0:0|0:0,0:0:0:0:
256,224,62857,2,0,L|200:256,1,35.0000013351441,2|0,0:0|0:0,0:0:0:0:
353,177,62999,6,0,L|384:160,1,35.0000013351441,6|0,0:0|0:0,0:0:0:0:
257,145,63142,2,0,L|275:115,1,35.0000013351441,2|0,0:0|0:0,0:0:0:0:
161,177,63285,2,0,L|161:142,1,35.0000013351441,2|0,0:0|0:0,0:0:0:0:
160,96,63428,5,4,0:3:0:0:
160,40,63535,1,8,0:0:0:0:
160,44,63607,1,0,0:0:0:0:
160,48,63678,1,0,0:0:0:0:
160,52,63749,1,0,0:0:0:0:
160,56,63821,2,0,L|160:140,2,70.0000026702882,8|8|8,0:0|0:0|0:0,0:0:0:0:
288,48,64285,6,0,L|352:48,1,35.0000013351441,6|0,0:0|0:0,0:0:0:0:
195,126,64428,2,0,L|131:126,1,35.0000013351441,2|0,0:0|0:0,0:0:0:0:
288,204,64571,2,0,L|352:204,1,35.0000013351441,2|0,0:0|0:0,0:0:0:0:
195,282,64714,6,0,L|195:218,1,35.0000013351441,6|0,0:3|0:0,0:0:0:0:
117,154,64857,2,0,L|117:189,1,35.0000013351441,2|0,0:0|0:0,0:0:0:0:
39,282,64999,2,0,L|39:218,1,35.0000013351441,2|0,0:3|0:0,0:0:0:0:
37,83,65142,6,0,L|103:83,1,35.0000013351441,6|0,0:3|0:0,0:0:0:0:
195,126,65285,2,0,L|261:126,1,35.0000013351441,2|0,0:0|0:0,0:0:0:0:
353,83,65428,2,0,L|388:83,1,35.0000013351441,2|0,0:3|0:0,0:0:0:0:
430,191,65571,6,0,L|364:191,1,35.0000013351441,6|0,0:3|0:0,0:0:0:0:
272,234,65714,2,0,L|206:234,1,35.0000013351441,2|0,0:0|0:0,0:0:0:0:
114,191,65857,2,0,L|79:191,1,35.0000013351441,2|0,0:3|0:0,0:0:0:0:
176,84,65999,6,0,L|242:84,1,35.0000013351441,6|0,0:0|0:0,0:0:0:0:
350,85,66142,2,0,L|284:85,1,35.0000013351441,2|0,0:0|0:0,0:0:0:0:
326,190,66285,2,0,L|291:190,1,35.0000013351441,2|0,0:0|0:0,0:0:0:0:
152,189,66428,6,0,L|187:189,1,35.0000013351441,6|0,0:0|0:0,0:0:0:0:
128,294,66571,2,0,L|163:294,1,35.0000013351441,2|0,0:0|0:0,0:0:0:0:
302,295,66714,2,0,L|267:295,1,35.0000013351441,2|0,0:0|0:0,0:0:0:0:
163,294,66857,6,0,B|192:224|128:144|128:144|208:176|256:160|256:160|240:224,1,350.000013351441
302,295,67285,2,0,B|380:287|449:331|449:331|433:268|447:189|442:175|442:175|385:190,1,350.000013351441,4|0,0:0|0:0,0:0:0:0:
253,163,67714,2,0,B|176:80|96:160|96:160|160:192|128:256|128:256|224:288,1,350.000013351441,4|0,0:0|0:0,0:0:0:0:
304,224,68142,2,0,B|384:224|384:224|400:160|464:144|528:160|544:224|528:288|464:304|400:288,1,350.000013351441
384,320,68571,5,4,0:0:0:0:
304,224,68714,1,0,0:0:0:0:
416,208,68857,1,0,0:0:0:0:
392,362,68999,5,4,0:0:0:0:
266,188,69142,1,0,0:0:0:0:
447,164,69285,1,0,0:0:0:0:
397,382,69428,5,4,0:0:0:0:
243,157,69571,1,0,0:0:0:0:
469,129,69714,1,0,0:0:0:0:
473,346,69857,5,4,0:0:0:0:
227,229,69999,1,0,0:0:0:0:
408,91,70142,1,0,0:0:0:0:
512,278,70285,5,4,0:0:0:0:
224,313,70427,1,0,0:0:0:0:
338,61,70570,1,0,0:0:0:0:
512,190,70714,5,4,0:0:0:0:
290,368,70856,1,0,0:0:0:0:
262,93,70999,1,0,0:0:0:0:
494,109,71142,5,4,0:0:0:0:
375,384,71284,1,0,0:0:0:0:
213,159,71427,1,0,0:0:0:0:
422,57,71571,5,8,0:0:0:0:
422,57,71785,1,0,0:0:0:0:
422,57,71857,1,0,0:0:0:0:
422,57,71928,1,0,0:0:0:0:
422,57,71999,5,4,0:0:0:0:
390,249,72142,1,0,0:0:0:0:
422,57,72285,1,0,0:0:0:0:
231,150,72428,5,4,0:0:0:0:
422,182,72571,1,0,0:0:0:0:
231,150,72714,1,0,0:0:0:0:
376,109,72857,5,4,0:0:0:0:
339,345,73000,1,0,0:0:0:0:
376,109,73143,1,0,0:0:0:0:
196,217,73285,5,4,0:0:0:0:
432,254,73428,1,0,0:0:0:0:
196,217,73571,1,0,0:0:0:0:
300,50,73714,5,4,0:0:0:0:
255,321,73857,1,0,0:0:0:0:
300,50,74000,1,0,0:0:0:0:
109,101,74142,5,4,0:0:0:0:
380,146,74285,1,0,0:0:0:0:
109,101,74428,1,0,0:0:0:0:
216,117,74571,5,4,0:0:0:0:
219,134,74642,1,0,0:0:0:0:
218,151,74713,1,8,0:0:0:0:
213,168,74785,1,2,0:0:0:0:
205,183,74856,1,0,0:0:0:0:
195,198,74928,1,0,0:0:0:0:
186,213,74999,1,2,0:0:0:0:
177,228,75070,1,0,0:0:0:0:
171,244,75142,1,0,0:0:0:0:
167,261,75213,1,8,0:0:0:0:
168,279,75285,1,0,0:0:0:0:
172,296,75356,1,0,0:0:0:0:
179,312,75428,5,4,0:0:0:0:
355,299,75571,1,0,0:0:0:0:
355,299,75714,1,0,0:0:0:0:
200,248,75857,5,4,0:0:0:0:
426,236,76000,1,0,0:0:0:0:
426,236,76143,1,0,0:0:0:0:
225,191,76285,5,4,0:0:0:0:
480,178,76428,1,0,0:0:0:0:
480,178,76571,1,0,0:0:0:0:
241,114,76714,5,4,0:0:0:0:
512,101,76857,1,0,0:0:0:0:
512,101,77000,1,0,0:0:0:0:
241,114,77142,5,4,0:0:0:0:
290,331,77285,1,0,0:0:0:0:
348,120,77428,1,0,0:0:0:0:
215,289,77571,5,4,0:0:0:0:
290,53,77714,1,0,0:0:0:0:
359,280,77857,1,0,0:0:0:0:
202,79,77999,5,4,0:0:0:0:
295,365,78142,1,0,0:0:0:0:
378,74,78285,1,0,0:0:0:0:
204,199,78428,5,6,0:0:0:0:
233,181,78499,1,0,0:0:0:0:
268,182,78570,1,0,0:0:0:0:
301,195,78642,1,8,0:0:0:0:
335,202,78713,1,0,0:0:0:0:
369,197,78785,1,0,0:0:0:0:
400,181,78856,5,4,0:0:0:0:
237,69,78999,1,0,0:0:0:0:
251,261,79142,1,0,0:0:0:0:
375,69,79285,5,4,0:0:0:0:
165,161,79428,1,0,0:0:0:0:
359,273,79571,1,0,0:0:0:0:
250,42,79714,5,4,0:0:0:0:
218,297,79857,1,0,0:0:0:0:
436,163,80000,1,0,0:0:0:0:
149,138,80142,5,4,0:0:0:0:
380,319,80285,1,0,0:0:0:0:
365,37,80428,1,0,0:0:0:0:
263,83,80571,5,6,0:0:0:0:
259,117,80642,1,0,0:0:0:0:
275,147,80713,1,0,0:0:0:0:
303,169,80785,1,0,0:0:0:0:
323,197,80856,1,0,0:0:0:0:
325,232,80928,1,0,0:0:0:0:
316,266,80999,5,4,0:0:0:0:
219,345,81142,1,8,0:0:0:0:
243,219,81285,5,4,0:0:0:0:
145,297,81428,1,8,0:0:0:0:
169,171,81571,5,4,0:0:0:0:
102,311,81714,1,4,0:0:0:0:
84,283,81785,1,4,0:0:0:0:
71,249,81857,1,4,0:0:0:0:
64,214,81928,1,0,0:0:0:0:
64,179,81999,1,0,0:0:0:0:
72,145,82071,1,8,0:0:0:0:
85,113,82142,1,0,0:0:0:0:
105,84,82214,1,0,0:0:0:0:
130,60,82285,6,0,P|200:46|241:74,2,111.999996582031,6|0|0,0:0|0:0|0:0,0:0:0:0:
169,171,82714,2,0,P|99:157|58:185,2,111.999996582031,8|0|0,0:0|0:0|0:0,0:0:0:0:
319,94,83142,2,0,P|366:147|362:197,2,111.999996582031,4|0|0,0:0|0:0|0:0,0:0:0:0:
242,183,83571,2,0,P|219:115|174:93,2,111.999996582031,8|0|0,0:0|0:0|0:0,0:0:0:0:
82,243,83999,6,0,L|176:161,2,111.999996582031,6|0|0,0:0|0:0|0:0,0:0:0:0:
366,185,84428,2,0,L|272:267,2,111.999996582031,8|0|0,0:0|0:0|0:0,0:0:0:0:
473,129,84857,2,0,L|379:47,2,111.999996582031,4|0|0,0:0|0:0|0:0,0:0:0:0:
189,71,85286,2,0,L|283:153,2,111.999996582031,8|0|0,0:0|0:0|0:0,0:0:0:0:
94,206,85714,6,0,B|174:238|174:238|156:297,2,111.999996582031,6|0|0,0:0|0:0|0:0,0:0:0:0:
345,201,86142,2,0,B|265:169|265:169|283:110,2,111.999996582031,8|0|0,0:0|0:0|0:0,0:0:0:0:
162,58,86571,2,0,B|175:143|175:143|115:157,2,111.999996582031,4|0|0,0:0|0:0|0:0,0:0:0:0:
292,273,86999,2,0,B|280:188|280:188|340:174,2,111.999996582031,8|0|0,0:0|0:0|0:0,0:0:0:0:
163,272,87428,6,0,P|115:221|70:204,2,111.999996582031,6|0|0,0:0|0:0|0:0,0:0:0:0:
149,149,87857,2,0,P|197:98|242:81,2,111.999996582031,8|0|0,0:0|0:0|0:0,0:0:0:0:
238,339,88285,1,0,0:0:0:0:
226,168,88428,1,0,0:0:0:0:
384,247,88571,1,0,0:0:0:0:
185,256,88714,1,0,0:0:0:0:
173,85,88857,1,0,0:0:0:0:
331,164,89000,1,0,0:0:0:0:
134,175,89142,6,0,P|91:113|85:40,2,111.999996582031,6|0|0,0:0|0:0|0:0,0:0:0:0:
364,242,89571,2,0,P|407:180|413:107,2,111.999996582031,8|0|0,0:0|0:0|0:0,0:0:0:0:
143,317,89999,2,0,P|100:255|94:182,2,111.999996582031,4|0|0,0:0|0:0|0:0,0:0:0:0:
373,384,90428,2,0,P|416:322|422:249,2,111.999996582031,8|0|0,0:0|0:0|0:0,0:0:0:0:
176,192,90857,6,0,L|48:192,2,111.999996582031,6|0|0,0:0|0:0|0:0,0:0:0:0:
256,112,91285,2,0,L|256:-16,2,111.999996582031,8|0|0,0:0|0:0|0:0,0:0:0:0:
336,192,91714,2,0,L|464:192,2,111.999996582031,4|0|0,0:0|0:0|0:0,0:0:0:0:
256,272,92142,2,0,L|256:400,2,111.999996582031,8|0|0,0:0|0:0|0:0,0:0:0:0:
128,128,92571,6,0,P|160:64|208:32,2,111.999996582031,6|0|0,0:0|0:0|0:0,0:0:0:0:
224,256,92999,2,0,P|256:320|304:352,2,111.999996582031,8|0|0,0:0|0:0|0:0,0:0:0:0:
320,128,93428,2,0,P|352:64|400:32,2,111.999996582031,4|0|0,0:0|0:0|0:0,0:0:0:0:
416,256,93857,2,0,P|448:320|496:352,2,111.999996582031,8|0|0,0:0|0:0|0:0,0:0:0:0:
356,175,94285,5,12,0:0:0:0:
334,179,94356,1,8,0:0:0:0:
316,191,94427,1,0,0:0:0:0:
301,207,94499,1,0,0:0:0:0:
287,224,94570,1,0,0:0:0:0:
274,241,94642,1,0,0:0:0:0:
260,257,94713,1,4,0:0:0:0:
245,273,94784,1,0,0:0:0:0:
228,287,94856,5,8,0:0:0:0:
209,298,94927,1,8,0:0:0:0:
189,304,94999,1,8,0:0:0:0:
167,304,95070,1,8,0:0:0:0:
146,298,95142,1,4,0:0:0:0:
129,285,95213,1,0,0:0:0:0:
115,268,95284,1,0,0:0:0:0:
107,248,95356,1,0,0:0:0:0:
104,226,95427,1,0,0:0:0:0:
105,204,95499,1,0,0:0:0:0:
110,183,95571,6,0,P|129:128|173:83,2,111.999996582031,14|2|2,0:0|0:0|0:0,0:0:0:0:
110,183,95999,1,2,0:0:0:0:
110,183,97285,6,0,P|180:173|278:212,1,167.999994873047,4|0,0:0|0:0,0:0:0:0:
269,205,97571,1,8,0:0:0:0:
429,183,98142,6,0,P|359:173|261:212,1,167.999994873047,4|0,0:0|0:0,0:0:0:0:
269,205,98428,1,8,0:0:0:0:
189,206,98571,5,4,0:0:0:0:
196,185,98642,1,0,0:0:0:0:
208,167,98713,1,0,0:0:0:0:
223,151,98785,1,0,0:0:0:0:
241,140,98856,1,0,0:0:0:0:
262,134,98928,1,0,0:0:0:0:
284,136,98999,5,4,0:0:0:0:
304,143,99070,1,0,0:0:0:0:
321,157,99142,1,0,0:0:0:0:
333,175,99213,1,0,0:0:0:0:
339,196,99285,1,0,0:0:0:0:
339,218,99356,1,0,0:0:0:0:
333,238,99428,5,4,0:0:0:0:
321,256,99499,1,0,0:0:0:0:
304,270,99570,1,0,0:0:0:0:
285,281,99642,1,0,0:0:0:0:
264,287,99713,1,0,0:0:0:0:
243,289,99785,1,0,0:0:0:0:
221,286,99857,6,0,P|165:264|72:302,1,140,4|0,0:0|0:0,0:0:0:0:
90,284,100142,1,4,0:0:0:0:
151,340,100285,5,4,0:0:0:0:
170,352,100356,1,0,0:0:0:0:
192,359,100427,1,0,0:0:0:0:
216,362,100499,1,0,0:0:0:0:
239,360,100570,1,0,0:0:0:0:
261,353,100642,1,0,0:0:0:0:
281,341,100714,2,0,P|337:303|426:296,1,140,4|0,0:0|0:0,0:0:0:0:
407,293,100999,1,4,0:0:0:0:
437,51,101142,6,0,L|378:51,1,46.6666666666667,6|0,0:0|0:0,0:0:0:0:
368,144,101285,2,0,L|304:144,1,46.6666666666667,2|0,0:0|0:0,0:0:0:0:
437,237,101428,2,0,L|376:237,1,46.6666666666667,2|0,0:0|0:0,0:0:0:0:
175,168,101571,6,0,L|237:168,1,46.6666666666667,6|0,0:0|0:0,0:0:0:0:
244,261,101714,2,0,L|299:261,1,46.6666666666667,2|0,0:0|0:0,0:0:0:0:
175,354,101857,2,0,L|239:354,1,46.6666666666667,2|0,0:0|0:0,0:0:0:0:
356,320,101999,6,0,L|296:320,1,46.6666666666667,6|0,0:0|0:0,0:0:0:0:
220,220,102142,2,0,L|252:276,1,46.6666666666667,2|0,0:0|0:0,0:0:0:0:
175,354,102285,2,0,L|205:302,1,46.6666666666667,2|0,0:0|0:0,0:0:0:0:
329,235,102428,6,0,P|391:199|475:214,1,140,4|0,0:0|0:0,0:0:0:0:
456,204,102714,1,4,0:0:0:0:
416,320,102857,6,0,L|416:256,1,46.6666666666667,6|0,0:0|0:0,0:0:0:0:
329,235,102999,2,0,L|329:171,1,46.6666666666667,2|0,0:0|0:0,0:0:0:0:
242,150,103142,2,0,L|242:86,1,46.6666666666667,2|0,0:0|0:0,0:0:0:0:
155,65,103285,2,0,P|114:103|103:206,1,140,4|0,0:0|0:0,0:0:0:0:
96,182,103571,1,4,0:0:0:0:
242,150,103714,6,0,L|194:150,1,46.6666666666667,6|0,0:0|0:0,0:0:0:0:
96,182,103857,2,0,L|96:230,1,46.6666666666667,2|0,0:0|0:0,0:0:0:0:
128,328,103999,2,0,L|176:328,1,46.6666666666667,2|0,0:0|0:0,0:0:0:0:
226,225,104142,6,0,L|250:266,1,46.6666666666667,6|0,0:0|0:0,0:0:0:0:
327,335,104285,2,0,L|368:311,1,46.6666666666667,2|0,0:0|0:0,0:0:0:0:
437,234,104427,2,0,L|413:193,1,46.6666666666667,2|0,0:0|0:0,0:0:0:0:
299,200,104571,6,0,L|323:159,1,46.6666666666667,6|0,0:0|0:0,0:0:0:0:
344,58,104714,2,0,L|303:34,1,46.6666666666667,2|0,0:0|0:0,0:0:0:0:
202,13,104856,2,0,L|178:54,1,46.6666666666667,2|0,0:0|0:0,0:0:0:0:
242,149,104999,6,0,L|100:150,1,140,4|0,0:0|0:0,0:0:0:0:
102,150,105285,1,4,0:0:0:0:
101,288,105428,2,0,L|102:221,1,46.6666666666667,6|0,0:0|0:0,0:0:0:0:
192,288,105571,2,0,L|193:221,1,46.6666666666667,2|0,0:0|0:0,0:0:0:0:
283,288,105714,2,0,L|284:221,1,46.6666666666667,2|0,0:0|0:0,0:0:0:0:
242,149,105857,6,0,L|384:149,1,140,4|0,0:0|0:0,0:0:0:0:
382,149,106142,1,4,0:0:0:0:
444,269,106285,6,0,L|416:330,1,46.6666666666667,6|0,0:0|0:0,0:0:0:0:
353,234,106428,2,0,L|359:300,1,46.6666666666667,2|0,0:0|0:0,0:0:0:0:
256,249,106571,2,0,L|294:303,1,46.6666666666667,2|0,0:0|0:0,0:0:0:0:
155,137,106714,6,0,L|183:198,1,46.6666666666667,6|0,0:0|0:0,0:0:0:0:
246,102,106857,2,0,L|239:168,1,46.6666666666667,2|0,0:0|0:0,0:0:0:0:
343,117,107000,2,0,L|304:171,1,46.6666666666667,2|0,0:0|0:0,0:0:0:0:
209,249,107142,6,0,L|289:249,1,46.6666666666667,6|0,0:0|0:0,0:0:0:0:
316,303,107285,2,0,L|385:263,1,46.6666666666667,2|0,0:0|0:0,0:0:0:0:
435,296,107428,2,0,L|475:226,1,46.6666666666667,2|0,0:0|0:0,0:0:0:0:
452,176,107571,6,0,P|385:157|312:155,1,140,4|0,0:0|0:0,0:0:0:0:
316,155,107857,1,4,0:0:0:0:
255,249,107999,6,0,L|175:249,1,46.6666666666667,6|0,0:0|0:0,0:0:0:0:
148,195,108142,2,0,L|78:235,1,46.6666666666667,2|0,0:0|0:0,0:0:0:0:
29,202,108285,2,0,L|-11:271,1,46.6666666666667,2|0,0:0|0:0,0:0:0:0:
139,359,108428,2,0,P|197:305|204:233,1,140,4|0,0:0|0:0,0:0:0:0:
207,248,108714,1,4,0:0:0:0:
206,125,108857,5,12,0:0:0:0:
190,102,108928,1,0,0:0:0:0:
184,76,108999,1,0,0:0:0:0:
190,49,109071,1,0,0:0:0:0:
205,27,109142,1,0,0:0:0:0:
228,13,109214,1,0,0:0:0:0:
255,9,109285,1,4,0:0:0:0:
281,16,109356,1,0,0:0:0:0:
302,33,109428,1,0,0:0:0:0:
315,57,109499,5,0,0:0:0:0:
317,84,109571,1,0,0:0:0:0:
308,110,109642,1,0,0:0:0:0:
290,130,109714,1,4,0:0:0:0:
271,147,109785,1,0,0:0:0:0:
259,170,109856,1,0,0:0:0:0:
256,195,109928,1,0,0:0:0:0:
262,220,109999,1,0,0:0:0:0:
277,241,110071,1,0,0:0:0:0:
292,262,110142,6,0,P|356:287|421:262,1,140,4|0,0:0|0:0,0:0:0:0:
419,262,110428,1,4,0:0:0:0:
471,141,110571,1,4,0:0:0:0:
449,149,110642,1,0,0:0:0:0:
427,158,110713,1,0,0:0:0:0:
405,166,110785,1,0,0:0:0:0:
384,175,110856,1,0,0:0:0:0:
362,183,110928,1,0,0:0:0:0:
340,192,110999,6,0,L|203:248,1,140,4|0,0:0|0:0,0:0:0:0:
210,244,111285,1,4,0:0:0:0:
471,141,111428,1,8,0:0:0:0:
256,192,111499,12,0,114571,0:0:0:0:
256,192,114642,5,0,0:0:0:0:
256,192,114749,1,0,0:0:0:0:
256,192,114857,1,8,0:0:0:0:
256,192,114928,12,0,117999,0:0:0:0:
256,192,118071,5,0,0:0:0:0:
256,192,118178,1,0,0:0:0:0:
256,192,118285,1,4,0:0:0:0:
328,251,118428,1,0,0:0:0:0:
400,310,118571,1,0,0:0:0:0:
328,251,118714,5,4,0:0:0:0:
256,310,118857,1,0,0:0:0:0:
184,369,119000,1,0,0:0:0:0:
256,310,119142,5,4,0:0:0:0:
184,251,119285,1,0,0:0:0:0:
184,251,119357,1,0,0:0:0:0:
184,251,119428,1,0,0:0:0:0:
256,310,119571,5,4,0:0:0:0:
184,251,119714,1,0,0:0:0:0:
112,192,119857,1,0,0:0:0:0:
184,251,119999,5,4,0:0:0:0:
256,192,120142,1,0,0:0:0:0:
328,133,120285,1,0,0:0:0:0:
256,192,120428,5,4,0:0:0:0:
184,133,120571,1,0,0:0:0:0:
112,74,120714,1,0,0:0:0:0:
109,167,120857,5,4,0:0:0:0:
107,259,120999,1,0,0:0:0:0:
107,259,121071,1,0,0:0:0:0:
107,259,121142,1,0,0:0:0:0:
199,261,121285,5,4,0:0:0:0:
107,259,121428,1,0,0:0:0:0:
199,261,121571,1,0,0:0:0:0:
291,263,121714,5,6,0:0:0:0:
199,261,121857,1,0,0:0:0:0:
199,261,121928,1,0,0:0:0:0:
199,261,121999,1,0,0:0:0:0:
258,188,122142,5,4,0:0:0:0:
317,116,122285,1,0,0:0:0:0:
376,44,122428,1,0,0:0:0:0:
420,124,122571,5,6,0:0:0:0:
317,116,122714,1,0,0:0:0:0:
317,116,122785,1,0,0:0:0:0:
317,116,122856,1,0,0:0:0:0:
258,188,122999,5,4,0:0:0:0:
165,172,123142,1,0,0:0:0:0:
74,157,123285,1,0,0:0:0:0:
105,244,123428,5,4,0:0:0:0:
198,260,123571,1,0,0:0:0:0:
291,276,123714,1,8,0:0:0:0:
291,276,123785,1,8,0:0:0:0:
291,276,123857,1,8,0:0:0:0:
384,260,123999,5,4,0:0:0:0:
291,276,124142,1,8,0:0:0:0:
291,276,124213,1,8,0:0:0:0:
291,276,124285,1,12,0:0:0:0:
251,50,124428,1,0,0:0:0:0:
396,142,124571,1,0,0:0:0:0:
157,197,124714,1,8,0:0:0:0:
157,197,125142,5,6,0:0:0:0:
248,99,125285,1,0,0:0:0:0:
346,190,125428,1,0,0:0:0:0:
255,288,125571,5,10,0:0:0:0:
215,160,125714,1,0,0:0:0:0:
343,120,125857,1,0,0:0:0:0:
391,250,125999,5,6,0:0:0:0:
260,220,126142,1,0,0:0:0:0:
260,220,126214,1,0,0:0:0:0:
260,220,126285,1,0,0:0:0:0:
289,89,126428,1,10,0:0:0:0:
420,119,126571,1,4,0:0:0:0:
289,89,126714,1,0,0:0:0:0:
384,209,126857,5,6,0:0:0:0:
289,89,126999,1,0,0:0:0:0:
169,184,127142,1,0,0:0:0:0:
264,304,127285,5,10,0:0:0:0:
320,161,127428,1,0,0:0:0:0:
178,105,127571,1,0,0:0:0:0:
122,248,127714,5,6,0:0:0:0:
178,105,127857,1,0,0:0:0:0:
122,248,127999,1,0,0:0:0:0:
248,161,128142,5,10,0:0:0:0:
192,18,128285,1,0,0:0:0:0:
248,161,128427,1,0,0:0:0:0:
304,18,128571,5,6,0:0:0:0:
350,98,128714,1,0,0:0:0:0:
442,98,128857,1,0,0:0:0:0:
427,189,128999,5,10,0:0:0:0:
381,269,129142,1,0,0:0:0:0:
289,269,129285,1,0,0:0:0:0:
248,161,129428,5,6,0:0:0:0:
202,81,129571,1,0,0:0:0:0:
202,81,129642,1,0,0:0:0:0:
202,81,129714,1,0,0:0:0:0:
110,81,129857,1,10,0:0:0:0:
110,81,129999,1,0,0:0:0:0:
110,81,130142,1,0,0:0:0:0:
124,233,130285,5,6,0:0:0:0:
192,169,130428,1,0,0:0:0:0:
282,147,130571,1,0,0:0:0:0:
448,125,130714,5,10,0:0:0:0:
380,61,130857,1,0,0:0:0:0:
290,39,131000,1,0,0:0:0:0:
201,64,131142,5,6,0:0:0:0:
264,160,131285,1,0,0:0:0:0:
360,97,131428,1,0,0:0:0:0:
297,1,131571,5,10,0:0:0:0:
143,93,131714,1,8,0:0:0:0:
235,247,131857,1,8,0:0:0:0:
389,155,131999,5,6,0:0:0:0:
364,245,132142,1,0,0:0:0:0:
339,335,132285,1,0,0:0:0:0:
302,182,132428,5,10,0:0:0:0:
235,247,132571,1,0,0:0:0:0:
168,312,132714,1,0,0:0:0:0:
213,161,132857,5,6,0:0:0:0:
122,184,133000,1,0,0:0:0:0:
122,184,133071,1,0,0:0:0:0:
122,184,133142,1,0,0:0:0:0:
32,207,133285,1,10,0:0:0:0:
32,207,133428,1,0,0:0:0:0:
32,207,133571,1,0,0:0:0:0:
96,80,133714,5,6,0:0:0:0:
192,80,133857,1,0,0:0:0:0:
288,80,133999,1,0,0:0:0:0:
336,160,134142,5,10,0:0:0:0:
240,160,134284,1,0,0:0:0:0:
144,160,134427,1,0,0:0:0:0:
192,240,134571,5,6,0:0:0:0:
272,336,134714,1,0,0:0:0:0:
368,256,134857,1,0,0:0:0:0:
202,332,134999,5,10,0:0:0:0:
325,311,135142,1,0,0:0:0:0:
304,188,135285,1,0,0:0:0:0:
180,208,135428,5,10,0:0:0:0:
202,332,135571,1,0,0:0:0:0:
217,308,135642,1,4,0:0:0:0:
237,288,135713,1,0,0:0:0:0:
260,273,135785,1,0,0:0:0:0:
287,268,135856,1,4,0:0:0:0:
315,274,135928,1,0,0:0:0:0:
340,285,135999,1,0,0:0:0:0:
366,297,136071,1,4,0:0:0:0:
392,306,136142,1,0,0:0:0:0:
420,304,136213,1,0,0:0:0:0:
443,288,136285,5,10,0:0:0:0:
427,129,136428,5,0,0:0:0:0:
400,123,136499,1,4,0:0:0:0:
373,130,136570,1,0,0:0:0:0:
345,130,136642,1,0,0:0:0:0:
320,119,136713,1,4,0:0:0:0:
297,103,136785,1,0,0:0:0:0:
273,87,136856,1,0,0:0:0:0:
248,76,136928,1,4,0:0:0:0:
220,76,136999,1,0,0:0:0:0:
197,91,137070,1,0,0:0:0:0:
183,115,137142,5,10,0:0:0:0:
204,215,137285,1,0,0:0:0:0:
279,147,137428,1,0,0:0:0:0:
116,130,137571,5,4,0:0:0:0:
278,232,137714,1,0,0:0:0:0:
258,52,137857,1,0,0:0:0:0:
88,200,137999,5,6,0:0:0:0:
455,205,138142,1,2,0:0:0:0:
105,286,138285,5,2,0:0:0:0:
444,114,138428,1,2,0:0:0:0:
68,114,138571,5,2,0:0:0:0:
407,286,138714,1,2,0:0:0:0:
88,200,138857,5,4,0:0:0:0:
111,192,138928,1,0,0:0:0:0:
131,179,138999,1,0,0:0:0:0:
151,163,139071,1,0,0:0:0:0:
171,149,139142,1,0,0:0:0:0:
193,138,139214,1,0,0:0:0:0:
218,136,139285,1,0,0:0:0:0:
240,145,139357,1,0,0:0:0:0:
259,161,139428,5,8,0:0:0:0:
274,181,139499,1,0,0:0:0:0:
287,202,139571,1,0,0:0:0:0:
298,224,139642,1,0,0:0:0:0:
310,246,139714,1,0,0:0:0:0:
323,267,139785,1,0,0:0:0:0:
339,285,139857,1,0,0:0:0:0:
360,298,139928,1,0,0:0:0:0:
384,302,139999,5,4,0:0:0:0:
409,298,140071,1,0,0:0:0:0:
430,284,140142,1,0,0:0:0:0:
444,264,140214,1,0,0:0:0:0:
448,239,140285,1,0,0:0:0:0:
442,215,140357,1,0,0:0:0:0:
427,195,140428,1,0,0:0:0:0:
405,183,140499,1,0,0:0:0:0:
381,181,140571,5,8,0:0:0:0:
357,189,140642,1,0,0:0:0:0:
339,206,140714,1,0,0:0:0:0:
329,229,140785,1,0,0:0:0:0:
329,254,140857,1,0,0:0:0:0:
339,276,140928,1,0,0:0:0:0:
358,293,140999,1,0,0:0:0:0:
337,307,141071,1,0,0:0:0:0:
314,319,141142,5,4,0:0:0:0:
290,328,141214,1,0,0:0:0:0:
266,334,141285,1,0,0:0:0:0:
240,337,141357,1,0,0:0:0:0:
215,336,141428,1,0,0:0:0:0:
190,333,141499,1,0,0:0:0:0:
165,326,141571,1,0,0:0:0:0:
142,316,141642,1,0,0:0:0:0:
120,303,141714,5,8,0:0:0:0:
100,287,141785,1,0,0:0:0:0:
114,268,141856,1,0,0:0:0:0:
125,246,141927,1,0,0:0:0:0:
131,223,141999,1,0,0:0:0:0:
133,199,142070,1,0,0:0:0:0:
129,176,142142,1,0,0:0:0:0:
119,154,142213,1,0,0:0:0:0:
104,136,142285,5,4,0:0:0:0:
84,122,142356,1,0,0:0:0:0:
68,112,142427,1,0,0:0:0:0:
89,100,142499,1,0,0:0:0:0:
111,91,142570,1,0,0:0:0:0:
135,85,142642,1,0,0:0:0:0:
158,82,142713,1,0,0:0:0:0:
182,84,142785,1,0,0:0:0:0:
206,89,142856,5,8,0:0:0:0:
228,97,142927,1,0,0:0:0:0:
250,107,142999,1,0,0:0:0:0:
271,119,143070,1,0,0:0:0:0:
290,133,143142,1,0,0:0:0:0:
312,145,143213,1,0,0:0:0:0:
329,164,143284,1,0,0:0:0:0:
337,188,143356,1,0,0:0:0:0:
337,213,143427,5,4,0:0:0:0:
328,237,143499,1,0,0:0:0:0:
311,256,143570,1,0,0:0:0:0:
288,268,143642,1,0,0:0:0:0:
263,271,143713,1,0,0:0:0:0:
238,265,143784,1,0,0:0:0:0:
217,251,143856,1,0,0:0:0:0:
203,230,143927,1,0,0:0:0:0:
196,205,143999,5,8,0:0:0:0:
199,180,144070,1,0,0:0:0:0:
211,157,144142,1,0,0:0:0:0:
229,140,144214,1,0,0:0:0:0:
252,134,144285,1,0,0:0:0:0:
268,115,144356,1,0,0:0:0:0:
271,90,144428,1,0,0:0:0:0:
258,69,144499,1,0,0:0:0:0:
236,59,144571,5,4,0:0:0:0:
212,64,144642,1,0,0:0:0:0:
195,82,144714,1,0,0:0:0:0:
168,87,144785,1,0,0:0:0:0:
143,98,144856,1,0,0:0:0:0:
122,116,144928,1,0,0:0:0:0:
105,137,144999,1,0,0:0:0:0:
94,162,145071,1,0,0:0:0:0:
90,189,145142,5,8,0:0:0:0:
92,217,145214,1,0,0:0:0:0:
100,243,145285,1,0,0:0:0:0:
115,266,145356,1,0,0:0:0:0:
134,285,145428,1,0,0:0:0:0:
158,299,145499,1,0,0:0:0:0:
184,307,145571,1,0,0:0:0:0:
211,308,145642,1,0,0:0:0:0:
238,303,145714,5,4,0:0:0:0:
263,291,145785,1,0,0:0:0:0:
284,274,145856,1,0,0:0:0:0:
301,253,145928,1,0,0:0:0:0:
312,228,145999,1,0,0:0:0:0:
317,201,146071,1,0,0:0:0:0:
315,174,146142,1,0,0:0:0:0:
306,147,146214,1,0,0:0:0:0:
292,124,146285,5,8,0:0:0:0:
273,105,146357,1,0,0:0:0:0:
286,98,146428,1,0,0:0:0:0:
299,91,146499,1,0,0:0:0:0:
313,84,146571,1,0,0:0:0:0:
326,77,146642,1,0,0:0:0:0:
339,71,146714,1,0,0:0:0:0:
353,64,146785,1,0,0:0:0:0:
366,57,146857,5,4,0:0:0:0:
373,70,146928,1,0,0:0:0:0:
381,83,146999,1,0,0:0:0:0:
390,96,147071,1,0,0:0:0:0:
399,109,147142,1,0,0:0:0:0:
409,121,147214,1,0,0:0:0:0:
419,132,147285,1,0,0:0:0:0:
430,143,147357,1,0,0:0:0:0:
442,154,147428,5,8,0:0:0:0:
429,165,147499,1,0,0:0:0:0:
417,178,147570,1,0,0:0:0:0:
407,192,147642,1,0,0:0:0:0:
398,208,147713,1,0,0:0:0:0:
391,224,147785,1,0,0:0:0:0:
386,240,147856,1,0,0:0:0:0:
382,257,147928,1,0,0:0:0:0:
380,275,147999,5,4,0:0:0:0:
357,278,148070,1,0,0:0:0:0:
335,283,148141,1,0,0:0:0:0:
313,289,148213,1,0,0:0:0:0:
292,296,148284,1,0,0:0:0:0:
271,303,148356,1,0,0:0:0:0:
250,312,148427,1,0,0:0:0:0:
229,321,148499,1,0,0:0:0:0:
209,331,148570,5,8,0:0:0:0:
190,332,148641,1,0,0:0:0:0:
174,316,148713,1,0,0:0:0:0:
156,302,148784,1,0,0:0:0:0:
138,290,148856,1,0,0:0:0:0:
118,279,148927,1,0,0:0:0:0:
98,268,148999,1,0,0:0:0:0:
77,259,149070,1,0,0:0:0:0:
58,250,149141,5,4,0:0:0:0:
78,239,149213,1,0,0:0:0:0:
97,227,149284,1,0,0:0:0:0:
116,215,149356,1,0,0:0:0:0:
135,202,149427,1,0,0:0:0:0:
152,187,149499,1,0,0:0:0:0:
167,171,149570,1,0,0:0:0:0:
180,152,149641,1,0,0:0:0:0:
187,131,149713,5,8,0:0:0:0:
188,108,149784,1,0,0:0:0:0:
181,87,149856,1,0,0:0:0:0:
168,68,149927,1,0,0:0:0:0:
151,54,149999,1,0,0:0:0:0:
131,43,150070,1,0,0:0:0:0:
110,37,150141,1,0,0:0:0:0:
87,36,150214,1,0,0:0:0:0:
88,57,150285,5,4,0:0:0:0:
93,78,150356,1,0,0:0:0:0:
99,99,150428,1,0,0:0:0:0:
108,118,150499,1,0,0:0:0:0:
119,137,150571,1,0,0:0:0:0:
132,154,150642,1,0,0:0:0:0:
147,170,150714,1,0,0:0:0:0:
163,184,150785,1,0,0:0:0:0:
181,196,150856,5,8,0:0:0:0:
200,206,150928,1,0,0:0:0:0:
220,214,150999,1,0,0:0:0:0:
240,220,151071,1,0,0:0:0:0:
262,223,151142,1,0,0:0:0:0:
266,201,151213,1,0,0:0:0:0:
275,181,151284,1,0,0:0:0:0:
289,163,151356,1,0,0:0:0:0:
306,149,151427,5,4,0:0:0:0:
326,140,151499,1,0,0:0:0:0:
348,136,151570,1,0,0:0:0:0:
370,137,151642,1,0,0:0:0:0:
392,143,151713,1,0,0:0:0:0:
411,154,151784,1,0,0:0:0:0:
427,170,151856,1,0,0:0:0:0:
439,188,151928,1,0,0:0:0:0:
415,204,151999,5,8,0:0:0:0:
394,222,152070,1,0,0:0:0:0:
373,242,152142,1,0,0:0:0:0:
355,264,152213,1,0,0:0:0:0:
340,288,152285,1,0,0:0:0:0:
330,315,152356,1,0,0:0:0:0:
327,342,152428,1,0,0:0:0:0:
306,324,152499,1,0,0:0:0:0:
280,312,152570,5,4,0:0:0:0:
253,305,152642,1,0,0:0:0:0:
224,302,152713,1,0,0:0:0:0:
196,301,152785,1,0,0:0:0:0:
168,303,152856,1,0,0:0:0:0:
139,305,152928,1,0,0:0:0:0:
111,310,152999,1,0,0:0:0:0:
83,315,153071,1,0,0:0:0:0:
95,296,153142,5,8,0:0:0:0:
104,276,153213,1,0,0:0:0:0:
110,254,153285,1,0,0:0:0:0:
113,232,153356,1,0,0:0:0:0:
113,210,153428,1,0,0:0:0:0:
110,188,153499,1,0,0:0:0:0:
103,167,153571,1,0,0:0:0:0:
93,147,153642,1,0,0:0:0:0:
81,128,153714,5,4,0:0:0:0:
98,131,153785,1,0,0:0:0:0:
115,134,153856,1,0,0:0:0:0:
132,137,153928,1,0,0:0:0:0:
149,140,153999,1,0,0:0:0:0:
167,143,154071,1,0,0:0:0:0:
184,146,154142,1,0,0:0:0:0:
201,149,154214,1,0,0:0:0:0:
209,136,154285,5,8,0:0:0:0:
220,124,154356,1,0,0:0:0:0:
231,114,154428,1,0,0:0:0:0:
244,104,154499,1,0,0:0:0:0:
257,96,154571,1,0,0:0:0:0:
271,90,154642,1,0,0:0:0:0:
286,85,154714,1,0,0:0:0:0:
301,81,154785,1,0,0:0:0:0:
316,80,154856,5,6,0:0:0:0:
445,195,154999,1,10,0:0:0:0:
280,215,155142,1,10,0:0:0:0:
116,229,155285,1,0,0:0:0:0:
110,249,155356,1,0,0:0:0:0:
112,270,155427,5,0,0:0:0:0:
121,288,155499,1,0,0:0:0:0:
136,303,155570,1,0,0:0:0:0:
155,312,155642,1,0,0:0:0:0:
176,313,155713,1,8,0:0:0:0:
196,308,155785,1,0,0:0:0:0:
213,296,155856,1,0,0:0:0:0:
225,278,155927,1,0,0:0:0:0:
230,258,155999,5,8,0:0:0:0:
228,236,156070,1,0,0:0:0:0:
232,214,156141,1,0,0:0:0:0:
241,195,156213,1,0,0:0:0:0:
255,178,156284,1,8,0:0:0:0:
273,165,156356,1,0,0:0:0:0:
293,157,156427,1,0,0:0:0:0:
315,155,156499,1,0,0:0:0:0:
336,159,156571,5,8,0:0:0:0:
356,167,156641,1,0,0:0:0:0:
374,181,156713,1,0,0:0:0:0:
387,198,156784,1,0,0:0:0:0:
395,218,156856,1,8,0:0:0:0:
398,240,156927,1,0,0:0:0:0:
395,262,156999,1,0,0:0:0:0:
387,282,157070,1,0,0:0:0:0:
374,299,157141,1,0,0:0:0:0:
374,299,157999,5,2,0:0:0:0:
374,299,158857,5,8,0:0:0:0:
374,299,159714,5,2,0:0:0:0:
374,299,160571,5,8,0:0:0:0:
374,299,161428,5,2,0:0:0:0:
316,80,162285,5,4,0:0:0:0:
374,299,162428,1,0,0:0:0:0:
366,277,162499,1,0,0:0:0:0:
349,261,162570,1,0,0:0:0:0:
327,256,162642,1,0,0:0:0:0:
304,262,162713,1,0,0:0:0:0:
288,279,162785,1,0,0:0:0:0:
282,301,162857,1,0,0:0:0:0:
256,293,162928,1,0,0:0:0:0:
231,286,162999,1,0,0:0:0:0:
206,279,163071,1,0,0:0:0:0:
181,271,163142,6,0,L|197:216,1,35,10|0,0:0|0:0,0:0:0:0:
89,104,163285,2,0,L|73:159,1,35,10|0,0:0|0:0,0:0:0:0:
39,185,163428,6,0,L|79:227,1,35,10|0,0:0|0:0,0:0:0:0:
230,189,163571,2,0,L|190:148,1,35,10|0,0:0|0:0,0:0:0:0:
184,106,163714,6,0,L|128:120,1,35,10|0,0:0|0:0,0:0:0:0:
85,269,163857,2,0,L|141:255,1,35,10|0,0:0|0:0,0:0:0:0:
