osu file format v14

[General]
AudioFilename: murasa.mp3
AudioLeadIn: 0
PreviewTime: 98565
Countdown: 0
SampleSet: Soft
StackLeniency: 0.3
Mode: 0
LetterboxInBreaks: 0
EpilepsyWarning: 1
WidescreenStoryboard: 1

[Editor]
DistanceSpacing: 0.2
BeatDivisor: 4
GridSize: 4
TimelineZoom: 2.5

[Metadata]
Title:Murasa
TitleUnicode:ムラサ
Artist:UNDEAD CORPORATION
ArtistUnicode:UNDEAD CORPORATION
Creator:tokiko
Version:Deep Sinker
Source:東方星蓮船 ~ Undefined Fantastic Object.
Tags:Yohanes yaldo_27 PandaHero Ellyu handsome muscle Mirash GhostFY touhou project th12 stage 4 captain murasa minamitsu ranko pinetree oni togizoushi reitaisai 8 zun
BeatmapID:1268799
BeatmapSetID:600443

[Difficulty]
HPDrainRate:6
CircleSize:4
OverallDifficulty:8
ApproachRate:9.3
SliderMultiplier:2.2
SliderTickRate:1

[Events]
//Background and Video events
0,0,"murasa.jpg",0,0
//Break Periods
//Storyboard Layer 0 (Background)
//Storyboard Layer 1 (Fail)
//Storyboard Layer 2 (Pass)
//Storyboard Layer 3 (Foreground)
Sprite,Foreground,Centre,"sb\Circle.png",408,328 C,0,55365,,255,255,255 F,2,55365,56465,1,0 S,2,55365,56465,0.15,0.03
Sprite,Foreground,Centre,"sb\Circle.png",174,260 C,0,55815,,255,255,255 F,2,55815,56765,1,0 S,2,55815,56765,0.15,0.03
Sprite,Foreground,Centre,"sb\Circle.png",248,176 C,0,56115,,255,255,255 F,2,56115,56915,1,0 S,2,56115,56915,0.15,0.03
Sprite,Foreground,Centre,"sb\Circle.png",304,400 C,0,56265,,255,255,255 F,2,56265,57215,1,0 S,2,56265,57215,0.15,0.03
Sprite,Foreground,Centre,"sb\Circle.png",416,236 C,0,56565,,255,255,255 F,2,56565,57665,1,0 S,2,56565,57665,0.15,0.03
Sprite,Foreground,Centre,"sb\Circle.png",459,304 C,0,57015,,255,255,255 F,2,57015,57965,1,0 S,2,57015,57965,0.15,0.03
Sprite,Foreground,Centre,"sb\Circle.png",491,185 C,0,57315,,255,255,255 F,2,57315,58115,1,0 S,2,57315,58115,0.15,0.03
Sprite,Foreground,Centre,"sb\Circle.png",340,380 C,0,57465,,255,255,255 F,2,57465,58415,1,0 S,2,57465,58415,0.15,0.03
Sprite,Foreground,Centre,"sb\Circle.png",108,240 C,0,57765,,255,255,255 F,2,57765,58865,1,0 S,2,57765,58865,0.15,0.03
Sprite,Foreground,Centre,"sb\Circle.png",95,351 C,0,58215,,255,255,255 F,2,58215,59165,1,0 S,2,58215,59165,0.15,0.03
Sprite,Foreground,Centre,"sb\Circle.png",195,208 C,0,58515,,255,255,255 F,2,58515,59315,1,0 S,2,58515,59315,0.15,0.03
Sprite,Foreground,Centre,"sb\Circle.png",356,304 C,0,58665,,255,255,255 F,2,58665,59615,1,0 S,2,58665,59615,0.15,0.03
Sprite,Foreground,Centre,"sb\Circle.png",166,291 C,0,58965,,255,255,255 F,2,58965,59840,1,0 S,2,58965,59840,0.15,0.03
Sprite,Foreground,Centre,"sb\Circle.png",204,71 C,0,59115,,255,255,255 F,2,59115,60065,1,0 S,2,59115,60065,0.15,0.03
Sprite,Foreground,Centre,"sb\Circle.png",436,355 C,0,59415,,255,255,255 F,2,59415,60365,1,0 S,2,59415,60365,0.15,0.03
Sprite,Foreground,Centre,"sb\Circle.png",439,242 C,0,59715,,255,255,255 F,2,59715,60515,1,0 S,2,59715,60515,0.15,0.03
Sprite,Foreground,Centre,"sb\Circle.png",194,207 C,0,59865,,255,255,255 F,2,59865,60665,1,0 S,2,59865,60665,0.15,0.03
Sprite,Foreground,Centre,"sb\Circle.png",453,221 C,0,60015,,255,255,255 F,2,60015,60815,1,0 S,2,60015,60815,0.15,0.03
Sprite,Foreground,Centre,"sb\Circle.png",194,303 C,0,60165,,255,255,255 F,2,60165,61265,1,0 S,2,60165,61265,0.15,0.03
Sprite,Foreground,Centre,"sb\Circle.png",271,362 C,0,60615,,255,255,255 F,2,60615,61565,1,0 S,2,60615,61565,0.15,0.03
Sprite,Foreground,Centre,"sb\Circle.png",320,213 C,0,60915,,255,255,255 F,2,60915,61715,1,0 S,2,60915,61715,0.15,0.03
Sprite,Foreground,Centre,"sb\Circle.png",544,320 C,0,61065,,255,255,255 F,2,61065,62015,1,0 S,2,61065,62015,0.15,0.03
Sprite,Foreground,Centre,"sb\Circle.png",524,68 C,0,61365,,255,255,255 F,2,61365,62465,1,0 S,2,61365,62465,0.15,0.03
Sprite,Foreground,Centre,"sb\Circle.png",500,149 C,0,61815,,255,255,255 F,2,61815,62765,1,0 S,2,61815,62765,0.15,0.03
Sprite,Foreground,Centre,"sb\Circle.png",423,187 C,0,62115,,255,255,255 F,2,62115,62915,1,0 S,2,62115,62915,0.15,0.03
Sprite,Foreground,Centre,"sb\Circle.png",542,403 C,0,62265,,255,255,255 F,2,62265,63215,1,0 S,2,62265,63215,0.15,0.03
Sprite,Foreground,Centre,"sb\Circle.png",227,271 C,0,62565,,255,255,255 F,2,62565,63665,1,0 S,2,62565,63665,0.15,0.03
Sprite,Foreground,Centre,"sb\Circle.png",207,191 C,0,63015,,255,255,255 F,2,63015,63815,1,0 S,2,63015,63815,0.15,0.03
Sprite,Foreground,Centre,"sb\Circle.png",508,104 C,0,63165,,255,255,255 F,2,63165,63965,1,0 S,2,63165,63965,0.15,0.03
Sprite,Foreground,Centre,"sb\Circle.png",201,171 C,0,63315,,255,255,255 F,2,63315,64115,1,0 S,2,63315,64115,0.15,0.03
Sprite,Foreground,Centre,"sb\Circle.png",511,130 C,0,63465,,255,255,255 F,2,63465,64265,1,0 S,2,63465,64265,0.15,0.03
Sprite,Foreground,Centre,"sb\Circle.png",366,209 C,0,63615,,255,255,255 F,2,63615,64415,1,0 S,2,63615,64415,0.15,0.03
Sprite,Foreground,Centre,"sb\Circle.png",392,116 C,0,63765,,255,255,255 F,2,63765,64865,1,0 S,2,63765,64865,0.15,0.03
Sprite,Foreground,Centre,"sb\Circle.png",267,263 C,0,64140,,255,255,255 F,2,64140,64940,1,0 S,2,64140,64940,0.15,0.03
Sprite,Foreground,Centre,"sb\Circle.png",220,279 C,0,64215,,255,255,255 F,2,64215,65090,1,0 S,2,64215,65090,0.15,0.03
Sprite,Foreground,Centre,"sb\Circle.png",268,148 C,0,64365,,255,255,255 F,2,64365,65465,1,0 S,2,64365,65465,0.15,0.03
Sprite,Foreground,Centre,"sb\Circle.png",221,89 C,0,64740,,255,255,255 F,2,64740,65540,1,0 S,2,64740,65540,0.15,0.03
Sprite,Foreground,Centre,"sb\Circle.png",268,148 C,0,64815,,255,255,255 F,2,64815,65690,1,0 S,2,64815,65690,0.15,0.03
Sprite,Foreground,Centre,"sb\Circle.png",572,248 C,0,64965,,255,255,255 F,2,64965,66065,1,0 S,2,64965,66065,0.15,0.03
Sprite,Foreground,Centre,"sb\Circle.png",430,130 C,0,65415,,255,255,255 F,2,65415,66365,1,0 S,2,65415,66365,0.15,0.03
Sprite,Foreground,Centre,"sb\Circle.png",148,68 C,0,65715,,255,255,255 F,2,65715,66515,1,0 S,2,65715,66515,0.15,0.03
Sprite,Foreground,Centre,"sb\Circle.png",504,292 C,0,65865,,255,255,255 F,2,65865,66815,1,0 S,2,65865,66815,0.15,0.03
Sprite,Foreground,Centre,"sb\Circle.png",112,384 C,0,66165,,255,255,255 F,2,66165,67265,1,0 S,2,66165,67265,0.15,0.03
Sprite,Foreground,Centre,"sb\Circle.png",316,408 C,0,66615,,255,255,255 F,2,66615,67565,1,0 S,2,66615,67565,0.15,0.03
Sprite,Foreground,Centre,"sb\Circle.png",327,205 C,0,66915,,255,255,255 F,2,66915,67715,1,0 S,2,66915,67715,0.15,0.03
Sprite,Foreground,Centre,"sb\Circle.png",504,292 C,0,67065,,255,255,255 F,2,67065,68015,1,0 S,2,67065,68015,0.15,0.03
Sprite,Foreground,Centre,"sb\Circle.png",227,114 C,0,67365,,255,255,255 F,2,67365,68465,1,0 S,2,67365,68465,0.15,0.03
Sprite,Foreground,Centre,"sb\Circle.png",400,124 C,0,67815,,255,255,255 F,2,67815,68765,1,0 S,2,67815,68765,0.15,0.03
Sprite,Foreground,Centre,"sb\Circle.png",488,92 C,0,68115,,255,255,255 F,2,68115,68915,1,0 S,2,68115,68915,0.15,0.03
Sprite,Foreground,Centre,"sb\Circle.png",324,340 C,0,68265,,255,255,255 F,2,68265,69215,1,0 S,2,68265,69215,0.15,0.03
Sprite,Foreground,Centre,"sb\Circle.png",120,277 C,0,68565,,255,255,255 F,2,68565,69440,1,0 S,2,68565,69440,0.15,0.03
Sprite,Foreground,Centre,"sb\Circle.png",265,219 C,0,68715,,255,255,255 F,2,68715,69665,1,0 S,2,68715,69665,0.15,0.03
Sprite,Foreground,Centre,"sb\Circle.png",357,411 C,0,69015,,255,255,255 F,2,69015,69965,1,0 S,2,69015,69965,0.15,0.03
Sprite,Foreground,Centre,"sb\Circle.png",283,136 C,0,69315,,255,255,255 F,2,69315,70265,1,0 S,2,69315,70265,0.15,0.03
Sprite,Foreground,Centre,"sb\Circle.png",432,312 C,0,69615,,255,255,255 F,2,69615,70490,1,0 S,2,69615,70490,0.15,0.03
Sprite,Foreground,Centre,"sb\Circle.png",464,92 C,0,69765,,255,255,255 F,2,69765,70865,1,0 S,2,69765,70865,0.15,0.03
Sprite,Foreground,Centre,"sb\Circle.png",283,136 C,0,70215,,255,255,255 F,2,70215,71165,1,0 S,2,70215,71165,0.15,0.03
Sprite,Foreground,Centre,"sb\Circle.png",436,164 C,0,70515,,255,255,255 F,2,70515,71315,1,0 S,2,70515,71315,0.15,0.03
Sprite,Foreground,Centre,"sb\Circle.png",236,80 C,0,70665,,255,255,255 F,2,70665,71615,1,0 S,2,70665,71615,0.15,0.03
Sprite,Foreground,Centre,"sb\Circle.png",104,268 C,0,70965,,255,255,255 F,2,70965,72065,1,0 S,2,70965,72065,0.15,0.03
Sprite,Foreground,Centre,"sb\Circle.png",276,240 C,0,71415,,255,255,255 F,2,71415,72365,1,0 S,2,71415,72365,0.15,0.03
Sprite,Foreground,Centre,"sb\Circle.png",352,380 C,0,71715,,255,255,255 F,2,71715,72515,1,0 S,2,71715,72515,0.15,0.03
Sprite,Foreground,Centre,"sb\Circle.png",404,100 C,0,71865,,255,255,255 F,2,71865,72815,1,0 S,2,71865,72815,0.15,0.03
Sprite,Foreground,Centre,"sb\Circle.png",405,254 C,0,72165,,255,255,255 F,2,72165,73265,1,0 S,2,72165,73265,0.15,0.03
Sprite,Foreground,Centre,"sb\Circle.png",508,328 C,0,72615,,255,255,255 F,2,72615,73415,1,0 S,2,72615,73415,0.15,0.03
Sprite,Foreground,Centre,"sb\Circle.png",216,172 C,0,72765,,255,255,255 F,2,72765,73565,1,0 S,2,72765,73565,0.15,0.03
Sprite,Foreground,Centre,"sb\Circle.png",521,212 C,0,72915,,255,255,255 F,2,72915,73715,1,0 S,2,72915,73715,0.15,0.03
Sprite,Foreground,Centre,"sb\Circle.png",192,243 C,0,73065,,255,255,255 F,2,73065,73865,1,0 S,2,73065,73865,0.15,0.03
Sprite,Foreground,Centre,"sb\Circle.png",469,108 C,0,73215,,255,255,255 F,2,73215,74015,1,0 S,2,73215,74015,0.15,0.03
Sprite,Foreground,Centre,"sb\Circle.png",213,336 C,0,73365,,255,255,255 F,2,73365,74465,1,0 S,2,73365,74465,0.15,0.03
Sprite,Foreground,Centre,"sb\Circle.png",272,256 C,0,73740,,255,255,255 F,2,73740,74540,1,0 S,2,73740,74540,0.15,0.03
Sprite,Foreground,Centre,"sb\Circle.png",351,244 C,0,73815,,255,255,255 F,2,73815,74765,1,0 S,2,73815,74765,0.15,0.03
Sprite,Foreground,Centre,"sb\Circle.png",530,364 C,0,74115,,255,255,255 F,2,74115,75065,1,0 S,2,74115,75065,0.15,0.03
Sprite,Foreground,Centre,"sb\Circle.png",408,392 C,0,74340,,255,255,255 F,2,74340,75140,1,0 S,2,74340,75140,0.15,0.03
Sprite,Foreground,Centre,"sb\Circle.png",408,392 C,0,74415,,255,255,255 F,2,74415,75365,1,0 S,2,74415,75365,0.15,0.03
Sprite,Foreground,Centre,"sb\Circle.png",80,104 C,0,74715,,255,255,255 F,2,74715,75665,1,0 S,2,74715,75665,0.15,0.03
Sprite,Foreground,Centre,"sb\Circle.png",524,128 C,0,75015,,255,255,255 F,2,75015,75815,1,0 S,2,75015,75815,0.15,0.03
Sprite,Foreground,Centre,"sb\Circle.png",476,82 C,0,75090,,255,255,255 F,2,75090,75890,1,0 S,2,75090,75890,0.15,0.03
Sprite,Foreground,Centre,"sb\Circle.png",412,74 C,0,75165,,255,255,255 F,2,75165,75965,1,0 S,2,75165,75965,0.15,0.03
Sprite,Foreground,Centre,"sb\Circle.png",356,107 C,0,75240,,255,255,255 F,2,75240,76040,1,0 S,2,75240,76040,0.15,0.03
Sprite,Foreground,Centre,"sb\Circle.png",331,167 C,0,75315,,255,255,255 F,2,75315,76115,1,0 S,2,75315,76115,0.15,0.03
Sprite,Foreground,Centre,"sb\Circle.png",348,230 C,0,75390,,255,255,255 F,2,75390,76190,1,0 S,2,75390,76190,0.15,0.03
Sprite,Foreground,Centre,"sb\Circle.png",399,269 C,0,75465,,255,255,255 F,2,75465,76265,1,0 S,2,75465,76265,0.15,0.03
Sprite,Foreground,Centre,"sb\Circle.png",443,287 C,0,75540,,255,255,255 F,2,75540,76340,1,0 S,2,75540,76340,0.15,0.03
Sprite,Foreground,Centre,"sb\Circle.png",468,329 C,0,75615,,255,255,255 F,2,75615,76415,1,0 S,2,75615,76415,0.15,0.03
Sprite,Foreground,Centre,"sb\Circle.png",461,377 C,0,75690,,255,255,255 F,2,75690,76490,1,0 S,2,75690,76490,0.15,0.03
Sprite,Foreground,Centre,"sb\Circle.png",425,411 C,0,75765,,255,255,255 F,2,75765,76565,1,0 S,2,75765,76565,0.15,0.03
Sprite,Foreground,Centre,"sb\Circle.png",377,416 C,0,75840,,255,255,255 F,2,75840,76640,1,0 S,2,75840,76640,0.15,0.03
Sprite,Foreground,Centre,"sb\Ring.png",408,328 F,2,55365,56465,1,0 S,1,55365,56465,0.05,0.45
Sprite,Foreground,Centre,"sb\Ring.png",174,260 F,2,55815,56765,1,0 S,1,55815,56765,0.05,0.45
Sprite,Foreground,Centre,"sb\Ring.png",248,176 F,2,56115,56915,1,0 S,1,56115,56915,0.05,0.45
Sprite,Foreground,Centre,"sb\Ring.png",304,400 F,2,56265,57215,1,0 S,1,56265,57215,0.05,0.45
Sprite,Foreground,Centre,"sb\Ring.png",416,236 F,2,56565,57665,1,0 S,1,56565,57665,0.05,0.45
Sprite,Foreground,Centre,"sb\Ring.png",459,304 F,2,57015,57965,1,0 S,1,57015,57965,0.05,0.45
Sprite,Foreground,Centre,"sb\Ring.png",491,185 F,2,57315,58115,1,0 S,1,57315,58115,0.05,0.45
Sprite,Foreground,Centre,"sb\Ring.png",340,380 F,2,57465,58415,1,0 S,1,57465,58415,0.05,0.45
Sprite,Foreground,Centre,"sb\Ring.png",108,240 F,2,57765,58865,1,0 S,1,57765,58865,0.05,0.45
Sprite,Foreground,Centre,"sb\Ring.png",95,351 F,2,58215,59165,1,0 S,1,58215,59165,0.05,0.45
Sprite,Foreground,Centre,"sb\Ring.png",195,208 F,2,58515,59315,1,0 S,1,58515,59315,0.05,0.45
Sprite,Foreground,Centre,"sb\Ring.png",356,304 F,2,58665,59615,1,0 S,1,58665,59615,0.05,0.45
Sprite,Foreground,Centre,"sb\Ring.png",166,291 F,2,58965,59840,1,0 S,1,58965,59840,0.05,0.45
Sprite,Foreground,Centre,"sb\Ring.png",204,71 F,2,59115,60065,1,0 S,1,59115,60065,0.05,0.45
Sprite,Foreground,Centre,"sb\Ring.png",436,355 F,2,59415,60365,1,0 S,1,59415,60365,0.05,0.45
Sprite,Foreground,Centre,"sb\Ring.png",439,242 F,2,59715,60515,1,0 S,1,59715,60515,0.05,0.45
Sprite,Foreground,Centre,"sb\Ring.png",194,207 F,2,59865,60665,1,0 S,1,59865,60665,0.05,0.45
Sprite,Foreground,Centre,"sb\Ring.png",453,221 F,2,60015,60815,1,0 S,1,60015,60815,0.05,0.45
Sprite,Foreground,Centre,"sb\Ring.png",194,303 F,2,60165,61265,1,0 S,1,60165,61265,0.05,0.45
Sprite,Foreground,Centre,"sb\Ring.png",271,362 F,2,60615,61565,1,0 S,1,60615,61565,0.05,0.45
Sprite,Foreground,Centre,"sb\Ring.png",320,213 F,2,60915,61715,1,0 S,1,60915,61715,0.05,0.45
Sprite,Foreground,Centre,"sb\Ring.png",544,320 F,2,61065,62015,1,0 S,1,61065,62015,0.05,0.45
Sprite,Foreground,Centre,"sb\Ring.png",524,68 F,2,61365,62465,1,0 S,1,61365,62465,0.05,0.45
Sprite,Foreground,Centre,"sb\Ring.png",500,149 F,2,61815,62765,1,0 S,1,61815,62765,0.05,0.45
Sprite,Foreground,Centre,"sb\Ring.png",423,187 F,2,62115,62915,1,0 S,1,62115,62915,0.05,0.45
Sprite,Foreground,Centre,"sb\Ring.png",542,403 F,2,62265,63215,1,0 S,1,62265,63215,0.05,0.45
Sprite,Foreground,Centre,"sb\Ring.png",227,271 F,2,62565,63665,1,0 S,1,62565,63665,0.05,0.45
Sprite,Foreground,Centre,"sb\Ring.png",207,191 F,2,63015,63815,1,0 S,1,63015,63815,0.05,0.45
Sprite,Foreground,Centre,"sb\Ring.png",508,104 F,2,63165,63965,1,0 S,1,63165,63965,0.05,0.45
Sprite,Foreground,Centre,"sb\Ring.png",201,171 F,2,63315,64115,1,0 S,1,63315,64115,0.05,0.45
Sprite,Foreground,Centre,"sb\Ring.png",511,130 F,2,63465,64265,1,0 S,1,63465,64265,0.05,0.45
Sprite,Foreground,Centre,"sb\Ring.png",366,209 F,2,63615,64415,1,0 S,1,63615,64415,0.05,0.45
Sprite,Foreground,Centre,"sb\Ring.png",392,116 F,2,63765,64865,1,0 S,1,63765,64865,0.05,0.45
Sprite,Foreground,Centre,"sb\Ring.png",267,263 F,2,64140,64940,1,0 S,1,64140,64940,0.05,0.45
Sprite,Foreground,Centre,"sb\Ring.png",220,279 F,2,64215,65090,1,0 S,1,64215,65090,0.05,0.45
Sprite,Foreground,Centre,"sb\Ring.png",268,148 F,2,64365,65465,1,0 S,1,64365,65465,0.05,0.45
Sprite,Foreground,Centre,"sb\Ring.png",221,89 F,2,64740,65540,1,0 S,1,64740,65540,0.05,0.45
Sprite,Foreground,Centre,"sb\Ring.png",268,148 F,2,64815,65690,1,0 S,1,64815,65690,0.05,0.45
Sprite,Foreground,Centre,"sb\Ring.png",572,248 F,2,64965,66065,1,0 S,1,64965,66065,0.05,0.45
Sprite,Foreground,Centre,"sb\Ring.png",430,130 F,2,65415,66365,1,0 S,1,65415,66365,0.05,0.45
Sprite,Foreground,Centre,"sb\Ring.png",148,68 F,2,65715,66515,1,0 S,1,65715,66515,0.05,0.45
Sprite,Foreground,Centre,"sb\Ring.png",504,292 F,2,65865,66815,1,0 S,1,65865,66815,0.05,0.45
Sprite,Foreground,Centre,"sb\Ring.png",112,384 F,2,66165,67265,1,0 S,1,66165,67265,0.05,0.45
Sprite,Foreground,Centre,"sb\Ring.png",316,408 F,2,66615,67565,1,0 S,1,66615,67565,0.05,0.45
Sprite,Foreground,Centre,"sb\Ring.png",327,205 F,2,66915,67715,1,0 S,1,66915,67715,0.05,0.45
Sprite,Foreground,Centre,"sb\Ring.png",504,292 F,2,67065,68015,1,0 S,1,67065,68015,0.05,0.45
Sprite,Foreground,Centre,"sb\Ring.png",227,114 F,2,67365,68465,1,0 S,1,67365,68465,0.05,0.45
Sprite,Foreground,Centre,"sb\Ring.png",400,124 F,2,67815,68765,1,0 S,1,67815,68765,0.05,0.45
Sprite,Foreground,Centre,"sb\Ring.png",488,92 F,2,68115,68915,1,0 S,1,68115,68915,0.05,0.45
Sprite,Foreground,Centre,"sb\Ring.png",324,340 F,2,68265,69215,1,0 S,1,68265,69215,0.05,0.45
Sprite,Foreground,Centre,"sb\Ring.png",120,277 F,2,68565,69440,1,0 S,1,68565,69440,0.05,0.45
Sprite,Foreground,Centre,"sb\Ring.png",265,219 F,2,68715,69665,1,0 S,1,68715,69665,0.05,0.45
Sprite,Foreground,Centre,"sb\Ring.png",357,411 F,2,69015,69965,1,0 S,1,69015,69965,0.05,0.45
Sprite,Foreground,Centre,"sb\Ring.png",283,136 F,2,69315,70265,1,0 S,1,69315,70265,0.05,0.45
Sprite,Foreground,Centre,"sb\Ring.png",432,312 F,2,69615,70490,1,0 S,1,69615,70490,0.05,0.45
Sprite,Foreground,Centre,"sb\Ring.png",464,92 F,2,69765,70865,1,0 S,1,69765,70865,0.05,0.45
Sprite,Foreground,Centre,"sb\Ring.png",283,136 F,2,70215,71165,1,0 S,1,70215,71165,0.05,0.45
Sprite,Foreground,Centre,"sb\Ring.png",436,164 F,2,70515,71315,1,0 S,1,70515,71315,0.05,0.45
Sprite,Foreground,Centre,"sb\Ring.png",236,80 F,2,70665,71615,1,0 S,1,70665,71615,0.05,0.45
Sprite,Foreground,Centre,"sb\Ring.png",104,268 F,2,70965,72065,1,0 S,1,70965,72065,0.05,0.45
Sprite,Foreground,Centre,"sb\Ring.png",276,240 F,2,71415,72365,1,0 S,1,71415,72365,0.05,0.45
Sprite,Foreground,Centre,"sb\Ring.png",352,380 F,2,71715,72515,1,0 S,1,71715,72515,0.05,0.45
Sprite,Foreground,Centre,"sb\Ring.png",404,100 F,2,71865,72815,1,0 S,1,71865,72815,0.05,0.45
Sprite,Foreground,Centre,"sb\Ring.png",405,254 F,2,72165,73265,1,0 S,1,72165,73265,0.05,0.45
Sprite,Foreground,Centre,"sb\Ring.png",508,328 F,2,72615,73415,1,0 S,1,72615,73415,0.05,0.45
Sprite,Foreground,Centre,"sb\Ring.png",216,172 F,2,72765,73565,1,0 S,1,72765,73565,0.05,0.45
Sprite,Foreground,Centre,"sb\Ring.png",521,212 F,2,72915,73715,1,0 S,1,72915,73715,0.05,0.45
Sprite,Foreground,Centre,"sb\Ring.png",192,243 F,2,73065,73865,1,0 S,1,73065,73865,0.05,0.45
Sprite,Foreground,Centre,"sb\Ring.png",469,108 F,2,73215,74015,1,0 S,1,73215,74015,0.05,0.45
Sprite,Foreground,Centre,"sb\Ring.png",213,336 F,2,73365,74465,1,0 S,1,73365,74465,0.05,0.45
Sprite,Foreground,Centre,"sb\Ring.png",272,256 F,2,73740,74540,1,0 S,1,73740,74540,0.05,0.45
Sprite,Foreground,Centre,"sb\Ring.png",351,244 F,2,73815,74765,1,0 S,1,73815,74765,0.05,0.45
Sprite,Foreground,Centre,"sb\Ring.png",530,364 F,2,74115,75065,1,0 S,1,74115,75065,0.05,0.45
Sprite,Foreground,Centre,"sb\Ring.png",408,392 F,2,74340,75140,1,0 S,1,74340,75140,0.05,0.45
Sprite,Foreground,Centre,"sb\Ring.png",408,392 F,2,74415,75365,1,0 S,1,74415,75365,0.05,0.45
Sprite,Foreground,Centre,"sb\Ring.png",80,104 F,2,74715,75665,1,0 S,1,74715,75665,0.05,0.45
Sprite,Foreground,Centre,"sb\Ring.png",524,128 F,2,75015,75815,1,0 S,1,75015,75815,0.05,0.45
Sprite,Foreground,Centre,"sb\Ring.png",476,82 F,2,75090,75890,1,0 S,1,75090,75890,0.05,0.45
Sprite,Foreground,Centre,"sb\Ring.png",412,74 F,2,75165,75965,1,0 S,1,75165,75965,0.05,0.45
Sprite,Foreground,Centre,"sb\Ring.png",356,107 F,2,75240,76040,1,0 S,1,75240,76040,0.05,0.45
Sprite,Foreground,Centre,"sb\Ring.png",331,167 F,2,75315,76115,1,0 S,1,75315,76115,0.05,0.45
Sprite,Foreground,Centre,"sb\Ring.png",348,230 F,2,75390,76190,1,0 S,1,75390,76190,0.05,0.45
Sprite,Foreground,Centre,"sb\Ring.png",399,269 F,2,75465,76265,1,0 S,1,75465,76265,0.05,0.45
Sprite,Foreground,Centre,"sb\Ring.png",443,287 F,2,75540,76340,1,0 S,1,75540,76340,0.05,0.45
Sprite,Foreground,Centre,"sb\Ring.png",468,329 F,2,75615,76415,1,0 S,1,75615,76415,0.05,0.45
Sprite,Foreground,Centre,"sb\Ring.png",461,377 F,2,75690,76490,1,0 S,1,75690,76490,0.05,0.45
Sprite,Foreground,Centre,"sb\Ring.png",425,411 F,2,75765,76565,1,0 S,1,75765,76565,0.05,0.45
Sprite,Foreground,Centre,"sb\Ring.png",377,416 F,2,75840,76640,1,0 S,1,75840,76640,0.05,0.45
Sprite,Foreground,Centre,"sb\Ring.png",304,288 F,2,156165,157265,1,0 S,1,156165,157265,0.05,0.45
Sprite,Foreground,Centre,"sb\Ring.png",412,332 F,2,156615,157565,1,0 S,1,156615,157565,0.05,0.45
Sprite,Foreground,Centre,"sb\Ring.png",312,203 F,2,156915,157715,1,0 S,1,156915,157715,0.05,0.45
Sprite,Foreground,Centre,"sb\Ring.png",576,179 F,2,157065,158015,1,0 S,1,157065,158015,0.05,0.45
Sprite,Foreground,Centre,"sb\Ring.png",188,304 F,2,157365,158465,1,0 S,1,157365,158465,0.05,0.45
Sprite,Foreground,Centre,"sb\Ring.png",347,301 F,2,157815,158765,1,0 S,1,157815,158765,0.05,0.45
Sprite,Foreground,Centre,"sb\Ring.png",399,158 F,2,158115,158915,1,0 S,1,158115,158915,0.05,0.45
Sprite,Foreground,Centre,"sb\Ring.png",252,333 F,2,158265,159215,1,0 S,1,158265,159215,0.05,0.45
Sprite,Foreground,Centre,"sb\Ring.png",187,68 F,2,158565,159665,1,0 S,1,158565,159665,0.05,0.45
Sprite,Foreground,Centre,"sb\Ring.png",253,106 F,2,159015,159965,1,0 S,1,159015,159965,0.05,0.45
Sprite,Foreground,Centre,"sb\Ring.png",253,353 F,2,159315,160115,1,0 S,1,159315,160115,0.05,0.45
Sprite,Foreground,Centre,"sb\Ring.png",144,134 F,2,159465,160415,1,0 S,1,159465,160415,0.05,0.45
Sprite,Foreground,Centre,"sb\Ring.png",324,400 F,2,159765,160640,1,0 S,1,159765,160640,0.05,0.45
Sprite,Foreground,Centre,"sb\Ring.png",337,165 F,2,159915,160865,1,0 S,1,159915,160865,0.05,0.45
Sprite,Foreground,Centre,"sb\Ring.png",424,136 F,2,160215,161165,1,0 S,1,160215,161165,0.05,0.45
Sprite,Foreground,Centre,"sb\Ring.png",408,236 F,2,160515,161315,1,0 S,1,160515,161315,0.05,0.45
Sprite,Foreground,Centre,"sb\Ring.png",552,76 F,2,160665,161465,1,0 S,1,160665,161465,0.05,0.45
Sprite,Foreground,Centre,"sb\Ring.png",194,224 F,2,160815,161615,1,0 S,1,160815,161615,0.05,0.45
Sprite,Foreground,Centre,"sb\Ring.png",493,338 F,2,160965,162065,1,0 S,1,160965,162065,0.05,0.45
Sprite,Foreground,Centre,"sb\Ring.png",248,380 F,2,161415,162365,1,0 S,1,161415,162365,0.05,0.45
Sprite,Foreground,Centre,"sb\Ring.png",194,224 F,2,161715,162515,1,0 S,1,161715,162515,0.05,0.45
Sprite,Foreground,Centre,"sb\Ring.png",492,252 F,2,161865,162815,1,0 S,1,161865,162815,0.05,0.45
Sprite,Foreground,Centre,"sb\Ring.png",132,156 F,2,162165,163265,1,0 S,1,162165,163265,0.05,0.45
Sprite,Foreground,Centre,"sb\Ring.png",148,317 F,2,162615,163565,1,0 S,1,162615,163565,0.05,0.45
Sprite,Foreground,Centre,"sb\Ring.png",194,224 F,2,162915,163715,1,0 S,1,162915,163715,0.05,0.45
Sprite,Foreground,Centre,"sb\Ring.png",360,348 F,2,163065,164015,1,0 S,1,163065,164015,0.05,0.45
Sprite,Foreground,Centre,"sb\Ring.png",281,343 F,2,163365,164465,1,0 S,1,163365,164465,0.05,0.45
Sprite,Foreground,Centre,"sb\Ring.png",277,194 F,2,163815,164615,1,0 S,1,163815,164615,0.05,0.45
Sprite,Foreground,Centre,"sb\Ring.png",168,416 F,2,163965,164765,1,0 S,1,163965,164765,0.05,0.45
Sprite,Foreground,Centre,"sb\Ring.png",404,168 F,2,164115,164915,1,0 S,1,164115,164915,0.05,0.45
Sprite,Foreground,Centre,"sb\Ring.png",182,277 F,2,164265,165065,1,0 S,1,164265,165065,0.05,0.45
Sprite,Foreground,Centre,"sb\Ring.png",380,428 F,2,164415,165215,1,0 S,1,164415,165215,0.05,0.45
Sprite,Foreground,Centre,"sb\Ring.png",180,212 F,2,164565,165665,1,0 S,1,164565,165665,0.05,0.45
Sprite,Foreground,Centre,"sb\Ring.png",261,171 F,2,164940,165740,1,0 S,1,164940,165740,0.05,0.45
Sprite,Foreground,Centre,"sb\Ring.png",260,171 F,2,165015,165890,1,0 S,1,165015,165890,0.05,0.45
Sprite,Foreground,Centre,"sb\Ring.png",414,192 F,2,165165,166265,1,0 S,1,165165,166265,0.05,0.45
Sprite,Foreground,Centre,"sb\Ring.png",487,143 F,2,165540,166340,1,0 S,1,165540,166340,0.05,0.45
Sprite,Foreground,Centre,"sb\Ring.png",487,143 F,2,165615,166490,1,0 S,1,165615,166490,0.05,0.45
Sprite,Foreground,Centre,"sb\Ring.png",297,340 F,2,165765,166865,1,0 S,1,165765,166865,0.05,0.45
Sprite,Foreground,Centre,"sb\Ring.png",221,405 F,2,166215,167165,1,0 S,1,166215,167165,0.05,0.45
Sprite,Foreground,Centre,"sb\Ring.png",285,265 F,2,166515,167315,1,0 S,1,166515,167315,0.05,0.45
Sprite,Foreground,Centre,"sb\Ring.png",500,386 F,2,166665,167615,1,0 S,1,166665,167615,0.05,0.45
Sprite,Foreground,Centre,"sb\Ring.png",463,148 F,2,166965,168065,1,0 S,1,166965,168065,0.05,0.45
Sprite,Foreground,Centre,"sb\Ring.png",318,80 F,2,167415,168365,1,0 S,1,167415,168365,0.05,0.45
Sprite,Foreground,Centre,"sb\Ring.png",283,266 F,2,167715,168515,1,0 S,1,167715,168515,0.05,0.45
Sprite,Foreground,Centre,"sb\Ring.png",154,82 F,2,167865,168815,1,0 S,1,167865,168815,0.05,0.45
Sprite,Foreground,Centre,"sb\Ring.png",270,340 F,2,168165,169265,1,0 S,1,168165,169265,0.05,0.45
Sprite,Foreground,Centre,"sb\Ring.png",406,359 F,2,168615,169565,1,0 S,1,168615,169565,0.05,0.45
Sprite,Foreground,Centre,"sb\Ring.png",283,266 F,2,168915,169715,1,0 S,1,168915,169715,0.05,0.45
Sprite,Foreground,Centre,"sb\Ring.png",514,99 F,2,169065,170015,1,0 S,1,169065,170015,0.05,0.45
Sprite,Foreground,Centre,"sb\Ring.png",433,283 F,2,169365,170240,1,0 S,1,169365,170240,0.05,0.45
Sprite,Foreground,Centre,"sb\Ring.png",294,94 F,2,169515,170390,1,0 S,1,169515,170390,0.05,0.45
Sprite,Foreground,Centre,"sb\Ring.png",406,359 F,2,169665,170540,1,0 S,1,169665,170540,0.05,0.45
Sprite,Foreground,Centre,"sb\Ring.png",283,266 F,2,169815,170690,1,0 S,1,169815,170690,0.05,0.45
Sprite,Foreground,Centre,"sb\Ring.png",97,335 F,2,169965,170765,1,0 S,1,169965,170765,0.05,0.45
Sprite,Foreground,Centre,"sb\Ring.png",95,351 F,2,170040,170840,1,0 S,1,170040,170840,0.05,0.45
Sprite,Foreground,Centre,"sb\Ring.png",94,367 F,2,170115,170990,1,0 S,1,170115,170990,0.05,0.45
Sprite,Foreground,Centre,"sb\Ring.png",283,266 F,2,170265,171065,1,0 S,1,170265,171065,0.05,0.45
Sprite,Foreground,Centre,"sb\Ring.png",98,199 F,2,170415,171215,1,0 S,1,170415,171215,0.05,0.45
Sprite,Foreground,Centre,"sb\Ring.png",373,433 F,2,170565,171665,1,0 S,1,170565,171665,0.05,0.45
Sprite,Foreground,Centre,"sb\Ring.png",226,383 F,2,171015,171965,1,0 S,1,171015,171965,0.05,0.45
Sprite,Foreground,Centre,"sb\Ring.png",406,359 F,2,171315,172115,1,0 S,1,171315,172115,0.05,0.45
Sprite,Foreground,Centre,"sb\Ring.png",225,225 F,2,171465,172415,1,0 S,1,171465,172415,0.05,0.45
Sprite,Foreground,Centre,"sb\Ring.png",314,286 F,2,171765,172865,1,0 S,1,171765,172865,0.05,0.45
Sprite,Foreground,Centre,"sb\Ring.png",406,359 F,2,172215,173165,1,0 S,1,172215,173165,0.05,0.45
Sprite,Foreground,Centre,"sb\Ring.png",296,216 F,2,172515,173315,1,0 S,1,172515,173315,0.05,0.45
Sprite,Foreground,Centre,"sb\Ring.png",108,376 F,2,172665,173615,1,0 S,1,172665,173615,0.05,0.45
Sprite,Foreground,Centre,"sb\Ring.png",169,133 F,2,172965,174065,1,0 S,1,172965,174065,0.05,0.45
Sprite,Foreground,Centre,"sb\Ring.png",214,203 F,2,173415,174215,1,0 S,1,173415,174215,0.05,0.45
Sprite,Foreground,Centre,"sb\Ring.png",460,172 F,2,173565,174365,1,0 S,1,173565,174365,0.05,0.45
Sprite,Foreground,Centre,"sb\Ring.png",203,198 F,2,173715,174515,1,0 S,1,173715,174515,0.05,0.45
Sprite,Foreground,Centre,"sb\Ring.png",474,164 F,2,173865,174665,1,0 S,1,173865,174665,0.05,0.45
Sprite,Foreground,Centre,"sb\Ring.png",312,132 F,2,174015,174815,1,0 S,1,174015,174815,0.05,0.45
Sprite,Foreground,Centre,"sb\Ring.png",416,364 F,2,174165,175265,1,0 S,1,174165,175265,0.05,0.45
Sprite,Foreground,Centre,"sb\Ring.png",340,324 F,2,174540,175340,1,0 S,1,174540,175340,0.05,0.45
Sprite,Foreground,Centre,"sb\Ring.png",332,320 F,2,174615,175415,1,0 S,1,174615,175415,0.05,0.45
Sprite,Foreground,Centre,"sb\Ring.png",328,312 F,2,174690,175490,1,0 S,1,174690,175490,0.05,0.45
Sprite,Foreground,Centre,"sb\Ring.png",324,304 F,2,174765,175565,1,0 S,1,174765,175565,0.05,0.45
Sprite,Foreground,Centre,"sb\Ring.png",328,296 F,2,174840,175640,1,0 S,1,174840,175640,0.05,0.45
Sprite,Foreground,Centre,"sb\Ring.png",332,288 F,2,174915,175715,1,0 S,1,174915,175715,0.05,0.45
Sprite,Foreground,Centre,"sb\Ring.png",354,364 F,2,174990,175790,1,0 S,1,174990,175790,0.05,0.45
Sprite,Foreground,Centre,"sb\Ring.png",308,429 F,2,175065,175865,1,0 S,1,175065,175865,0.05,0.45
Sprite,Foreground,Centre,"sb\Ring.png",228,432 F,2,175140,175940,1,0 S,1,175140,175940,0.05,0.45
Sprite,Foreground,Centre,"sb\Ring.png",177,371 F,2,175215,176015,1,0 S,1,175215,176015,0.05,0.45
Sprite,Foreground,Centre,"sb\Ring.png",180,364 F,2,175290,176090,1,0 S,1,175290,176090,0.05,0.45
Sprite,Foreground,Centre,"sb\Ring.png",180,356 F,2,175365,176165,1,0 S,1,175365,176165,0.05,0.45
Sprite,Foreground,Centre,"sb\Ring.png",180,348 F,2,175440,176240,1,0 S,1,175440,176240,0.05,0.45
Sprite,Foreground,Centre,"sb\Ring.png",177,340 F,2,175515,176465,1,0 S,1,175515,176465,0.05,0.45
Sprite,Foreground,Centre,"sb\Ring.png",236,128 F,2,175740,176540,1,0 S,1,175740,176540,0.05,0.45
Sprite,Foreground,Centre,"sb\Ring.png",236,128 F,2,175815,176615,1,0 S,1,175815,176615,0.05,0.45
Sprite,Foreground,Centre,"sb\Ring.png",392,76 F,2,175965,176765,1,0 S,1,175965,176765,0.05,0.45
Sprite,Foreground,Centre,"sb\Ring.png",160,112 F,2,176115,177015,1,0 S,1,176115,177015,0.05,0.45
Sprite,Foreground,Centre,"sb\Ring.png",80,188 F,2,176265,177165,1,0 S,1,176265,177165,0.05,0.45
Sprite,Foreground,Centre,"sb\Ring.png",136,280 F,2,176415,177215,1,0 S,1,176415,177215,0.05,0.45
Sprite,Foreground,Centre,"sb\Ring.png",372,348 F,2,176565,177590,1,0 S,1,176565,177590,0.05,0.45
Sprite,Foreground,Centre,"sb\Ring.png",437,282 F,2,176865,177740,1,0 S,1,176865,177740,0.05,0.45
Sprite,Foreground,Centre,"sb\Ring.png",284,230 F,2,177015,177890,1,0 S,1,177015,177890,0.05,0.45
Sprite,Foreground,Centre,"sb\Ring.png",372,348 F,2,177165,177965,1,0 S,1,177165,177965,0.05,0.45
Sprite,Foreground,Centre,"sb\Ring.png",368,364 F,2,177240,178040,1,0 S,1,177240,178040,0.05,0.45
Sprite,Foreground,Centre,"sb\Ring.png",364,380 F,2,177315,178190,1,0 S,1,177315,178190,0.05,0.45
Sprite,Foreground,Centre,"sb\Ring.png",437,282 F,2,177465,178340,1,0 S,1,177465,178340,0.05,0.45
Sprite,Foreground,Centre,"sb\Ring.png",396,144 F,2,177615,178415,1,0 S,1,177615,178415,0.05,0.45
Sprite,Foreground,Centre,"sb\Ring.png",171,312 F,2,177765,178790,1,0 S,1,177765,178790,0.05,0.45
Sprite,Foreground,Centre,"sb\Ring.png",268,296 F,2,178065,178940,1,0 S,1,178065,178940,0.05,0.45
Sprite,Foreground,Centre,"sb\Ring.png",396,144 F,2,178215,179090,1,0 S,1,178215,179090,0.05,0.45
Sprite,Foreground,Centre,"sb\Ring.png",268,296 F,2,178365,179165,1,0 S,1,178365,179165,0.05,0.45
Sprite,Foreground,Centre,"sb\Ring.png",264,280 F,2,178440,179240,1,0 S,1,178440,179240,0.05,0.45
Sprite,Foreground,Centre,"sb\Ring.png",260,264 F,2,178515,179390,1,0 S,1,178515,179390,0.05,0.45
Sprite,Foreground,Centre,"sb\Ring.png",92,144 F,2,178665,179540,1,0 S,1,178665,179540,0.05,0.45
Sprite,Foreground,Centre,"sb\Ring.png",393,224 F,2,178815,179615,1,0 S,1,178815,179615,0.05,0.45
Sprite,Foreground,Centre,"sb\Ring.png",380,184 F,2,178890,179690,1,0 S,1,178890,179690,0.05,0.45
Sprite,Foreground,Centre,"sb\Ring.png",396,144 F,2,178965,179915,1,0 S,1,178965,179915,0.05,0.45
Sprite,Foreground,Centre,"sb\Ring.png",376,68 F,2,179265,180065,1,0 S,1,179265,180065,0.05,0.45
Sprite,Foreground,Centre,"sb\Ring.png",252,224 F,2,179415,180215,1,0 S,1,179415,180215,0.05,0.45
Sprite,Foreground,Centre,"sb\Ring.png",368,284 F,2,179565,180365,1,0 S,1,179565,180365,0.05,0.45
Sprite,Foreground,Centre,"sb\Ring.png",368,284 F,2,179640,180440,1,0 S,1,179640,180440,0.05,0.45
Sprite,Foreground,Centre,"sb\Ring.png",368,284 F,2,179715,180515,1,0 S,1,179715,180515,0.05,0.45
Sprite,Foreground,Centre,"sb\Ring.png",252,104 F,2,179865,180665,1,0 S,1,179865,180665,0.05,0.45
Sprite,Foreground,Centre,"sb\Ring.png",148,292 F,2,180015,180815,1,0 S,1,180015,180815,0.05,0.45
Sprite,Foreground,Centre,"sb\Ring.png",376,388 F,2,180165,181115,1,0 S,1,180165,181115,0.05,0.45
Sprite,Foreground,Centre,"sb\Ring.png",440,300 F,2,180465,181265,1,0 S,1,180465,181265,0.05,0.45
Sprite,Foreground,Centre,"sb\Ring.png",296,344 F,2,180615,181415,1,0 S,1,180615,181415,0.05,0.45
Sprite,Foreground,Centre,"sb\Ring.png",417,165 F,2,180765,181565,1,0 S,1,180765,181565,0.05,0.45
Sprite,Foreground,Centre,"sb\Ring.png",417,165 F,2,180840,181640,1,0 S,1,180840,181640,0.05,0.45
Sprite,Foreground,Centre,"sb\Ring.png",417,165 F,2,180915,181715,1,0 S,1,180915,181715,0.05,0.45
Sprite,Foreground,Centre,"sb\Ring.png",229,231 F,2,181065,181940,1,0 S,1,181065,181940,0.05,0.45
Sprite,Foreground,Centre,"sb\Ring.png",417,165 F,2,181215,182015,1,0 S,1,181215,182015,0.05,0.45
Sprite,Foreground,Centre,"sb\Ring.png",289,128 F,2,181365,182390,1,0 S,1,181365,182390,0.05,0.45
Sprite,Foreground,Centre,"sb\Ring.png",417,165 F,2,181665,182540,1,0 S,1,181665,182540,0.05,0.45
Sprite,Foreground,Centre,"sb\Ring.png",322,311 F,2,181815,182690,1,0 S,1,181815,182690,0.05,0.45
Sprite,Foreground,Centre,"sb\Ring.png",314,217 F,2,181965,182765,1,0 S,1,181965,182765,0.05,0.45
Sprite,Foreground,Centre,"sb\Ring.png",323,203 F,2,182040,182840,1,0 S,1,182040,182840,0.05,0.45
Sprite,Foreground,Centre,"sb\Ring.png",332,189 F,2,182115,182990,1,0 S,1,182115,182990,0.05,0.45
Sprite,Foreground,Centre,"sb\Ring.png",196,388 F,2,182265,183140,1,0 S,1,182265,183140,0.05,0.45
Sprite,Foreground,Centre,"sb\Ring.png",88,208 F,2,182415,183215,1,0 S,1,182415,183215,0.05,0.45
Sprite,Foreground,Centre,"sb\Ring.png",364,388 F,2,182565,183590,1,0 S,1,182565,183590,0.05,0.45
Sprite,Foreground,Centre,"sb\Ring.png",416,309 F,2,182865,183740,1,0 S,1,182865,183740,0.05,0.45
Sprite,Foreground,Centre,"sb\Ring.png",220,180 F,2,183015,183890,1,0 S,1,183015,183890,0.05,0.45
Sprite,Foreground,Centre,"sb\Ring.png",184,292 F,2,183165,183965,1,0 S,1,183165,183965,0.05,0.45
Sprite,Foreground,Centre,"sb\Ring.png",176,304 F,2,183240,184040,1,0 S,1,183240,184040,0.05,0.45
Sprite,Foreground,Centre,"sb\Ring.png",168,316 F,2,183315,184190,1,0 S,1,183315,184190,0.05,0.45
Sprite,Foreground,Centre,"sb\Ring.png",376,56 F,2,183465,184340,1,0 S,1,183465,184340,0.05,0.45
Sprite,Foreground,Centre,"sb\Ring.png",424,212 F,2,183615,184415,1,0 S,1,183615,184415,0.05,0.45
Sprite,Foreground,Centre,"sb\Ring.png",466,229 F,2,183690,184490,1,0 S,1,183690,184490,0.05,0.45
Sprite,Foreground,Centre,"sb\Ring.png",509,245 F,2,183765,184865,1,0 S,1,183765,184865,0.05,0.45
Sprite,Foreground,Centre,"sb\Ring.png",414,296 F,2,184215,185015,1,0 S,1,184215,185015,0.05,0.45
Sprite,Foreground,Centre,"sb\Ring.png",513,109 F,2,184365,185165,1,0 S,1,184365,185165,0.05,0.45
Sprite,Foreground,Centre,"sb\Ring.png",513,109 F,2,184440,185240,1,0 S,1,184440,185240,0.05,0.45
Sprite,Foreground,Centre,"sb\Ring.png",513,109 F,2,184515,185315,1,0 S,1,184515,185315,0.05,0.45
Sprite,Foreground,Centre,"sb\Ring.png",290,218 F,2,184665,185465,1,0 S,1,184665,185465,0.05,0.45
Sprite,Foreground,Centre,"sb\Ring.png",414,296 F,2,184815,185615,1,0 S,1,184815,185615,0.05,0.45
Sprite,Foreground,Centre,"sb\Ring.png",307,105 F,2,184965,185990,1,0 S,1,184965,185990,0.05,0.45
Sprite,Foreground,Centre,"sb\Ring.png",260,352 F,2,185265,186065,1,0 S,1,185265,186065,0.05,0.45
Sprite,Foreground,Centre,"sb\Ring.png",260,344 F,2,185340,186140,1,0 S,1,185340,186140,0.05,0.45
Sprite,Foreground,Centre,"sb\Ring.png",260,336 F,2,185415,186215,1,0 S,1,185415,186215,0.05,0.45
Sprite,Foreground,Centre,"sb\Ring.png",260,328 F,2,185490,186290,1,0 S,1,185490,186290,0.05,0.45
Sprite,Foreground,Centre,"sb\Ring.png",260,320 F,2,185565,186365,1,0 S,1,185565,186365,0.05,0.45
Sprite,Foreground,Centre,"sb\Ring.png",307,351 F,2,185640,186440,1,0 S,1,185640,186440,0.05,0.45
Sprite,Foreground,Centre,"sb\Ring.png",363,367 F,2,185715,186515,1,0 S,1,185715,186515,0.05,0.45
Sprite,Foreground,Centre,"sb\Ring.png",420,363 F,2,185790,186590,1,0 S,1,185790,186590,0.05,0.45
Sprite,Foreground,Centre,"sb\Ring.png",474,342 F,2,185865,186665,1,0 S,1,185865,186665,0.05,0.45
Sprite,Foreground,Centre,"sb\Ring.png",416,290 F,2,185940,186740,1,0 S,1,185940,186740,0.05,0.45
Sprite,Foreground,Centre,"sb\Ring.png",441,216 F,2,186015,186815,1,0 S,1,186015,186815,0.05,0.45
Sprite,Foreground,Centre,"sb\Ring.png",519,210 F,2,186090,186890,1,0 S,1,186090,186890,0.05,0.45
Sprite,Foreground,Centre,"sb\Ring.png",436,108 F,2,99765,100865,1,0 S,1,99765,100865,0.05,0.45
Sprite,Foreground,Centre,"sb\Ring.png",268,92 F,2,100215,101165,1,0 S,1,100215,101165,0.05,0.45
Sprite,Foreground,Centre,"sb\Ring.png",407,183 F,2,100515,101315,1,0 S,1,100515,101315,0.05,0.45
Sprite,Foreground,Centre,"sb\Ring.png",220,220 F,2,100665,101615,1,0 S,1,100665,101615,0.05,0.45
Sprite,Foreground,Centre,"sb\Ring.png",432,380 F,2,100965,102065,1,0 S,1,100965,102065,0.05,0.45
Sprite,Foreground,Centre,"sb\Ring.png",507,295 F,2,101415,102365,1,0 S,1,101415,102365,0.05,0.45
Sprite,Foreground,Centre,"sb\Ring.png",544,424 F,2,101715,102515,1,0 S,1,101715,102515,0.05,0.45
Sprite,Foreground,Centre,"sb\Ring.png",392,168 F,2,101865,102815,1,0 S,1,101865,102815,0.05,0.45
Sprite,Foreground,Centre,"sb\Ring.png",424,72 F,2,102165,103265,1,0 S,1,102165,103265,0.05,0.45
Sprite,Foreground,Centre,"sb\Ring.png",100,88 F,2,102615,103565,1,0 S,1,102615,103565,0.05,0.45
Sprite,Foreground,Centre,"sb\Ring.png",180,232 F,2,102915,103715,1,0 S,1,102915,103715,0.05,0.45
Sprite,Foreground,Centre,"sb\Ring.png",392,168 F,2,103065,104015,1,0 S,1,103065,104015,0.05,0.45
Sprite,Foreground,Centre,"sb\Ring.png",360,92 F,2,103365,104240,1,0 S,1,103365,104240,0.05,0.45
Sprite,Foreground,Centre,"sb\Ring.png",340,246 F,2,103515,104465,1,0 S,1,103515,104465,0.05,0.45
Sprite,Foreground,Centre,"sb\Ring.png",408,332 F,2,103815,104765,1,0 S,1,103815,104765,0.05,0.45
Sprite,Foreground,Centre,"sb\Ring.png",336,404 F,2,104115,104915,1,0 S,1,104115,104915,0.05,0.45
Sprite,Foreground,Centre,"sb\Ring.png",240,176 F,2,104265,105140,1,0 S,1,104265,105140,0.05,0.45
Sprite,Foreground,Centre,"sb\Ring.png",328,424 F,2,104415,105215,1,0 S,1,104415,105215,0.05,0.45
Sprite,Foreground,Centre,"sb\Ring.png",328,120 F,2,104565,105665,1,0 S,1,104565,105665,0.05,0.45
Sprite,Foreground,Centre,"sb\Ring.png",245,334 F,2,105015,105965,1,0 S,1,105015,105965,0.05,0.45
Sprite,Foreground,Centre,"sb\Ring.png",144,404 F,2,105315,106115,1,0 S,1,105315,106115,0.05,0.45
Sprite,Foreground,Centre,"sb\Ring.png",384,336 F,2,105465,106415,1,0 S,1,105465,106415,0.05,0.45
Sprite,Foreground,Centre,"sb\Ring.png",320,384 F,2,105765,106865,1,0 S,1,105765,106865,0.05,0.45
Sprite,Foreground,Centre,"sb\Ring.png",514,420 F,2,106215,107165,1,0 S,1,106215,107165,0.05,0.45
Sprite,Foreground,Centre,"sb\Ring.png",303,137 F,2,106515,107315,1,0 S,1,106515,107315,0.05,0.45
Sprite,Foreground,Centre,"sb\Ring.png",465,336 F,2,106665,107615,1,0 S,1,106665,107615,0.05,0.45
Sprite,Foreground,Centre,"sb\Ring.png",140,128 F,2,106965,108065,1,0 S,1,106965,108065,0.05,0.45
Sprite,Foreground,Centre,"sb\Ring.png",303,137 F,2,107415,108215,1,0 S,1,107415,108215,0.05,0.45
Sprite,Foreground,Centre,"sb\Ring.png",546,91 F,2,107565,108365,1,0 S,1,107565,108365,0.05,0.45
Sprite,Foreground,Centre,"sb\Ring.png",298,120 F,2,107715,108515,1,0 S,1,107715,108515,0.05,0.45
Sprite,Foreground,Centre,"sb\Ring.png",546,112 F,2,107865,108665,1,0 S,1,107865,108665,0.05,0.45
Sprite,Foreground,Centre,"sb\Ring.png",416,84 F,2,108015,108815,1,0 S,1,108015,108815,0.05,0.45
Sprite,Foreground,Centre,"sb\Ring.png",547,293 F,2,108165,109265,1,0 S,1,108165,109265,0.05,0.45
Sprite,Foreground,Centre,"sb\Ring.png",360,396 F,2,108540,109340,1,0 S,1,108540,109340,0.05,0.45
Sprite,Foreground,Centre,"sb\Ring.png",360,396 F,2,108615,109490,1,0 S,1,108615,109490,0.05,0.45
Sprite,Foreground,Centre,"sb\Ring.png",170,273 F,2,108765,109865,1,0 S,1,108765,109865,0.05,0.45
Sprite,Foreground,Centre,"sb\Ring.png",159,168 F,2,109140,109940,1,0 S,1,109140,109940,0.05,0.45
Sprite,Foreground,Centre,"sb\Ring.png",159,168 F,2,109215,110090,1,0 S,1,109215,110090,0.05,0.45
Sprite,Foreground,Centre,"sb\Ring.png",452,60 F,2,109365,110465,1,0 S,1,109365,110465,0.05,0.45
Sprite,Foreground,Centre,"sb\Ring.png",400,280 F,2,109815,110765,1,0 S,1,109815,110765,0.05,0.45
Sprite,Foreground,Centre,"sb\Ring.png",564,240 F,2,110115,110915,1,0 S,1,110115,110915,0.05,0.45
Sprite,Foreground,Centre,"sb\Ring.png",336,140 F,2,110265,111215,1,0 S,1,110265,111215,0.05,0.45
Sprite,Foreground,Centre,"sb\Ring.png",68,320 F,2,110565,111665,1,0 S,1,110565,111665,0.05,0.45
Sprite,Foreground,Centre,"sb\Ring.png",300,309 F,2,111015,111965,1,0 S,1,111015,111965,0.05,0.45
Sprite,Foreground,Centre,"sb\Ring.png",321,232 F,2,111315,112115,1,0 S,1,111315,112115,0.05,0.45
Sprite,Foreground,Centre,"sb\Ring.png",492,336 F,2,111465,112415,1,0 S,1,111465,112415,0.05,0.45
Sprite,Foreground,Centre,"sb\Ring.png",401,340 F,2,111765,112865,1,0 S,1,111765,112865,0.05,0.45
Sprite,Foreground,Centre,"sb\Ring.png",331,171 F,2,112215,113165,1,0 S,1,112215,113165,0.05,0.45
Sprite,Foreground,Centre,"sb\Ring.png",257,90 F,2,112515,113315,1,0 S,1,112515,113315,0.05,0.45
Sprite,Foreground,Centre,"sb\Ring.png",211,333 F,2,112665,113615,1,0 S,1,112665,113615,0.05,0.45
Sprite,Foreground,Centre,"sb\Ring.png",288,280 F,2,112965,113840,1,0 S,1,112965,113840,0.05,0.45
Sprite,Foreground,Centre,"sb\Ring.png",162,247 F,2,113115,114065,1,0 S,1,113115,114065,0.05,0.45
Sprite,Foreground,Centre,"sb\Ring.png",576,184 F,2,113415,114365,1,0 S,1,113415,114365,0.05,0.45
Sprite,Foreground,Centre,"sb\Ring.png",72,312 F,2,113715,114665,1,0 S,1,113715,114665,0.05,0.45
Sprite,Foreground,Centre,"sb\Ring.png",380,248 F,2,114015,114890,1,0 S,1,114015,114890,0.05,0.45
Sprite,Foreground,Centre,"sb\Ring.png",280,212 F,2,114165,115265,1,0 S,1,114165,115265,0.05,0.45
Sprite,Foreground,Centre,"sb\Ring.png",291,139 F,2,114615,115565,1,0 S,1,114615,115565,0.05,0.45
Sprite,Foreground,Centre,"sb\Ring.png",380,248 F,2,114915,115715,1,0 S,1,114915,115715,0.05,0.45
Sprite,Foreground,Centre,"sb\Ring.png",576,82 F,2,115065,116015,1,0 S,1,115065,116015,0.05,0.45
Sprite,Foreground,Centre,"sb\Ring.png",364,396 F,2,115365,116465,1,0 S,1,115365,116465,0.05,0.45
Sprite,Foreground,Centre,"sb\Ring.png",380,248 F,2,115815,116765,1,0 S,1,115815,116765,0.05,0.45
Sprite,Foreground,Centre,"sb\Ring.png",504,168 F,2,116115,116915,1,0 S,1,116115,116915,0.05,0.45
Sprite,Foreground,Centre,"sb\Ring.png",291,375 F,2,116265,117215,1,0 S,1,116265,117215,0.05,0.45
Sprite,Foreground,Centre,"sb\Ring.png",254,167 F,2,116565,117665,1,0 S,1,116565,117665,0.05,0.45
Sprite,Foreground,Centre,"sb\Ring.png",356,84 F,2,117015,117815,1,0 S,1,117015,117815,0.05,0.45
Sprite,Foreground,Centre,"sb\Ring.png",448,312 F,2,117165,117965,1,0 S,1,117165,117965,0.05,0.45
Sprite,Foreground,Centre,"sb\Ring.png",254,167 F,2,117315,118115,1,0 S,1,117315,118115,0.05,0.45
Sprite,Foreground,Centre,"sb\Ring.png",490,94 F,2,117465,118265,1,0 S,1,117465,118265,0.05,0.45
Sprite,Foreground,Centre,"sb\Ring.png",445,337 F,2,117615,118415,1,0 S,1,117615,118415,0.05,0.45
Sprite,Foreground,Centre,"sb\Ring.png",360,161 F,2,117765,118790,1,0 S,1,117765,118790,0.05,0.45
Sprite,Foreground,Centre,"sb\Ring.png",120,192 F,2,118065,118865,1,0 S,1,118065,118865,0.05,0.45
Sprite,Foreground,Centre,"sb\Ring.png",119,233 F,2,118140,118940,1,0 S,1,118140,118940,0.05,0.45
Sprite,Foreground,Centre,"sb\Ring.png",119,274 F,2,118215,119015,1,0 S,1,118215,119015,0.05,0.45
Sprite,Foreground,Centre,"sb\Ring.png",119,315 F,2,118290,119090,1,0 S,1,118290,119090,0.05,0.45
Sprite,Foreground,Centre,"sb\Ring.png",118,356 F,2,118365,119240,1,0 S,1,118365,119240,0.05,0.45
Sprite,Foreground,Centre,"sb\Ring.png",269,398 F,2,118515,119390,1,0 S,1,118515,119390,0.05,0.45
Sprite,Foreground,Centre,"sb\Ring.png",389,310 F,2,118665,119465,1,0 S,1,118665,119465,0.05,0.45
Sprite,Foreground,Centre,"sb\Ring.png",353,275 F,2,118740,119540,1,0 S,1,118740,119540,0.05,0.45
Sprite,Foreground,Centre,"sb\Ring.png",340,228 F,2,118815,119615,1,0 S,1,118815,119615,0.05,0.45
Sprite,Foreground,Centre,"sb\Ring.png",353,181 F,2,118890,119690,1,0 S,1,118890,119690,0.05,0.45
Sprite,Foreground,Centre,"sb\Ring.png",388,147 F,2,118965,119765,1,0 S,1,118965,119765,0.05,0.45
Sprite,Foreground,Centre,"sb\Ring.png",435,134 F,2,119040,119840,1,0 S,1,119040,119840,0.05,0.45
Sprite,Foreground,Centre,"sb\Ring.png",482,148 F,2,119115,119990,1,0 S,1,119115,119990,0.05,0.45
Sprite,Foreground,Centre,"sb\Ring.png",545,338 F,2,119265,120065,1,0 S,1,119265,120065,0.05,0.45
Sprite,Foreground,Centre,"sb\Ring.png",545,338 F,2,119340,120140,1,0 S,1,119340,120140,0.05,0.45
Sprite,Foreground,Centre,"sb\Ring.png",545,338 F,2,119415,120215,1,0 S,1,119415,120215,0.05,0.45
Sprite,Foreground,Centre,"sb\Ring.png",308,336 F,2,119565,120365,1,0 S,1,119565,120365,0.05,0.45
Sprite,Foreground,Centre,"sb\Ring.png",127,183 F,2,119715,120515,1,0 S,1,119715,120515,0.05,0.45
Sprite,Foreground,Centre,"sb\Ring.png",419,149 F,2,119865,120665,1,0 S,1,119865,120665,0.05,0.45
Sprite,Foreground,Centre,"sb\Ring.png",160,360 F,2,120015,120815,1,0 S,1,120015,120815,0.05,0.45
Sprite,Foreground,Centre,"sb\Circle.png",304,288 C,0,156165,,255,255,255 F,2,156165,157265,1,0 S,2,156165,157265,0.15,0.03
Sprite,Foreground,Centre,"sb\Circle.png",412,332 C,0,156615,,255,255,255 F,2,156615,157565,1,0 S,2,156615,157565,0.15,0.03
Sprite,Foreground,Centre,"sb\Circle.png",312,203 C,0,156915,,255,255,255 F,2,156915,157715,1,0 S,2,156915,157715,0.15,0.03
Sprite,Foreground,Centre,"sb\Circle.png",576,179 C,0,157065,,255,255,255 F,2,157065,158015,1,0 S,2,157065,158015,0.15,0.03
Sprite,Foreground,Centre,"sb\Circle.png",188,304 C,0,157365,,255,255,255 F,2,157365,158465,1,0 S,2,157365,158465,0.15,0.03
Sprite,Foreground,Centre,"sb\Circle.png",347,301 C,0,157815,,255,255,255 F,2,157815,158765,1,0 S,2,157815,158765,0.15,0.03
Sprite,Foreground,Centre,"sb\Circle.png",399,158 C,0,158115,,255,255,255 F,2,158115,158915,1,0 S,2,158115,158915,0.15,0.03
Sprite,Foreground,Centre,"sb\Circle.png",252,333 C,0,158265,,255,255,255 F,2,158265,159215,1,0 S,2,158265,159215,0.15,0.03
Sprite,Foreground,Centre,"sb\Circle.png",187,68 C,0,158565,,255,255,255 F,2,158565,159665,1,0 S,2,158565,159665,0.15,0.03
Sprite,Foreground,Centre,"sb\Circle.png",253,106 C,0,159015,,255,255,255 F,2,159015,159965,1,0 S,2,159015,159965,0.15,0.03
Sprite,Foreground,Centre,"sb\Circle.png",253,353 C,0,159315,,255,255,255 F,2,159315,160115,1,0 S,2,159315,160115,0.15,0.03
Sprite,Foreground,Centre,"sb\Circle.png",144,134 C,0,159465,,255,255,255 F,2,159465,160415,1,0 S,2,159465,160415,0.15,0.03
Sprite,Foreground,Centre,"sb\Circle.png",324,400 C,0,159765,,255,255,255 F,2,159765,160640,1,0 S,2,159765,160640,0.15,0.03
Sprite,Foreground,Centre,"sb\Circle.png",337,165 C,0,159915,,255,255,255 F,2,159915,160865,1,0 S,2,159915,160865,0.15,0.03
Sprite,Foreground,Centre,"sb\Circle.png",424,136 C,0,160215,,255,255,255 F,2,160215,161165,1,0 S,2,160215,161165,0.15,0.03
Sprite,Foreground,Centre,"sb\Circle.png",408,236 C,0,160515,,255,255,255 F,2,160515,161315,1,0 S,2,160515,161315,0.15,0.03
Sprite,Foreground,Centre,"sb\Circle.png",552,76 C,0,160665,,255,255,255 F,2,160665,161465,1,0 S,2,160665,161465,0.15,0.03
Sprite,Foreground,Centre,"sb\Circle.png",194,224 C,0,160815,,255,255,255 F,2,160815,161615,1,0 S,2,160815,161615,0.15,0.03
Sprite,Foreground,Centre,"sb\Circle.png",493,338 C,0,160965,,255,255,255 F,2,160965,162065,1,0 S,2,160965,162065,0.15,0.03
Sprite,Foreground,Centre,"sb\Circle.png",248,380 C,0,161415,,255,255,255 F,2,161415,162365,1,0 S,2,161415,162365,0.15,0.03
Sprite,Foreground,Centre,"sb\Circle.png",194,224 C,0,161715,,255,255,255 F,2,161715,162515,1,0 S,2,161715,162515,0.15,0.03
Sprite,Foreground,Centre,"sb\Circle.png",492,252 C,0,161865,,255,255,255 F,2,161865,162815,1,0 S,2,161865,162815,0.15,0.03
Sprite,Foreground,Centre,"sb\Circle.png",132,156 C,0,162165,,255,255,255 F,2,162165,163265,1,0 S,2,162165,163265,0.15,0.03
Sprite,Foreground,Centre,"sb\Circle.png",148,317 C,0,162615,,255,255,255 F,2,162615,163565,1,0 S,2,162615,163565,0.15,0.03
Sprite,Foreground,Centre,"sb\Circle.png",194,224 C,0,162915,,255,255,255 F,2,162915,163715,1,0 S,2,162915,163715,0.15,0.03
Sprite,Foreground,Centre,"sb\Circle.png",360,348 C,0,163065,,255,255,255 F,2,163065,164015,1,0 S,2,163065,164015,0.15,0.03
Sprite,Foreground,Centre,"sb\Circle.png",281,343 C,0,163365,,255,255,255 F,2,163365,164465,1,0 S,2,163365,164465,0.15,0.03
Sprite,Foreground,Centre,"sb\Circle.png",277,194 C,0,163815,,255,255,255 F,2,163815,164615,1,0 S,2,163815,164615,0.15,0.03
Sprite,Foreground,Centre,"sb\Circle.png",168,416 C,0,163965,,255,255,255 F,2,163965,164765,1,0 S,2,163965,164765,0.15,0.03
Sprite,Foreground,Centre,"sb\Circle.png",404,168 C,0,164115,,255,255,255 F,2,164115,164915,1,0 S,2,164115,164915,0.15,0.03
Sprite,Foreground,Centre,"sb\Circle.png",182,277 C,0,164265,,255,255,255 F,2,164265,165065,1,0 S,2,164265,165065,0.15,0.03
Sprite,Foreground,Centre,"sb\Circle.png",380,428 C,0,164415,,255,255,255 F,2,164415,165215,1,0 S,2,164415,165215,0.15,0.03
Sprite,Foreground,Centre,"sb\Circle.png",180,212 C,0,164565,,255,255,255 F,2,164565,165665,1,0 S,2,164565,165665,0.15,0.03
Sprite,Foreground,Centre,"sb\Circle.png",261,171 C,0,164940,,255,255,255 F,2,164940,165740,1,0 S,2,164940,165740,0.15,0.03
Sprite,Foreground,Centre,"sb\Circle.png",260,171 C,0,165015,,255,255,255 F,2,165015,165890,1,0 S,2,165015,165890,0.15,0.03
Sprite,Foreground,Centre,"sb\Circle.png",414,192 C,0,165165,,255,255,255 F,2,165165,166265,1,0 S,2,165165,166265,0.15,0.03
Sprite,Foreground,Centre,"sb\Circle.png",487,143 C,0,165540,,255,255,255 F,2,165540,166340,1,0 S,2,165540,166340,0.15,0.03
Sprite,Foreground,Centre,"sb\Circle.png",487,143 C,0,165615,,255,255,255 F,2,165615,166490,1,0 S,2,165615,166490,0.15,0.03
Sprite,Foreground,Centre,"sb\Circle.png",297,340 C,0,165765,,255,255,255 F,2,165765,166865,1,0 S,2,165765,166865,0.15,0.03
Sprite,Foreground,Centre,"sb\Circle.png",221,405 C,0,166215,,255,255,255 F,2,166215,167165,1,0 S,2,166215,167165,0.15,0.03
Sprite,Foreground,Centre,"sb\Circle.png",285,265 C,0,166515,,255,255,255 F,2,166515,167315,1,0 S,2,166515,167315,0.15,0.03
Sprite,Foreground,Centre,"sb\Circle.png",500,386 C,0,166665,,255,255,255 F,2,166665,167615,1,0 S,2,166665,167615,0.15,0.03
Sprite,Foreground,Centre,"sb\Circle.png",463,148 C,0,166965,,255,255,255 F,2,166965,168065,1,0 S,2,166965,168065,0.15,0.03
Sprite,Foreground,Centre,"sb\Circle.png",318,80 C,0,167415,,255,255,255 F,2,167415,168365,1,0 S,2,167415,168365,0.15,0.03
Sprite,Foreground,Centre,"sb\Circle.png",283,266 C,0,167715,,255,255,255 F,2,167715,168515,1,0 S,2,167715,168515,0.15,0.03
Sprite,Foreground,Centre,"sb\Circle.png",154,82 C,0,167865,,255,255,255 F,2,167865,168815,1,0 S,2,167865,168815,0.15,0.03
Sprite,Foreground,Centre,"sb\Circle.png",270,340 C,0,168165,,255,255,255 F,2,168165,169265,1,0 S,2,168165,169265,0.15,0.03
Sprite,Foreground,Centre,"sb\Circle.png",406,359 C,0,168615,,255,255,255 F,2,168615,169565,1,0 S,2,168615,169565,0.15,0.03
Sprite,Foreground,Centre,"sb\Circle.png",283,266 C,0,168915,,255,255,255 F,2,168915,169715,1,0 S,2,168915,169715,0.15,0.03
Sprite,Foreground,Centre,"sb\Circle.png",514,99 C,0,169065,,255,255,255 F,2,169065,170015,1,0 S,2,169065,170015,0.15,0.03
Sprite,Foreground,Centre,"sb\Circle.png",433,283 C,0,169365,,255,255,255 F,2,169365,170240,1,0 S,2,169365,170240,0.15,0.03
Sprite,Foreground,Centre,"sb\Circle.png",294,94 C,0,169515,,255,255,255 F,2,169515,170390,1,0 S,2,169515,170390,0.15,0.03
Sprite,Foreground,Centre,"sb\Circle.png",406,359 C,0,169665,,255,255,255 F,2,169665,170540,1,0 S,2,169665,170540,0.15,0.03
Sprite,Foreground,Centre,"sb\Circle.png",283,266 C,0,169815,,255,255,255 F,2,169815,170690,1,0 S,2,169815,170690,0.15,0.03
Sprite,Foreground,Centre,"sb\Circle.png",97,335 C,0,169965,,255,255,255 F,2,169965,170765,1,0 S,2,169965,170765,0.15,0.03
Sprite,Foreground,Centre,"sb\Circle.png",95,351 C,0,170040,,255,255,255 F,2,170040,170840,1,0 S,2,170040,170840,0.15,0.03
Sprite,Foreground,Centre,"sb\Circle.png",94,367 C,0,170115,,255,255,255 F,2,170115,170990,1,0 S,2,170115,170990,0.15,0.03
Sprite,Foreground,Centre,"sb\Circle.png",283,266 C,0,170265,,255,255,255 F,2,170265,171065,1,0 S,2,170265,171065,0.15,0.03
Sprite,Foreground,Centre,"sb\Circle.png",98,199 C,0,170415,,255,255,255 F,2,170415,171215,1,0 S,2,170415,171215,0.15,0.03
Sprite,Foreground,Centre,"sb\Circle.png",373,433 C,0,170565,,255,255,255 F,2,170565,171665,1,0 S,2,170565,171665,0.15,0.03
Sprite,Foreground,Centre,"sb\Circle.png",226,383 C,0,171015,,255,255,255 F,2,171015,171965,1,0 S,2,171015,171965,0.15,0.03
Sprite,Foreground,Centre,"sb\Circle.png",406,359 C,0,171315,,255,255,255 F,2,171315,172115,1,0 S,2,171315,172115,0.15,0.03
Sprite,Foreground,Centre,"sb\Circle.png",225,225 C,0,171465,,255,255,255 F,2,171465,172415,1,0 S,2,171465,172415,0.15,0.03
Sprite,Foreground,Centre,"sb\Circle.png",314,286 C,0,171765,,255,255,255 F,2,171765,172865,1,0 S,2,171765,172865,0.15,0.03
Sprite,Foreground,Centre,"sb\Circle.png",406,359 C,0,172215,,255,255,255 F,2,172215,173165,1,0 S,2,172215,173165,0.15,0.03
Sprite,Foreground,Centre,"sb\Circle.png",296,216 C,0,172515,,255,255,255 F,2,172515,173315,1,0 S,2,172515,173315,0.15,0.03
Sprite,Foreground,Centre,"sb\Circle.png",108,376 C,0,172665,,255,255,255 F,2,172665,173615,1,0 S,2,172665,173615,0.15,0.03
Sprite,Foreground,Centre,"sb\Circle.png",169,133 C,0,172965,,255,255,255 F,2,172965,174065,1,0 S,2,172965,174065,0.15,0.03
Sprite,Foreground,Centre,"sb\Circle.png",214,203 C,0,173415,,255,255,255 F,2,173415,174215,1,0 S,2,173415,174215,0.15,0.03
Sprite,Foreground,Centre,"sb\Circle.png",460,172 C,0,173565,,255,255,255 F,2,173565,174365,1,0 S,2,173565,174365,0.15,0.03
Sprite,Foreground,Centre,"sb\Circle.png",203,198 C,0,173715,,255,255,255 F,2,173715,174515,1,0 S,2,173715,174515,0.15,0.03
Sprite,Foreground,Centre,"sb\Circle.png",474,164 C,0,173865,,255,255,255 F,2,173865,174665,1,0 S,2,173865,174665,0.15,0.03
Sprite,Foreground,Centre,"sb\Circle.png",312,132 C,0,174015,,255,255,255 F,2,174015,174815,1,0 S,2,174015,174815,0.15,0.03
Sprite,Foreground,Centre,"sb\Circle.png",416,364 C,0,174165,,255,255,255 F,2,174165,175265,1,0 S,2,174165,175265,0.15,0.03
Sprite,Foreground,Centre,"sb\Circle.png",340,324 C,0,174540,,255,255,255 F,2,174540,175340,1,0 S,2,174540,175340,0.15,0.03
Sprite,Foreground,Centre,"sb\Circle.png",332,320 C,0,174615,,255,255,255 F,2,174615,175415,1,0 S,2,174615,175415,0.15,0.03
Sprite,Foreground,Centre,"sb\Circle.png",328,312 C,0,174690,,255,255,255 F,2,174690,175490,1,0 S,2,174690,175490,0.15,0.03
Sprite,Foreground,Centre,"sb\Circle.png",324,304 C,0,174765,,255,255,255 F,2,174765,175565,1,0 S,2,174765,175565,0.15,0.03
Sprite,Foreground,Centre,"sb\Circle.png",328,296 C,0,174840,,255,255,255 F,2,174840,175640,1,0 S,2,174840,175640,0.15,0.03
Sprite,Foreground,Centre,"sb\Circle.png",332,288 C,0,174915,,255,255,255 F,2,174915,175715,1,0 S,2,174915,175715,0.15,0.03
Sprite,Foreground,Centre,"sb\Circle.png",354,364 C,0,174990,,255,255,255 F,2,174990,175790,1,0 S,2,174990,175790,0.15,0.03
Sprite,Foreground,Centre,"sb\Circle.png",308,429 C,0,175065,,255,255,255 F,2,175065,175865,1,0 S,2,175065,175865,0.15,0.03
Sprite,Foreground,Centre,"sb\Circle.png",228,432 C,0,175140,,255,255,255 F,2,175140,175940,1,0 S,2,175140,175940,0.15,0.03
Sprite,Foreground,Centre,"sb\Circle.png",177,371 C,0,175215,,255,255,255 F,2,175215,176015,1,0 S,2,175215,176015,0.15,0.03
Sprite,Foreground,Centre,"sb\Circle.png",180,364 C,0,175290,,255,255,255 F,2,175290,176090,1,0 S,2,175290,176090,0.15,0.03
Sprite,Foreground,Centre,"sb\Circle.png",180,356 C,0,175365,,255,255,255 F,2,175365,176165,1,0 S,2,175365,176165,0.15,0.03
Sprite,Foreground,Centre,"sb\Circle.png",180,348 C,0,175440,,255,255,255 F,2,175440,176240,1,0 S,2,175440,176240,0.15,0.03
Sprite,Foreground,Centre,"sb\Circle.png",177,340 C,0,175515,,255,255,255 F,2,175515,176465,1,0 S,2,175515,176465,0.15,0.03
Sprite,Foreground,Centre,"sb\Circle.png",236,128 C,0,175740,,255,255,255 F,2,175740,176540,1,0 S,2,175740,176540,0.15,0.03
Sprite,Foreground,Centre,"sb\Circle.png",236,128 C,0,175815,,255,255,255 F,2,175815,176615,1,0 S,2,175815,176615,0.15,0.03
Sprite,Foreground,Centre,"sb\Circle.png",392,76 C,0,175965,,255,255,255 F,2,175965,176765,1,0 S,2,175965,176765,0.15,0.03
Sprite,Foreground,Centre,"sb\Circle.png",160,112 C,0,176115,,255,255,255 F,2,176115,177015,1,0 S,2,176115,177015,0.15,0.03
Sprite,Foreground,Centre,"sb\Circle.png",80,188 C,0,176265,,255,255,255 F,2,176265,177165,1,0 S,2,176265,177165,0.15,0.03
Sprite,Foreground,Centre,"sb\Circle.png",136,280 C,0,176415,,255,255,255 F,2,176415,177215,1,0 S,2,176415,177215,0.15,0.03
Sprite,Foreground,Centre,"sb\Circle.png",372,348 C,0,176565,,255,255,255 F,2,176565,177590,1,0 S,2,176565,177590,0.15,0.03
Sprite,Foreground,Centre,"sb\Circle.png",437,282 C,0,176865,,255,255,255 F,2,176865,177740,1,0 S,2,176865,177740,0.15,0.03
Sprite,Foreground,Centre,"sb\Circle.png",284,230 C,0,177015,,255,255,255 F,2,177015,177890,1,0 S,2,177015,177890,0.15,0.03
Sprite,Foreground,Centre,"sb\Circle.png",372,348 C,0,177165,,255,255,255 F,2,177165,177965,1,0 S,2,177165,177965,0.15,0.03
Sprite,Foreground,Centre,"sb\Circle.png",368,364 C,0,177240,,255,255,255 F,2,177240,178040,1,0 S,2,177240,178040,0.15,0.03
Sprite,Foreground,Centre,"sb\Circle.png",364,380 C,0,177315,,255,255,255 F,2,177315,178190,1,0 S,2,177315,178190,0.15,0.03
Sprite,Foreground,Centre,"sb\Circle.png",437,282 C,0,177465,,255,255,255 F,2,177465,178340,1,0 S,2,177465,178340,0.15,0.03
Sprite,Foreground,Centre,"sb\Circle.png",396,144 C,0,177615,,255,255,255 F,2,177615,178415,1,0 S,2,177615,178415,0.15,0.03
Sprite,Foreground,Centre,"sb\Circle.png",171,312 C,0,177765,,255,255,255 F,2,177765,178790,1,0 S,2,177765,178790,0.15,0.03
Sprite,Foreground,Centre,"sb\Circle.png",268,296 C,0,178065,,255,255,255 F,2,178065,178940,1,0 S,2,178065,178940,0.15,0.03
Sprite,Foreground,Centre,"sb\Circle.png",396,144 C,0,178215,,255,255,255 F,2,178215,179090,1,0 S,2,178215,179090,0.15,0.03
Sprite,Foreground,Centre,"sb\Circle.png",268,296 C,0,178365,,255,255,255 F,2,178365,179165,1,0 S,2,178365,179165,0.15,0.03
Sprite,Foreground,Centre,"sb\Circle.png",264,280 C,0,178440,,255,255,255 F,2,178440,179240,1,0 S,2,178440,179240,0.15,0.03
Sprite,Foreground,Centre,"sb\Circle.png",260,264 C,0,178515,,255,255,255 F,2,178515,179390,1,0 S,2,178515,179390,0.15,0.03
Sprite,Foreground,Centre,"sb\Circle.png",92,144 C,0,178665,,255,255,255 F,2,178665,179540,1,0 S,2,178665,179540,0.15,0.03
Sprite,Foreground,Centre,"sb\Circle.png",393,224 C,0,178815,,255,255,255 F,2,178815,179615,1,0 S,2,178815,179615,0.15,0.03
Sprite,Foreground,Centre,"sb\Circle.png",380,184 C,0,178890,,255,255,255 F,2,178890,179690,1,0 S,2,178890,179690,0.15,0.03
Sprite,Foreground,Centre,"sb\Circle.png",396,144 C,0,178965,,255,255,255 F,2,178965,179915,1,0 S,2,178965,179915,0.15,0.03
Sprite,Foreground,Centre,"sb\Circle.png",376,68 C,0,179265,,255,255,255 F,2,179265,180065,1,0 S,2,179265,180065,0.15,0.03
Sprite,Foreground,Centre,"sb\Circle.png",252,224 C,0,179415,,255,255,255 F,2,179415,180215,1,0 S,2,179415,180215,0.15,0.03
Sprite,Foreground,Centre,"sb\Circle.png",368,284 C,0,179565,,255,255,255 F,2,179565,180365,1,0 S,2,179565,180365,0.15,0.03
Sprite,Foreground,Centre,"sb\Circle.png",368,284 C,0,179640,,255,255,255 F,2,179640,180440,1,0 S,2,179640,180440,0.15,0.03
Sprite,Foreground,Centre,"sb\Circle.png",368,284 C,0,179715,,255,255,255 F,2,179715,180515,1,0 S,2,179715,180515,0.15,0.03
Sprite,Foreground,Centre,"sb\Circle.png",252,104 C,0,179865,,255,255,255 F,2,179865,180665,1,0 S,2,179865,180665,0.15,0.03
Sprite,Foreground,Centre,"sb\Circle.png",148,292 C,0,180015,,255,255,255 F,2,180015,180815,1,0 S,2,180015,180815,0.15,0.03
Sprite,Foreground,Centre,"sb\Circle.png",376,388 C,0,180165,,255,255,255 F,2,180165,181115,1,0 S,2,180165,181115,0.15,0.03
Sprite,Foreground,Centre,"sb\Circle.png",440,300 C,0,180465,,255,255,255 F,2,180465,181265,1,0 S,2,180465,181265,0.15,0.03
Sprite,Foreground,Centre,"sb\Circle.png",296,344 C,0,180615,,255,255,255 F,2,180615,181415,1,0 S,2,180615,181415,0.15,0.03
Sprite,Foreground,Centre,"sb\Circle.png",417,165 C,0,180765,,255,255,255 F,2,180765,181565,1,0 S,2,180765,181565,0.15,0.03
Sprite,Foreground,Centre,"sb\Circle.png",417,165 C,0,180840,,255,255,255 F,2,180840,181640,1,0 S,2,180840,181640,0.15,0.03
Sprite,Foreground,Centre,"sb\Circle.png",417,165 C,0,180915,,255,255,255 F,2,180915,181715,1,0 S,2,180915,181715,0.15,0.03
Sprite,Foreground,Centre,"sb\Circle.png",229,231 C,0,181065,,255,255,255 F,2,181065,181940,1,0 S,2,181065,181940,0.15,0.03
Sprite,Foreground,Centre,"sb\Circle.png",417,165 C,0,181215,,255,255,255 F,2,181215,182015,1,0 S,2,181215,182015,0.15,0.03
Sprite,Foreground,Centre,"sb\Circle.png",289,128 C,0,181365,,255,255,255 F,2,181365,182390,1,0 S,2,181365,182390,0.15,0.03
Sprite,Foreground,Centre,"sb\Circle.png",417,165 C,0,181665,,255,255,255 F,2,181665,182540,1,0 S,2,181665,182540,0.15,0.03
Sprite,Foreground,Centre,"sb\Circle.png",322,311 C,0,181815,,255,255,255 F,2,181815,182690,1,0 S,2,181815,182690,0.15,0.03
Sprite,Foreground,Centre,"sb\Circle.png",314,217 C,0,181965,,255,255,255 F,2,181965,182765,1,0 S,2,181965,182765,0.15,0.03
Sprite,Foreground,Centre,"sb\Circle.png",323,203 C,0,182040,,255,255,255 F,2,182040,182840,1,0 S,2,182040,182840,0.15,0.03
Sprite,Foreground,Centre,"sb\Circle.png",332,189 C,0,182115,,255,255,255 F,2,182115,182990,1,0 S,2,182115,182990,0.15,0.03
Sprite,Foreground,Centre,"sb\Circle.png",196,388 C,0,182265,,255,255,255 F,2,182265,183140,1,0 S,2,182265,183140,0.15,0.03
Sprite,Foreground,Centre,"sb\Circle.png",88,208 C,0,182415,,255,255,255 F,2,182415,183215,1,0 S,2,182415,183215,0.15,0.03
Sprite,Foreground,Centre,"sb\Circle.png",364,388 C,0,182565,,255,255,255 F,2,182565,183590,1,0 S,2,182565,183590,0.15,0.03
Sprite,Foreground,Centre,"sb\Circle.png",416,309 C,0,182865,,255,255,255 F,2,182865,183740,1,0 S,2,182865,183740,0.15,0.03
Sprite,Foreground,Centre,"sb\Circle.png",220,180 C,0,183015,,255,255,255 F,2,183015,183890,1,0 S,2,183015,183890,0.15,0.03
Sprite,Foreground,Centre,"sb\Circle.png",184,292 C,0,183165,,255,255,255 F,2,183165,183965,1,0 S,2,183165,183965,0.15,0.03
Sprite,Foreground,Centre,"sb\Circle.png",176,304 C,0,183240,,255,255,255 F,2,183240,184040,1,0 S,2,183240,184040,0.15,0.03
Sprite,Foreground,Centre,"sb\Circle.png",168,316 C,0,183315,,255,255,255 F,2,183315,184190,1,0 S,2,183315,184190,0.15,0.03
Sprite,Foreground,Centre,"sb\Circle.png",376,56 C,0,183465,,255,255,255 F,2,183465,184340,1,0 S,2,183465,184340,0.15,0.03
Sprite,Foreground,Centre,"sb\Circle.png",424,212 C,0,183615,,255,255,255 F,2,183615,184415,1,0 S,2,183615,184415,0.15,0.03
Sprite,Foreground,Centre,"sb\Circle.png",466,229 C,0,183690,,255,255,255 F,2,183690,184490,1,0 S,2,183690,184490,0.15,0.03
Sprite,Foreground,Centre,"sb\Circle.png",509,245 C,0,183765,,255,255,255 F,2,183765,184865,1,0 S,2,183765,184865,0.15,0.03
Sprite,Foreground,Centre,"sb\Circle.png",414,296 C,0,184215,,255,255,255 F,2,184215,185015,1,0 S,2,184215,185015,0.15,0.03
Sprite,Foreground,Centre,"sb\Circle.png",513,109 C,0,184365,,255,255,255 F,2,184365,185165,1,0 S,2,184365,185165,0.15,0.03
Sprite,Foreground,Centre,"sb\Circle.png",513,109 C,0,184440,,255,255,255 F,2,184440,185240,1,0 S,2,184440,185240,0.15,0.03
Sprite,Foreground,Centre,"sb\Circle.png",513,109 C,0,184515,,255,255,255 F,2,184515,185315,1,0 S,2,184515,185315,0.15,0.03
Sprite,Foreground,Centre,"sb\Circle.png",290,218 C,0,184665,,255,255,255 F,2,184665,185465,1,0 S,2,184665,185465,0.15,0.03
Sprite,Foreground,Centre,"sb\Circle.png",414,296 C,0,184815,,255,255,255 F,2,184815,185615,1,0 S,2,184815,185615,0.15,0.03
Sprite,Foreground,Centre,"sb\Circle.png",307,105 C,0,184965,,255,255,255 F,2,184965,185990,1,0 S,2,184965,185990,0.15,0.03
Sprite,Foreground,Centre,"sb\Circle.png",260,352 C,0,185265,,255,255,255 F,2,185265,186065,1,0 S,2,185265,186065,0.15,0.03
Sprite,Foreground,Centre,"sb\Circle.png",260,344 C,0,185340,,255,255,255 F,2,185340,186140,1,0 S,2,185340,186140,0.15,0.03
Sprite,Foreground,Centre,"sb\Circle.png",260,336 C,0,185415,,255,255,255 F,2,185415,186215,1,0 S,2,185415,186215,0.15,0.03
Sprite,Foreground,Centre,"sb\Circle.png",260,328 C,0,185490,,255,255,255 F,2,185490,186290,1,0 S,2,185490,186290,0.15,0.03
Sprite,Foreground,Centre,"sb\Circle.png",260,320 C,0,185565,,255,255,255 F,2,185565,186365,1,0 S,2,185565,186365,0.15,0.03
Sprite,Foreground,Centre,"sb\Circle.png",307,351 C,0,185640,,255,255,255 F,2,185640,186440,1,0 S,2,185640,186440,0.15,0.03
Sprite,Foreground,Centre,"sb\Circle.png",363,367 C,0,185715,,255,255,255 F,2,185715,186515,1,0 S,2,185715,186515,0.15,0.03
Sprite,Foreground,Centre,"sb\Circle.png",420,363 C,0,185790,,255,255,255 F,2,185790,186590,1,0 S,2,185790,186590,0.15,0.03
Sprite,Foreground,Centre,"sb\Circle.png",474,342 C,0,185865,,255,255,255 F,2,185865,186665,1,0 S,2,185865,186665,0.15,0.03
Sprite,Foreground,Centre,"sb\Circle.png",416,290 C,0,185940,,255,255,255 F,2,185940,186740,1,0 S,2,185940,186740,0.15,0.03
Sprite,Foreground,Centre,"sb\Circle.png",441,216 C,0,186015,,255,255,255 F,2,186015,186815,1,0 S,2,186015,186815,0.15,0.03
Sprite,Foreground,Centre,"sb\Circle.png",519,210 C,0,186090,,255,255,255 F,2,186090,186890,1,0 S,2,186090,186890,0.15,0.03
Sprite,Foreground,Centre,"sb\Circle.png",436,108 C,0,99765,,255,255,255 F,2,99765,100865,1,0 S,2,99765,100865,0.15,0.03
Sprite,Foreground,Centre,"sb\Circle.png",268,92 C,0,100215,,255,255,255 F,2,100215,101165,1,0 S,2,100215,101165,0.15,0.03
Sprite,Foreground,Centre,"sb\Circle.png",407,183 C,0,100515,,255,255,255 F,2,100515,101315,1,0 S,2,100515,101315,0.15,0.03
Sprite,Foreground,Centre,"sb\Circle.png",220,220 C,0,100665,,255,255,255 F,2,100665,101615,1,0 S,2,100665,101615,0.15,0.03
Sprite,Foreground,Centre,"sb\Circle.png",432,380 C,0,100965,,255,255,255 F,2,100965,102065,1,0 S,2,100965,102065,0.15,0.03
Sprite,Foreground,Centre,"sb\Circle.png",507,295 C,0,101415,,255,255,255 F,2,101415,102365,1,0 S,2,101415,102365,0.15,0.03
Sprite,Foreground,Centre,"sb\Circle.png",544,424 C,0,101715,,255,255,255 F,2,101715,102515,1,0 S,2,101715,102515,0.15,0.03
Sprite,Foreground,Centre,"sb\Circle.png",392,168 C,0,101865,,255,255,255 F,2,101865,102815,1,0 S,2,101865,102815,0.15,0.03
Sprite,Foreground,Centre,"sb\Circle.png",424,72 C,0,102165,,255,255,255 F,2,102165,103265,1,0 S,2,102165,103265,0.15,0.03
Sprite,Foreground,Centre,"sb\Circle.png",100,88 C,0,102615,,255,255,255 F,2,102615,103565,1,0 S,2,102615,103565,0.15,0.03
Sprite,Foreground,Centre,"sb\Circle.png",180,232 C,0,102915,,255,255,255 F,2,102915,103715,1,0 S,2,102915,103715,0.15,0.03
Sprite,Foreground,Centre,"sb\Circle.png",392,168 C,0,103065,,255,255,255 F,2,103065,104015,1,0 S,2,103065,104015,0.15,0.03
Sprite,Foreground,Centre,"sb\Circle.png",360,92 C,0,103365,,255,255,255 F,2,103365,104240,1,0 S,2,103365,104240,0.15,0.03
Sprite,Foreground,Centre,"sb\Circle.png",340,246 C,0,103515,,255,255,255 F,2,103515,104465,1,0 S,2,103515,104465,0.15,0.03
Sprite,Foreground,Centre,"sb\Circle.png",408,332 C,0,103815,,255,255,255 F,2,103815,104765,1,0 S,2,103815,104765,0.15,0.03
Sprite,Foreground,Centre,"sb\Circle.png",336,404 C,0,104115,,255,255,255 F,2,104115,104915,1,0 S,2,104115,104915,0.15,0.03
Sprite,Foreground,Centre,"sb\Circle.png",240,176 C,0,104265,,255,255,255 F,2,104265,105140,1,0 S,2,104265,105140,0.15,0.03
Sprite,Foreground,Centre,"sb\Circle.png",328,424 C,0,104415,,255,255,255 F,2,104415,105215,1,0 S,2,104415,105215,0.15,0.03
Sprite,Foreground,Centre,"sb\Circle.png",328,120 C,0,104565,,255,255,255 F,2,104565,105665,1,0 S,2,104565,105665,0.15,0.03
Sprite,Foreground,Centre,"sb\Circle.png",245,334 C,0,105015,,255,255,255 F,2,105015,105965,1,0 S,2,105015,105965,0.15,0.03
Sprite,Foreground,Centre,"sb\Circle.png",144,404 C,0,105315,,255,255,255 F,2,105315,106115,1,0 S,2,105315,106115,0.15,0.03
Sprite,Foreground,Centre,"sb\Circle.png",384,336 C,0,105465,,255,255,255 F,2,105465,106415,1,0 S,2,105465,106415,0.15,0.03
Sprite,Foreground,Centre,"sb\Circle.png",320,384 C,0,105765,,255,255,255 F,2,105765,106865,1,0 S,2,105765,106865,0.15,0.03
Sprite,Foreground,Centre,"sb\Circle.png",514,420 C,0,106215,,255,255,255 F,2,106215,107165,1,0 S,2,106215,107165,0.15,0.03
Sprite,Foreground,Centre,"sb\Circle.png",303,137 C,0,106515,,255,255,255 F,2,106515,107315,1,0 S,2,106515,107315,0.15,0.03
Sprite,Foreground,Centre,"sb\Circle.png",465,336 C,0,106665,,255,255,255 F,2,106665,107615,1,0 S,2,106665,107615,0.15,0.03
Sprite,Foreground,Centre,"sb\Circle.png",140,128 C,0,106965,,255,255,255 F,2,106965,108065,1,0 S,2,106965,108065,0.15,0.03
Sprite,Foreground,Centre,"sb\Circle.png",303,137 C,0,107415,,255,255,255 F,2,107415,108215,1,0 S,2,107415,108215,0.15,0.03
Sprite,Foreground,Centre,"sb\Circle.png",546,91 C,0,107565,,255,255,255 F,2,107565,108365,1,0 S,2,107565,108365,0.15,0.03
Sprite,Foreground,Centre,"sb\Circle.png",298,120 C,0,107715,,255,255,255 F,2,107715,108515,1,0 S,2,107715,108515,0.15,0.03
Sprite,Foreground,Centre,"sb\Circle.png",546,112 C,0,107865,,255,255,255 F,2,107865,108665,1,0 S,2,107865,108665,0.15,0.03
Sprite,Foreground,Centre,"sb\Circle.png",416,84 C,0,108015,,255,255,255 F,2,108015,108815,1,0 S,2,108015,108815,0.15,0.03
Sprite,Foreground,Centre,"sb\Circle.png",547,293 C,0,108165,,255,255,255 F,2,108165,109265,1,0 S,2,108165,109265,0.15,0.03
Sprite,Foreground,Centre,"sb\Circle.png",360,396 C,0,108540,,255,255,255 F,2,108540,109340,1,0 S,2,108540,109340,0.15,0.03
Sprite,Foreground,Centre,"sb\Circle.png",360,396 C,0,108615,,255,255,255 F,2,108615,109490,1,0 S,2,108615,109490,0.15,0.03
Sprite,Foreground,Centre,"sb\Circle.png",170,273 C,0,108765,,255,255,255 F,2,108765,109865,1,0 S,2,108765,109865,0.15,0.03
Sprite,Foreground,Centre,"sb\Circle.png",159,168 C,0,109140,,255,255,255 F,2,109140,109940,1,0 S,2,109140,109940,0.15,0.03
Sprite,Foreground,Centre,"sb\Circle.png",159,168 C,0,109215,,255,255,255 F,2,109215,110090,1,0 S,2,109215,110090,0.15,0.03
Sprite,Foreground,Centre,"sb\Circle.png",452,60 C,0,109365,,255,255,255 F,2,109365,110465,1,0 S,2,109365,110465,0.15,0.03
Sprite,Foreground,Centre,"sb\Circle.png",400,280 C,0,109815,,255,255,255 F,2,109815,110765,1,0 S,2,109815,110765,0.15,0.03
Sprite,Foreground,Centre,"sb\Circle.png",564,240 C,0,110115,,255,255,255 F,2,110115,110915,1,0 S,2,110115,110915,0.15,0.03
Sprite,Foreground,Centre,"sb\Circle.png",336,140 C,0,110265,,255,255,255 F,2,110265,111215,1,0 S,2,110265,111215,0.15,0.03
Sprite,Foreground,Centre,"sb\Circle.png",68,320 C,0,110565,,255,255,255 F,2,110565,111665,1,0 S,2,110565,111665,0.15,0.03
Sprite,Foreground,Centre,"sb\Circle.png",300,309 C,0,111015,,255,255,255 F,2,111015,111965,1,0 S,2,111015,111965,0.15,0.03
Sprite,Foreground,Centre,"sb\Circle.png",321,232 C,0,111315,,255,255,255 F,2,111315,112115,1,0 S,2,111315,112115,0.15,0.03
Sprite,Foreground,Centre,"sb\Circle.png",492,336 C,0,111465,,255,255,255 F,2,111465,112415,1,0 S,2,111465,112415,0.15,0.03
Sprite,Foreground,Centre,"sb\Circle.png",401,340 C,0,111765,,255,255,255 F,2,111765,112865,1,0 S,2,111765,112865,0.15,0.03
Sprite,Foreground,Centre,"sb\Circle.png",331,171 C,0,112215,,255,255,255 F,2,112215,113165,1,0 S,2,112215,113165,0.15,0.03
Sprite,Foreground,Centre,"sb\Circle.png",257,90 C,0,112515,,255,255,255 F,2,112515,113315,1,0 S,2,112515,113315,0.15,0.03
Sprite,Foreground,Centre,"sb\Circle.png",211,333 C,0,112665,,255,255,255 F,2,112665,113615,1,0 S,2,112665,113615,0.15,0.03
Sprite,Foreground,Centre,"sb\Circle.png",288,280 C,0,112965,,255,255,255 F,2,112965,113840,1,0 S,2,112965,113840,0.15,0.03
Sprite,Foreground,Centre,"sb\Circle.png",162,247 C,0,113115,,255,255,255 F,2,113115,114065,1,0 S,2,113115,114065,0.15,0.03
Sprite,Foreground,Centre,"sb\Circle.png",576,184 C,0,113415,,255,255,255 F,2,113415,114365,1,0 S,2,113415,114365,0.15,0.03
Sprite,Foreground,Centre,"sb\Circle.png",72,312 C,0,113715,,255,255,255 F,2,113715,114665,1,0 S,2,113715,114665,0.15,0.03
Sprite,Foreground,Centre,"sb\Circle.png",380,248 C,0,114015,,255,255,255 F,2,114015,114890,1,0 S,2,114015,114890,0.15,0.03
Sprite,Foreground,Centre,"sb\Circle.png",280,212 C,0,114165,,255,255,255 F,2,114165,115265,1,0 S,2,114165,115265,0.15,0.03
Sprite,Foreground,Centre,"sb\Circle.png",291,139 C,0,114615,,255,255,255 F,2,114615,115565,1,0 S,2,114615,115565,0.15,0.03
Sprite,Foreground,Centre,"sb\Circle.png",380,248 C,0,114915,,255,255,255 F,2,114915,115715,1,0 S,2,114915,115715,0.15,0.03
Sprite,Foreground,Centre,"sb\Circle.png",576,82 C,0,115065,,255,255,255 F,2,115065,116015,1,0 S,2,115065,116015,0.15,0.03
Sprite,Foreground,Centre,"sb\Circle.png",364,396 C,0,115365,,255,255,255 F,2,115365,116465,1,0 S,2,115365,116465,0.15,0.03
Sprite,Foreground,Centre,"sb\Circle.png",380,248 C,0,115815,,255,255,255 F,2,115815,116765,1,0 S,2,115815,116765,0.15,0.03
Sprite,Foreground,Centre,"sb\Circle.png",504,168 C,0,116115,,255,255,255 F,2,116115,116915,1,0 S,2,116115,116915,0.15,0.03
Sprite,Foreground,Centre,"sb\Circle.png",291,375 C,0,116265,,255,255,255 F,2,116265,117215,1,0 S,2,116265,117215,0.15,0.03
Sprite,Foreground,Centre,"sb\Circle.png",254,167 C,0,116565,,255,255,255 F,2,116565,117665,1,0 S,2,116565,117665,0.15,0.03
Sprite,Foreground,Centre,"sb\Circle.png",356,84 C,0,117015,,255,255,255 F,2,117015,117815,1,0 S,2,117015,117815,0.15,0.03
Sprite,Foreground,Centre,"sb\Circle.png",448,312 C,0,117165,,255,255,255 F,2,117165,117965,1,0 S,2,117165,117965,0.15,0.03
Sprite,Foreground,Centre,"sb\Circle.png",254,167 C,0,117315,,255,255,255 F,2,117315,118115,1,0 S,2,117315,118115,0.15,0.03
Sprite,Foreground,Centre,"sb\Circle.png",490,94 C,0,117465,,255,255,255 F,2,117465,118265,1,0 S,2,117465,118265,0.15,0.03
Sprite,Foreground,Centre,"sb\Circle.png",445,337 C,0,117615,,255,255,255 F,2,117615,118415,1,0 S,2,117615,118415,0.15,0.03
Sprite,Foreground,Centre,"sb\Circle.png",360,161 C,0,117765,,255,255,255 F,2,117765,118790,1,0 S,2,117765,118790,0.15,0.03
Sprite,Foreground,Centre,"sb\Circle.png",120,192 C,0,118065,,255,255,255 F,2,118065,118865,1,0 S,2,118065,118865,0.15,0.03
Sprite,Foreground,Centre,"sb\Circle.png",119,233 C,0,118140,,255,255,255 F,2,118140,118940,1,0 S,2,118140,118940,0.15,0.03
Sprite,Foreground,Centre,"sb\Circle.png",119,274 C,0,118215,,255,255,255 F,2,118215,119015,1,0 S,2,118215,119015,0.15,0.03
Sprite,Foreground,Centre,"sb\Circle.png",119,315 C,0,118290,,255,255,255 F,2,118290,119090,1,0 S,2,118290,119090,0.15,0.03
Sprite,Foreground,Centre,"sb\Circle.png",118,356 C,0,118365,,255,255,255 F,2,118365,119240,1,0 S,2,118365,119240,0.15,0.03
Sprite,Foreground,Centre,"sb\Circle.png",269,398 C,0,118515,,255,255,255 F,2,118515,119390,1,0 S,2,118515,119390,0.15,0.03
Sprite,Foreground,Centre,"sb\Circle.png",389,310 C,0,118665,,255,255,255 F,2,118665,119465,1,0 S,2,118665,119465,0.15,0.03
Sprite,Foreground,Centre,"sb\Circle.png",353,275 C,0,118740,,255,255,255 F,2,118740,119540,1,0 S,2,118740,119540,0.15,0.03
Sprite,Foreground,Centre,"sb\Circle.png",340,228 C,0,118815,,255,255,255 F,2,118815,119615,1,0 S,2,118815,119615,0.15,0.03
Sprite,Foreground,Centre,"sb\Circle.png",353,181 C,0,118890,,255,255,255 F,2,118890,119690,1,0 S,2,118890,119690,0.15,0.03
Sprite,Foreground,Centre,"sb\Circle.png",388,147 C,0,118965,,255,255,255 F,2,118965,119765,1,0 S,2,118965,119765,0.15,0.03
Sprite,Foreground,Centre,"sb\Circle.png",435,134 C,0,119040,,255,255,255 F,2,119040,119840,1,0 S,2,119040,119840,0.15,0.03
Sprite,Foreground,Centre,"sb\Circle.png",482,148 C,0,119115,,255,255,255 F,2,119115,119990,1,0 S,2,119115,119990,0.15,0.03
Sprite,Foreground,Centre,"sb\Circle.png",545,338 C,0,119265,,255,255,255 F,2,119265,120065,1,0 S,2,119265,120065,0.15,0.03
Sprite,Foreground,Centre,"sb\Circle.png",545,338 C,0,119340,,255,255,255 F,2,119340,120140,1,0 S,2,119340,120140,0.15,0.03
Sprite,Foreground,Centre,"sb\Circle.png",545,338 C,0,119415,,255,255,255 F,2,119415,120215,1,0 S,2,119415,120215,0.15,0.03
Sprite,Foreground,Centre,"sb\Circle.png",308,336 C,0,119565,,255,255,255 F,2,119565,120365,1,0 S,2,119565,120365,0.15,0.03
Sprite,Foreground,Centre,"sb\Circle.png",127,183 C,0,119715,,255,255,255 F,2,119715,120515,1,0 S,2,119715,120515,0.15,0.03
Sprite,Foreground,Centre,"sb\Circle.png",419,149 C,0,119865,,255,255,255 F,2,119865,120665,1,0 S,2,119865,120665,0.15,0.03
Sprite,Foreground,Centre,"sb\Circle.png",160,360 C,0,120015,,255,255,255 F,2,120015,120815,1,0 S,2,120015,120815,0.15,0.03
//Storyboard Sound Samples

[TimingPoints]
7515,300,4,2,2,50,1,0
18165,-80,4,2,1,50,0,0
18315,-100,4,2,1,50,0,0
19365,-100,4,2,2,50,0,0
19665,-133.333333333333,4,1,1,50,0,0
21765,-100,4,2,1,50,0,0
22065,-133.333333333333,4,1,1,50,0,0
24165,-100,4,2,1,50,0,0
24465,-133.333333333333,4,1,1,50,0,0
26565,-100,4,2,1,50,0,0
26865,-133.333333333333,4,1,1,50,0,0
29415,-133.333333333333,4,2,1,30,0,0
30915,-133.333333333333,4,2,1,50,0,0
50715,-133.333333333333,4,2,2,50,0,0
51015,-100,4,2,1,25,0,0
51615,-100,4,2,1,35,0,0
52815,-100,4,2,1,25,0,0
53115,-100,4,1,1,50,0,0
55365,-66.6666666666667,4,2,2,50,0,1
68715,-66.6666666666667,4,2,1,50,0,1
69015,-50,4,2,1,50,0,1
69765,-66.6666666666667,4,2,2,50,0,1
73665,-66.6666666666667,4,2,1,50,0,1
75915,-66.6666666666667,4,2,1,50,0,0
95115,-66.6666666666667,4,2,2,50,0,0
95415,-100,4,2,1,25,0,0
96015,-100,4,2,1,35,0,0
97215,-100,4,2,1,25,0,0
97515,-100,4,2,2,50,0,0
97815,-100,4,1,1,50,0,0
99765,-66.6666666666667,4,2,2,50,0,1
113415,-50,4,2,1,50,0,1
114165,-66.6666666666667,4,2,2,50,0,1
119415,-66.6666666666667,4,2,2,50,0,1
120165,-66.6666666666667,4,2,1,50,0,0
120465,-66.6666666666667,4,2,1,50,0,0
120615,-66.6666666666667,4,2,1,30,0,0
121665,-133.333333333333,4,2,1,50,0,0
122565,-100,4,1,1,50,0,0
123915,-133.333333333333,4,1,1,50,0,0
124215,-133.333333333333,4,2,1,50,0,0
124440,-100,4,2,1,50,0,0
126615,-133.333333333333,4,2,1,50,0,0
126840,-100,4,2,1,50,0,0
129015,-133.333333333333,4,2,1,50,0,0
129240,-100,4,2,1,50,0,0
132315,-133.333333333333,4,2,1,50,0,0
149115,-333.333333333333,4,2,2,50,0,0
149190,-333.333333333333,4,2,1,5,0,0
151515,-333.333333333333,4,2,2,50,0,0
153915,-100,4,2,1,50,0,0
154965,-100,4,1,1,50,0,0
156165,-66.6666666666667,4,2,2,50,0,1
160965,-57.1428571428571,4,2,2,50,0,1
161265,-66.6666666666667,4,2,2,50,0,1
163215,-66.6666666666667,4,2,1,50,0,1
163365,-66.6666666666667,4,2,2,50,0,1
169365,-66.6666666666667,4,2,1,50,0,1
170565,-66.6666666666667,4,2,2,50,0,1
174165,-66.6666666666667,4,2,2,50,0,0
175215,-66.6666666666667,4,2,1,50,0,0
176565,-66.6666666666667,4,2,2,50,0,1
176865,-66.6666666666667,4,2,1,50,0,1
177765,-66.6666666666667,4,2,2,50,0,1
178065,-66.6666666666667,4,2,1,50,0,1
178965,-66.6666666666667,4,2,2,50,0,1
181665,-66.6666666666667,4,2,1,50,0,1
182565,-66.6666666666667,4,2,2,50,0,1
182865,-66.6666666666667,4,2,1,50,0,1
183765,-66.6666666666667,4,2,2,50,0,1
186165,-66.6666666666667,4,2,2,50,0,0
188565,-66.6666666666667,4,2,1,50,0,0
188715,-66.6666666666667,4,2,2,50,0,0
191115,-66.6666666666667,4,2,1,50,0,0
193365,-66.6666666666667,4,2,2,50,0,0
194415,-66.6666666666667,4,2,1,50,0,0
195765,-666.666666666667,4,2,1,50,0,0
196290,-666.666666666667,4,2,1,25,0,0

[Colours]
Combo1 : 10,113,226
Combo2 : 53,238,132
Combo3 : 255,0,0
Combo4 : 18,240,240

[HitObjects]
92,352,7365,37,4,0:0:0:0:
2,302,7665,1,0,0:0:0:0:
39,262,7740,1,0,0:0:0:0:
92,249,7815,1,0,0:0:0:0:
144,265,7890,1,0,0:0:0:0:
180,306,7965,2,0,P|208:308|244:304,1,55,0|0,0:0|0:0,0:0:0:0:
262,226,8115,5,0,0:0:0:0:
317,254,8190,1,0,0:0:0:0:
379,249,8265,1,0,0:0:0:0:
430,213,8340,1,0,0:0:0:0:
455,156,8415,1,0,0:0:0:0:
447,94,8490,1,0,0:0:0:0:
408,45,8565,2,0,L|416:-8,3,55,0|0|0|0,0:0|0:0|0:0|0:0,0:0:0:0:
340,136,8865,2,0,L|332:82,3,55,0|0|0|0,0:0|0:0|0:0|0:0,0:0:0:0:
260,24,9165,2,0,L|252:80,1,55,0|0,0:0|0:0,0:0:0:0:
228,176,9315,37,8,0:0:0:0:
408,45,9465,1,8,0:0:0:0:
340,136,9765,6,0,P|344:208|284:280,1,165,4|0,0:0|0:0,0:0:0:0:
252,284,10065,2,0,L|176:280,1,55,12|8,0:0|0:0,0:0:0:0:
92,192,10215,1,12,0:0:0:0:
360,352,10365,1,0,0:0:0:0:
360,352,10440,1,0,0:0:0:0:
360,352,10515,2,0,L|284:348,1,55,12|8,0:0|0:0,0:0:0:0:
80,204,10665,1,12,0:0:0:0:
276,72,10965,38,0,P|364:76|428:120,1,165,4|0,0:0|0:0,0:0:0:0:
424,152,11265,2,0,P|394:159|362:155,1,55,12|8,0:0|0:0,0:0:0:0:
212,36,11415,1,12,0:0:0:0:
484,228,11565,1,0,0:0:0:0:
484,228,11640,1,0,0:0:0:0:
484,228,11715,2,0,P|454:235|422:231,1,55,12|8,0:0|0:0,0:0:0:0:
200,48,11865,1,12,0:0:0:0:
176,200,12015,1,0,0:0:0:0:
52,292,12165,6,0,P|67:246|32:161,1,110,4|0,0:0|0:0,0:0:0:0:
160,312,12465,1,0,0:0:0:0:
264,352,12615,2,0,P|324:360|384:348,1,110,8|0,0:0|0:0,0:0:0:0:
470,227,12915,1,8,0:0:0:0:
348,127,13065,1,0,0:0:0:0:
247,251,13215,1,8,0:0:0:0:
440,124,13365,38,0,B|432:56|356:24,1,110,4|0,0:0|0:0,0:0:0:0:
164,96,13665,1,0,0:0:0:0:
300,192,13815,1,8,0:0:0:0:
276,84,13965,1,8,0:0:0:0:
276,84,14040,1,8,0:0:0:0:
276,84,14115,1,8,0:0:0:0:
128,244,14265,1,8,0:0:0:0:
344,280,14415,1,8,0:0:0:0:
104,12,14565,6,0,B|53:27|31:69|31:69|71:100|71:100|28:121|12:196,1,220,4|12,0:0|0:0,0:0:0:0:
228,308,15015,1,12,0:0:0:0:
344,280,15165,1,8,0:0:0:0:
344,280,15240,1,8,0:0:0:0:
344,280,15315,1,8,0:0:0:0:
152,80,15465,1,4,0:0:0:0:
116,184,15615,1,4,0:0:0:0:
380,76,15765,38,0,P|321:67|231:127,1,165,0|0,0:0|0:0,0:0:0:0:
228,160,16065,2,0,L|292:156,1,55,12|8,0:0|0:0,0:0:0:0:
152,80,16215,1,12,0:0:0:0:
192,264,16365,1,0,0:0:0:0:
192,264,16440,1,0,0:0:0:0:
192,264,16515,2,0,L|256:260,1,55,12|12,0:0|0:0,0:0:0:0:
116,184,16665,1,12,0:0:0:0:
20,344,16815,1,0,0:0:0:0:
20,344,16890,1,0,0:0:0:0:
20,344,16965,6,0,B|76:356|136:344,1,110,4|0,0:0|0:0,0:0:0:0:
272,204,17265,1,0,0:0:0:0:
113,78,17415,2,0,P|101:138|125:198,1,110,8|0,0:0|0:0,0:0:0:0:
192,248,17715,1,8,0:0:0:0:
196,128,17865,1,0,0:0:0:0:
80,280,18015,1,8,0:0:0:0:
292,340,18165,38,0,B|368:320|400:252,1,137.5,4|0,0:0|0:0,0:0:0:0:
360,52,18465,1,8,0:0:0:0:
315,146,18615,2,0,P|370:151|424:140,1,110,8|8,0:0|0:0,0:0:0:0:
436,128,18840,1,8,0:0:0:0:
444,116,18915,1,8,0:0:0:0:
253,61,19065,1,8,0:0:0:0:
241,79,19140,1,8,0:0:0:0:
229,97,19215,1,0,0:0:0:0:
287,304,19365,6,0,B|328:312|367:292|367:292|387:296|387:296|416:284|448:287,1,165,4|0,0:0|0:0,0:0:0:0:
311,224,19665,2,0,P|323:180|303:128,2,82.5000031471254,0|0|0,0:0|0:0|0:0,0:0:0:0:
287,304,20115,1,8,0:0:0:0:
287,304,20415,1,0,0:0:0:0:
204,292,20565,1,0,0:0:0:0:
124,276,20715,1,0,0:0:0:0:
116,292,21015,1,8,0:0:0:0:
108,308,21315,1,8,0:0:0:0:
20,320,21615,1,8,0:0:0:0:
192,176,21765,38,0,B|236:156|280:164|280:164|324:172|376:136,1,165,4|0,0:0|0:0,0:0:0:0:
301,92,22065,2,0,P|257:89|211:94,2,82.5000031471254,0|0|0,0:0|0:0|0:0,0:0:0:0:
376,228,22515,1,8,0:0:0:0:
352,150,22815,1,0,0:0:0:0:
376,228,22965,1,0,0:0:0:0:
400,308,23115,1,0,0:0:0:0:
416,300,23415,1,0,0:0:0:0:
432,292,23715,1,8,0:0:0:0:
456,212,23865,1,8,0:0:0:0:
420,136,24015,1,8,0:0:0:0:
306,303,24165,6,0,B|270:291|226:299|226:299|182:291|142:303,1,165,12|0,0:0|0:0,0:0:0:0:
80,360,24465,2,0,P|32:368|-4:360,2,82.5000031471254,0|0|0,0:0|0:0|0:0,0:0:0:0:
128,224,24915,1,8,0:0:0:0:
143,303,25215,1,0,0:0:0:0:
128,224,25365,1,0,0:0:0:0:
112,144,25515,1,0,0:0:0:0:
100,152,25815,1,0,0:0:0:0:
88,160,26115,1,8,0:0:0:0:
56,236,26415,1,8,0:0:0:0:
268,180,26565,38,0,B|308:183|349:172|349:172|356:176|356:176|391:168|435:168,1,165,12|0,0:0|0:0,0:0:0:0:
484,220,26865,2,0,P|491:268|471:319,2,82.5000031471254,0|0|0,0:0|0:0|0:0,0:0:0:0:
348,152,27315,1,8,0:0:0:0:
430,168,27615,1,0,0:0:0:0:
348,152,27765,1,0,0:0:0:0:
268,136,27915,1,0,0:0:0:0:
272,152,28215,1,0,0:0:0:0:
276,168,28515,1,8,0:0:0:0:
200,200,28815,1,8,0:0:0:0:
344,68,28965,5,12,0:0:0:0:
264,48,29415,1,2,0:0:0:0:
344,68,29565,1,2,0:0:0:0:
424,48,29715,2,0,P|414:110|326:150,1,165.000006294251,6|2,0:0|0:0,0:0:0:0:
248,132,30165,2,0,P|200:128|144:136,1,82.5000031471254,6|2,0:0|0:0,0:0:0:0:
96,176,30465,2,0,P|54:179|13:175,1,82.5000031471254,6|2,0:0|0:0,0:0:0:0:
84,264,30915,37,0,0:0:0:0:
129,264,30990,1,0,0:0:0:0:
170,237,31065,1,0,0:0:0:0:
187,194,31140,1,0,0:0:0:0:
174,146,31215,1,0,0:0:0:0:
159,98,31290,1,0,0:0:0:0:
177,53,31365,1,0,0:0:0:0:
219,26,31440,1,0,0:0:0:0:
267,31,31515,5,4,0:0:0:0:
346,107,31665,1,0,0:0:0:0:
274,191,31815,1,0,0:0:0:0:
354,267,31965,1,0,0:0:0:0:
276,344,32115,1,2,0:0:0:0:
470,251,32415,37,0,0:0:0:0:
462,283,32565,1,0,0:0:0:0:
454,315,32715,1,2,0:0:0:0:
260,280,33015,5,0,0:0:0:0:
268,312,33165,1,0,0:0:0:0:
276,344,33315,1,2,0:0:0:0:
168,348,33915,37,2,0:0:0:0:
84,276,34065,1,0,0:0:0:0:
164,200,34215,1,0,0:0:0:0:
84,124,34365,1,0,0:0:0:0:
152,36,34515,1,2,0:0:0:0:
356,116,34815,5,0,0:0:0:0:
324,124,34965,1,0,0:0:0:0:
292,132,35115,1,2,0:0:0:0:
164,200,35415,37,0,0:0:0:0:
196,208,35565,1,0,0:0:0:0:
228,216,35715,1,2,0:0:0:0:
456,348,36315,5,6,0:0:0:0:
372,276,36465,1,0,0:0:0:0:
452,200,36615,1,0,0:0:0:0:
372,124,36765,1,0,0:0:0:0:
440,36,36915,1,2,0:0:0:0:
260,120,37215,37,0,0:0:0:0:
252,88,37365,1,0,0:0:0:0:
244,56,37515,1,2,0:0:0:0:
120,236,37815,5,0,0:0:0:0:
128,204,37965,1,0,0:0:0:0:
136,172,38115,1,2,0:0:0:0:
280,340,38715,37,2,0:0:0:0:
328,264,38865,1,0,0:0:0:0:
276,196,39015,1,0,0:0:0:0:
332,128,39165,1,0,0:0:0:0:
272,64,39315,1,2,0:0:0:0:
424,96,39615,5,0,0:0:0:0:
428,84,39765,1,0,0:0:0:0:
432,72,39915,1,2,0:0:0:0:
392,184,40065,1,0,0:0:0:0:
276,196,40215,5,0,0:0:0:0:
272,184,40365,1,0,0:0:0:0:
268,172,40515,1,2,0:0:0:0:
264,160,40665,1,0,0:0:0:0:
262,148,40815,1,0,0:0:0:0:
261,136,40965,1,0,0:0:0:0:
84,32,41115,37,6,0:0:0:0:
148,124,41265,1,0,0:0:0:0:
76,208,41415,1,0,0:0:0:0:
148,292,41565,1,0,0:0:0:0:
68,368,41715,1,2,0:0:0:0:
260,316,42015,5,0,0:0:0:0:
268,284,42165,1,0,0:0:0:0:
276,252,42315,1,2,0:0:0:0:
164,188,42615,37,0,0:0:0:0:
156,156,42765,1,0,0:0:0:0:
148,124,42915,1,2,0:0:0:0:
296,32,43515,5,2,0:0:0:0:
352,100,43665,1,0,0:0:0:0:
280,184,43815,1,0,0:0:0:0:
364,256,43965,1,0,0:0:0:0:
284,332,44115,1,2,0:0:0:0:
460,304,44415,37,0,0:0:0:0:
464,272,44565,1,0,0:0:0:0:
468,240,44715,1,2,0:0:0:0:
284,332,45015,5,0,0:0:0:0:
280,300,45165,1,0,0:0:0:0:
276,268,45315,1,2,0:0:0:0:
88,24,45915,37,6,0:0:0:0:
160,108,46065,1,0,0:0:0:0:
88,192,46215,1,0,0:0:0:0:
164,268,46365,1,0,0:0:0:0:
80,336,46515,1,2,0:0:0:0:
276,312,46815,5,0,0:0:0:0:
272,280,46965,1,0,0:0:0:0:
268,248,47115,1,2,0:0:0:0:
364,192,47415,37,0,0:0:0:0:
368,160,47565,1,0,0:0:0:0:
372,128,47715,1,2,0:0:0:0:
204,32,48315,5,2,0:0:0:0:
252,104,48465,1,0,0:0:0:0:
192,168,48615,1,0,0:0:0:0:
252,232,48765,1,0,0:0:0:0:
192,296,48915,1,2,0:0:0:0:
332,272,49215,37,0,0:0:0:0:
336,260,49365,1,0,0:0:0:0:
340,248,49515,1,2,0:0:0:0:
411,141,49665,1,0,0:0:0:0:
344,32,49815,5,0,0:0:0:0:
340,20,49965,1,0,0:0:0:0:
336,8,50115,1,2,0:0:0:0:
336,8,50715,37,6,0:0:0:0:
240,64,51015,5,2,0:0:0:0:
240,64,51165,1,2,0:0:0:0:
240,64,51315,1,2,0:0:0:0:
136,32,51615,37,2,0:0:0:0:
136,32,51765,1,2,0:0:0:0:
136,32,51915,1,2,0:0:0:0:
152,140,52215,5,2,0:0:0:0:
152,140,52365,1,2,0:0:0:0:
152,140,52515,1,2,0:0:0:0:
200,200,52665,1,2,0:0:0:0:
148,256,52815,1,2,0:0:0:0:
196,316,52965,1,2,0:0:0:0:
136,364,53115,1,12,0:0:0:0:
266,347,53415,37,2,0:0:0:0:
344,340,53565,1,2,0:0:0:0:
420,328,53715,1,6,0:0:0:0:
288,248,54015,5,2,0:0:0:0:
210,241,54165,1,0,0:0:0:0:
207,251,54240,1,0,0:0:0:0:
204,262,54315,1,0,0:0:0:0:
202,273,54390,1,0,0:0:0:0:
199,283,54465,1,0,0:0:0:0:
197,294,54540,1,0,0:0:0:0:
194,305,54615,1,0,0:0:0:0:
192,315,54690,1,0,0:0:0:0:
189,326,54765,1,0,0:0:0:0:
187,337,54840,1,0,0:0:0:0:
184,348,54915,5,8,0:0:0:0:
28,192,55065,1,8,0:0:0:0:
344,272,55365,38,0,P|368:188|185:120,1,330.000012588501,6|0,0:0|0:0,0:0:0:0:
110,204,55815,2,0,P|185:232|259:200,1,165.000006294251,0|0,0:0|0:0,0:0:0:0:
184,120,56115,1,0,0:0:0:0:
240,344,56265,2,0,B|276:344|276:344|291:339|291:339|348:360|405:336,1,165.000006294251,0|0,0:0|0:0,0:0:0:0:
352,180,56565,6,0,P|344:88|520:128,1,330.000012588501,6|0,0:0|0:0,0:0:0:0:
395,248,57015,2,0,P|321:257|272:191,1,165.000006294251,0|0,0:0|0:0,0:0:0:0:
427,129,57315,1,0,0:0:0:0:
276,324,57465,2,0,B|240:312|196:324|196:324|188:312|188:312|140:332|100:316,1,165.000006294251,0|0,0:0|0:0,0:0:0:0:
44,184,57765,38,0,P|116:244|196:84,1,330.000012588501,6|0,0:0|0:0,0:0:0:0:
32,292,58215,2,0,P|123:326|203:308,1,165.000006294251
131,152,58515,1,0,0:0:0:0:
292,248,58665,2,0,B|304:215|304:215|288:203|288:203|308:147|280:80,1,165.000006294251,0|0,0:0|0:0,0:0:0:0:
102,235,58965,6,0,P|146:235|194:215,1,82.5000031471254
140,15,59115,2,0,P|96:91|152:162,1,165.000006294251,4|0,0:0|0:0,0:0:0:0:
372,299,59415,2,0,P|300:343|209:295,1,165.000006294251,0|0,0:0|0:0,0:0:0:0:
375,186,59715,1,0,0:0:0:0:
130,151,59865,1,0,0:0:0:0:
389,165,60015,1,0,0:0:0:0:
130,247,60165,38,0,P|40:184|162:61,1,330.000012588501,6|0,0:0|0:0,0:0:0:0:
207,306,60615,2,0,P|128:342|50:298,1,165.000006294251
256,157,60915,1,0,0:0:0:0:
480,264,61065,2,0,B|455:268|427:256|427:256|411:260|411:260|367:248|313:258,1,165.000006294251,0|0,0:0|0:0,0:0:0:0:
460,12,61365,6,0,P|516:72|360:132,1,330.000012588501,6|0,0:0|0:0,0:0:0:0:
436,93,61815,2,0,P|434:177|368:218,1,165.000006294251,0|0,0:0|0:0,0:0:0:0:
359,131,62115,1,0,0:0:0:0:
478,347,62265,2,0,B|441:333|398:345|398:345|385:335|385:335|350:346|307:336,1,165.000006294251,0|0,0:0|0:0,0:0:0:0:
163,215,62565,38,0,P|223:153|58:145,1,330.000012588501,6|0,0:0|0:0,0:0:0:0:
142,134,63015,1,0,0:0:0:0:
444,48,63165,1,0,0:0:0:0:
137,115,63315,1,0,0:0:0:0:
447,74,63465,1,0,0:0:0:0:
303,152,63615,1,0,0:0:0:0:
328,60,63765,6,0,P|397:153|229:213,1,330.000012588501,6|0,0:0|0:0,0:0:0:0:
203,207,64140,1,0,0:0:0:0:
156,223,64215,2,0,P|110:229|70:219,1,82.5000031471254,0|0,0:0|0:0,0:0:0:0:
204,92,64365,2,0,P|144:154|100:-2,1,330.000012588501,2|0,0:0|0:0,0:0:0:0:
157,33,64740,1,0,0:0:0:0:
204,92,64815,2,0,P|248:97|290:91,1,82.5000031471254,0|0,0:0|0:0,0:0:0:0:
508,192,64965,38,0,P|417:161|470:312,1,330.000012588501,6|0,0:0|0:0,0:0:0:0:
366,74,65415,2,0,P|326:85|200:90,1,165.000006294251,0|0,0:0|0:0,0:0:0:0:
84,12,65715,1,0,0:0:0:0:
440,236,65865,2,0,B|418:237|394:226|394:226|377:235|377:235|325:220|260:236,1,165.000006294251,0|0,0:0|0:0,0:0:0:0:
48,328,66165,6,0,P|132:356|84:212,1,330.000012588501,6|0,0:0|0:0,0:0:0:0:
252,352,66615,2,0,P|336:360|424:348,1,165.000006294251,0|0,0:0|0:0,0:0:0:0:
263,149,66915,1,0,0:0:0:0:
440,236,67065,2,0,B|432:196|448:164|448:164|436:136|436:136|448:108|440:68,1,165.000006294251,0|0,0:0|0:0,0:0:0:0:
163,58,67365,38,0,P|132:190|263:151,1,330.000012588501,6|0,0:0|0:0,0:0:0:0:
336,68,67815,2,0,P|368:160|304:252,1,165.000006294251,0|0,0:0|0:0,0:0:0:0:
424,36,68115,1,0,0:0:0:0:
260,284,68265,2,0,B|228:288|196:280|196:280|154:286|154:286|120:276|68:292|68:292|132:304,1,247.500009441376,0|0,0:0|0:0,0:0:0:0:
56,221,68565,6,0,P|104:211|152:211,1,82.5000031471254,0|0,0:0|0:0,0:0:0:0:
201,163,68715,2,0,P|217:75|170:22,1,165.000006294251,4|0,0:0|0:0,0:0:0:0:
293,355,69015,38,0,L|517:343,1,220,4|0,0:0|0:0,0:0:0:0:
219,80,69315,2,0,L|-1:76,1,220,4|0,0:0|0:0,0:0:0:0:
368,256,69615,2,0,P|430:245|492:200,1,110,0|0,0:0|0:0,0:0:0:0:
400,36,69765,6,0,P|316:52|440:140,1,330.000012588501,6|0,0:0|0:0,0:0:0:0:
219,80,70215,2,0,P|236:184|300:248,1,165.000006294251,0|0,0:0|0:0,0:0:0:0:
370,107,70515,1,0,0:0:0:0:
172,24,70665,2,0,B|144:28|144:28|132:24|132:24|64:32|-4:24,1,165.000006294251,0|0,0:0|0:0,0:0:0:0:
40,212,70965,38,0,P|148:228|24:316,1,330.000012588501,6|0,0:0|0:0,0:0:0:0:
212,184,71415,2,0,P|300:172|400:192,1,165.000006294251,0|0,0:0|0:0,0:0:0:0:
288,324,71715,1,0,0:0:0:0:
340,44,71865,2,0,B|384:28|420:40|420:40|440:28|440:28|480:40|536:28,1,165.000006294251,0|0,0:0|0:0,0:0:0:0:
341,198,72165,6,0,P|245:174|317:314,1,330.000012588501,6|0,0:0|0:0,0:0:0:0:
444,272,72615,1,0,0:0:0:0:
152,116,72765,1,0,0:0:0:0:
457,156,72915,1,0,0:0:0:0:
128,187,73065,1,0,0:0:0:0:
405,52,73215,1,0,0:0:0:0:
149,280,73365,38,0,P|55:304|155:221,1,330.000012588501,6|8,0:0|0:0,0:0:0:0:
208,200,73740,1,8,0:0:0:0:
287,188,73815,2,0,P|319:113|297:35,1,165.000006294251,12|8,0:0|0:0,0:0:0:0:
466,308,74115,2,0,P|434:233|456:155,1,165.000006294251,12|8,0:0|0:0,0:0:0:0:
344,336,74340,1,8,0:0:0:0:
344,336,74415,2,0,P|264:352|184:332,1,165.000006294251,8|8,0:0|0:0,0:0:0:0:
16,48,74715,2,0,P|96:64|176:44,1,165.000006294251,12|0,0:0|0:0,0:0:0:0:
460,72,75015,5,8,0:0:0:0:
412,26,75090,1,8,0:0:0:0:
348,18,75165,1,8,0:0:0:0:
292,51,75240,1,8,0:0:0:0:
267,111,75315,1,8,0:0:0:0:
284,174,75390,1,8,0:0:0:0:
335,213,75465,5,8,0:0:0:0:
379,231,75540,1,8,0:0:0:0:
404,273,75615,1,8,0:0:0:0:
397,321,75690,1,8,0:0:0:0:
361,355,75765,1,8,0:0:0:0:
313,360,75840,1,8,0:0:0:0:
272,333,75915,5,4,0:0:0:0:
108,300,76065,1,0,0:0:0:0:
272,333,76215,1,0,0:0:0:0:
108,300,76365,1,0,0:0:0:0:
272,333,76515,1,2,0:0:0:0:
104,192,76815,5,0,0:0:0:0:
110,108,76965,1,0,0:0:0:0:
178,156,77115,1,2,0:0:0:0:
324,256,77415,37,0,0:0:0:0:
318,172,77565,1,0,0:0:0:0:
250,220,77715,1,2,0:0:0:0:
202,320,78315,5,2,0:0:0:0:
178,156,78465,1,0,0:0:0:0:
202,320,78615,1,0,0:0:0:0:
178,156,78765,1,0,0:0:0:0:
202,320,78915,1,2,0:0:0:0:
296,172,79215,37,0,0:0:0:0:
370,137,79365,1,0,0:0:0:0:
363,219,79515,1,2,0:0:0:0:
188,236,79815,5,0,0:0:0:0:
114,201,79965,1,0,0:0:0:0:
121,283,80115,1,2,0:0:0:0:
288,336,80715,37,2,0:0:0:0:
448,294,80865,1,0,0:0:0:0:
288,336,81015,1,0,0:0:0:0:
448,294,81165,1,0,0:0:0:0:
288,336,81315,1,2,0:0:0:0:
336,168,81615,5,0,0:0:0:0:
264,126,81765,1,0,0:0:0:0:
264,209,81915,1,2,0:0:0:0:
380,76,82215,37,0,0:0:0:0:
452,34,82365,1,0,0:0:0:0:
452,117,82515,1,2,0:0:0:0:
224,248,83115,5,2,0:0:0:0:
204,83,83265,1,0,0:0:0:0:
224,248,83415,1,0,0:0:0:0:
204,83,83565,1,0,0:0:0:0:
224,248,83715,1,2,0:0:0:0:
308,144,84015,37,0,0:0:0:0:
371,90,84165,1,0,0:0:0:0:
385,171,84315,1,2,0:0:0:0:
448,117,84465,1,0,0:0:0:0:
224,248,84615,5,0,0:0:0:0:
161,194,84765,1,0,0:0:0:0:
147,275,84915,1,2,0:0:0:0:
84,221,85065,1,0,0:0:0:0:
80,236,85215,1,0,0:0:0:0:
76,252,85365,1,0,0:0:0:0:
192,52,85515,37,4,0:0:0:0:
26,34,85665,1,0,0:0:0:0:
192,52,85815,1,0,0:0:0:0:
26,34,85965,1,0,0:0:0:0:
192,52,86115,1,2,0:0:0:0:
120,188,86415,5,0,0:0:0:0:
42,217,86565,1,0,0:0:0:0:
55,136,86715,1,2,0:0:0:0:
220,284,87015,37,0,0:0:0:0:
298,313,87165,1,0,0:0:0:0:
285,232,87315,1,2,0:0:0:0:
91,352,87915,5,2,0:0:0:0:
120,188,88065,1,0,0:0:0:0:
91,352,88215,1,0,0:0:0:0:
120,188,88365,1,0,0:0:0:0:
91,352,88515,1,2,0:0:0:0:
220,264,88815,37,0,0:0:0:0:
278,205,88965,1,0,0:0:0:0:
299,285,89115,1,2,0:0:0:0:
484,164,89415,5,0,0:0:0:0:
426,105,89565,1,0,0:0:0:0:
405,185,89715,1,2,0:0:0:0:
160,84,90315,37,2,0:0:0:0:
324,55,90465,1,0,0:0:0:0:
160,84,90615,1,0,0:0:0:0:
324,55,90765,1,0,0:0:0:0:
160,84,90915,1,2,0:0:0:0:
348,196,91215,5,0,0:0:0:0:
277,155,91365,1,0,0:0:0:0:
277,238,91515,1,2,0:0:0:0:
68,312,91815,37,0,0:0:0:0:
139,271,91965,1,0,0:0:0:0:
139,354,92115,1,2,0:0:0:0:
348,280,92715,5,2,0:0:0:0:
412,126,92865,1,0,0:0:0:0:
348,280,93015,1,0,0:0:0:0:
412,126,93165,1,0,0:0:0:0:
348,280,93315,1,2,0:0:0:0:
240,204,93615,37,0,0:0:0:0:
318,175,93765,1,0,0:0:0:0:
254,121,93915,1,2,0:0:0:0:
332,92,94065,1,0,0:0:0:0:
168,120,94215,5,0,0:0:0:0:
90,91,94365,1,0,0:0:0:0:
154,37,94515,1,2,0:0:0:0:
76,8,94665,1,0,0:0:0:0:
64,16,94815,1,0,0:0:0:0:
52,24,94965,1,0,0:0:0:0:
254,121,95115,37,6,0:0:0:0:
288,248,95415,5,2,0:0:0:0:
244,244,95565,1,2,0:0:0:0:
200,240,95715,1,2,0:0:0:0:
76,332,96015,37,2,0:0:0:0:
120,328,96165,1,2,0:0:0:0:
164,324,96315,1,2,0:0:0:0:
448,146,96615,5,2,0:0:0:0:
379,201,96765,1,2,0:0:0:0:
475,155,96915,1,2,0:0:0:0:
356,195,97065,1,2,0:0:0:0:
253,124,97215,1,2,0:0:0:0:
368,76,97365,1,2,0:0:0:0:
200,240,97515,1,12,0:0:0:0:
24,112,97815,37,2,0:0:0:0:
103,97,97965,1,2,0:0:0:0:
182,83,98115,1,6,0:0:0:0:
380,260,98415,5,2,0:0:0:0:
301,245,98565,1,0,0:0:0:0:
299,255,98640,1,0,0:0:0:0:
297,266,98715,1,0,0:0:0:0:
295,277,98790,1,0,0:0:0:0:
294,288,98865,1,0,0:0:0:0:
292,299,98940,1,0,0:0:0:0:
290,310,99015,1,0,0:0:0:0:
289,321,99090,1,0,0:0:0:0:
287,331,99165,1,0,0:0:0:0:
285,342,99240,1,0,0:0:0:0:
284,353,99315,21,8,0:0:0:0:
96,236,99465,1,8,0:0:0:0:
372,52,99765,38,0,P|284:72|412:168,1,330.000012588501,6|0,0:0|0:0,0:0:0:0:
204,36,100215,2,0,P|120:36|40:88,1,165.000006294251,0|0,0:0|0:0,0:0:0:0:
343,127,100515,1,0,0:0:0:0:
156,164,100665,2,0,B|156:188|144:216|144:216|149:231|149:231|135:282|149:325,1,165.000006294251,0|0,0:0|0:0,0:0:0:0:
368,324,100965,6,0,P|367:235|231:324,1,330.000012588501,6|0,0:0|0:0,0:0:0:0:
443,239,101415,2,0,P|363:231|300:281,1,165.000006294251,0|0,0:0|0:0,0:0:0:0:
480,368,101715,1,0,0:0:0:0:
330,112,101865,2,0,B|310:116|310:116|302:112|302:112|230:120|158:108,1,165.000006294251
360,16,102165,38,0,P|424:76|252:176,1,330.000012588501,6|0,0:0|0:0,0:0:0:0:
36,32,102615,2,0,P|116:13|213:36,1,165.000006294251,0|0,0:0|0:0,0:0:0:0:
116,176,102915,1,0,0:0:0:0:
328,112,103065,2,0,B|360:104|405:111|405:111|420:108|420:108|460:120|500:112,1,165.000006294251,0|0,0:0|0:0,0:0:0:0:
296,36,103365,6,0,P|260:68|248:136,1,82.5000031471254,0|0,0:0|0:0,0:0:0:0:
276,190,103515,2,0,P|188:166|88:186,1,165.000006294251,4|0,0:0|0:0,0:0:0:0:
344,276,103815,2,0,P|432:252|532:272,1,165.000006294251,0|0,0:0|0:0,0:0:0:0:
272,348,104115,1,0,0:0:0:0:
174,118,104265,2,0,L|206:214,1,82.5000031471254
264,368,104415,1,0,0:0:0:0:
264,64,104565,38,0,P|168:12|112:200,1,330.000012588501,6|0,0:0|0:0,0:0:0:0:
179,277,105015,2,0,P|195:197|174:118,1,165.000006294251
80,348,105315,1,0,0:0:0:0:
321,275,105465,2,0,B|317:235|329:207|329:207|325:183|325:183|341:151|341:103,1,165.000006294251
256,328,105765,6,0,P|388:325|320:192,1,330.000012588501,6|0,0:0|0:0,0:0:0:0:
450,365,106215,2,0,P|475:279|457:198,1,165.000006294251
239,81,106515,1,0,0:0:0:0:
401,280,106665,2,0,B|362:268|325:277|325:277|307:268|307:268|265:274|216:249,1,165.000006294251,0|0,0:0|0:0,0:0:0:0:
76,72,106965,38,0,P|157:93|26:162,1,330.000012588501,6|0,0:0|0:0,0:0:0:0:
239,81,107415,1,0,0:0:0:0:
482,35,107565,1,0,0:0:0:0:
234,64,107715,1,0,0:0:0:0:
482,56,107865,1,0,0:0:0:0:
352,28,108015,1,0,0:0:0:0:
483,237,108165,6,0,P|445:313|404:178,1,330.000012588501,6|0,0:0|0:0,0:0:0:0:
296,340,108540,1,0,0:0:0:0:
296,340,108615,2,0,P|246:345|202:341,1,82.5000031471254,0|0,0:0|0:0,0:0:0:0:
106,217,108765,2,0,P|236:244|178:124,1,330.000012588501,6|0,0:0|0:0,0:0:0:0:
95,112,109140,1,0,0:0:0:0:
95,112,109215,2,0,P|115:72|158:41,1,82.5000031471254,0|0,0:0|0:0,0:0:0:0:
388,4,109365,38,0,P|307:48|451:60,1,330.000012588501,6|0,0:0|0:0,0:0:0:0:
336,224,109815,2,0,P|324:312|352:384,1,165.000006294251,0|0,0:0|0:0,0:0:0:0:
500,184,110115,1,0,0:0:0:0:
272,84,110265,2,0,B|236:80|204:88|204:88|180:80|180:80|140:92|104:84,1,165.000006294251,0|0,0:0|0:0,0:0:0:0:
4,264,110565,6,0,P|96:188|52:332,1,330.000012588501,6|0,0:0|0:0,0:0:0:0:
236,253,111015,2,0,P|159:281|80:264,1,165.000006294251,0|0,0:0|0:0,0:0:0:0:
257,176,111315,1,0,0:0:0:0:
428,282,111465,2,0,B|420:262|432:234|432:234|424:214|424:214|436:162|428:114,1,165.000006294251
337,284,111765,38,0,P|391:366|498:224,1,330.000012588501,6|0,0:0|0:0,0:0:0:0:
267,117,112215,2,0,P|355:133|447:113,1,165.000006294251
193,34,112515,1,0,0:0:0:0:
147,277,112665,2,0,B|114:267|79:277|79:277|65:267|65:267|15:277|-18:259,1,165.000006294251,0|0,0:0|0:0,0:0:0:0:
224,224,112965,6,0,P|240:268|237:308,1,82.5000031471254,0|0,0:0|0:0,0:0:0:0:
98,191,113115,2,0,P|77:120|99:31,1,165.000006294251,0|0,0:0|0:0,0:0:0:0:
512,128,113415,38,0,L|505:395,1,220,4|0,0:0|0:0,0:0:0:0:
8,256,113715,2,0,L|2:36,1,220,4|0,0:0|0:0,0:0:0:0:
317,189,114015,2,0,P|321:253|301:305,1,110
216,156,114165,6,0,P|272:92|404:248,1,330,6|0,0:0|0:0,0:0:0:0:
227,83,114615,2,0,P|303:51|394:73,1,165.000006294251,0|0,0:0|0:0,0:0:0:0:
317,189,114915,1,0,0:0:0:0:
512,26,115065,2,0,B|519:58|504:91|504:91|508:120|508:120|493:154|496:198,1,165.000006294251,0|0,0:0|0:0,0:0:0:0:
300,340,115365,38,0,P|276:260|184:384,1,330.000012588501,6|0,0:0|0:0,0:0:0:0:
317,189,115815,2,0,P|297:105|321:17,1,165.000006294251
440,108,116115,1,0,0:0:0:0:
227,319,116265,2,0,B|195:323|195:323|186:317|186:317|119:336|40:313,1,165.000006294251,0|0,0:0|0:0,0:0:0:0:
190,111,116565,6,0,P|140:241|43:142,1,330.000012588501,6|0,0:0|0:0,0:0:0:0:
292,28,117015,1,0,0:0:0:0:
384,256,117165,1,0,0:0:0:0:
190,111,117315,1,0,0:0:0:0:
426,38,117465,1,0,0:0:0:0:
381,281,117615,1,0,0:0:0:0:
296,105,117765,38,0,P|260:195|97:168,1,247.500009441376,6|0,0:0|0:0,0:0:0:0:
56,136,118065,1,8,0:0:0:0:
55,177,118140,1,0,0:0:0:0:
55,218,118215,1,8,0:0:0:0:
55,259,118290,1,0,0:0:0:0:
54,300,118365,2,0,P|93:307|136:298,1,82.5000031471254,8|0,0:0|0:0,0:0:0:0:
205,342,118515,6,0,P|245:339|283:323,1,82.5000031471254,8|0,0:0|0:0,0:0:0:0:
325,254,118665,1,8,0:0:0:0:
289,219,118740,1,0,0:0:0:0:
276,172,118815,1,8,0:0:0:0:
289,125,118890,1,0,0:0:0:0:
324,91,118965,1,8,0:0:0:0:
371,78,119040,1,0,0:0:0:0:
418,92,119115,6,0,P|409:138|421:178,1,82.5000031471254,8|0,0:0|0:0,0:0:0:0:
481,282,119265,1,8,0:0:0:0:
481,282,119340,1,0,0:0:0:0:
481,282,119415,1,8,0:0:0:0:
244,280,119565,1,8,0:0:0:0:
63,127,119715,1,8,0:0:0:0:
355,93,119865,1,8,0:0:0:0:
96,304,120015,1,8,0:0:0:0:
224,0,120165,1,12,0:0:0:0:
236,80,120465,5,0,0:0:0:0:
224,0,120615,1,2,0:0:0:0:
252,164,120915,1,2,0:0:0:0:
252,164,121215,1,2,0:0:0:0:
332,144,121365,1,2,0:0:0:0:
404,184,121515,1,2,0:0:0:0:
481,155,121665,38,0,P|483:212|330:220,1,247.500009441376,6|0,0:2|0:0,0:0:0:0:
330,258,122190,1,0,0:0:0:0:
329,288,122265,1,0,0:0:0:0:
328,319,122340,1,0,0:0:0:0:
327,350,122415,1,4,0:0:0:0:
216,272,122565,6,0,P|112:252|-4:280,1,220,4|0,0:0|0:0,0:0:0:0:
3,260,122940,1,0,0:0:0:0:
7,244,123015,1,0,0:0:0:0:
11,228,123090,1,0,0:0:0:0:
15,212,123165,1,0,0:0:0:0:
19,196,123240,1,0,0:0:0:0:
23,180,123315,1,8,0:0:0:0:
308,140,123615,37,0,0:0:0:0:
348,36,123765,1,0,0:0:0:0:
193,135,123915,1,8,0:0:0:0:
205,174,123990,1,0,0:0:0:0:
206,215,124065,1,0,0:0:0:0:
195,254,124140,1,0,0:0:0:0:
174,290,124215,2,0,L|112:288,3,41.2500015735627,0|0|0|0,0:0|0:0|0:0|0:0,0:0:0:0:
247,348,124515,1,8,0:0:0:0:
247,348,124815,1,8,0:0:0:0:
451,268,124965,6,0,P|424:152|452:52,1,220,4|0,0:0|0:0,0:0:0:0:
466,56,125340,1,0,0:0:0:0:
474,71,125415,1,0,0:0:0:0:
478,87,125490,1,0,0:0:0:0:
479,103,125565,1,0,0:0:0:0:
476,120,125640,1,0,0:0:0:0:
471,135,125715,1,8,0:0:0:0:
276,137,126015,37,0,0:0:0:0:
212,45,126165,1,0,0:0:0:0:
400,133,126315,1,8,0:0:0:0:
387,172,126390,1,0,0:0:0:0:
384,213,126465,1,0,0:0:0:0:
391,253,126540,1,0,0:0:0:0:
407,291,126615,2,0,L|463:288,3,41.2500015735627,0|0|0|0,0:0|0:0|0:0|0:0,0:0:0:0:
333,342,126915,1,8,0:0:0:0:
140,248,127065,1,8,0:0:0:0:
336,356,127215,1,4,0:0:0:0:
144,232,127365,6,0,P|172:128|132:16,1,220,4|0,0:0|0:0,0:0:0:0:
154,24,127740,1,0,0:0:0:0:
170,25,127815,1,0,0:0:0:0:
187,26,127890,1,0,0:0:0:0:
203,26,127965,1,0,0:0:0:0:
220,27,128040,1,0,0:0:0:0:
236,28,128115,1,8,0:0:0:0:
308,256,128415,37,4,0:0:0:0:
432,248,128565,1,0,0:0:0:0:
216,356,128715,1,8,0:0:0:0:
229,316,128790,1,0,0:0:0:0:
232,275,128865,1,0,0:0:0:0:
225,235,128940,1,0,0:0:0:0:
208,197,129015,2,0,L|147:195,3,41.2500015735627,0|0|0|0,0:0|0:0|0:0|0:0,0:0:0:0:
280,140,129315,1,8,0:0:0:0:
280,140,129615,1,0,0:0:0:0:
68,52,129765,6,0,P|88:160|40:260,1,220,4|0,0:0|0:0,0:0:0:0:
28,264,130140,1,0,0:0:0:0:
18,251,130215,1,4,0:0:0:0:
11,236,130290,1,0,0:0:0:0:
8,220,130365,1,0,0:0:0:0:
8,203,130440,1,0,0:0:0:0:
12,187,130515,1,8,0:0:0:0:
196,224,130815,37,4,0:0:0:0:
305,219,130965,1,0,0:0:0:0:
389,149,131115,1,0,0:0:0:0:
360,44,131265,1,0,0:0:0:0:
468,68,131415,1,4,0:0:0:0:
468,68,131490,1,0,0:0:0:0:
468,68,131565,1,0,0:0:0:0:
276,120,131715,5,8,0:0:0:0:
112,100,131865,1,8,0:0:0:0:
285,146,132015,1,8,0:0:0:0:
103,78,132165,1,8,0:0:0:0:
224,264,132315,38,0,P|308:268|400:264,1,165.000006294251,4|2,0:0|0:0,0:0:0:0:
388,264,132765,1,2,0:0:0:0:
248,351,132915,2,0,P|165:354|83:350,1,165.000006294251,6|2,0:0|0:0,0:0:0:0:
83,350,133365,1,2,0:0:0:0:
156,252,133515,6,0,P|171:171|142:68,1,165.000006294251,6|2,0:0|0:0,0:0:0:0:
154,91,133965,1,2,0:0:0:0:
312,144,134115,2,0,P|396:150|484:141,1,165.000006294251,6|2,0:0|0:0,0:0:0:0:
476,142,134565,1,2,0:0:0:0:
320,253,134715,38,0,P|237:259|155:251,1,165.000006294251,6|2,0:0|0:0,0:0:0:0:
155,251,135165,1,2,0:0:0:0:
313,349,135315,2,0,P|395:355|477:347,1,165.000006294251,6|2,0:0|0:0,0:0:0:0:
477,346,135765,1,2,0:0:0:0:
412,240,135915,6,0,P|392:154|421:56,1,165.000006294251,6|2,0:0|0:0,0:0:0:0:
408,80,136365,1,2,0:0:0:0:
300,140,136515,2,0,P|248:144|188:136,1,82.5000031471254,6|2,0:0|0:0,0:0:0:0:
224,164,136740,1,2,0:0:0:0:
235,184,136815,1,2,0:0:0:0:
260,264,136965,1,2,0:0:0:0:
204,324,137115,38,0,P|112:328|30:325,1,165.000006294251,6|2,0:0|0:0,0:0:0:0:
39,325,137565,1,2,0:0:0:0:
260,264,137715,2,0,P|352:268|434:265,1,165.000006294251,6|2,0:0|0:0,0:0:0:0:
424,265,138165,1,2,0:0:0:0:
360,160,138315,6,0,P|336:76|356:-8,1,165.000006294251,6|2,0:0|0:0,0:0:0:0:
351,1,138765,1,2,0:0:0:0:
260,84,138915,2,0,P|212:88|144:80,2,82.5000031471254,6|2|2,0:0|0:0|0:0,0:0:0:0:
360,160,139515,37,4,0:0:0:0:
440,138,139665,1,0,0:0:0:0:
485,206,139815,1,0,0:0:0:0:
432,271,139965,1,0,0:0:0:0:
355,241,140115,1,4,0:0:0:0:
355,241,140415,5,0,0:0:0:0:
432,271,140565,1,0,0:0:0:0:
485,206,140715,1,4,0:0:0:0:
440,138,140865,1,0,0:0:0:0:
360,160,141015,1,0,0:0:0:0:
447,129,141165,1,0,0:0:0:0:
367,151,141315,1,4,0:0:0:0:
455,117,141465,1,0,0:0:0:0:
375,140,141615,2,0,B|329:132|278:142|278:142|308:120,1,123.750004720688,4|0,0:0|0:0,0:0:0:0:
271,56,141915,38,0,P|183:59|97:54,1,165.000006294251,4|2,0:0|0:0,0:0:0:0:
106,54,142365,1,2,0:0:0:0:
312,213,142515,2,0,P|400:216|486:211,1,165.000006294251,6|2,0:0|0:0,0:0:0:0:
476,211,142965,1,2,0:0:0:0:
375,140,143115,6,0,P|389:222|355:308,1,165.000006294251,6|2,0:0|0:0,0:0:0:0:
362,297,143565,1,2,0:0:0:0:
248,360,143715,2,0,P|160:368|76:360,1,165.000006294251,6|2,0:0|0:0,0:0:0:0:
83,361,144165,1,2,0:0:0:0:
312,213,144315,38,0,P|400:220|488:208,1,165.000006294251,6|2,0:0|0:0,0:0:0:0:
475,210,144765,1,2,0:0:0:0:
232,100,144915,2,0,P|144:108|60:100,1,165.000006294251,6|2,0:0|0:0,0:0:0:0:
67,101,145365,1,2,0:0:0:0:
312,213,145515,6,0,P|336:125|312:41,1,165.000006294251,6|2,0:0|0:0,0:0:0:0:
324,56,145965,1,2,0:0:0:0:
432,116,146115,2,0,P|476:116|520:112,1,82.5000031471254,6|2,0:0|0:0,0:0:0:0:
508,132,146340,1,2,0:0:0:0:
504,152,146415,1,2,0:0:0:0:
468,224,146565,1,2,0:0:0:0:
504,300,146715,38,0,P|420:304|332:300,1,165.000006294251,6|2,0:0|0:0,0:0:0:0:
339,300,147165,1,2,0:0:0:0:
196,216,147315,2,0,P|280:220|368:216,1,165.000006294251,6|2,0:0|0:0,0:0:0:0:
360,216,147765,1,2,0:0:0:0:
453,136,147915,6,0,P|483:194|455:303,1,165.000006294251,6|2,0:0|0:0,0:0:0:0:
465,288,148365,1,2,0:0:0:0:
324,343,148515,2,0,P|374:350|427:332,1,82.5000031471254,6|2,0:0|0:0,0:0:0:0:
279,264,148815,2,0,P|229:257|176:275,1,82.5000031471254,2|2,0:0|0:0,0:0:0:0:
123,308,149115,38,0,P|215:228|23:256,1,527.999983886719,2|4,0:0|0:0,0:0:0:0:
256,192,151590,12,4,153915,0:0:0:0:
172,272,154515,5,4,0:0:0:0:
96,168,154965,1,0,0:0:0:0:
106,167,155040,1,0,0:0:0:0:
117,167,155115,1,0,0:0:0:0:
128,166,155190,1,0,0:0:0:0:
139,166,155265,1,0,0:0:0:0:
150,165,155340,1,0,0:0:0:0:
161,165,155415,1,0,0:0:0:0:
172,164,155490,1,0,0:0:0:0:
183,164,155565,1,0,0:0:0:0:
194,163,155640,1,0,0:0:0:0:
205,163,155715,21,8,0:0:0:0:
44,40,155865,1,8,0:0:0:0:
240,232,156165,38,0,P|324:180|168:116,1,330.000012588501,6|0,0:0|0:0,0:0:0:0:
348,276,156615,2,0,P|440:288|520:276,1,165.000006294251,0|0,0:0|0:0,0:0:0:0:
248,147,156915,1,0,0:0:0:0:
512,123,157065,2,0,B|492:132|464:120|464:120|446:127|446:127|404:120|339:135,1,165.000006294251,0|0,0:0|0:0,0:0:0:0:
124,248,157365,6,0,P|212:212|148:336,1,330.000012588501,6|0,0:0|0:0,0:0:0:0:
283,245,157815,2,0,P|369:247|468:217,1,165.000006294251,0|0,0:0|0:0,0:0:0:0:
335,102,158115,1,0,0:0:0:0:
188,277,158265,2,0,B|155:267|118:277|118:277|96:274|96:274|58:281|20:273,1,165.000006294251,0|0,0:0|0:0,0:0:0:0:
123,12,158565,38,0,P|159:90|2:57,1,330.000012588501,6|0,0:0|0:0,0:0:0:0:
189,50,159015,2,0,P|275:39|372:56,1,165.000006294251,0|0,0:0|0:0,0:0:0:0:
189,297,159315,1,0,0:0:0:0:
80,78,159465,2,0,B|100:98|103:128|103:128|121:147|121:147|120:187|165:248,1,165.000006294251,0|0,0:0|0:0,0:0:0:0:
260,344,159765,6,0,P|304:339|348:318,1,82.5000031471254
273,109,159915,2,0,P|248:185|280:260,1,165.000006294251,4|0,0:0|0:0,0:0:0:0:
360,80,160215,2,0,P|295:31|215:37,1,165.000006294251,0|0,0:0|0:0,0:0:0:0:
344,180,160515,1,0,0:0:0:0:
488,20,160665,1,0,0:0:0:0:
130,168,160815,1,0,0:0:0:0:
429,282,160965,38,0,P|510:219|342:199,1,385.000003671646,6|0,0:0|0:0,0:0:0:0:
184,324,161415,2,0,P|272:312|328:256,1,165.000006294251,0|0,0:0|0:0,0:0:0:0:
131,167,161715,1,0,0:0:0:0:
428,196,161865,2,0,B|440:160|431:127|431:127|440:100|440:100|428:64|436:28,1,165.000006294251,0|0,0:0|0:0,0:0:0:0:
68,100,162165,6,0,P|48:208|220:192,1,330.000012588501,6|0,0:0|0:0,0:0:0:0:
84,261,162615,2,0,P|176:267|226:206,1,165.000006294251,0|0,0:0|0:0,0:0:0:0:
130,168,162915,1,0,0:0:0:0:
298,293,163065,2,0,B|326:289|354:297|354:297|406:289|406:289|434:297|461:295,1,165.000006294251,0|4,0:0|0:0,0:0:0:0:
217,287,163365,38,0,P|257:363|326:217,1,330.000012588501,6|0,0:0|0:0,0:0:0:0:
213,138,163815,1,0,0:0:0:0:
104,360,163965,1,0,0:0:0:0:
340,112,164115,1,0,0:0:0:0:
117,221,164265,1,0,0:0:0:0:
316,372,164415,1,0,0:0:0:0:
116,156,164565,6,0,P|52:224|174:190,1,330.000012588501,6|0,0:0|0:0,0:0:0:0:
197,115,164940,1,0,0:0:0:0:
196,115,165015,2,0,P|235:100|276:99,1,82.5000031471254,0|0,0:0|0:0,0:0:0:0:
350,136,165165,2,0,P|414:204|292:170,1,330.000012588501,6|0,0:0|0:0,0:0:0:0:
423,87,165540,1,0,0:0:0:0:
423,87,165615,2,0,P|459:117|482:168,1,82.5000031471254,0|0,0:0|0:0,0:0:0:0:
233,284,165765,38,0,P|152:238|294:190,1,330.000012588501,6|0,0:0|0:0,0:0:0:0:
157,349,166215,2,0,P|66:359|-13:344,1,165.000006294251,0|0,0:0|0:0,0:0:0:0:
222,210,166515,1,0,0:0:0:0:
436,330,166665,2,0,B|433:301|452:279|452:279|447:252|447:252|483:215|478:167,1,165.000006294251,0|0,0:0|0:0,0:0:0:0:
399,92,166965,6,0,P|283:147|405:186,1,330.000012588501,6|0,0:0|0:0,0:0:0:0:
254,24,167415,2,0,P|166:16|70:32,1,165.000006294251,0|0,0:0|0:0,0:0:0:0:
222,210,167715,1,0,0:0:0:0:
90,26,167865,2,0,B|98:54|86:86|86:86|94:130|94:130|74:164|86:202,1,165.000006294251,0|0,0:0|0:0,0:0:0:0:
209,284,168165,38,0,P|290:242|151:187,1,330.000012588501,6|0,0:0|0:0,0:0:0:0:
345,303,168615,2,0,P|373:226|360:145,1,165.000006294251
222,210,168915,1,0,0:0:0:0:
450,43,169065,2,0,B|431:55|404:53|404:53|380:65|380:65|323:60|276:107,1,165.000006294251
369,227,169365,6,0,P|367:176|354:137,1,82.5000031471254
230,38,169515,2,0,P|219:77|219:118,1,82.5000031471254,0|0,0:0|0:0,0:0:0:0:
342,303,169665,2,0,L|440:300,1,82.5000031471254,4|0,0:0|0:0,0:0:0:0:
222,210,169815,2,0,L|139:212,1,82.5000031471254,4|0,0:0|0:0,0:0:0:0:
33,279,169965,1,0,0:0:0:0:
31,295,170040,1,0,0:0:0:0:
30,311,170115,2,0,L|116:300,1,82.5000031471254,4|0,0:0|0:0,0:0:0:0:
222,210,170265,1,0,0:0:0:0:
34,143,170415,1,4,0:0:0:0:
309,377,170565,38,0,P|405:350|289:243,1,330.000012588501,6|0,0:0|0:0,0:0:0:0:
162,327,171015,2,0,P|182:239|158:163,1,165.000006294251,0|0,0:0|0:0,0:0:0:0:
340,304,171315,1,0,0:0:0:0:
161,169,171465,2,0,B|138:171|113:161|113:161|87:170|87:170|41:161|-3:172,1,165.000006294251,0|0,0:0|0:0,0:0:0:0:
250,230,171765,6,0,P|304:158|163:179,1,330.000012588501,6|0,0:0|0:0,0:0:0:0:
342,303,172215,2,0,P|424:316|508:300,1,165.000006294251,0|0,0:0|0:0,0:0:0:0:
232,160,172515,1,0,0:0:0:0:
44,320,172665,2,0,B|64:316|81:319|81:319|100:312|100:312|156:320|212:308,1,165.000006294251,0|0,0:0|0:0,0:0:0:0:
105,77,172965,38,0,P|73:177|233:145,1,330.000012588501,6|0,0:0|0:0,0:0:0:0:
150,147,173415,1,0,0:0:0:0:
396,116,173565,1,0,0:0:0:0:
139,142,173715,1,0,0:0:0:0:
410,108,173865,1,0,0:0:0:0:
248,76,174015,1,0,0:0:0:0:
352,308,174165,6,0,P|448:304|340:220,1,330.000012588501,6|0,0:0|0:0,0:0:0:0:
276,268,174540,1,0,0:0:0:0:
268,264,174615,1,0,0:0:0:0:
264,256,174690,1,0,0:0:0:0:
260,248,174765,1,0,0:0:0:0:
264,240,174840,1,0,0:0:0:0:
268,232,174915,37,0,0:0:0:0:
290,308,174990,1,0,0:0:0:0:
244,373,175065,1,0,0:0:0:0:
164,376,175140,1,0,0:0:0:0:
113,315,175215,5,2,0:0:0:0:
116,308,175290,1,2,0:0:0:0:
116,300,175365,1,2,0:0:0:0:
116,292,175440,1,2,0:0:0:0:
113,284,175515,2,0,P|93:200|117:120,1,165.000006294251,0|8,0:0|0:0,0:0:0:0:
172,72,175740,1,8,0:0:0:0:
172,72,175815,1,8,0:0:0:0:
328,20,175965,1,0,0:0:0:0:
96,56,176115,38,0,L|16:52,2,55.0000020980836,8|8|8,0:0|0:0|0:0,0:0:0:0:
16,132,176265,2,0,L|96:128,2,55.0000020980836,8|8|8,0:0|0:0|0:0,0:0:0:0:
72,224,176415,1,12,0:0:0:0:
308,292,176565,6,0,P|288:198|418:145,1,247.500009441376,6|0,0:0|0:0,0:0:0:0:
373,226,176865,2,0,L|383:320,1,82.5000031471254,4|0,0:0|0:0,0:0:0:0:
220,174,177015,2,0,L|230:92,1,82.5000031471254,4|0,0:0|0:0,0:0:0:0:
308,292,177165,1,0,0:0:0:0:
304,308,177240,1,0,0:0:0:0:
300,324,177315,2,0,L|212:320,1,82.5000031471254,4|0,0:0|0:0,0:0:0:0:
373,226,177465,2,0,L|461:222,1,82.5000031471254,4|0,0:0|0:0,0:0:0:0:
332,88,177615,1,0,0:0:0:0:
107,256,177765,38,0,P|99:344|219:300,1,247.500009441376,6|0,0:0|0:0,0:0:0:0:
204,240,178065,2,0,P|196:192|208:144,1,82.5000031471254,4|0,0:0|0:0,0:0:0:0:
332,88,178215,2,0,P|337:128|329:168,1,82.5000031471254,4|0,0:0|0:0,0:0:0:0:
204,240,178365,1,0,0:0:0:0:
200,224,178440,1,0,0:0:0:0:
196,208,178515,2,0,P|155:213|115:205,1,82.5000031471254,4|0,0:0|0:0,0:0:0:0:
28,88,178665,2,0,P|68:79|108:85,1,82.5000031471254,4|0,0:0|0:0,0:0:0:0:
329,168,178815,5,0,0:0:0:0:
316,128,178890,1,0,0:0:0:0:
332,88,178965,2,0,P|417:98|497:86,1,165.000006294251,4|0,0:0|0:0,0:0:0:0:
312,12,179265,1,0,0:0:0:0:
188,168,179415,1,0,0:0:0:0:
304,228,179565,1,0,0:0:0:0:
304,228,179640,1,0,0:0:0:0:
304,228,179715,1,0,0:0:0:0:
188,48,179865,1,0,0:0:0:0:
84,236,180015,1,0,0:0:0:0:
312,332,180165,38,0,P|404:336|480:328,1,165.000006294251,0|0,0:0|0:0,0:0:0:0:
376,244,180465,1,0,0:0:0:0:
232,288,180615,1,0,0:0:0:0:
353,109,180765,1,0,0:0:0:0:
353,109,180840,1,0,0:0:0:0:
353,109,180915,1,0,0:0:0:0:
165,175,181065,2,0,P|202:190|242:179,1,82.5000031471254,0|0,0:0|0:0,0:0:0:0:
353,109,181215,1,0,0:0:0:0:
225,72,181365,6,0,P|147:115|252:169,1,247.500009441376,6|0,0:0|0:0,0:0:0:0:
353,109,181665,2,0,P|397:101|445:105,1,82.5000031471254,4|0,0:0|0:0,0:0:0:0:
258,255,181815,2,0,P|214:263|166:259,1,82.5000031471254,4|0,0:0|0:0,0:0:0:0:
250,161,181965,1,0,0:0:0:0:
259,147,182040,1,0,0:0:0:0:
268,133,182115,2,0,L|322:215,1,82.5000031471254,4|0,0:0|0:0,0:0:0:0:
132,332,182265,2,0,L|86:263,1,82.5000031471254,4|0,0:0|0:0,0:0:0:0:
24,152,182415,1,0,0:0:0:0:
300,332,182565,38,0,P|388:340|420:188,1,247.500009441376,6|0,0:0|0:0,0:0:0:0:
352,253,182865,2,0,L|248:245,1,82.5000031471254,4|0,0:0|0:0,0:0:0:0:
156,124,183015,2,0,L|260:116,1,82.5000031471254,4|0,0:0|0:0,0:0:0:0:
120,236,183165,1,0,0:0:0:0:
112,248,183240,1,0,0:0:0:0:
104,260,183315,2,0,L|96:156,1,82.5000031471254,4|0,0:0|0:0,0:0:0:0:
312,0,183465,2,0,L|305:82,1,82.5000031471254,4|0,0:0|0:0,0:0:0:0:
360,156,183615,1,0,0:0:0:0:
402,173,183690,1,0,0:0:0:0:
445,189,183765,6,0,P|478:106|300:96,1,330.000012588501,6|0,0:0|0:0,0:0:0:0:
350,240,184215,1,0,0:0:0:0:
449,53,184365,1,0,0:0:0:0:
449,53,184440,1,0,0:0:0:0:
449,53,184515,1,0,0:0:0:0:
226,162,184665,1,0,0:0:0:0:
356,248,184815,1,0,0:0:0:0:
243,49,184965,38,0,P|157:76|135:228,1,247.500009441376,6|0,0:0|0:0,0:0:0:0:
196,296,185265,1,0,0:0:0:0:
196,288,185340,1,0,0:0:0:0:
196,280,185415,5,0,0:0:0:0:
196,272,185490,1,0,0:0:0:0:
196,264,185565,1,0,0:0:0:0:
243,295,185640,1,0,0:0:0:0:
299,311,185715,1,0,0:0:0:0:
356,307,185790,1,0,0:0:0:0:
410,286,185865,5,0,0:0:0:0:
352,234,185940,1,0,0:0:0:0:
377,160,186015,1,0,0:0:0:0:
455,154,186090,1,0,0:0:0:0:
491,223,186165,6,0,P|500:312|460:376,1,165.000006294251,4|0,0:0|0:0,0:0:0:0:
299,311,186465,1,0,0:0:0:0:
348,92,186615,2,0,P|432:80|524:96,1,165.000006294251,8|8,0:0|0:0,0:0:0:0:
162,280,186915,2,0,P|80:291|-1:279,1,165.000006294251,0|0,0:0|0:0,0:0:0:0:
304,32,187215,2,0,P|320:120|300:196,1,165.000006294251,0|0,0:0|0:0,0:0:0:0:
204,344,187515,2,0,P|185:264|198:181,1,165.000006294251,0|0,0:0|0:0,0:0:0:0:
456,268,187815,2,0,P|368:280|280:264,1,165.000006294251,0|0,0:0|0:0,0:0:0:0:
266,173,188115,1,0,0:0:0:0:
308,84,188265,1,0,0:0:0:0:
456,268,188415,1,0,0:0:0:0:
144,92,188565,6,0,L|328:84,1,165.000006294251,4|0,0:0|0:0,0:0:0:0:
166,211,188865,1,0,0:0:0:0:
48,236,189015,1,0,0:0:0:0:
24,116,189165,1,0,0:0:0:0:
144,92,189315,38,0,L|328:84,1,165.000006294251,0|0,0:0|0:0,0:0:0:0:
166,211,189615,2,0,L|-18:203,1,165.000006294251,0|0,0:0|0:0,0:0:0:0:
308,84,189915,2,0,P|324:168|304:244,1,165.000006294251,0|0,0:0|0:0,0:0:0:0:
162,370,190215,2,0,P|146:286|166:209,1,165.000006294251,0|0,0:0|0:0,0:0:0:0:
308,84,190515,1,0,0:0:0:0:
403,113,190665,1,0,0:0:0:0:
375,209,190815,1,0,0:0:0:0:
278,179,190965,6,0,L|104:176,1,165.000006294251,4|0,0:0|0:0,0:0:0:0:
48,124,191265,1,0,0:0:0:0:
112,260,191415,1,4,0:0:0:0:
156,32,191565,37,0,0:0:0:0:
152,24,191640,1,0,0:0:0:0:
144,20,191715,1,4,0:0:0:0:
284,108,191865,5,0,0:0:0:0:
288,100,191940,1,0,0:0:0:0:
296,96,192015,1,4,0:0:0:0:
204,92,192165,37,0,0:0:0:0:
268,244,192315,1,4,0:0:0:0:
428,280,192465,2,0,L|512:276,2,82.5000031471254,0|0|4,0:0|0:0|0:0,0:0:0:0:
268,244,192765,2,0,L|184:240,2,82.5000031471254,0|0|4,0:0|0:0|0:0,0:0:0:0:
340,300,193065,1,0,0:0:0:0:
312,136,193215,1,4,0:0:0:0:
96,268,193365,6,0,P|120:184|92:88,1,165.000006294251,4|0,0:0|0:0,0:0:0:0:
172,324,193665,2,0,P|216:328|276:320,1,82.5000031471254,0|0,0:0|0:0,0:0:0:0:
104,109,193815,2,0,P|60:105|0:113,1,82.5000031471254,0|0,0:0|0:0,0:0:0:0:
208,188,193965,37,0,0:0:0:0:
234,146,194040,1,0,0:0:0:0:
241,97,194115,1,0,0:0:0:0:
227,51,194190,1,0,0:0:0:0:
272,69,194265,1,0,0:0:0:0:
322,65,194340,1,0,0:0:0:0:
365,41,194415,1,4,0:0:0:0:
409,19,194490,1,0,0:0:0:0:
457,24,194565,1,0,0:0:0:0:
496,54,194640,1,0,0:0:0:0:
512,100,194715,1,0,0:0:0:0:
502,148,194790,1,0,0:0:0:0:
468,183,194865,1,0,0:0:0:0:
420,195,194940,1,0,0:0:0:0:
374,179,195015,6,0,P|328:172|280:180,3,82.5000031471254,0|0|0|0,0:0|0:0|0:0|0:0,0:0:0:0:
248,248,195315,2,0,P|207:252|166:245,3,82.5000031471254,0|0|0|0,0:0|0:0|0:0|0:0,0:0:0:0:
124,176,195615,1,0,0:0:0:0:
472,284,195765,22,0,P|474:321|468:348,1,57.7499982376099,4|0,0:0|0:0,0:0:0:0:
