osu file format v14

[General]
AudioFilename: audio.mp3
AudioLeadIn: 0
PreviewTime: 62010
Countdown: 0
SampleSet: Normal
StackLeniency: 0.5
Mode: 0
LetterboxInBreaks: 0
WidescreenStoryboard: 0

[Editor]
DistanceSpacing: 0.5
BeatDivisor: 4
GridSize: 4
TimelineZoom: 5.099998

[Metadata]
Title:Monster
TitleUnicode:Monster
Artist:UNDEAD CORPORATION
ArtistUnicode:UNDEAD CORPORATION
Creator:-Ran Yakumo-
Version:Lunatic
Source:東方Project
Tags:
BeatmapID:1242162
BeatmapSetID:586551

[Difficulty]
HPDrainRate:4.6
CircleSize:4
OverallDifficulty:9.4
ApproachRate:10
SliderMultiplier:2
SliderTickRate:1

[Events]
//Background and Video events
0,0,"Konachan.com - 183688 goggles hat kawashiro_nitori kirisame_marisa mimi-chan mumulatte touhou witch_hat.jpg",0,0
//Break Periods
2,136210,141560
//Storyboard Layer 0 (Background)
//Storyboard Layer 1 (Fail)
//Storyboard Layer 2 (Pass)
//Storyboard Layer 3 (Foreground)
//Storyboard Sound Samples

[TimingPoints]
2010,250,4,1,0,100,1,0
4010,-76.9230769230769,4,1,0,100,0,1
18010,-100,4,1,0,100,0,0
20010,-83.3333333333333,4,1,0,100,0,1
27010,500,4,1,0,100,1,0
27010,-200,4,1,0,100,0,0
28010,250,4,1,0,100,1,0
44010,-90.9090909090909,4,1,0,100,0,0
62010,-83.3333333333333,4,1,0,100,0,1
76010,-100,4,1,0,100,0,0
78010,-76.9230769230769,4,1,0,100,0,1
86010,-100,4,1,0,100,0,0
102010,-90.9090909090909,4,1,0,100,0,0
120010,-83.3333333333333,4,1,0,100,0,1
136010,-100,4,1,0,100,0,0
160010,-83.3333333333333,4,1,0,100,0,1
176010,-100,4,1,0,100,0,0
192010,-90.9090909090909,4,1,0,100,0,0
196010,-83.3333333333333,4,1,0,100,0,1
210010,-100,4,1,0,100,0,0
212010,-76.9230769230769,4,1,0,100,0,1
226010,-100,4,1,0,100,0,0
228010,-66.6666666666667,4,1,0,100,0,1
236010,-100,4,1,0,100,0,0

[Colours]
Combo1 : 0,128,192
Combo2 : 255,255,0
Combo3 : 0,255,255
Combo4 : 255,0,0

[HitObjects]
256,192,10,12,0,1947,0:0:0:0:
72,56,2010,5,0,0:0:0:0:
71,105,2072,1,0,0:0:0:0:
99,145,2135,1,0,0:0:0:0:
145,162,2197,1,0,0:0:0:0:
192,149,2260,2,0,L|248:104,1,50
303,159,2385,2,0,L|358:113,1,50
423,168,2510,1,0,0:0:0:0:
423,168,2572,1,0,0:0:0:0:
423,168,2635,2,0,L|478:122,1,50
494,241,2760,5,0,0:0:0:0:
493,289,2822,1,0,0:0:0:0:
460,325,2885,1,0,0:0:0:0:
411,328,2947,1,0,0:0:0:0:
373,297,3010,2,0,L|352:231,1,50
287,324,3135,1,0,0:0:0:0:
287,324,3197,1,0,0:0:0:0:
287,324,3260,2,0,L|265:257,1,50
196,363,3385,1,0,0:0:0:0:
196,363,3447,1,0,0:0:0:0:
196,363,3510,6,0,L|174:296,1,50
92,296,3635,2,0,L|70:229,1,50
0,194,3760,1,0,0:0:0:0:
0,194,4010,6,0,B|15:129|15:129|70:55,1,129.999994049073
206,209,4260,1,0,0:0:0:0:
190,213,4322,1,0,0:0:0:0:
174,217,4385,1,0,0:0:0:0:
152,90,4510,1,0,0:0:0:0:
163,101,4572,1,0,0:0:0:0:
174,111,4635,1,0,0:0:0:0:
84,200,4760,1,0,0:0:0:0:
88,184,4822,1,0,0:0:0:0:
91,169,4885,1,0,0:0:0:0:
373,130,5010,6,0,B|421:175|421:175|458:260,1,129.999994049073
257,300,5260,1,0,0:0:0:0:
261,285,5322,1,0,0:0:0:0:
265,269,5385,1,0,0:0:0:0:
387,313,5510,1,0,0:0:0:0:
372,317,5572,1,0,0:0:0:0:
356,322,5635,1,0,0:0:0:0:
325,199,5760,1,0,0:0:0:0:
337,211,5822,1,0,0:0:0:0:
349,221,5885,1,0,0:0:0:0:
181,355,6010,6,0,B|118:374|118:374|25:363,1,129.999994049073
91,169,6260,1,0,0:0:0:0:
102,180,6322,1,0,0:0:0:0:
114,191,6385,1,0,0:0:0:0:
15,275,6510,1,0,0:0:0:0:
19,260,6572,1,0,0:0:0:0:
23,244,6635,1,0,0:0:0:0:
145,278,6760,1,0,0:0:0:0:
128,283,6822,1,0,0:0:0:0:
114,288,6885,1,0,0:0:0:0:
122,51,7010,6,0,B|188:42|188:42|288:55,1,129.999994049073
390,333,7260,2,0,B|324:342|324:342|224:329,1,129.999994049073
397,58,7510,2,0,B|406:124|406:124|393:224,1,129.999994049073
115,326,7760,2,0,B|106:260|106:260|119:160,1,129.999994049073
390,333,8010,6,0,L|250:353,1,129.999994049073
464,212,8260,1,0,0:0:0:0:
464,212,8322,1,0,0:0:0:0:
464,212,8385,1,0,0:0:0:0:
477,330,8510,1,0,0:0:0:0:
477,330,8572,1,0,0:0:0:0:
477,330,8635,1,0,0:0:0:0:
365,239,8760,1,0,0:0:0:0:
365,239,8822,1,0,0:0:0:0:
365,239,8885,1,0,0:0:0:0:
126,226,9010,6,0,L|178:94,1,129.999994049073
193,350,9260,1,0,0:0:0:0:
193,350,9322,1,0,0:0:0:0:
193,350,9385,1,0,0:0:0:0:
86,303,9510,1,0,0:0:0:0:
86,303,9572,1,0,0:0:0:0:
86,303,9635,1,0,0:0:0:0:
219,251,9760,1,0,0:0:0:0:
219,251,9822,1,0,0:0:0:0:
219,251,9885,1,0,0:0:0:0:
371,117,10010,6,0,L|458:228,1,129.999994049073
230,113,10260,1,0,0:0:0:0:
230,113,10322,1,0,0:0:0:0:
230,113,10385,1,0,0:0:0:0:
324,44,10510,1,0,0:0:0:0:
324,44,10572,1,0,0:0:0:0:
324,44,10635,1,0,0:0:0:0:
302,185,10760,1,0,0:0:0:0:
302,185,10822,1,0,0:0:0:0:
302,185,10885,1,0,0:0:0:0:
97,193,11010,6,0,L|83:42,1,129.999994049073
197,290,11260,2,0,L|211:139,1,129.999994049073
32,355,11510,2,0,L|18:204,1,129.999994049073
269,384,11760,1,0,0:0:0:0:
281,254,11885,1,0,0:0:0:0:
287,124,12010,6,0,B|341:80|341:80|403:48,1,129.999994049073
465,153,12260,1,0,0:0:0:0:
468,168,12322,1,0,0:0:0:0:
471,184,12385,1,0,0:0:0:0:
368,223,12510,1,0,0:0:0:0:
364,238,12572,1,0,0:0:0:0:
361,254,12635,1,0,0:0:0:0:
462,286,12760,1,0,0:0:0:0:
466,301,12822,1,0,0:0:0:0:
469,317,12885,1,0,0:0:0:0:
286,384,13010,6,0,B|220:359|220:359|162:321,1,129.999994049073
222,215,13260,1,0,0:0:0:0:
234,204,13322,1,0,0:0:0:0:
246,194,13385,1,0,0:0:0:0:
331,264,13510,1,0,0:0:0:0:
346,260,13572,1,0,0:0:0:0:
361,254,13635,1,0,0:0:0:0:
338,151,13760,1,0,0:0:0:0:
349,140,13822,1,0,0:0:0:0:
362,129,13885,1,0,0:0:0:0:
487,233,14010,6,0,B|498:301|498:301|494:371,1,129.999994049073
372,372,14260,1,0,0:0:0:0:
358,367,14322,1,0,0:0:0:0:
343,362,14385,1,0,0:0:0:0:
361,254,14510,1,0,0:0:0:0:
350,243,14572,1,0,0:0:0:0:
337,233,14635,1,0,0:0:0:0:
260,304,14760,1,0,0:0:0:0:
245,300,14822,1,0,0:0:0:0:
228,294,14885,1,0,0:0:0:0:
42,233,15010,5,0,0:0:0:0:
240,120,15135,1,0,0:0:0:0:
52,269,15260,1,0,0:0:0:0:
227,123,15385,1,0,0:0:0:0:
42,151,15510,1,0,0:0:0:0:
240,264,15635,1,0,0:0:0:0:
52,114,15760,1,0,0:0:0:0:
227,260,15885,1,0,0:0:0:0:
120,40,16010,6,0,L|276:16,1,129.999994049073
366,93,16260,1,0,0:0:0:0:
367,109,16322,1,0,0:0:0:0:
368,125,16385,1,0,0:0:0:0:
263,190,16510,1,0,0:0:0:0:
264,173,16573,1,0,0:0:0:0:
265,157,16635,1,0,0:0:0:0:
369,223,16760,1,0,0:0:0:0:
370,239,16822,1,0,0:0:0:0:
371,256,16885,1,0,0:0:0:0:
192,385,17010,6,0,L|93:262,1,129.999994049073
115,146,17260,1,0,0:0:0:0:
128,136,17322,1,0,0:0:0:0:
141,127,17385,1,0,0:0:0:0:
250,186,17510,1,0,0:0:0:0:
235,194,17573,1,0,0:0:0:0:
221,201,17635,1,0,0:0:0:0:
226,78,17760,1,0,0:0:0:0:
239,69,17822,1,0,0:0:0:0:
253,60,17885,1,0,0:0:0:0:
455,150,18010,6,0,L|398:297,1,129.999994049073
286,336,18260,1,0,0:0:0:0:
272,329,18322,1,0,0:0:0:0:
254,324,18385,2,0,L|203:295,1,50
254,199,18510,1,0,0:0:0:0:
268,208,18573,1,0,0:0:0:0:
281,217,18635,2,0,L|324:241,1,50
140,267,18760,1,0,0:0:0:0:
125,259,18822,1,0,0:0:0:0:
110,251,18885,2,0,L|66:226,1,50
93,132,19010,6,0,L|115:75,1,50
222,41,19135,2,0,L|203:87,1,50
225,196,19260,1,0,0:0:0:0:
237,228,19322,1,0,0:0:0:0:
264,250,19385,1,0,0:0:0:0:
298,257,19447,1,0,0:0:0:0:
331,247,19510,1,0,0:0:0:0:
355,222,19572,1,0,0:0:0:0:
378,197,19634,1,0,0:0:0:0:
412,189,19697,1,0,0:0:0:0:
443,203,19759,1,0,0:0:0:0:
461,233,19822,1,0,0:0:0:0:
458,267,19884,1,0,0:0:0:0:
436,293,19947,1,0,0:0:0:0:
402,301,20010,6,0,P|350:327|300:375,1,119.999996337891
92,287,20260,1,0,0:0:0:0:
92,287,20322,1,0,0:0:0:0:
92,287,20385,2,0,L|68:144,1,119.999996337891
246,36,20635,1,0,0:0:0:0:
363,177,20760,2,0,L|408:233,2,59.9999981689454
187,336,21010,6,0,L|163:193,1,119.999996337891
341,85,21260,1,0,0:0:0:0:
341,85,21322,1,0,0:0:0:0:
341,85,21385,2,0,P|405:97|457:161,1,119.999996337891
435,351,21635,1,0,0:0:0:0:
292,244,21760,2,0,L|268:152,2,59.9999981689454
98,70,22010,6,0,B|159:51|159:51|247:40,1,119.999996337891
126,274,22260,1,0,0:0:0:0:
126,274,22322,1,0,0:0:0:0:
126,274,22385,2,0,P|66:260|8:222,1,119.999996337891
178,138,22635,1,0,0:0:0:0:
224,306,22760,2,0,L|234:370,2,59.9999981689454
500,224,23010,5,0,0:0:0:0:
309,305,23135,1,0,0:0:0:0:
334,99,23260,1,0,0:0:0:0:
334,99,23322,1,0,0:0:0:0:
334,99,23385,1,0,0:0:0:0:
429,321,23510,1,0,0:0:0:0:
262,195,23635,1,0,0:0:0:0:
453,114,23760,1,0,0:0:0:0:
453,114,23822,1,0,0:0:0:0:
453,114,23885,1,0,0:0:0:0:
309,305,24010,6,0,L|171:310,1,119.999996337891
41,221,24260,1,0,0:0:0:0:
41,221,24322,1,0,0:0:0:0:
41,221,24385,2,0,B|26:155|26:155|30:84,1,119.999996337891
190,7,24635,1,0,0:0:0:0:
210,195,24760,2,0,L|130:218,2,59.9999981689454
442,140,25010,6,0,L|462:283,1,119.999996337891
306,362,25260,1,0,0:0:0:0:
306,362,25322,1,0,0:0:0:0:
306,362,25385,2,0,P|248:326|169:309,1,119.999996337891
26,196,25635,1,0,0:0:0:0:
183,93,25760,2,0,L|254:42,2,59.9999981689454
46,337,26010,6,0,L|128:321,1,59.9999981689454
204,308,26135,1,0,0:0:0:0:
233,301,26197,1,0,0:0:0:0:
262,294,26260,5,0,0:0:0:0:
269,265,26322,1,0,0:0:0:0:
276,236,26385,1,0,0:0:0:0:
282,207,26447,1,0,0:0:0:0:
289,178,26510,5,0,0:0:0:0:
305,165,26572,1,0,0:0:0:0:
320,153,26635,1,0,0:0:0:0:
336,141,26697,1,0,0:0:0:0:
352,128,26760,5,0,0:0:0:0:
366,130,26822,1,0,0:0:0:0:
381,132,26885,1,0,0:0:0:0:
396,134,26947,1,0,0:0:0:0:
408,138,27010,6,0,B|449:239|378:193|423:318,1,175
419,307,28010,1,0,0:0:0:0:
269,344,28135,1,0,0:0:0:0:
257,339,28197,1,0,0:0:0:0:
245,335,28260,1,0,0:0:0:0:
233,331,28322,1,0,0:0:0:0:
222,326,28385,2,0,B|205:275|205:275|202:198,1,100
381,104,28635,5,0,0:0:0:0:
382,117,28697,1,0,0:0:0:0:
385,130,28760,1,0,0:0:0:0:
387,142,28822,1,0,0:0:0:0:
389,154,28885,2,0,B|353:194|353:194|288:235,1,100
117,127,29135,5,0,0:0:0:0:
128,119,29197,1,0,0:0:0:0:
141,110,29260,2,0,B|191:94|191:94|265:95,1,100
267,249,29510,2,0,B|228:213|228:213|192:149,1,100
325,72,29760,2,0,B|313:123|313:123|275:186,1,100
83,282,30010,5,0,0:0:0:0:
62,95,30135,1,0,0:0:0:0:
130,293,30260,1,0,0:0:0:0:
130,293,30322,1,0,0:0:0:0:
130,293,30385,1,0,0:0:0:0:
198,65,30510,5,0,0:0:0:0:
219,252,30635,1,0,0:0:0:0:
151,54,30760,1,0,0:0:0:0:
151,54,30822,1,0,0:0:0:0:
151,54,30885,2,0,P|100:69|46:109,1,100
11,278,31135,5,0,0:0:0:0:
12,315,31197,1,0,0:0:0:0:
32,346,31260,1,0,0:0:0:0:
65,362,31322,1,0,0:0:0:0:
102,359,31385,1,0,0:0:0:0:
219,252,31510,1,0,0:0:0:0:
222,239,31572,1,0,0:0:0:0:
224,227,31635,1,0,0:0:0:0:
227,215,31697,1,0,0:0:0:0:
229,203,31760,6,0,L|248:90,1,100
440,27,32010,1,0,0:0:0:0:
353,126,32135,1,0,0:0:0:0:
354,138,32197,1,0,0:0:0:0:
355,150,32260,1,0,0:0:0:0:
357,163,32322,1,0,0:0:0:0:
358,175,32385,1,0,0:0:0:0:
471,232,32510,1,0,0:0:0:0:
469,244,32572,1,0,0:0:0:0:
468,256,32635,1,0,0:0:0:0:
466,269,32697,1,0,0:0:0:0:
465,281,32760,1,0,0:0:0:0:
349,353,32885,1,0,0:0:0:0:
349,353,33010,6,0,B|296:353|296:353|242:345,1,100
95,285,33260,2,0,B|95:232|95:232|103:178,1,100
163,31,33510,2,0,B|216:31|216:31|270:39,1,100
417,99,33760,2,0,B|417:152|417:152|409:206,1,100
303,276,34010,1,0,0:0:0:0:
172,239,34135,1,0,0:0:0:0:
209,108,34260,1,0,0:0:0:0:
340,144,34385,1,0,0:0:0:0:
101,185,34510,6,0,L|77:54,1,100
134,346,34760,1,0,0:0:0:0:
158,352,34822,1,0,0:0:0:0:
182,356,34885,1,0,0:0:0:0:
207,359,34947,1,0,0:0:0:0:
232,359,35010,5,0,0:0:0:0:
417,302,35135,1,0,0:0:0:0:
258,326,35260,1,0,0:0:0:0:
442,383,35385,1,0,0:0:0:0:
293,360,35510,1,0,0:0:0:0:
477,302,35635,1,0,0:0:0:0:
318,326,35760,1,0,0:0:0:0:
502,383,35885,1,0,0:0:0:0:
359,244,36010,6,0,L|349:118,1,100
351,144,36197,1,0,0:0:0:0:
351,144,36260,1,0,0:0:0:0:
351,144,36322,1,0,0:0:0:0:
351,144,36385,1,0,0:0:0:0:
232,45,36510,1,0,0:0:0:0:
74,107,36635,1,0,0:0:0:0:
73,119,36697,1,0,0:0:0:0:
72,131,36760,1,0,0:0:0:0:
72,144,36822,1,0,0:0:0:0:
71,156,36885,1,0,0:0:0:0:
55,319,37010,6,0,L|171:336,1,100
253,217,37260,2,0,L|154:231,1,100
239,309,37510,2,0,L|355:326,1,100
437,207,37760,2,0,L|338:221,1,100
171,268,38010,5,0,0:0:0:0:
213,100,38135,1,0,0:0:0:0:
338,221,38260,1,0,0:0:0:0:
338,221,38322,1,0,0:0:0:0:
338,221,38385,1,0,0:0:0:0:
144,172,38510,1,0,0:0:0:0:
310,124,38635,1,0,0:0:0:0:
269,293,38760,1,0,0:0:0:0:
269,293,38822,1,0,0:0:0:0:
269,293,38885,1,0,0:0:0:0:
144,172,39010,6,0,P|121:128|123:43,1,100
130,79,39197,1,0,0:0:0:0:
142,77,39259,1,0,0:0:0:0:
154,76,39322,1,0,0:0:0:0:
167,75,39384,1,0,0:0:0:0:
309,28,39510,1,0,0:0:0:0:
417,90,39635,1,0,0:0:0:0:
309,153,39760,2,0,P|299:211|343:298,1,150
349,321,40010,6,0,L|225:335,1,100
235,329,40197,1,0,0:0:0:0:
223,324,40259,1,0,0:0:0:0:
212,320,40322,1,0,0:0:0:0:
200,316,40384,1,0,0:0:0:0:
60,231,40510,1,0,0:0:0:0:
250,137,40635,1,0,0:0:0:0:
251,149,40697,1,0,0:0:0:0:
253,161,40760,1,0,0:0:0:0:
255,174,40822,1,0,0:0:0:0:
257,186,40885,1,0,0:0:0:0:
108,60,41010,6,0,B|158:42|158:42|238:37,1,100
404,324,41260,2,0,B|354:342|354:342|274:347,1,100
388,43,41510,2,0,B|406:94|406:94|411:174,1,100
124,340,41760,2,0,B|106:290|106:290|101:210,1,100
388,43,42010,5,0,0:0:0:0:
404,324,42135,1,0,0:0:0:0:
124,340,42260,1,0,0:0:0:0:
108,60,42385,1,0,0:0:0:0:
367,192,42510,5,0,0:0:0:0:
255,303,42635,1,0,0:0:0:0:
144,191,42760,1,0,0:0:0:0:
256,80,42885,1,0,0:0:0:0:
255,350,43010,5,0,0:0:0:0:
242,350,43072,1,0,0:0:0:0:
230,351,43135,1,0,0:0:0:0:
217,352,43197,1,0,0:0:0:0:
205,353,43260,2,0,B|153:351|153:351|97:326,1,100
26,240,43510,6,0,L|20:165,1,50
16,107,43635,1,0,0:0:0:0:
178,271,43760,2,0,L|184:196,1,50
188,138,43885,1,0,0:0:0:0:
437,23,44010,6,0,L|443:140,1,110.000003356934
457,307,44260,1,0,0:0:0:0:
457,307,44322,1,0,0:0:0:0:
457,307,44385,1,0,0:0:0:0:
307,340,44510,1,0,0:0:0:0:
307,340,44572,1,0,0:0:0:0:
307,340,44635,1,0,0:0:0:0:
274,189,44760,1,0,0:0:0:0:
274,189,44822,1,0,0:0:0:0:
274,189,44885,1,0,0:0:0:0:
425,157,45010,1,0,0:0:0:0:
425,157,45072,1,0,0:0:0:0:
425,157,45135,1,0,0:0:0:0:
228,278,45260,6,0,L|117:240,1,110.000003356934
14,204,45510,1,0,0:0:0:0:
14,204,45572,1,0,0:0:0:0:
14,204,45635,1,0,0:0:0:0:
224,157,45760,2,0,L|113:119,1,110.000003356934
10,83,46010,1,0,0:0:0:0:
10,83,46072,1,0,0:0:0:0:
10,83,46135,1,0,0:0:0:0:
146,36,46260,5,0,0:0:0:0:
146,36,46322,1,0,0:0:0:0:
146,36,46385,1,0,0:0:0:0:
276,93,46510,1,0,0:0:0:0:
276,93,46572,1,0,0:0:0:0:
276,93,46635,1,0,0:0:0:0:
412,46,46760,1,0,0:0:0:0:
412,46,46822,1,0,0:0:0:0:
412,46,46885,1,0,0:0:0:0:
475,277,47010,5,0,0:0:0:0:
275,217,47135,1,0,0:0:0:0:
452,150,47260,1,0,0:0:0:0:
368,335,47385,1,0,0:0:0:0:
362,117,47510,1,0,0:0:0:0:
450,374,47635,1,0,0:0:0:0:
257,314,47760,1,0,0:0:0:0:
399,224,47885,1,0,0:0:0:0:
110,64,48010,5,0,0:0:0:0:
64,197,48135,1,0,0:0:0:0:
110,64,48260,1,0,0:0:0:0:
64,197,48385,1,0,0:0:0:0:
110,64,48510,1,0,0:0:0:0:
64,197,48635,1,0,0:0:0:0:
222,47,48760,5,0,0:0:0:0:
202,270,48885,1,0,0:0:0:0:
222,47,49010,1,0,0:0:0:0:
202,270,49135,1,0,0:0:0:0:
222,47,49260,1,0,0:0:0:0:
202,270,49385,1,0,0:0:0:0:
320,25,49510,5,0,0:0:0:0:
348,320,49635,1,0,0:0:0:0:
320,25,49760,1,0,0:0:0:0:
348,320,49885,1,0,0:0:0:0:
453,68,50010,6,0,L|463:128,1,55.0000016784668
378,148,50135,1,0,0:0:0:0:
378,148,50197,1,0,0:0:0:0:
378,148,50260,2,0,L|388:208,1,55.0000016784668
270,105,50385,1,0,0:0:0:0:
270,105,50447,1,0,0:0:0:0:
270,105,50510,2,0,L|280:165,1,55.0000016784668
187,186,50635,1,0,0:0:0:0:
187,186,50697,1,0,0:0:0:0:
187,186,50760,2,0,L|197:246,1,55.0000016784668
94,130,50885,1,0,0:0:0:0:
94,130,50947,1,0,0:0:0:0:
94,130,51010,2,0,L|104:190,1,55.0000016784668
121,278,51135,5,0,0:0:0:0:
128,304,51197,1,0,0:0:0:0:
142,328,51260,1,0,0:0:0:0:
161,347,51322,1,0,0:0:0:0:
184,362,51385,1,0,0:0:0:0:
210,372,51447,1,0,0:0:0:0:
237,374,51510,1,0,0:0:0:0:
264,371,51572,1,0,0:0:0:0:
290,361,51635,1,0,0:0:0:0:
313,345,51697,1,0,0:0:0:0:
331,325,51760,1,0,0:0:0:0:
344,301,51822,1,0,0:0:0:0:
351,274,51885,1,0,0:0:0:0:
352,247,51947,1,0,0:0:0:0:
344,212,52010,6,0,P|333:143|365:91,1,110.000003356934
133,220,52260,1,0,0:0:0:0:
133,220,52322,1,0,0:0:0:0:
133,220,52385,1,0,0:0:0:0:
106,96,52510,1,0,0:0:0:0:
106,96,52572,1,0,0:0:0:0:
106,96,52635,1,0,0:0:0:0:
230,69,52760,1,0,0:0:0:0:
230,69,52822,1,0,0:0:0:0:
230,69,52885,1,0,0:0:0:0:
256,193,53010,1,0,0:0:0:0:
256,193,53072,1,0,0:0:0:0:
256,193,53135,1,0,0:0:0:0:
25,180,53260,6,0,L|11:41,1,110.000003356934
45,314,53510,1,0,0:0:0:0:
45,314,53572,1,0,0:0:0:0:
45,314,53635,1,0,0:0:0:0:
121,200,53760,2,0,L|107:61,1,110.000003356934
141,334,54010,1,0,0:0:0:0:
141,334,54072,1,0,0:0:0:0:
141,334,54135,1,0,0:0:0:0:
288,360,54260,5,0,0:0:0:0:
301,355,54322,1,0,0:0:0:0:
314,351,54385,1,0,0:0:0:0:
251,247,54510,1,0,0:0:0:0:
247,260,54572,1,0,0:0:0:0:
244,273,54635,1,0,0:0:0:0:
363,280,54760,1,0,0:0:0:0:
353,270,54822,1,0,0:0:0:0:
343,260,54885,1,0,0:0:0:0:
190,123,55010,5,0,0:0:0:0:
426,33,55135,1,0,0:0:0:0:
457,234,55260,1,0,0:0:0:0:
294,35,55385,5,0,0:0:0:0:
244,273,55510,1,0,0:0:0:0:
406,153,55635,1,0,0:0:0:0:
194,33,55760,2,0,L|70:41,1,110.000003356934
181,327,56010,5,0,0:0:0:0:
89,217,56135,1,0,0:0:0:0:
229,192,56260,1,0,0:0:0:0:
229,192,56322,1,0,0:0:0:0:
229,192,56385,1,0,0:0:0:0:
103,298,56510,1,0,0:0:0:0:
152,164,56635,1,0,0:0:0:0:
244,273,56760,1,0,0:0:0:0:
244,273,56822,1,0,0:0:0:0:
244,273,56885,1,0,0:0:0:0:
186,355,57010,5,0,0:0:0:0:
67,209,57135,1,0,0:0:0:0:
248,169,57260,1,0,0:0:0:0:
248,169,57322,1,0,0:0:0:0:
248,169,57385,1,0,0:0:0:0:
93,324,57510,1,0,0:0:0:0:
146,135,57635,1,0,0:0:0:0:
259,303,57760,1,0,0:0:0:0:
259,303,57822,1,0,0:0:0:0:
259,303,57885,1,0,0:0:0:0:
125,55,58010,5,0,0:0:0:0:
148,40,58072,1,0,0:0:0:0:
174,34,58135,1,0,0:0:0:0:
201,37,58197,1,0,0:0:0:0:
226,49,58260,1,0,0:0:0:0:
244,69,58322,1,0,0:0:0:0:
255,94,58385,1,0,0:0:0:0:
257,122,58447,1,0,0:0:0:0:
249,148,58510,2,0,L|177:162,1,55.0000016784668
98,171,58635,5,0,0:0:0:0:
77,189,58697,1,0,0:0:0:0:
65,214,58760,1,0,0:0:0:0:
63,241,58822,1,0,0:0:0:0:
70,267,58885,1,0,0:0:0:0:
86,289,58947,1,0,0:0:0:0:
109,304,59010,2,0,L|177:310,1,55.0000016784668
267,317,59135,5,0,0:0:0:0:
287,298,59197,1,0,0:0:0:0:
307,280,59260,1,0,0:0:0:0:
328,261,59322,1,0,0:0:0:0:
348,243,59385,1,0,0:0:0:0:
369,225,59447,1,0,0:0:0:0:
389,206,59510,2,0,L|441:160,1,55.0000016784668
423,48,59635,2,0,L|381:84,1,55.0000016784668
321,145,59760,5,0,0:0:0:0:
294,151,59822,1,0,0:0:0:0:
267,147,59885,1,0,0:0:0:0:
244,133,59947,1,0,0:0:0:0:
227,111,60010,1,0,0:0:0:0:
227,111,61010,5,0,0:0:0:0:
217,86,61072,1,0,0:0:0:0:
197,67,61135,1,0,0:0:0:0:
172,58,61197,1,0,0:0:0:0:
145,60,61260,1,0,0:0:0:0:
121,73,61322,1,0,0:0:0:0:
104,95,61385,1,0,0:0:0:0:
98,121,61447,1,0,0:0:0:0:
103,148,61510,2,0,L|134:217,1,55.0000016784668
169,280,61635,5,0,0:0:0:0:
178,281,61697,1,0,0:0:0:0:
187,282,61760,1,0,0:0:0:0:
196,283,61822,1,0,0:0:0:0:
205,284,61885,1,0,0:0:0:0:
214,285,61947,1,0,0:0:0:0:
223,286,62010,6,0,B|281:260|281:260|339:213,1,119.999996337891
356,51,62260,1,0,0:0:0:0:
356,51,62322,1,0,0:0:0:0:
356,51,62385,2,0,P|291:31|217:28,1,119.999996337891
103,148,62635,1,0,0:0:0:0:
215,318,62760,2,0,L|305:338,2,59.9999981689454
415,164,63010,6,0,L|431:313,1,119.999996337891
230,164,63260,1,0,0:0:0:0:
230,164,63322,1,0,0:0:0:0:
230,164,63385,2,0,P|225:102|277:50,1,119.999996337891
215,318,63635,1,0,0:0:0:0:
48,193,63760,2,0,L|-6:154,2,59.9999981689454
124,52,64010,6,0,L|281:35,1,119.999996337891
418,26,64260,1,0,0:0:0:0:
418,26,64322,1,0,0:0:0:0:
418,26,64385,2,0,B|448:78|448:78|468:173,1,119.999996337891
426,293,64635,1,0,0:0:0:0:
247,305,64760,2,0,L|183:260,2,59.9999981689454
378,172,65010,5,0,0:0:0:0:
192,188,65135,1,0,0:0:0:0:
271,18,65260,1,0,0:0:0:0:
271,18,65322,1,0,0:0:0:0:
271,18,65385,1,0,0:0:0:0:
290,234,65510,1,0,0:0:0:0:
182,80,65635,1,0,0:0:0:0:
369,64,65760,1,0,0:0:0:0:
369,64,65822,1,0,0:0:0:0:
369,64,65885,1,0,0:0:0:0:
201,184,66010,6,0,L|58:176,1,119.999996337891
424,204,66260,1,0,0:0:0:0:
424,204,66322,1,0,0:0:0:0:
424,204,66385,2,0,B|448:259|448:259|454:323,1,119.999996337891
277,153,66635,1,0,0:0:0:0:
398,38,66760,2,0,L|470:60,2,59.9999981689454
375,283,67010,6,0,B|326:322|326:322|266:347,1,119.999996337891
93,268,67260,1,0,0:0:0:0:
93,268,67322,1,0,0:0:0:0:
93,268,67385,2,0,P|105:197|86:125,1,119.999996337891
221,12,67635,1,0,0:0:0:0:
299,199,67760,2,0,L|281:293,2,59.9999981689454
152,368,68010,6,0,L|10:346,1,119.999996337891
177,152,68260,1,0,0:0:0:0:
177,152,68322,1,0,0:0:0:0:
177,152,68385,2,0,B|198:208|198:208|201:283,1,119.999996337891
38,128,68635,1,0,0:0:0:0:
166,18,68760,2,0,L|238:16,2,59.9999981689454
359,131,69010,6,0,L|384:272,1,119.999996337891
471,39,69260,1,0,0:0:0:0:
471,39,69322,1,0,0:0:0:0:
471,39,69385,1,0,0:0:0:0:
334,156,69510,2,0,L|359:297,1,119.999996337891
446,64,69760,1,0,0:0:0:0:
446,64,69822,1,0,0:0:0:0:
446,64,69885,1,0,0:0:0:0:
238,234,70010,6,0,P|177:197|163:109,1,119.999996337891
268,349,70260,1,0,0:0:0:0:
268,349,70322,1,0,0:0:0:0:
268,349,70385,2,0,L|121:344,1,119.999996337891
424,360,70635,1,0,0:0:0:0:
360,179,70760,2,0,L|333:99,2,59.9999981689454
72,240,71010,6,0,L|60:95,1,119.999996337891
245,8,71260,1,0,0:0:0:0:
245,8,71322,1,0,0:0:0:0:
245,8,71385,2,0,B|308:26|308:26|379:28,1,119.999996337891
298,242,71635,1,0,0:0:0:0:
143,99,71760,2,0,L|136:16,2,59.9999981689454
162,334,72010,6,0,B|219:364|219:364|288:375,1,119.999996337891
440,247,72260,1,0,0:0:0:0:
440,247,72322,1,0,0:0:0:0:
440,247,72385,2,0,P|446:186|414:110,1,119.999996337891
232,36,72635,1,0,0:0:0:0:
212,252,72760,2,0,L|280:268,2,59.9999981689454
375,73,73010,6,0,L|391:217,1,119.999996337891
335,318,73260,1,0,0:0:0:0:
335,318,73322,1,0,0:0:0:0:
335,318,73385,1,0,0:0:0:0:
137,73,73510,2,0,L|121:217,1,119.999996337891
177,318,73760,1,0,0:0:0:0:
177,318,73822,1,0,0:0:0:0:
177,318,73885,1,0,0:0:0:0:
225,35,74010,6,0,B|283:10|283:10|351:-3,1,119.999996337891
426,187,74260,1,0,0:0:0:0:
426,187,74322,1,0,0:0:0:0:
426,187,74385,2,0,L|485:307,1,119.999996337891
279,229,74635,1,0,0:0:0:0:
428,79,74760,2,0,L|492:96,2,59.9999981689454
378,344,75010,6,0,L|247:356,1,119.999996337891
63,221,75260,1,0,0:0:0:0:
63,221,75322,1,0,0:0:0:0:
63,221,75385,2,0,B|78:163|78:163|118:102,1,119.999996337891
278,22,75635,1,0,0:0:0:0:
307,209,75760,2,0,L|319:275,2,59.9999981689454
491,237,76010,5,0,0:0:0:0:
495,261,76072,1,0,0:0:0:0:
493,286,76135,1,0,0:0:0:0:
486,310,76197,1,0,0:0:0:0:
473,331,76260,1,0,0:0:0:0:
454,348,76322,1,0,0:0:0:0:
433,360,76385,1,0,0:0:0:0:
409,366,76447,1,0,0:0:0:0:
384,367,76510,1,0,0:0:0:0:
359,361,76572,1,0,0:0:0:0:
337,349,76635,1,0,0:0:0:0:
315,336,76697,1,0,0:0:0:0:
292,326,76760,1,0,0:0:0:0:
268,319,76822,1,0,0:0:0:0:
243,315,76885,1,0,0:0:0:0:
218,314,76947,1,0,0:0:0:0:
192,315,77010,6,0,L|174:243,1,50
90,264,77135,2,0,L|72:192,1,50
172,82,77260,2,0,L|239:92,1,50
265,165,77385,2,0,L|332:155,1,50
406,146,77510,5,0,0:0:0:0:
428,156,77572,1,0,0:0:0:0:
446,173,77635,1,0,0:0:0:0:
459,195,77697,1,0,0:0:0:0:
463,219,77760,1,0,0:0:0:0:
461,244,77822,1,0,0:0:0:0:
450,266,77885,1,0,0:0:0:0:
434,285,77947,1,0,0:0:0:0:
412,297,78010,6,0,L|274:277,1,129.999994049073
117,255,78260,1,0,0:0:0:0:
113,239,78322,1,0,0:0:0:0:
110,223,78385,1,0,0:0:0:0:
198,317,78510,1,0,0:0:0:0:
185,327,78572,1,0,0:0:0:0:
173,338,78635,1,0,0:0:0:0:
201,190,78760,1,0,0:0:0:0:
216,196,78822,1,0,0:0:0:0:
231,201,78885,1,0,0:0:0:0:
326,0,79010,6,0,L|377:129,1,129.999994049073
437,276,79260,1,0,0:0:0:0:
424,287,79322,1,0,0:0:0:0:
412,298,79385,1,0,0:0:0:0:
450,175,79510,1,0,0:0:0:0:
465,181,79572,1,0,0:0:0:0:
481,186,79635,1,0,0:0:0:0:
338,236,79760,1,0,0:0:0:0:
336,220,79822,1,0,0:0:0:0:
333,204,79885,1,0,0:0:0:0:
104,255,80010,6,0,L|190:145,1,129.999994049073
287,21,80260,1,0,0:0:0:0:
303,26,80322,1,0,0:0:0:0:
319,31,80385,1,0,0:0:0:0:
193,60,80510,1,0,0:0:0:0:
191,44,80572,1,0,0:0:0:0:
187,27,80635,1,0,0:0:0:0:
302,126,80760,1,0,0:0:0:0:
289,136,80822,1,0,0:0:0:0:
277,146,80885,1,0,0:0:0:0:
140,264,81010,6,0,L|10:199,1,129.999994049073
372,264,81260,2,0,L|488:205,1,129.999994049073
120,172,81510,2,0,L|63:39,1,129.999994049073
391,172,81760,2,0,L|448:39,1,129.999994049073
256,192,82010,6,0,B|256:264|256:264|288:344,1,129.999994049073
430,127,82260,1,0,0:0:0:0:
430,127,82323,1,0,0:0:0:0:
430,127,82385,1,0,0:0:0:0:
335,243,82510,1,0,0:0:0:0:
335,243,82573,1,0,0:0:0:0:
335,243,82635,1,0,0:0:0:0:
483,266,82760,1,0,0:0:0:0:
483,266,82822,1,0,0:0:0:0:
483,266,82885,1,0,0:0:0:0:
256,192,83010,6,0,B|193:156|193:156|108:143,1,129.999994049073
225,375,83260,1,0,0:0:0:0:
225,375,83323,1,0,0:0:0:0:
225,375,83385,1,0,0:0:0:0:
172,234,83510,1,0,0:0:0:0:
172,234,83573,1,0,0:0:0:0:
172,234,83635,1,0,0:0:0:0:
78,351,83760,1,0,0:0:0:0:
78,351,83822,1,0,0:0:0:0:
78,351,83885,1,0,0:0:0:0:
256,192,84010,6,0,B|318:156|318:156|371:88,1,129.999994049073
388,37,84197,2,0,L|457:51,1,64.9999970245363
488,125,84322,1,0,0:0:0:0:
488,137,84384,1,0,0:0:0:0:
489,150,84447,1,0,0:0:0:0:
490,163,84509,1,0,0:0:0:0:
490,176,84572,1,0,0:0:0:0:
491,189,84635,2,0,L|495:258,1,64.9999970245363
500,342,84760,5,0,0:0:0:0:
486,351,84822,1,0,0:0:0:0:
471,358,84885,1,0,0:0:0:0:
456,363,84947,1,0,0:0:0:0:
440,366,85010,2,0,L|366:326,1,64.9999970245363
294,355,85135,2,0,L|220:315,1,64.9999970245363
158,350,85260,1,0,0:0:0:0:
158,350,85322,1,0,0:0:0:0:
158,350,85385,2,0,L|84:310,1,64.9999970245363
9,278,85510,1,0,0:0:0:0:
9,278,86010,6,0,L|32:160,1,100
31,165,86197,1,0,0:0:0:0:
34,150,86259,1,0,0:0:0:0:
37,135,86322,1,0,0:0:0:0:
40,120,86385,2,0,B|91:120|91:120|153:106,1,100
278,33,86635,1,0,0:0:0:0:
281,45,86697,1,0,0:0:0:0:
284,57,86760,1,0,0:0:0:0:
287,69,86822,1,0,0:0:0:0:
291,81,86885,1,0,0:0:0:0:
334,258,87010,6,0,L|239:320,1,100
457,188,87260,2,0,L|457:110,2,50
366,330,87510,2,0,L|271:392,1,100
489,260,87760,2,0,L|489:182,2,50
182,45,88010,5,0,0:0:0:0:
182,186,88135,1,0,0:0:0:0:
304,117,88260,1,0,0:0:0:0:
304,117,88322,1,0,0:0:0:0:
304,117,88385,1,0,0:0:0:0:
170,10,88510,1,0,0:0:0:0:
170,223,88635,1,0,0:0:0:0:
337,122,88760,1,0,0:0:0:0:
337,122,88822,1,0,0:0:0:0:
337,122,88885,1,0,0:0:0:0:
77,73,89010,5,0,0:0:0:0:
23,178,89135,1,0,0:0:0:0:
26,190,89197,1,0,0:0:0:0:
29,202,89260,1,0,0:0:0:0:
32,214,89322,1,0,0:0:0:0:
35,226,89385,2,0,L|108:314,1,100
108,314,89572,1,0,0:0:0:0:
122,310,89634,1,0,0:0:0:0:
137,307,89697,1,0,0:0:0:0:
152,304,89759,1,0,0:0:0:0:
309,280,89885,5,0,0:0:0:0:
309,280,90010,2,0,L|330:158,1,100
329,167,90197,1,0,0:0:0:0:
331,152,90259,1,0,0:0:0:0:
334,137,90322,1,0,0:0:0:0:
337,122,90384,1,0,0:0:0:0:
175,184,90510,1,0,0:0:0:0:
213,353,90635,1,0,0:0:0:0:
227,354,90697,1,0,0:0:0:0:
242,356,90760,1,0,0:0:0:0:
257,357,90822,1,0,0:0:0:0:
271,359,90885,1,0,0:0:0:0:
61,333,91010,6,0,L|41:204,1,100
112,88,91260,1,0,0:0:0:0:
112,88,91322,1,0,0:0:0:0:
112,88,91385,1,0,0:0:0:0:
186,338,91510,2,0,L|166:209,1,100
237,93,91760,1,0,0:0:0:0:
237,93,91822,1,0,0:0:0:0:
237,93,91885,1,0,0:0:0:0:
396,244,92010,5,0,0:0:0:0:
372,52,92135,1,0,0:0:0:0:
279,246,92260,1,0,0:0:0:0:
479,170,92385,1,0,0:0:0:0:
416,357,92510,1,0,0:0:0:0:
324,150,92635,1,0,0:0:0:0:
235,350,92760,1,0,0:0:0:0:
222,347,92822,1,0,0:0:0:0:
210,344,92885,1,0,0:0:0:0:
198,341,92947,1,0,0:0:0:0:
186,338,93010,6,0,L|140:294,1,50
72,300,93135,2,0,L|43:242,1,50
109,204,93260,2,0,L|102:140,1,50
46,101,93385,2,0,L|61:39,1,50
171,17,93510,2,0,L|242:24,1,50
300,108,93635,2,0,L|229:115,1,50
326,21,93760,2,0,L|397:28,1,50
455,112,93885,2,0,L|384:119,1,50
268,208,94010,6,0,B|259:261|259:261|259:320,1,100
263,321,94197,1,0,0:0:0:0:
248,325,94259,1,0,0:0:0:0:
234,329,94322,1,0,0:0:0:0:
219,334,94385,2,0,P|163:326|110:278,1,100
65,178,94635,1,0,0:0:0:0:
67,165,94697,1,0,0:0:0:0:
70,153,94760,1,0,0:0:0:0:
73,141,94822,1,0,0:0:0:0:
75,129,94885,1,0,0:0:0:0:
208,21,95010,6,0,L|322:21,1,100
429,109,95260,2,0,L|455:167,2,50
207,197,95510,2,0,L|321:197,1,100
428,285,95760,2,0,L|454:343,2,50
280,60,96010,5,0,0:0:0:0:
207,197,96135,1,0,0:0:0:0:
363,192,96260,1,0,0:0:0:0:
363,192,96322,1,0,0:0:0:0:
363,192,96385,1,0,0:0:0:0:
204,107,96510,1,0,0:0:0:0:
287,240,96635,1,0,0:0:0:0:
360,102,96760,1,0,0:0:0:0:
360,102,96822,1,0,0:0:0:0:
360,102,96885,1,0,0:0:0:0:
207,197,97010,5,0,0:0:0:0:
360,282,97135,1,0,0:0:0:0:
367,305,97197,1,0,0:0:0:0:
365,330,97260,1,0,0:0:0:0:
353,352,97322,1,0,0:0:0:0:
333,367,97385,2,0,L|218:353,1,100
219,352,97572,1,0,0:0:0:0:
204,349,97634,1,0,0:0:0:0:
189,347,97697,1,0,0:0:0:0:
174,345,97759,1,0,0:0:0:0:
159,343,97822,1,0,0:0:0:0:
144,340,97884,1,0,0:0:0:0:
45,187,98010,5,0,0:0:0:0:
211,102,98135,1,0,0:0:0:0:
211,114,98197,1,0,0:0:0:0:
212,126,98260,1,0,0:0:0:0:
213,139,98322,1,0,0:0:0:0:
214,151,98385,1,0,0:0:0:0:
225,266,98510,1,0,0:0:0:0:
322,153,98635,1,0,0:0:0:0:
322,165,98697,1,0,0:0:0:0:
323,177,98760,1,0,0:0:0:0:
324,190,98822,1,0,0:0:0:0:
325,202,98885,1,0,0:0:0:0:
336,317,99010,6,0,B|388:334|388:334|450:338,1,100
176,67,99260,2,0,B|124:50|124:50|62:46,1,100
381,112,99510,2,0,B|398:60|398:60|402:-2,1,100
131,272,99760,2,0,B|114:324|114:324|110:386,1,100
336,317,100010,5,0,0:0:0:0:
381,112,100135,1,0,0:0:0:0:
176,67,100260,1,0,0:0:0:0:
131,272,100385,1,0,0:0:0:0:
379,221,100510,5,0,0:0:0:0:
379,221,100572,1,0,0:0:0:0:
379,221,100635,2,0,L|447:204,1,50
493,137,100760,1,0,0:0:0:0:
495,112,100822,1,0,0:0:0:0:
491,87,100885,1,0,0:0:0:0:
481,64,100947,1,0,0:0:0:0:
465,45,101010,6,0,L|408:34,1,50
316,57,101135,2,0,L|259:46,1,50
161,26,101260,1,0,0:0:0:0:
141,57,101322,1,0,0:0:0:0:
129,93,101385,1,0,0:0:0:0:
126,130,101447,1,0,0:0:0:0:
132,167,101510,6,0,L|163:220,1,50
210,290,101635,1,0,0:0:0:0:
242,162,101760,2,0,L|272:214,1,50
319,284,101885,1,0,0:0:0:0:
462,203,102010,6,0,L|466:82,1,110.000003356934
192,98,102260,1,0,0:0:0:0:
192,98,102322,1,0,0:0:0:0:
192,98,102385,1,0,0:0:0:0:
245,243,102510,1,0,0:0:0:0:
245,243,102572,1,0,0:0:0:0:
245,243,102635,1,0,0:0:0:0:
389,190,102760,1,0,0:0:0:0:
389,190,102822,1,0,0:0:0:0:
389,190,102885,1,0,0:0:0:0:
337,45,103010,1,0,0:0:0:0:
337,45,103072,1,0,0:0:0:0:
337,45,103135,1,0,0:0:0:0:
146,191,103260,6,0,L|141:322,1,110.000003356934
298,366,103510,1,0,0:0:0:0:
298,366,103572,1,0,0:0:0:0:
298,366,103635,1,0,0:0:0:0:
450,314,103760,2,0,L|455:183,1,110.000003356934
298,139,104010,1,0,0:0:0:0:
298,139,104072,1,0,0:0:0:0:
298,139,104135,1,0,0:0:0:0:
108,164,104260,5,0,0:0:0:0:
100,190,104322,1,0,0:0:0:0:
93,217,104385,1,0,0:0:0:0:
220,244,104510,1,0,0:0:0:0:
200,224,104572,1,0,0:0:0:0:
181,204,104635,1,0,0:0:0:0:
90,302,104760,1,0,0:0:0:0:
117,294,104822,1,0,0:0:0:0:
144,288,104885,1,0,0:0:0:0:
367,237,105010,5,0,0:0:0:0:
250,368,105135,1,0,0:0:0:0:
288,142,105260,1,0,0:0:0:0:
330,326,105385,1,0,0:0:0:0:
150,169,105510,1,0,0:0:0:0:
304,29,105635,1,0,0:0:0:0:
272,250,105760,1,0,0:0:0:0:
199,84,105885,1,0,0:0:0:0:
409,126,106010,5,0,0:0:0:0:
367,237,106135,1,0,0:0:0:0:
409,126,106260,1,0,0:0:0:0:
367,237,106385,1,0,0:0:0:0:
409,126,106510,1,0,0:0:0:0:
367,237,106635,1,0,0:0:0:0:
347,40,106760,5,0,0:0:0:0:
266,250,106885,1,0,0:0:0:0:
347,40,107010,1,0,0:0:0:0:
266,250,107135,1,0,0:0:0:0:
347,40,107260,1,0,0:0:0:0:
266,250,107385,1,0,0:0:0:0:
228,38,107510,5,0,0:0:0:0:
131,298,107635,1,0,0:0:0:0:
228,38,107760,1,0,0:0:0:0:
131,298,107885,1,0,0:0:0:0:
228,38,108010,6,0,L|329:32,1,55.0000016784668
396,102,108135,1,0,0:0:0:0:
396,102,108197,1,0,0:0:0:0:
396,102,108260,2,0,L|341:105,1,55.0000016784668
252,183,108385,1,0,0:0:0:0:
252,183,108447,1,0,0:0:0:0:
252,183,108510,2,0,L|306:179,1,55.0000016784668
421,255,108635,1,0,0:0:0:0:
421,255,108697,1,0,0:0:0:0:
421,255,108760,2,0,L|366:258,1,55.0000016784668
277,336,108885,1,0,0:0:0:0:
277,336,108947,1,0,0:0:0:0:
277,336,109010,2,0,L|331:332,1,55.0000016784668
166,348,109135,5,0,0:0:0:0:
166,348,109197,1,0,0:0:0:0:
166,348,109260,2,0,L|172:279,1,55.0000016784668
53,215,109385,1,0,0:0:0:0:
53,215,109447,1,0,0:0:0:0:
53,215,109510,2,0,L|59:284,1,55.0000016784668
176,209,109635,1,0,0:0:0:0:
176,199,109697,1,0,0:0:0:0:
177,190,109760,1,0,0:0:0:0:
178,181,109822,1,0,0:0:0:0:
179,172,109885,1,0,0:0:0:0:
179,163,109947,1,0,0:0:0:0:
180,154,110010,6,0,B|228:124|228:124|286:112,1,110.000003356934
416,264,110260,1,0,0:0:0:0:
416,264,110322,1,0,0:0:0:0:
416,264,110385,1,0,0:0:0:0:
278,202,110510,1,0,0:0:0:0:
278,202,110572,1,0,0:0:0:0:
278,202,110635,1,0,0:0:0:0:
377,163,110760,1,0,0:0:0:0:
377,163,110823,1,0,0:0:0:0:
377,163,110885,1,0,0:0:0:0:
316,301,111010,1,0,0:0:0:0:
316,301,111073,1,0,0:0:0:0:
316,301,111135,1,0,0:0:0:0:
99,298,111260,6,0,B|74:244|74:244|64:170,1,110.000003356934
114,63,111510,1,0,0:0:0:0:
114,63,111572,1,0,0:0:0:0:
114,63,111635,1,0,0:0:0:0:
151,223,111760,2,0,B|166:165|166:165|206:102,1,110.000003356934
313,52,112010,1,0,0:0:0:0:
313,52,112072,1,0,0:0:0:0:
313,52,112135,1,0,0:0:0:0:
416,140,112260,5,0,0:0:0:0:
417,153,112322,1,0,0:0:0:0:
419,167,112385,1,0,0:0:0:0:
315,225,112510,1,0,0:0:0:0:
316,211,112573,1,0,0:0:0:0:
318,197,112635,1,0,0:0:0:0:
424,262,112760,1,0,0:0:0:0:
426,276,112822,1,0,0:0:0:0:
427,290,112885,1,0,0:0:0:0:
332,93,113010,5,0,0:0:0:0:
201,282,113135,1,0,0:0:0:0:
203,119,113260,1,0,0:0:0:0:
292,312,113385,1,0,0:0:0:0:
88,244,113510,1,0,0:0:0:0:
287,172,113635,1,0,0:0:0:0:
179,375,113760,1,0,0:0:0:0:
28,151,113885,1,0,0:0:0:0:
207,0,114010,5,0,0:0:0:0:
297,145,114135,1,0,0:0:0:0:
126,151,114260,1,0,0:0:0:0:
126,151,114322,1,0,0:0:0:0:
126,151,114385,1,0,0:0:0:0:
294,46,114510,1,0,0:0:0:0:
214,198,114635,1,0,0:0:0:0:
123,52,114760,1,0,0:0:0:0:
123,52,114822,1,0,0:0:0:0:
123,52,114885,1,0,0:0:0:0:
297,145,115010,5,0,0:0:0:0:
126,151,115135,1,0,0:0:0:0:
207,0,115260,1,0,0:0:0:0:
207,0,115323,1,0,0:0:0:0:
207,0,115385,1,0,0:0:0:0:
214,198,115510,1,0,0:0:0:0:
123,52,115635,1,0,0:0:0:0:
294,46,115760,1,0,0:0:0:0:
294,46,115822,1,0,0:0:0:0:
294,46,115885,1,0,0:0:0:0:
419,182,116010,5,0,0:0:0:0:
420,191,116072,1,0,0:0:0:0:
421,200,116135,1,0,0:0:0:0:
423,209,116197,1,0,0:0:0:0:
424,218,116260,1,0,0:0:0:0:
425,227,116322,1,0,0:0:0:0:
427,236,116385,2,0,L|371:251,1,55.0000016784668
288,264,116510,5,0,0:0:0:0:
274,260,116572,1,0,0:0:0:0:
262,254,116635,1,0,0:0:0:0:
250,247,116697,1,0,0:0:0:0:
240,238,116760,1,0,0:0:0:0:
231,227,116822,1,0,0:0:0:0:
224,215,116885,1,0,0:0:0:0:
219,202,116947,1,0,0:0:0:0:
215,187,117010,2,0,L|227:128,1,55.0000016784668
249,41,117135,5,0,0:0:0:0:
225,13,117197,1,0,0:0:0:0:
191,0,117260,1,0,0:0:0:0:
156,6,117322,1,0,0:0:0:0:
128,29,117385,1,0,0:0:0:0:
115,63,117447,1,0,0:0:0:0:
121,99,117510,2,0,L|94:163,1,55.0000016784668
24,190,117635,2,0,L|-2:254,1,55.0000016784668
48,323,117760,5,0,0:0:0:0:
61,325,117822,1,0,0:0:0:0:
74,328,117885,1,0,0:0:0:0:
88,330,117947,1,0,0:0:0:0:
101,333,118010,1,0,0:0:0:0:
101,333,118510,5,0,0:0:0:0:
150,344,118760,1,0,0:0:0:0:
197,352,119010,5,0,0:0:0:0:
229,341,119072,1,0,0:0:0:0:
256,320,119135,1,0,0:0:0:0:
274,291,119197,1,0,0:0:0:0:
280,257,119260,1,0,0:0:0:0:
274,223,119322,1,0,0:0:0:0:
257,194,119385,1,0,0:0:0:0:
231,172,119447,1,0,0:0:0:0:
198,161,119510,2,0,L|124:179,1,55.0000016784668
199,254,119635,5,0,0:0:0:0:
235,260,119697,1,0,0:0:0:0:
270,252,119760,1,0,0:0:0:0:
301,232,119822,1,0,0:0:0:0:
322,202,119885,1,0,0:0:0:0:
332,167,119947,1,0,0:0:0:0:
328,130,120010,6,0,P|329:78|394:30,1,119.999996337891
472,174,120260,1,0,0:0:0:0:
472,174,120322,1,0,0:0:0:0:
472,174,120385,2,0,L|470:300,1,119.999996337891
281,343,120635,1,0,0:0:0:0:
198,161,120760,2,0,L|170:101,2,59.9999981689454
281,343,121010,6,0,B|218:358|218:358|143:361,1,119.999996337891
41,213,121260,1,0,0:0:0:0:
41,213,121322,1,0,0:0:0:0:
41,213,121385,2,0,P|29:156|46:88,1,119.999996337891
189,8,121635,1,0,0:0:0:0:
297,139,121760,2,0,L|350:191,2,59.9999981689454
469,293,122010,6,0,L|471:174,1,119.999996337891
476,16,122260,1,0,0:0:0:0:
476,16,122322,1,0,0:0:0:0:
476,16,122385,2,0,B|411:29|411:29|339:35,1,119.999996337891
245,216,122635,1,0,0:0:0:0:
111,97,122760,2,0,L|133:26,2,59.9999981689454
65,278,123010,6,0,B|100:329|100:329|154:374,1,119.999996337891
314,338,123260,1,0,0:0:0:0:
314,338,123322,1,0,0:0:0:0:
314,338,123385,1,0,0:0:0:0:
127,199,123510,2,0,B|186:215|186:215|256:215,1,119.999996337891
356,84,123760,1,0,0:0:0:0:
356,84,123822,1,0,0:0:0:0:
356,84,123885,1,0,0:0:0:0:
137,17,124010,6,0,L|42:100,1,119.999996337891
17,244,124260,1,0,0:0:0:0:
17,244,124322,1,0,0:0:0:0:
17,244,124385,2,0,B|42:302|42:302|92:357,1,119.999996337891
299,293,124635,1,0,0:0:0:0:
205,106,124760,2,0,L|125:118,2,59.9999981689454
443,84,125010,6,0,L|468:218,1,119.999996337891
505,358,125260,1,0,0:0:0:0:
505,358,125322,1,0,0:0:0:0:
505,358,125385,2,0,L|352:346,1,119.999996337891
165,329,125635,1,0,0:0:0:0:
329,157,125760,2,0,L|339:233,2,59.9999981689454
123,53,126010,6,0,P|110:117|135:205,1,119.999996337891
332,35,126260,1,0,0:0:0:0:
332,35,126322,1,0,0:0:0:0:
332,35,126385,2,0,B|268:21|268:21|200:17,1,119.999996337891
293,244,126635,1,0,0:0:0:0:
429,162,126760,2,0,L|450:86,2,59.9999981689454
385,351,127010,5,0,0:0:0:0:
385,351,127135,1,0,0:0:0:0:
319,150,127260,1,0,0:0:0:0:
319,150,127322,1,0,0:0:0:0:
319,150,127385,1,0,0:0:0:0:
214,299,127510,5,0,0:0:0:0:
214,299,127635,1,0,0:0:0:0:
148,98,127760,1,0,0:0:0:0:
148,98,127822,1,0,0:0:0:0:
148,98,127885,1,0,0:0:0:0:
429,42,128010,6,0,L|429:183,1,119.999996337891
434,318,128260,1,0,0:0:0:0:
434,318,128322,1,0,0:0:0:0:
434,318,128385,2,0,B|371:337|371:337|299:344,1,119.999996337891
123,210,128635,1,0,0:0:0:0:
342,124,128760,2,0,L|354:215,2,59.9999981689454
227,195,129010,6,0,L|244:325,1,119.999996337891
214,48,129260,1,0,0:0:0:0:
214,48,129322,1,0,0:0:0:0:
214,48,129385,2,0,B|161:38|161:38|79:48,1,119.999996337891
92,298,129635,1,0,0:0:0:0:
317,273,129760,2,0,L|347:198,2,59.9999981689454
414,48,130010,6,0,L|432:182,1,119.999996337891
464,339,130260,1,0,0:0:0:0:
464,339,130322,1,0,0:0:0:0:
464,339,130385,2,0,P|412:360|327:364,1,119.999996337891
173,336,130635,1,0,0:0:0:0:
292,153,130760,2,0,L|352:71,2,59.9999981689454
159,31,131010,6,0,B|97:57|97:57|43:100,1,119.999996337891
199,244,131260,1,0,0:0:0:0:
199,244,131322,1,0,0:0:0:0:
199,244,131385,2,0,L|214:114,1,119.999996337891
72,322,131635,1,0,0:0:0:0:
255,340,131760,1,0,0:0:0:0:
269,336,131822,1,0,0:0:0:0:
284,333,131885,1,0,0:0:0:0:
445,297,132010,6,0,L|445:162,1,119.999996337891
373,18,132260,1,0,0:0:0:0:
373,18,132322,1,0,0:0:0:0:
373,18,132385,2,0,B|309:5|309:5|244:6,1,119.999996337891
86,122,132635,1,0,0:0:0:0:
280,160,132760,2,0,L|357:123,2,59.9999981689454
82,250,133010,6,0,P|74:313|113:374,1,119.999996337891
310,354,133260,1,0,0:0:0:0:
310,354,133322,1,0,0:0:0:0:
310,354,133385,2,0,B|356:307|356:307|397:242,1,119.999996337891
418,97,133635,1,0,0:0:0:0:
205,119,133760,2,0,L|168:169,2,59.9999981689454
85,291,134010,6,0,L|156:315,1,59.9999981689454
230,342,134135,1,0,0:0:0:0:
263,329,134197,1,0,0:0:0:0:
288,304,134260,1,0,0:0:0:0:
300,270,134322,1,0,0:0:0:0:
297,235,134385,1,0,0:0:0:0:
279,204,134447,1,0,0:0:0:0:
255,178,134509,1,0,0:0:0:0:
247,143,134572,1,0,0:0:0:0:
255,108,134634,1,0,0:0:0:0:
277,80,134697,1,0,0:0:0:0:
310,66,134759,1,0,0:0:0:0:
345,68,134822,1,0,0:0:0:0:
377,85,134884,1,0,0:0:0:0:
396,114,134947,1,0,0:0:0:0:
406,150,135010,5,0,0:0:0:0:
106,234,136010,5,0,0:0:0:0:
406,150,142010,6,0,L|413:229,1,50
422,293,142135,1,0,0:0:0:0:
409,328,142197,1,0,0:0:0:0:
384,355,142260,1,0,0:0:0:0:
351,372,142322,1,0,0:0:0:0:
314,375,142385,6,0,L|231:333,1,50
190,317,142510,1,0,0:0:0:0:
183,280,142572,1,0,0:0:0:0:
176,243,142635,1,0,0:0:0:0:
170,206,142697,1,0,0:0:0:0:
163,169,142760,6,0,L|148:93,1,50
139,38,142885,1,0,0:0:0:0:
139,38,142947,1,0,0:0:0:0:
139,38,143010,1,0,0:0:0:0:
328,293,143510,5,0,0:0:0:0:
66,213,144010,5,0,0:0:0:0:
65,206,144072,1,0,0:0:0:0:
64,200,144135,1,0,0:0:0:0:
63,194,144197,1,0,0:0:0:0:
62,188,144260,1,0,0:0:0:0:
61,182,144322,1,0,0:0:0:0:
60,175,144385,1,0,0:0:0:0:
59,169,144447,1,0,0:0:0:0:
58,163,144510,5,0,0:0:0:0:
62,144,144572,1,0,0:0:0:0:
70,127,144635,1,0,0:0:0:0:
81,112,144697,1,0,0:0:0:0:
95,100,144760,1,0,0:0:0:0:
111,91,144822,1,0,0:0:0:0:
129,85,144885,1,0,0:0:0:0:
148,83,144947,1,0,0:0:0:0:
166,85,145010,5,0,0:0:0:0:
193,99,145072,1,0,0:0:0:0:
223,107,145135,1,0,0:0:0:0:
254,108,145197,1,0,0:0:0:0:
285,102,145260,1,0,0:0:0:0:
314,90,145322,1,0,0:0:0:0:
339,72,145385,1,0,0:0:0:0:
360,49,145447,1,0,0:0:0:0:
375,22,145510,5,0,0:0:0:0:
417,14,145572,1,0,0:0:0:0:
458,28,145635,1,0,0:0:0:0:
487,60,145697,1,0,0:0:0:0:
497,102,145760,1,0,0:0:0:0:
486,144,145822,1,0,0:0:0:0:
455,175,145885,1,0,0:0:0:0:
414,187,145947,1,0,0:0:0:0:
372,178,146010,6,0,P|288:206|410:266,1,300
197,157,146510,1,0,0:0:0:0:
197,157,146635,2,0,P|177:218|185:276,1,100
339,72,146885,1,0,0:0:0:0:
183,27,147010,1,0,0:0:0:0:
164,31,147072,1,0,0:0:0:0:
146,35,147135,1,0,0:0:0:0:
128,40,147197,1,0,0:0:0:0:
110,44,147260,1,0,0:0:0:0:
91,49,147322,1,0,0:0:0:0:
73,53,147385,1,0,0:0:0:0:
55,58,147447,1,0,0:0:0:0:
36,64,147510,2,0,B|24:113|24:113|25:176,2,100
17,300,148010,6,0,B|113:335|112:269|239:304,1,200
383,177,148385,1,0,0:0:0:0:
363,211,148447,1,0,0:0:0:0:
363,250,148510,1,0,0:0:0:0:
383,284,148572,1,0,0:0:0:0:
418,303,148635,1,0,0:0:0:0:
458,302,148697,1,0,0:0:0:0:
491,281,148760,1,0,0:0:0:0:
509,246,148822,1,0,0:0:0:0:
508,207,148885,1,0,0:0:0:0:
486,174,148947,1,0,0:0:0:0:
451,156,149010,5,0,0:0:0:0:
426,159,149072,1,0,0:0:0:0:
401,161,149135,1,0,0:0:0:0:
376,164,149197,1,0,0:0:0:0:
351,166,149260,1,0,0:0:0:0:
327,169,149322,1,0,0:0:0:0:
302,171,149385,1,0,0:0:0:0:
277,174,149447,1,0,0:0:0:0:
252,176,149510,5,0,0:0:0:0:
233,179,149572,1,0,0:0:0:0:
215,175,149635,1,0,0:0:0:0:
199,165,149697,1,0,0:0:0:0:
187,151,149760,1,0,0:0:0:0:
181,133,149822,1,0,0:0:0:0:
181,115,149885,1,0,0:0:0:0:
187,97,149947,1,0,0:0:0:0:
198,82,150010,5,0,0:0:0:0:
204,81,150072,1,0,0:0:0:0:
210,81,150135,1,0,0:0:0:0:
216,80,150197,1,0,0:0:0:0:
222,80,150260,1,0,0:0:0:0:
229,79,150322,1,0,0:0:0:0:
235,79,150385,1,0,0:0:0:0:
241,78,150447,1,0,0:0:0:0:
269,106,150510,5,0,0:0:0:0:
271,108,150572,1,0,0:0:0:0:
272,109,150635,1,0,0:0:0:0:
273,111,150697,1,0,0:0:0:0:
275,112,150760,1,0,0:0:0:0:
276,114,150822,1,0,0:0:0:0:
278,115,150885,1,0,0:0:0:0:
279,117,150947,1,0,0:0:0:0:
281,118,151010,6,0,L|399:90,3,100
327,208,151510,2,0,L|229:231,1,100
156,160,151760,2,0,L|58:183,1,100
459,107,152010,6,0,B|447:183|447:183|425:214|425:214|406:332,1,200
264,355,152385,1,0,0:0:0:0:
281,101,152510,2,0,L|385:162,1,100
498,348,152760,2,0,L|498:227,1,100
272,240,153010,6,0,B|155:288|187:204|72:248,1,200
259,131,153385,1,0,0:0:0:0:
259,131,153510,2,0,L|135:141,1,100
85,335,153760,2,0,L|209:325,1,100
402,311,154010,1,0,0:0:0:0:
251,247,154135,1,0,0:0:0:0:
292,378,154260,1,0,0:0:0:0:
364,213,154385,2,0,P|365:157|321:101,2,100
222,29,154760,2,0,L|347:22,1,100
472,118,155010,6,0,L|492:227,1,100
352,328,155260,1,0,0:0:0:0:
352,328,155385,2,0,B|331:308|331:308|311:327|311:327|308:302|308:302|248:318|172:269,1,200
70,178,155760,2,0,L|72:55,1,100
240,9,156010,2,0,P|320:86|226:9,1,500
378,8,156760,2,0,P|401:52|402:126,1,100
335,266,157010,5,0,0:0:0:0:
335,266,157072,1,0,0:0:0:0:
335,266,157135,2,0,L|237:280,1,50
211,201,157260,1,0,0:0:0:0:
211,201,157322,1,0,0:0:0:0:
211,201,157385,2,0,L|113:215,1,50
173,327,157510,1,0,0:0:0:0:
173,327,157572,1,0,0:0:0:0:
173,327,157635,2,0,L|75:341,1,50
49,262,157760,1,0,0:0:0:0:
49,262,157822,1,0,0:0:0:0:
49,262,157885,2,0,L|-49:276,1,50
52,83,158010,6,0,L|124:78,1,50
208,74,158135,1,0,0:0:0:0:
232,75,158197,1,0,0:0:0:0:
255,85,158260,1,0,0:0:0:0:
272,104,158322,1,0,0:0:0:0:
280,127,158385,1,0,0:0:0:0:
279,152,158447,1,0,0:0:0:0:
268,174,158510,1,0,0:0:0:0:
250,191,158572,1,0,0:0:0:0:
227,200,158635,1,0,0:0:0:0:
202,199,158697,1,0,0:0:0:0:
179,188,158760,1,0,0:0:0:0:
159,175,158822,1,0,0:0:0:0:
134,171,158885,1,0,0:0:0:0:
110,176,158947,1,0,0:0:0:0:
90,191,159010,6,0,P|70:237|112:311,1,100
97,302,159197,1,0,0:0:0:0:
116,317,159259,1,0,0:0:0:0:
139,328,159322,1,0,0:0:0:0:
163,335,159384,1,0,0:0:0:0:
188,337,159447,1,0,0:0:0:0:
212,334,159510,2,0,L|316:264,1,100
432,177,159760,1,0,0:0:0:0:
206,89,159885,1,0,0:0:0:0:
206,89,159947,1,0,0:0:0:0:
206,89,160010,6,0,B|191:149|191:149|205:228,1,119.999996337891
327,127,160260,2,0,B|342:67|342:67|328:-12,1,119.999996337891
297,200,160510,2,0,B|357:215|357:215|436:201,1,119.999996337891
242,17,160760,1,0,0:0:0:0:
124,12,160885,1,0,0:0:0:0:
34,91,161010,6,0,B|21:150|21:150|23:229,1,119.999996337891
213,191,161260,2,0,B|157:166|157:166|80:151,1,119.999996337891
38,319,161510,2,0,B|87:283|87:283|138:223,1,119.999996337891
260,64,161760,1,0,0:0:0:0:
260,64,161885,1,0,0:0:0:0:
390,208,162010,6,0,P|415:262|317:285,1,179.999994506836
324,293,162260,2,0,L|303:165,1,119.999996337891
122,208,162510,2,0,P|97:262|195:285,1,179.999994506836
187,293,162760,2,0,L|209:165,1,119.999996337891
309,28,163010,2,0,L|515:8,2,179.999994506836
101,48,163510,2,0,L|83:178,1,119.999996337891
251,197,163760,2,0,L|234:78,1,119.999996337891
110,301,164010,5,0,0:0:0:0:
124,302,164072,1,0,0:0:0:0:
139,304,164135,1,0,0:0:0:0:
154,306,164197,1,0,0:0:0:0:
169,307,164260,2,0,L|251:289,1,59.9999981689454
339,272,164385,5,0,0:0:0:0:
360,260,164447,1,0,0:0:0:0:
378,245,164510,1,0,0:0:0:0:
392,225,164572,1,0,0:0:0:0:
401,203,164635,1,0,0:0:0:0:
405,180,164697,1,0,0:0:0:0:
404,156,164760,1,0,0:0:0:0:
397,133,164822,1,0,0:0:0:0:
386,112,164885,1,0,0:0:0:0:
370,94,164947,1,0,0:0:0:0:
350,78,165010,5,0,0:0:0:0:
314,74,165072,1,0,0:0:0:0:
278,71,165135,1,0,0:0:0:0:
242,68,165197,1,0,0:0:0:0:
206,65,165260,1,0,0:0:0:0:
170,62,165322,1,0,0:0:0:0:
134,59,165385,1,0,0:0:0:0:
107,100,165447,5,0,0:0:0:0:
143,103,165510,1,0,0:0:0:0:
179,106,165572,1,0,0:0:0:0:
215,109,165635,1,0,0:0:0:0:
251,112,165697,1,0,0:0:0:0:
287,115,165760,1,0,0:0:0:0:
322,118,165822,1,0,0:0:0:0:
358,121,165885,1,0,0:0:0:0:
394,124,165947,1,0,0:0:0:0:
430,127,166010,5,0,0:0:0:0:
434,141,166072,1,0,0:0:0:0:
438,155,166135,1,0,0:0:0:0:
442,170,166197,1,0,0:0:0:0:
446,184,166260,1,0,0:0:0:0:
450,199,166322,1,0,0:0:0:0:
454,213,166385,1,0,0:0:0:0:
458,228,166447,1,0,0:0:0:0:
462,242,166510,5,0,0:0:0:0:
454,244,166572,1,0,0:0:0:0:
447,247,166635,1,0,0:0:0:0:
440,249,166697,1,0,0:0:0:0:
433,252,166760,1,0,0:0:0:0:
426,255,166822,1,0,0:0:0:0:
419,257,166885,1,0,0:0:0:0:
412,260,166947,1,0,0:0:0:0:
405,263,167010,6,0,L|325:243,7,59.9999981689454
252,297,167510,2,0,L|172:277,7,59.9999981689454
81,254,168010,1,0,0:0:0:0:
76,224,168072,1,0,0:0:0:0:
71,194,168135,1,0,0:0:0:0:
66,165,168197,1,0,0:0:0:0:
61,135,168260,5,0,0:0:0:0:
94,86,168322,1,0,0:0:0:0:
147,59,168385,1,0,0:0:0:0:
207,62,168447,1,0,0:0:0:0:
257,93,168510,2,0,L|284:157,1,59.9999981689454
369,190,168635,2,0,L|395:253,1,59.9999981689454
479,312,168760,1,0,0:0:0:0:
479,312,168822,1,0,0:0:0:0:
479,312,168885,1,0,0:0:0:0:
479,312,168947,1,0,0:0:0:0:
479,312,169010,6,0,L|482:235,3,59.9999981689454
397,211,169260,2,0,L|394:134,3,59.9999981689454
497,160,169510,2,0,L|500:83,3,59.9999981689454
415,59,169760,2,0,L|412:-18,3,59.9999981689454
273,42,170010,5,0,0:0:0:0:
272,53,170072,1,0,0:0:0:0:
272,64,170135,1,0,0:0:0:0:
271,75,170197,1,0,0:0:0:0:
271,86,170260,1,0,0:0:0:0:
271,98,170322,1,0,0:0:0:0:
270,109,170385,1,0,0:0:0:0:
270,120,170447,1,0,0:0:0:0:
270,131,170510,1,0,0:0:0:0:
269,143,170572,1,0,0:0:0:0:
269,154,170635,1,0,0:0:0:0:
269,165,170697,1,0,0:0:0:0:
268,176,170760,1,0,0:0:0:0:
268,188,170822,1,0,0:0:0:0:
267,199,170885,1,0,0:0:0:0:
267,210,170947,1,0,0:0:0:0:
267,221,171010,5,0,0:0:0:0:
250,246,171072,1,0,0:0:0:0:
228,265,171135,1,0,0:0:0:0:
201,278,171197,1,0,0:0:0:0:
171,282,171260,1,0,0:0:0:0:
141,278,171322,1,0,0:0:0:0:
114,266,171385,1,0,0:0:0:0:
91,247,171447,1,0,0:0:0:0:
75,222,171510,5,0,0:0:0:0:
42,240,171572,1,0,0:0:0:0:
20,270,171635,1,0,0:0:0:0:
13,306,171697,1,0,0:0:0:0:
23,342,171760,1,0,0:0:0:0:
48,370,171822,1,0,0:0:0:0:
82,384,171885,1,0,0:0:0:0:
120,381,171947,1,0,0:0:0:0:
152,362,172010,6,0,B|237:362|237:362|282:339|282:339|405:339,1,239.999992675781
220,153,172385,1,0,0:0:0:0:
220,153,172510,2,0,L|212:284,1,119.999996337891
390,197,172760,1,0,0:0:0:0:
270,40,172885,1,0,0:0:0:0:
90,97,173010,6,0,L|75:355,1,239.999992675781
235,372,173385,1,0,0:0:0:0:
235,372,173510,2,0,B|297:354|297:354|357:324,1,119.999996337891
415,103,173760,2,0,B|353:121|353:121|293:151,1,119.999996337891
181,266,174010,5,0,0:0:0:0:
138,279,174072,1,0,0:0:0:0:
94,271,174135,1,0,0:0:0:0:
60,243,174197,1,0,0:0:0:0:
43,202,174260,1,0,0:0:0:0:
48,157,174322,1,0,0:0:0:0:
74,121,174385,1,0,0:0:0:0:
113,101,174447,1,0,0:0:0:0:
158,103,174510,5,0,0:0:0:0:
178,125,174572,1,0,0:0:0:0:
206,133,174635,1,0,0:0:0:0:
235,125,174697,1,0,0:0:0:0:
255,104,174760,1,0,0:0:0:0:
261,75,174822,1,0,0:0:0:0:
252,47,174885,1,0,0:0:0:0:
229,28,174947,1,0,0:0:0:0:
199,24,175010,5,0,0:0:0:0:
192,38,175072,1,0,0:0:0:0:
185,51,175135,1,0,0:0:0:0:
178,64,175197,1,0,0:0:0:0:
171,77,175260,1,0,0:0:0:0:
163,90,175322,1,0,0:0:0:0:
156,104,175385,1,0,0:0:0:0:
149,117,175447,1,0,0:0:0:0:
142,130,175510,5,0,0:0:0:0:
143,137,175572,1,0,0:0:0:0:
145,144,175635,1,0,0:0:0:0:
147,151,175697,1,0,0:0:0:0:
149,159,175760,1,0,0:0:0:0:
151,166,175822,1,0,0:0:0:0:
153,173,175885,1,0,0:0:0:0:
155,180,175947,1,0,0:0:0:0:
157,188,176010,1,0,0:0:0:0:
157,188,176885,5,0,0:0:0:0:
428,251,177010,1,0,0:0:0:0:
428,251,177260,1,0,0:0:0:0:
428,251,177510,1,0,0:0:0:0:
282,42,177760,5,0,0:0:0:0:
281,54,177822,1,0,0:0:0:0:
281,66,177885,1,0,0:0:0:0:
280,79,177947,1,0,0:0:0:0:
281,92,178010,6,0,L|279:175,1,50
398,221,178135,2,0,L|396:171,1,50
254,119,178260,2,0,L|252:202,1,50
371,248,178385,2,0,L|369:198,1,50
236,144,178510,2,0,L|234:227,1,50
353,273,178635,2,0,L|351:223,1,50
209,171,178760,2,0,L|207:254,1,50
326,300,178885,2,0,L|324:250,1,50
203,324,179010,5,0,0:0:0:0:
203,324,179072,1,0,0:0:0:0:
203,324,179135,2,0,L|259:335,1,50
131,252,179260,2,0,L|81:261,1,50
209,171,179385,1,0,0:0:0:0:
209,171,179447,1,0,0:0:0:0:
209,171,179510,2,0,L|265:182,1,50
137,99,179635,2,0,L|87:108,1,50
327,73,179760,5,0,0:0:0:0:
440,258,180010,5,0,0:0:0:0:
335,353,180135,1,0,0:0:0:0:
322,350,180197,1,0,0:0:0:0:
310,348,180260,1,0,0:0:0:0:
298,345,180322,1,0,0:0:0:0:
285,343,180385,1,0,0:0:0:0:
170,322,180510,1,0,0:0:0:0:
308,247,180635,1,0,0:0:0:0:
295,244,180697,1,0,0:0:0:0:
283,242,180760,1,0,0:0:0:0:
271,239,180822,1,0,0:0:0:0:
258,237,180885,1,0,0:0:0:0:
143,216,181010,6,0,B|117:170|117:170|106:102,1,100
369,168,181260,2,0,B|395:214|395:214|406:282,1,100
232,79,181510,2,0,B|278:53|278:53|346:42,1,100
280,305,181760,2,0,B|233:331|233:331|166:342,1,100
369,168,182010,5,0,0:0:0:0:
280,305,182135,1,0,0:0:0:0:
143,216,182260,1,0,0:0:0:0:
232,79,182385,1,0,0:0:0:0:
352,254,182510,5,0,0:0:0:0:
193,288,182635,1,0,0:0:0:0:
176,291,182697,1,0,0:0:0:0:
160,294,182760,1,0,0:0:0:0:
143,296,182822,1,0,0:0:0:0:
127,299,182885,1,0,0:0:0:0:
110,302,182947,1,0,0:0:0:0:
94,305,183010,6,0,L|83:245,1,50
171,153,183135,2,0,L|161:202,1,50
9,246,183260,2,0,L|-2:186,1,50
86,94,183385,2,0,L|76:143,1,50
171,251,183510,2,0,L|160:191,1,50
248,99,183635,2,0,L|238:148,1,50
86,192,183760,2,0,L|75:132,1,50
163,40,183885,2,0,L|153:89,1,50
94,305,184010,5,0,0:0:0:0:
223,355,184135,1,0,0:0:0:0:
234,349,184197,1,0,0:0:0:0:
245,344,184260,1,0,0:0:0:0:
256,338,184322,1,0,0:0:0:0:
268,333,184385,1,0,0:0:0:0:
215,234,184510,1,0,0:0:0:0:
344,284,184635,1,0,0:0:0:0:
355,278,184697,1,0,0:0:0:0:
366,273,184760,1,0,0:0:0:0:
377,267,184822,1,0,0:0:0:0:
389,262,184885,1,0,0:0:0:0:
298,85,185010,6,0,L|283:220,1,100
459,139,185260,2,0,L|447:39,1,100
390,221,185510,2,0,L|525:236,1,100
337,0,185760,2,0,L|237:11,1,100
118,259,186010,5,0,0:0:0:0:
118,259,186135,1,0,0:0:0:0:
77,67,186260,1,0,0:0:0:0:
77,67,186322,1,0,0:0:0:0:
77,67,186385,1,0,0:0:0:0:
208,119,186510,1,0,0:0:0:0:
208,119,186635,1,0,0:0:0:0:
16,160,186760,1,0,0:0:0:0:
16,160,186822,1,0,0:0:0:0:
16,160,186885,1,0,0:0:0:0:
62,354,187010,5,0,0:0:0:0:
254,312,187135,1,0,0:0:0:0:
266,308,187197,1,0,0:0:0:0:
278,305,187260,1,0,0:0:0:0:
290,302,187322,1,0,0:0:0:0:
302,299,187385,1,0,0:0:0:0:
395,126,187510,1,0,0:0:0:0:
383,129,187573,1,0,0:0:0:0:
371,132,187635,1,0,0:0:0:0:
359,135,187698,1,0,0:0:0:0:
347,139,187760,2,0,L|269:157,2,50
99,202,188010,5,0,0:0:0:0:
210,63,188135,1,0,0:0:0:0:
211,75,188197,1,0,0:0:0:0:
213,87,188260,1,0,0:0:0:0:
215,100,188322,1,0,0:0:0:0:
217,112,188385,1,0,0:0:0:0:
229,229,188510,1,0,0:0:0:0:
340,90,188635,1,0,0:0:0:0:
341,102,188697,1,0,0:0:0:0:
343,114,188760,1,0,0:0:0:0:
345,127,188822,1,0,0:0:0:0:
347,139,188885,1,0,0:0:0:0:
367,286,189010,6,0,L|285:343,1,100
145,98,189260,2,0,L|227:41,1,100
162,303,189510,2,0,L|105:221,1,100
350,81,189760,2,0,L|407:163,1,100
319,344,190010,5,0,0:0:0:0:
254,134,190135,1,0,0:0:0:0:
441,324,190260,1,0,0:0:0:0:
266,251,190385,1,0,0:0:0:0:
462,57,190510,1,0,0:0:0:0:
381,264,190635,1,0,0:0:0:0:
350,81,190760,1,0,0:0:0:0:
427,195,190885,1,0,0:0:0:0:
262,287,191010,5,0,0:0:0:0:
243,285,191072,1,0,0:0:0:0:
225,281,191135,1,0,0:0:0:0:
207,273,191197,1,0,0:0:0:0:
192,263,191260,1,0,0:0:0:0:
178,250,191322,1,0,0:0:0:0:
167,235,191385,1,0,0:0:0:0:
158,219,191447,1,0,0:0:0:0:
153,201,191510,6,0,L|177:140,1,50
208,64,191635,1,0,0:0:0:0:
269,186,191760,2,0,L|293:125,1,50
324,49,191885,1,0,0:0:0:0:
443,186,192010,5,0,0:0:0:0:
443,186,192135,1,0,0:0:0:0:
353,326,192260,1,0,0:0:0:0:
353,326,192322,1,0,0:0:0:0:
353,326,192385,1,0,0:0:0:0:
337,131,192510,1,0,0:0:0:0:
337,131,192572,1,0,0:0:0:0:
337,131,192635,1,0,0:0:0:0:
465,318,192760,1,0,0:0:0:0:
465,318,192822,1,0,0:0:0:0:
465,318,192885,1,0,0:0:0:0:
263,273,193010,1,0,0:0:0:0:
263,273,193072,1,0,0:0:0:0:
263,273,193135,1,0,0:0:0:0:
432,103,193260,5,0,0:0:0:0:
432,103,193385,1,0,0:0:0:0:
167,163,193510,1,0,0:0:0:0:
167,163,193572,1,0,0:0:0:0:
167,163,193635,1,0,0:0:0:0:
267,9,193760,1,0,0:0:0:0:
267,9,193885,1,0,0:0:0:0:
357,229,194010,5,0,0:0:0:0:
357,229,194072,1,0,0:0:0:0:
357,229,194135,1,0,0:0:0:0:
357,229,194197,1,0,0:0:0:0:
357,229,194260,2,0,L|320:279,1,55.0000016784668
173,260,194385,1,0,0:0:0:0:
173,260,194447,1,0,0:0:0:0:
173,260,194510,2,0,L|148:203,1,55.0000016784668
237,86,194635,1,0,0:0:0:0:
237,86,194697,1,0,0:0:0:0:
237,86,194760,1,0,0:0:0:0:
475,25,195010,5,0,0:0:0:0:
37,359,195510,5,0,0:0:0:0:
251,177,196010,6,0,L|264:306,1,119.999996337891
59,169,196260,1,0,0:0:0:0:
59,169,196322,1,0,0:0:0:0:
59,169,196385,2,0,B|72:103|72:103|103:47,1,119.999996337891
321,92,196635,1,0,0:0:0:0:
176,259,196760,2,0,L|72:243,2,59.9999981689454
418,298,197010,6,0,B|439:238|439:238|447:166,1,119.999996337891
310,63,197260,1,0,0:0:0:0:
310,63,197322,1,0,0:0:0:0:
310,63,197385,2,0,L|181:75,1,119.999996337891
278,240,197635,1,0,0:0:0:0:
405,120,197760,2,0,L|421:27,2,59.9999981689454
355,369,198010,6,0,L|223:377,1,119.999996337891
54,316,198260,1,0,0:0:0:0:
54,316,198322,1,0,0:0:0:0:
54,316,198385,2,0,P|37:258|48:192,1,119.999996337891
187,51,198635,1,0,0:0:0:0:
189,235,198760,2,0,L|133:271,2,59.9999981689454
322,163,199010,5,0,0:0:0:0:
493,262,199135,1,0,0:0:0:0:
322,361,199260,1,0,0:0:0:0:
322,361,199322,1,0,0:0:0:0:
322,361,199385,1,0,0:0:0:0:
444,164,199510,5,0,0:0:0:0:
443,361,199635,1,0,0:0:0:0:
272,263,199760,1,0,0:0:0:0:
272,263,199822,1,0,0:0:0:0:
272,263,199885,1,0,0:0:0:0:
383,60,200010,6,0,L|455:183,1,119.999996337891
183,124,200260,1,0,0:0:0:0:
183,124,200322,1,0,0:0:0:0:
183,124,200385,2,0,B|194:59|194:59|222:8,1,119.999996337891
325,151,200635,1,0,0:0:0:0:
168,259,200760,2,0,L|86:241,2,59.9999981689454
392,322,201010,6,0,P|437:288|448:208,1,119.999996337891
361,42,201260,1,0,0:0:0:0:
361,42,201322,1,0,0:0:0:0:
361,42,201385,2,0,L|224:49,1,119.999996337891
25,61,201635,1,0,0:0:0:0:
154,173,201760,2,0,L|221:148,2,59.9999981689454
333,207,202010,6,0,B|349:148|349:148|353:63,1,119.999996337891
181,270,202260,1,0,0:0:0:0:
181,270,202322,1,0,0:0:0:0:
181,270,202385,2,0,L|302:314,1,119.999996337891
45,218,202635,1,0,0:0:0:0:
175,63,202760,2,0,L|217:2,2,59.9999981689454
417,40,203010,6,0,L|443:176,1,119.999996337891
315,276,203260,1,0,0:0:0:0:
315,276,203322,1,0,0:0:0:0:
315,276,203385,1,0,0:0:0:0:
395,75,203510,2,0,L|421:211,1,119.999996337891
293,311,203760,1,0,0:0:0:0:
293,311,203822,1,0,0:0:0:0:
293,311,203885,1,0,0:0:0:0:
59,233,204010,6,0,L|48:90,1,119.999996337891
221,19,204260,1,0,0:0:0:0:
221,19,204322,1,0,0:0:0:0:
221,19,204385,2,0,L|211:138,1,119.999996337891
199,323,204635,1,0,0:0:0:0:
369,182,204760,2,0,L|326:117,2,59.9999981689454
486,335,205010,6,0,L|494:182,1,119.999996337891
457,56,205260,1,0,0:0:0:0:
457,56,205322,1,0,0:0:0:0:
457,56,205385,2,0,B|397:40|397:40|326:33,1,119.999996337891
165,111,205635,1,0,0:0:0:0:
284,275,205760,2,0,L|367:263,2,59.9999981689454
68,301,206010,6,0,P|46:235|48:160,1,119.999996337891
119,20,206260,1,0,0:0:0:0:
119,20,206322,1,0,0:0:0:0:
119,20,206385,2,0,B|180:9|180:9|252:9,1,119.999996337891
414,115,206635,1,0,0:0:0:0:
208,194,206760,2,0,L|191:119,2,59.9999981689454
238,368,207010,6,0,B|304:365|304:365|372:352,1,119.999996337891
490,279,207260,1,0,0:0:0:0:
490,279,207322,1,0,0:0:0:0:
490,279,207385,2,0,L|483:160,1,119.999996337891
194,135,207635,1,0,0:0:0:0:
331,283,207760,1,0,0:0:0:0:
331,283,207823,1,0,0:0:0:0:
331,283,207885,1,0,0:0:0:0:
360,49,208010,6,0,P|297:29|217:22,1,119.999996337891
54,68,208260,1,0,0:0:0:0:
54,68,208322,1,0,0:0:0:0:
54,68,208385,2,0,B|65:127|65:127|60:199,1,119.999996337891
6,337,208635,1,0,0:0:0:0:
170,309,208760,2,0,L|228:268,2,59.9999981689454
348,187,209010,6,0,B|356:121|356:121|354:53,1,119.999996337891
341,317,209260,1,0,0:0:0:0:
341,317,209322,1,0,0:0:0:0:
341,317,209385,2,0,L|468:293,1,119.999996337891
282,114,209635,1,0,0:0:0:0:
178,249,209760,2,0,L|168:318,2,59.9999981689454
214,11,210010,5,0,0:0:0:0:
238,7,210072,1,0,0:0:0:0:
263,6,210135,1,0,0:0:0:0:
288,9,210197,1,0,0:0:0:0:
312,15,210260,1,0,0:0:0:0:
336,24,210322,1,0,0:0:0:0:
357,36,210385,2,0,L|366:101,1,50
376,207,210510,5,0,0:0:0:0:
376,231,210572,1,0,0:0:0:0:
363,252,210635,1,0,0:0:0:0:
341,264,210697,1,0,0:0:0:0:
317,261,210760,1,0,0:0:0:0:
297,247,210822,1,0,0:0:0:0:
288,224,210885,1,0,0:0:0:0:
293,200,210947,1,0,0:0:0:0:
309,182,211010,2,0,L|365:175,1,50
228,300,211135,2,0,L|172:307,1,50
70,322,211260,5,0,0:0:0:0:
49,307,211322,1,0,0:0:0:0:
34,287,211385,1,0,0:0:0:0:
25,264,211447,1,0,0:0:0:0:
23,239,211510,2,0,L|40:177,1,50
128,146,211635,2,0,L|141:194,1,50
58,98,211760,5,0,0:0:0:0:
68,62,211822,1,0,0:0:0:0:
92,34,211885,1,0,0:0:0:0:
126,19,211947,1,0,0:0:0:0:
163,19,212010,6,0,B|226:48|226:48|288:117,1,129.999994049073
370,254,212260,1,0,0:0:0:0:
370,254,212322,1,0,0:0:0:0:
370,254,212385,2,0,B|312:294|312:294|243:315,1,129.999994049073
383,92,212635,1,0,0:0:0:0:
472,313,212760,2,0,L|485:385,2,64.9999970245363
196,247,213010,6,0,L|177:97,1,129.999994049073
473,175,213260,1,0,0:0:0:0:
473,175,213322,1,0,0:0:0:0:
473,175,213385,2,0,L|352:266,1,129.999994049073
216,370,213635,1,0,0:0:0:0:
326,118,213760,2,0,L|361:42,2,64.9999970245363
59,43,214010,6,0,P|86:100|87:204,1,129.999994049073
12,345,214260,1,0,0:0:0:0:
12,345,214322,1,0,0:0:0:0:
12,345,214385,2,0,B|74:363|74:363|149:369,1,129.999994049073
344,318,214635,1,0,0:0:0:0:
237,127,214760,2,0,L|145:143,2,64.9999970245363
481,93,215010,5,0,0:0:0:0:
453,311,215135,1,0,0:0:0:0:
343,80,215260,1,0,0:0:0:0:
343,80,215322,1,0,0:0:0:0:
343,80,215385,1,0,0:0:0:0:
505,210,215510,1,0,0:0:0:0:
264,261,215635,1,0,0:0:0:0:
428,19,215760,1,0,0:0:0:0:
428,19,215822,1,0,0:0:0:0:
428,19,215885,1,0,0:0:0:0:
383,210,216010,6,0,L|251:266,1,129.999994049073
55,348,216260,1,0,0:0:0:0:
55,348,216322,1,0,0:0:0:0:
55,348,216385,2,0,B|39:278|39:278|39:202,1,129.999994049073
112,33,216635,1,0,0:0:0:0:
258,164,216760,2,0,L|311:216,2,64.9999970245363
441,312,217010,6,0,B|459:240|459:240|463:157,1,129.999994049073
396,35,217260,1,0,0:0:0:0:
396,35,217322,1,0,0:0:0:0:
396,35,217385,2,0,L|248:52,1,129.999994049073
41,80,217635,1,0,0:0:0:0:
164,262,217760,2,0,L|238:243,2,64.9999970245363
481,177,218010,6,0,P|495:246|455:312,1,129.999994049073
336,138,218260,1,0,0:0:0:0:
336,138,218322,1,0,0:0:0:0:
336,138,218385,2,0,B|395:114|395:114|474:98,1,129.999994049073
307,292,218635,1,0,0:0:0:0:
192,143,218760,2,0,L|186:77,2,64.9999970245363
200,375,219010,5,0,0:0:0:0:
200,375,219135,1,0,0:0:0:0:
1,188,219260,1,0,0:0:0:0:
1,188,219322,1,0,0:0:0:0:
1,188,219385,1,0,0:0:0:0:
192,143,219510,1,0,0:0:0:0:
192,143,219635,1,0,0:0:0:0:
5,342,219760,1,0,0:0:0:0:
5,342,219822,1,0,0:0:0:0:
5,342,219885,1,0,0:0:0:0:
248,226,220010,6,0,P|281:166|270:86,1,129.999994049073
100,288,220260,1,0,0:0:0:0:
100,288,220322,1,0,0:0:0:0:
100,288,220385,2,0,L|236:354,1,129.999994049073
381,266,220635,1,0,0:0:0:0:
264,76,220760,2,0,L|173:41,2,64.9999970245363
18,128,221010,6,0,P|11:203|30:276,1,129.999994049073
154,373,221260,1,0,0:0:0:0:
154,373,221322,1,0,0:0:0:0:
154,373,221385,2,0,B|221:369|221:369|290:356,1,129.999994049073
457,178,221635,1,0,0:0:0:0:
255,185,221760,2,0,L|232:267,2,64.9999970245363
299,0,222010,6,0,L|464:20,1,129.999994049073
155,153,222260,1,0,0:0:0:0:
155,153,222322,1,0,0:0:0:0:
155,153,222385,2,0,B|145:83|145:83|152:6,1,129.999994049073
354,208,222635,1,0,0:0:0:0:
178,335,222760,2,0,L|94:320,2,64.9999970245363
419,367,223010,6,0,P|450:304|453:220,1,129.999994049073
374,85,223260,1,0,0:0:0:0:
374,85,223322,1,0,0:0:0:0:
374,85,223385,1,0,0:0:0:0:
244,265,223510,2,0,L|403:302,1,129.999994049073
124,107,223760,1,0,0:0:0:0:
117,121,223822,1,0,0:0:0:0:
111,136,223885,1,0,0:0:0:0:
32,345,224010,6,0,B|100:360|100:360|166:367,1,129.999994049073
370,294,224260,1,0,0:0:0:0:
370,294,224322,1,0,0:0:0:0:
370,294,224385,2,0,P|345:223|352:150,1,129.999994049073
479,21,224635,1,0,0:0:0:0:
495,247,224760,2,0,L|503:338,2,64.9999970245363
268,300,225010,6,0,L|116:237,1,129.999994049073
87,89,225260,1,0,0:0:0:0:
97,70,225322,1,0,0:0:0:0:
112,55,225385,1,0,0:0:0:0:
132,46,225447,1,0,0:0:0:0:
153,45,225510,1,0,0:0:0:0:
174,51,225572,1,0,0:0:0:0:
192,63,225635,1,0,0:0:0:0:
204,81,225697,1,0,0:0:0:0:
209,102,225760,1,0,0:0:0:0:
208,123,225822,1,0,0:0:0:0:
199,143,225885,1,0,0:0:0:0:
184,158,225947,1,0,0:0:0:0:
161,171,226010,6,0,P|131:194|127:237,1,50
141,302,226135,1,0,0:0:0:0:
156,307,226197,1,0,0:0:0:0:
172,313,226260,1,0,0:0:0:0:
188,318,226322,1,0,0:0:0:0:
203,324,226385,1,0,0:0:0:0:
219,330,226447,1,0,0:0:0:0:
255,329,226509,5,0,0:0:0:0:
270,334,226572,1,0,0:0:0:0:
286,340,226634,1,0,0:0:0:0:
302,345,226697,1,0,0:0:0:0:
332,336,226759,5,0,0:0:0:0:
347,341,226822,1,0,0:0:0:0:
363,347,226884,1,0,0:0:0:0:
376,352,226947,1,0,0:0:0:0:
413,346,227010,5,0,0:0:0:0:
118,42,228010,6,0,B|200:37|200:37|282:58,1,150.000005722046
36,254,228260,1,0,0:0:0:0:
35,229,228322,1,0,0:0:0:0:
34,204,228385,1,0,0:0:0:0:
206,313,228510,1,0,0:0:0:0:
184,326,228572,1,0,0:0:0:0:
163,339,228635,1,0,0:0:0:0:
182,146,228760,1,0,0:0:0:0:
209,157,228822,1,0,0:0:0:0:
231,169,228885,1,0,0:0:0:0:
415,249,229010,6,0,B|378:322|378:322|319:383,1,150.000005722046
272,73,229260,1,0,0:0:0:0:
294,84,229322,1,0,0:0:0:0:
316,95,229385,1,0,0:0:0:0:
136,190,229510,1,0,0:0:0:0:
135,165,229572,1,0,0:0:0:0:
135,140,229635,1,0,0:0:0:0:
292,252,229760,1,0,0:0:0:0:
269,270,229822,1,0,0:0:0:0:
248,284,229885,1,0,0:0:0:0:
89,381,230010,6,0,B|43:312|43:312|20:230,1,150.000005722046
312,345,230260,1,0,0:0:0:0:
292,358,230322,1,0,0:0:0:0:
271,372,230385,1,0,0:0:0:0:
279,168,230510,1,0,0:0:0:0:
301,180,230572,1,0,0:0:0:0:
323,193,230635,1,0,0:0:0:0:
147,272,230760,1,0,0:0:0:0:
143,244,230822,1,0,0:0:0:0:
142,218,230885,1,0,0:0:0:0:
305,17,231010,6,0,L|470:31,1,150.000005722046
207,17,231260,2,0,L|57:29,1,150.000005722046
362,124,231510,2,0,L|527:138,1,150.000005722046
150,124,231760,2,0,L|-15:138,1,150.000005722046
351,368,232010,6,0,B|353:288|353:288|340:209,1,150.000005722046
248,364,232260,1,0,0:0:0:0:
248,364,232322,1,0,0:0:0:0:
248,364,232385,1,0,0:0:0:0:
443,287,232510,1,0,0:0:0:0:
443,287,232572,1,0,0:0:0:0:
443,287,232635,1,0,0:0:0:0:
235,186,232760,1,0,0:0:0:0:
235,186,232822,1,0,0:0:0:0:
235,186,232885,1,0,0:0:0:0:
101,261,233010,6,0,B|169:302|169:302|244:330,1,150.000005722046
155,173,233260,1,0,0:0:0:0:
155,173,233322,1,0,0:0:0:0:
155,173,233385,1,0,0:0:0:0:
125,381,233510,1,0,0:0:0:0:
125,381,233572,1,0,0:0:0:0:
125,381,233635,1,0,0:0:0:0:
316,251,233760,1,0,0:0:0:0:
316,251,233822,1,0,0:0:0:0:
316,251,233885,1,0,0:0:0:0:
332,11,234010,6,0,B|261:49|261:49|199:100,1,150.000005722046
154,245,234260,1,0,0:0:0:0:
154,245,234322,1,0,0:0:0:0:
154,245,234385,2,0,L|226:285,1,75.0000028610231
316,251,234510,1,0,0:0:0:0:
316,251,234572,1,0,0:0:0:0:
316,251,234635,2,0,L|314:168,1,75.0000028610231
230,107,234760,1,0,0:0:0:0:
230,107,234822,1,0,0:0:0:0:
230,107,234885,2,0,L|159:149,1,75.0000028610231
54,208,235010,6,0,L|44:300,1,75.0000028610231
132,259,235135,2,0,L|142:351,1,75.0000028610231
232,363,235260,1,0,0:0:0:0:
261,373,235322,1,0,0:0:0:0:
292,377,235385,1,0,0:0:0:0:
323,375,235447,1,0,0:0:0:0:
353,367,235510,1,0,0:0:0:0:
381,353,235572,1,0,0:0:0:0:
405,333,235635,1,0,0:0:0:0:
425,309,235697,1,0,0:0:0:0:
439,281,235760,1,0,0:0:0:0:
448,251,235822,1,0,0:0:0:0:
450,220,235885,1,0,0:0:0:0:
446,189,235947,1,0,0:0:0:0:
435,160,236010,5,0,0:0:0:0:
146,61,236260,5,0,0:0:0:0:
299,241,236510,5,0,0:0:0:0:
9,141,236760,5,0,0:0:0:0:
383,7,237010,5,0,0:0:0:0:
132,346,237260,5,0,0:0:0:0:
81,9,237510,5,0,0:0:0:0:
512,384,237760,5,0,0:0:0:0:
