osu file format v14

[General]
AudioFilename: [ Metalcore] UNDEAD CORPORATION - Magus night fever (instrumental).mp3
AudioLeadIn: 0
PreviewTime: 71681
Countdown: 1
SampleSet: Normal
StackLeniency: 0.7
Mode: 0
LetterboxInBreaks: 1
WidescreenStoryboard: 1

[Editor]
Bookmarks: 67824,71681
DistanceSpacing: 1
BeatDivisor: 4
GridSize: 32
TimelineZoom: 1

[Metadata]
Title:Magus night fever
TitleUnicode:Magus night fever
Artist:UNDEAD CORPORATION
ArtistUnicode:UNDEAD CORPORATION
Creator:Kyshiro
Version:rip
Source:
Tags:
BeatmapID:458921
BeatmapSetID:193057

[Difficulty]
HPDrainRate:6
CircleSize:4.3
OverallDifficulty:9.5
ApproachRate:10
SliderMultiplier:1.6
SliderTickRate:2

[Events]
//Background and Video events
0,0,"Screenshot-2014-07-15-23.16.jpg",0,0
//Break Periods
2,160162,161976
//Storyboard Layer 0 (Background)
//Storyboard Layer 1 (Fail)
//Storyboard Layer 2 (Pass)
//Storyboard Layer 3 (Foreground)
//Storyboard Sound Samples

[TimingPoints]
535,214.285714285714,4,1,0,60,1,0
963,-200,4,1,0,60,0,0
2999,-100,4,1,0,60,0,0
3963,-100,4,1,0,60,0,0
6320,-71.4285714285714,4,1,0,60,0,0
7392,-100,4,1,0,60,0,0
13392,-71.4285714285714,4,1,0,60,0,0
14249,-100,4,1,0,60,0,0
20249,-125,4,1,0,60,0,0
21106,-100,4,1,0,60,0,0
26356,-71.4285714285714,4,1,0,60,0,0
27963,-100,4,1,0,60,0,0
33213,-71.4285714285714,4,1,0,60,0,0
34820,-100,4,1,0,60,0,0
40070,-71.4285714285714,4,1,0,60,0,0
41677,-100,4,1,0,60,0,0
46927,-71.4285714285714,4,1,0,60,0,0
48534,-100,4,1,0,60,0,0
53784,-71.4285714285714,4,1,0,60,0,0
54534,-100,4,1,0,60,0,0
55392,214.285714285714,3,1,0,60,1,0
55392,-83.3333333333333,3,1,0,60,0,0
62249,214.285714285714,3,1,0,60,1,0
62463,-100,3,1,0,60,0,0
67820,-125,3,1,0,60,0,0
70820,214.285714285714,4,1,0,60,1,0
71677,-71.4285714285714,4,1,0,60,0,0
72534,-83.3333333333333,4,1,0,60,0,1
85391,-71.4285714285714,4,1,0,60,0,0
86248,-83.3333333333333,4,1,0,60,0,1
98248,-100,4,1,0,60,0,0
105963,-133.333333333333,4,1,0,60,0,0
106606,-100,4,1,0,60,0,0
110356,-71.4285714285714,4,1,0,60,0,0
112177,-100,4,1,0,60,0,0
117962,-71.4285714285714,4,1,0,60,0,0
118820,214.285714285714,3,1,0,60,1,0
118820,-100,3,1,0,60,0,0
124391,-83.3333333333333,3,1,0,60,0,0
125355,-71.4285714285714,3,1,0,60,0,0
125677,214.285714285714,3,1,0,60,1,0
125677,-83.3333333333333,3,1,0,60,0,0
132534,214.285714285714,3,1,0,60,1,0
146141,-200,3,1,0,60,0,0
156533,-133.333333333333,3,1,0,60,0,0
159105,-100,3,1,0,60,0,0
166819,214.285714285714,4,1,0,60,1,0
166819,-83.3333333333333,4,1,0,60,0,0
172819,-100,4,1,0,60,0,0
174533,-133.333333333333,4,1,0,60,0,0
175390,-100,4,1,0,60,0,0

[Colours]
Combo1 : 225,191,240
Combo2 : 214,141,141
Combo3 : 148,186,207
Combo4 : 211,210,154

[HitObjects]
77,318,320,6,0,L|21:304,2,53.3333333333333
150,332,535,1,0,0:0:0:0:
169,329,963,6,0,P|236:302|220:152,1,240
169,233,1820,2,0,B|244:258|244:258|322:236|322:236|402:259,1,240
480,221,2677,2,0,P|491:178|485:133,1,80
283,73,2999,1,0,0:0:0:0:
283,73,3052,1,0,0:0:0:0:
283,73,3106,6,0,P|266:121|275:165,1,80
184,22,3320,1,0,0:0:0:0:
355,125,3427,2,0,L|443:113,1,80
367,38,3642,1,0,0:0:0:0:
332,203,3749,2,0,B|350:257|350:257|330:304|330:304|341:358,1,160
422,316,4070,5,0,0:0:0:0:
251,249,4177,2,0,L|167:248,1,80
73,245,4392,1,0,0:0:0:0:
73,245,4499,1,0,0:0:0:0:
310,172,4606,2,0,L|226:171,1,80
132,168,4821,1,0,0:0:0:0:
132,168,4928,1,0,0:0:0:0:
349,263,5034,6,0,P|393:266|434:258,1,80
493,190,5249,1,0,0:0:0:0:
493,190,5356,1,0,0:0:0:0:
236,166,5463,2,0,P|211:202|197:242,1,80
227,327,5678,1,0,0:0:0:0:
227,327,5785,1,0,0:0:0:0:
373,129,5892,6,0,P|353:89|326:57,1,80,0|0,3:0|3:0,3:0:0:0:
238,40,6107,1,0,3:0:0:0:
238,40,6214,1,0,3:0:0:0:
43,138,6320,6,0,P|104:153|157:145,1,111.999996582031
442,49,6534,2,0,P|381:34|328:42,1,111.999996582031
300,231,6749,2,0,L|339:353,1,111.999996582031
259,108,6963,1,0,0:0:0:0:
190,308,7392,5,0,0:0:0:0:
111,192,7499,1,0,0:0:0:0:
60,370,7606,2,0,L|85:289,1,80
319,308,7820,1,0,0:0:0:0:
225,134,7927,2,0,L|248:210,1,80
418,125,8142,2,0,L|443:44,1,80
459,216,8356,1,0,0:0:0:0:
301,47,8463,6,0,P|219:20|146:47,1,160
183,198,8784,2,0,B|215:170|215:170|225:132,1,80
50,277,8999,2,0,B|59:313|59:313|91:341,1,80
319,308,9213,1,0,0:0:0:0:
157,285,9320,6,0,L|238:276,1,80
103,177,9534,1,0,0:0:0:0:
304,142,9642,2,0,L|224:133,1,80
354,241,9856,2,0,L|435:232,1,80
472,98,10070,1,0,0:0:0:0:
259,228,10177,6,0,B|244:276|244:276|255:328|255:328|229:383,1,160
378,174,10499,2,0,P|381:121|367:91,1,80
161,199,10713,2,0,P|158:252|172:282,1,80
245,83,10927,1,0,0:0:0:0:
84,187,11034,6,0,P|148:201|237:145,1,160
159,24,11356,2,0,L|145:111,1,80
329,211,11570,2,0,L|316:132,1,80
246,271,11784,1,0,0:0:0:0:
442,157,11892,6,0,L|418:324,1,160
167,267,12213,2,0,P|214:262|248:272,1,80
48,305,12427,2,0,P|43:258|53:224,1,80
150,80,12642,1,0,0:0:0:0:
150,80,12695,1,0,0:0:0:0:
150,80,12749,2,0,L|165:175,1,80
327,225,12963,1,0,0:0:0:0:
327,225,13016,1,0,0:0:0:0:
327,225,13070,2,0,L|312:320,1,80
478,186,13284,1,0,0:0:0:0:
381,73,13392,6,0,P|320:56|263:63,1,111.999996582031
183,281,13606,2,0,P|228:236|250:183,1,111.999996582031
94,10,13820,2,0,P|109:71|144:117,1,111.999996582031
414,254,14034,1,0,0:0:0:0:
428,229,14088,1,0,0:0:0:0:
435,201,14142,1,0,0:0:0:0:
440,173,14195,1,0,0:0:0:0:
436,146,14249,6,0,L|451:65,1,80
315,270,14463,2,0,L|323:351,1,80
210,312,14677,1,0,0:0:0:0:
419,309,14784,2,0,P|463:305|501:291,1,80
231,208,14999,2,0,P|193:195|153:192,1,80
61,271,15213,1,0,0:0:0:0:
33,74,15320,6,0,L|43:178,1,80
143,19,15534,1,0,0:0:0:0:
279,95,15642,2,0,L|175:105,1,80
386,170,15856,2,0,L|490:180,1,80
401,42,16070,1,0,0:0:0:0:
273,214,16177,6,0,P|266:291|295:375,1,160
459,292,16499,2,0,B|421:277|421:277|381:278,1,80
89,324,16713,2,0,B|127:339|127:339|167:338,1,80
181,188,16927,1,0,0:0:0:0:
46,130,17034,6,0,P|35:173|35:212,1,80
192,30,17249,1,0,0:0:0:0:
326,154,17356,1,0,0:0:0:0:
170,118,17463,1,0,0:0:0:0:
346,64,17570,2,0,L|436:57,1,80
98,51,17784,1,0,0:0:0:0:
401,213,17892,6,0,P|330:186|244:203,1,160
100,349,18213,2,0,P|132:310|145:275,1,80
88,91,18427,2,0,P|105:138|129:166,1,80
220,81,18642,1,0,0:0:0:0:
79,231,18749,6,0,L|-8:223,1,80
165,356,18963,1,0,0:0:0:0:
263,248,19070,2,0,L|271:161,1,80
138,27,19284,2,0,L|145:106,1,80
378,266,19499,5,0,0:0:0:0:
378,266,19552,1,0,0:0:0:0:
378,266,19606,2,0,P|424:273|461:264,1,80
431,100,19820,1,0,0:0:0:0:
426,131,19874,1,0,0:0:0:0:
421,162,19927,1,0,0:0:0:0:
349,60,20034,1,0,0:0:0:0:
511,145,20142,1,0,0:0:0:0:
326,191,20249,6,0,B|296:187|277:175|277:175|237:200|237:200|191:178|137:189,1,192
146,187,20624,1,0,0:0:0:0:
146,187,20677,1,0,0:0:0:0:
146,187,21106,6,0,P|137:136|117:93,1,80
3,226,21320,2,0,P|12:277|32:320,1,80
173,333,21534,1,0,0:0:0:0:
281,205,21642,2,0,L|288:117,1,80
371,33,21856,1,0,0:0:0:0:
466,204,21963,6,0,L|473:292,1,80
320,342,22177,1,0,0:0:0:0:
202,194,22284,2,0,P|250:196|293:210,1,80
125,315,22499,1,0,0:0:0:0:
15,216,22606,2,0,P|3:159|28:57,1,160
195,28,22927,1,0,0:0:0:0:
202,194,23034,6,0,L|113:183,1,80
313,107,23249,1,0,0:0:0:0:
393,230,23356,2,0,L|382:319,1,80
219,108,23570,1,0,0:0:0:0:
404,133,23677,6,0,P|457:139|492:149,1,80
286,268,23892,1,0,0:0:0:0:
219,108,23999,2,0,P|221:52|232:25,1,80
351,17,24213,1,0,0:0:0:0:
193,209,24320,2,0,L|93:206,1,80
395,271,24534,2,0,L|495:268,1,80
267,381,24749,6,0,L|270:281,1,80
144,334,24963,1,0,0:0:0:0:
174,206,25070,2,0,P|239:221|338:187,1,160
61,144,25392,6,0,P|43:204|45:232,1,80
144,334,25606,1,0,0:0:0:0:
221,116,25713,2,0,P|218:76|203:39,1,80
68,24,25927,1,0,0:0:0:0:
331,155,26034,2,0,P|241:155|172:201,1,160
405,300,26356,5,0,0:0:0:0:
439,272,26409,1,0,0:0:0:0:
464,234,26463,2,0,P|485:175|486:121,1,111.999996582031
167,63,26677,1,0,0:0:0:0:
211,72,26731,1,0,0:0:0:0:
254,81,26784,1,0,0:0:0:0:
101,121,26892,1,0,0:0:0:0:
336,43,26999,1,0,0:0:0:0:
262,188,27106,5,0,0:0:0:0:
257,232,27159,1,0,0:0:0:0:
252,276,27213,1,0,0:0:0:0:
248,321,27267,1,0,0:0:0:0:
272,357,27320,1,0,0:0:0:0:
363,277,27427,1,0,0:0:0:0:
155,174,27534,1,0,0:0:0:0:
151,268,27642,1,0,0:0:0:0:
366,182,27749,1,0,0:0:0:0:
265,97,27856,1,0,0:0:0:0:
38,118,27963,6,0,P|23:166|33:218,1,80
304,213,28177,2,0,B|235:173|235:173|149:174,1,160
191,357,28499,2,0,P|204:312|203:270,1,80
82,300,28713,1,0,0:0:0:0:
309,333,28820,6,0,L|474:321,1,160
390,139,29142,2,0,L|396:221,1,80
497,108,29356,1,0,0:0:0:0:
221,46,29463,2,0,P|269:67|379:37,1,160
267,175,29784,1,0,0:0:0:0:
474,225,29892,6,0,P|431:216|384:220,1,80
286,297,30106,1,0,0:0:0:0:
119,168,30213,2,0,L|112:82,1,80
221,13,30427,1,0,0:0:0:0:
158,286,30534,6,0,P|106:298|57:295,1,80
2,205,30749,1,0,0:0:0:0:
244,123,30856,2,0,L|336:135,1,80
421,73,31070,1,0,0:0:0:0:
153,56,31177,2,0,L|173:229,1,160
56,150,31499,5,0,0:0:0:0:
255,270,31606,2,0,P|304:276|349:266,1,80
298,151,31820,1,0,0:0:0:0:
466,248,31927,2,0,L|452:339,1,80
349,383,32142,1,0,0:0:0:0:
222,166,32249,6,0,P|305:152|384:195,1,160
167,334,32570,2,0,L|81:327,1,80
243,254,32784,1,0,0:0:0:0:
62,178,32892,2,0,L|234:164,1,160
471,68,33213,5,0,0:0:0:0:
426,59,33267,1,0,0:0:0:0:
382,51,33320,2,0,P|358:120|364:167,1,111.999996582031
132,182,33534,1,0,0:0:0:0:
177,173,33588,1,0,0:0:0:0:
221,165,33641,2,0,P|245:234|239:281,1,111.999996582031
69,310,33856,1,0,0:0:0:0:
349,328,33963,6,0,L|474:316,1,111.999996582031
176,242,34177,2,0,L|51:230,1,111.999996582031
401,181,34392,2,0,L|526:169,1,111.999996582031
136,77,34606,2,0,L|11:65,1,111.999996582031
285,10,34820,6,0,L|290:95,1,80
174,280,35034,2,0,L|178:200,1,80
343,237,35249,1,0,0:0:0:0:
87,313,35356,2,0,P|44:315|5:306,1,80
52,85,35570,2,0,P|50:128|59:167,1,80
222,84,35784,1,0,0:0:0:0:
268,255,35892,6,0,L|255:346,1,80
396,308,36106,1,0,0:0:0:0:
288,128,36213,2,0,L|208:116,1,80
423,159,36427,2,0,L|502:147,1,80
377,36,36642,1,0,0:0:0:0:
334,227,36749,6,0,P|333:281|345:326,1,80
465,258,36963,1,0,0:0:0:0:
232,329,37070,2,0,L|149:317,1,80
403,189,37284,2,0,L|486:177,1,80
392,351,37499,1,0,0:0:0:0:
249,194,37606,6,0,P|236:127|263:37,1,160
441,90,37927,2,0,P|390:101|353:100,1,80
60,136,38142,2,0,P|99:137|138:146,1,80
276,275,38356,1,0,0:0:0:0:
430,169,38463,6,0,L|441:86,1,80
261,118,38677,1,0,0:0:0:0:
407,277,38784,2,0,L|490:266,1,80
205,309,38999,2,0,L|122:298,1,80
280,216,39213,1,0,0:0:0:0:
22,168,39320,6,0,P|87:182|181:143,1,160
321,19,39642,2,0,P|300:60|293:97,1,80
330,276,39856,2,0,P|304:237|276:212,1,80
29,280,40070,5,0,0:0:0:0:
62,310,40124,1,0,0:0:0:0:
94,339,40177,2,0,L|209:329,1,111.999996582031
451,173,40392,1,0,0:0:0:0:
406,177,40445,1,0,0:0:0:0:
361,182,40499,1,0,0:0:0:0:
285,131,40606,1,0,0:0:0:0:
511,229,40713,1,0,0:0:0:0:
412,302,40820,5,0,0:0:0:0:
383,57,40927,1,0,0:0:0:0:
496,106,41034,1,0,0:0:0:0:
299,253,41141,1,0,0:0:0:0:
137,127,41249,2,0,P|132:79|152:11,1,111.999996582031
249,202,41463,1,0,0:0:0:0:
218,235,41517,1,0,0:0:0:0:
178,255,41570,1,0,0:0:0:0:
133,264,41624,1,0,0:0:0:0:
95,261,41677,6,0,P|51:244|20:215,1,80
122,48,41892,2,0,L|138:134,1,80
245,67,42106,1,0,0:0:0:0:
326,173,42213,2,0,L|354:12,1,160
472,268,42534,6,0,P|423:269|391:259,1,80
442,164,42749,1,0,0:0:0:0:
294,293,42856,2,0,L|302:382,1,80
220,209,43070,1,0,0:0:0:0:
34,315,43177,2,0,P|119:332|194:302,1,160
326,188,43499,1,0,0:0:0:0:
155,166,43606,6,0,P|189:196|233:212,1,80
248,94,43820,1,0,0:0:0:0:
74,122,43927,2,0,P|31:136|-4:166,1,80
90,242,44142,1,0,0:0:0:0:
151,78,44249,6,0,P|159:33|151:-12,1,80
50,33,44463,1,0,0:0:0:0:
227,137,44570,2,0,B|307:137|307:137|375:95,1,160
506,227,44892,2,0,P|461:211|422:206,1,80
234,302,45106,2,0,P|279:286|318:281,1,80
98,342,45320,6,0,P|45:315|-1:216,1,160
156,84,45642,2,0,L|149:175,1,80
32,117,45856,1,0,0:0:0:0:
262,131,45963,6,0,L|353:138,1,80
313,27,46177,1,0,0:0:0:0:
463,82,46284,2,0,P|436:136|437:254,1,160
313,360,46606,2,0,P|313:280|281:207,1,160
23,78,46927,5,0,0:0:0:0:
58,105,46981,1,0,0:0:0:0:
100,117,47034,2,0,P|161:115|218:85,1,111.999996582031
471,47,47249,1,0,0:0:0:0:
430,64,47303,1,0,0:0:0:0:
398,94,47356,2,0,P|370:148|367:212,1,111.999996582031
269,364,47570,2,0,P|236:312|182:278,1,111.999996582031
56,274,47784,1,0,0:0:0:0:
357,302,47892,6,0,L|483:292,1,111.999996582031
257,198,48106,1,0,0:0:0:0:
392,51,48213,2,0,L|402:177,1,111.999996582031
220,324,48427,1,0,0:0:0:0:
68,183,48534,6,0,P|61:142|70:93,1,80
321,128,48749,2,0,P|271:148|155:141,1,160
406,198,49070,2,0,P|463:202|502:216,1,80
279,249,49284,1,0,0:0:0:0:
240,118,49392,6,0,L|235:32,1,80
110,84,49606,1,0,0:0:0:0:
74,212,49713,2,0,L|153:207,1,80
9,288,49927,1,0,0:0:0:0:
240,319,50034,2,0,P|156:314|81:357,1,160
344,381,50356,1,0,0:0:0:0:
410,294,50463,6,0,P|421:234|412:181,1,80
378,110,50677,1,0,0:0:0:0:
127,230,50784,2,0,P|187:241|240:232,1,80
311,198,50998,1,0,0:0:0:0:
225,51,51106,6,0,L|218:149,1,80
104,85,51320,1,0,0:0:0:0:
335,34,51427,2,0,P|408:36|494:89,1,160
347,228,51749,2,0,B|326:194|326:194|326:154,1,80
471,268,51963,2,0,B|471:308|471:308|450:342,1,80
96,329,52177,6,0,L|275:314,1,160
167,152,52499,2,0,P|156:200|163:236,1,80
283,198,52713,1,0,0:0:0:0:
89,81,52820,6,0,L|7:73,1,80
41,186,53034,1,0,0:0:0:0:
283,198,53142,2,0,L|371:191,1,80
316,91,53356,1,0,0:0:0:0:
167,152,53463,2,0,B|183:202|183:202|169:253|169:253|187:307,1,160
446,245,53784,5,0,0:0:0:0:
461,202,53838,1,0,0:0:0:0:
477,159,53892,2,0,L|457:39,1,111.999996582031
221,88,54106,1,0,0:0:0:0:
263,100,54159,1,0,0:0:0:0:
306,112,54213,1,0,0:0:0:0:
98,144,54320,1,0,0:0:0:0:
215,220,54427,1,0,0:0:0:0:
59,337,54534,6,0,P|34:277|135:320,1,240
379,212,54963,1,0,0:0:0:0:
339,220,55017,1,0,0:0:0:0:
299,216,55070,1,0,0:0:0:0:
263,197,55124,1,0,0:0:0:0:
242,163,55177,2,0,P|234:135|236:110,3,40
151,51,55392,6,0,P|152:108|132:155,1,95.9999970703126
30,83,55606,1,0,0:0:0:0:
33,201,55713,2,0,P|104:180|216:246,1,191.999994140625
334,130,56034,5,0,0:0:0:0:
360,292,56142,1,0,0:0:0:0:
205,229,56249,1,0,0:0:0:0:
488,217,56356,2,0,L|378:201,1,95.9999970703126
456,99,56570,1,0,0:0:0:0:
282,242,56677,6,0,P|270:310|284:350,1,95.9999970703126
418,345,56892,1,0,0:0:0:0:
296,132,56999,2,0,P|206:113|110:157,1,191.999994140625
150,357,57320,5,0,0:0:0:0:
215,239,57427,1,0,0:0:0:0:
150,357,57534,1,0,0:0:0:0:
215,239,57642,2,0,L|235:334,1,95.9999970703126
336,260,57856,1,0,0:0:0:0:
87,159,57963,5,0,3:0:0:0:
254,125,58070,1,0,3:0:0:0:
102,194,58177,1,0,3:0:0:0:
239,89,58284,1,0,3:0:0:0:
134,219,58391,1,0,3:0:0:0:
208,64,58499,2,0,P|296:46|394:78,1,191.999994140625
324,221,58820,5,0,0:0:0:0:
499,196,58927,1,0,0:0:0:0:
324,221,59034,1,0,0:0:0:0:
499,196,59141,2,0,L|386:181,1,95.9999970703126
245,269,59356,1,0,0:0:0:0:
144,162,59463,2,0,P|134:102|146:60,1,95.9999970703126
253,113,59677,1,0,0:0:0:0:
130,271,59784,1,0,0:0:0:0:
104,293,59838,1,0,0:0:0:0:
78,314,59891,6,0,L|21:301,3,47.9999985351563
169,358,60106,2,0,L|226:345,3,47.9999985351563
336,296,60320,2,0,L|279:283,3,47.9999985351563
409,248,60534,1,0,0:0:0:0:
352,188,60641,1,0,0:0:0:0:
405,122,60748,1,0,0:0:0:0:
348,62,60855,1,0,0:0:0:0:
292,127,60963,6,0,P|214:134|116:83,1,191.999994140625
0,301,61284,2,0,P|81:252|176:256,1,191.999994140625
344,350,61606,2,0,P|323:300|319:244,1,95.9999970703126
456,82,61820,1,0,0:0:0:0:
456,82,61874,1,0,0:0:0:0:
456,82,61927,2,0,B|446:126|464:162|464:162|429:201|429:201|444:231|425:284,1,191.999994140625
267,119,62249,6,0,L|353:133,1,80
176,256,62463,1,0,0:0:0:0:
34,176,62570,2,0,P|18:114|45:18,1,160
176,256,62891,6,0,P|177:300|159:343,1,80
61,283,63106,1,0,0:0:0:0:
156,145,63213,2,0,L|318:132,1,160
488,236,63534,5,0,0:0:0:0:
381,292,63641,1,0,0:0:0:0:
387,171,63749,1,0,0:0:0:0:
488,236,63856,2,0,P|501:295|498:327,1,80
279,227,64070,1,0,0:0:0:0:
387,91,64177,6,0,L|472:83,1,80
265,22,64391,1,0,0:0:0:0:
171,109,64499,2,0,L|161:272,1,160
71,226,64820,5,0,0:0:0:0:
253,196,64927,1,0,0:0:0:0:
73,147,65034,1,0,0:0:0:0:
255,117,65141,1,0,0:0:0:0:
72,68,65248,1,0,0:0:0:0:
254,38,65356,2,0,P|332:29|417:79,1,160
159,96,65677,6,0,P|142:46|146:11,1,80
311,159,65891,1,0,0:0:0:0:
186,232,65999,2,0,L|20:218,1,160
282,310,66320,6,0,L|377:304,1,80
487,244,66534,1,0,0:0:0:0:
389,143,66641,2,0,P|325:160|238:128,1,160
476,19,66963,2,0,L|488:107,1,80
393,236,67177,1,0,0:0:0:0:
309,70,67284,1,0,0:0:0:0:
309,70,67338,5,0,0:0:0:0:
309,70,67391,2,0,L|300:16,3,40
239,129,67606,2,0,L|230:183,3,40
169,71,67820,6,0,P|105:61|33:97,1,128
49,249,68141,2,0,B|101:209|101:209|116:145,1,128
216,277,68463,2,0,B|153:275|153:275|101:314,1,128
298,343,68784,5,0,0:0:0:0:
388,288,68891,1,0,0:0:0:0:
388,288,68945,1,0,0:0:0:0:
388,288,68998,1,0,0:0:0:0:
299,206,69106,1,0,0:0:0:0:
392,183,69213,1,0,0:0:0:0:
485,160,69320,1,0,0:0:0:0:
215,120,69534,5,0,0:0:0:0:
122,97,69641,1,0,0:0:0:0:
29,74,69748,1,0,0:0:0:0:
50,168,69856,1,0,0:0:0:0:
326,38,70070,1,0,0:0:0:0:
420,223,70284,5,0,0:0:0:0:
404,317,70391,1,0,0:0:0:0:
315,351,70498,1,0,0:0:0:0:
331,257,70605,1,0,0:0:0:0:
46,194,70820,6,0,L|27:233,3,40
144,212,71034,2,0,L|147:255,3,40
237,179,71248,2,0,L|261:214,3,40
295,101,71462,2,0,L|334:120,3,40
431,142,71677,6,0,P|447:83|438:18,1,111.999996582031
205,219,71891,6,0,P|190:272|194:328,1,111.999996582031
276,59,72105,6,0,P|223:44|167:48,1,111.999996582031
360,301,72319,6,0,P|413:316|469:312,1,111.999996582031
182,136,72534,6,0,P|98:137|2:195,1,191.999994140625
246,246,72855,1,0,0:0:0:0:
316,141,72962,2,0,P|328:72|321:34,1,95.9999970703126
246,246,73177,2,0,P|242:293|254:340,1,95.9999970703126
512,277,73391,6,0,B|475:266|446:240|446:240|403:251|403:251|375:229|333:230,1,191.999994140625
405,333,73712,1,0,0:0:0:0:
491,164,73820,2,0,P|493:104|479:63,1,95.9999970703126
281,135,74034,2,0,P|341:137|382:123,1,95.9999970703126
226,49,74248,6,0,L|31:41,1,191.999994140625
149,180,74570,1,0,0:0:0:0:
315,115,74677,2,0,P|336:64|334:18,1,95.9999970703126
57,159,74891,2,0,P|104:159|148:179,1,95.9999970703126
288,253,75105,2,0,L|270:371,1,95.9999970703126
467,281,75320,6,0,P|449:221|448:180,1,95.9999970703126
287,26,75534,2,0,P|283:73|267:119,1,95.9999970703126
110,369,75748,2,0,P|94:323|90:276,1,95.9999970703126
29,71,75962,6,0,P|73:44|136:145,1,191.999994140625
16,216,76284,1,0,0:0:0:0:
188,274,76391,2,0,L|297:265,1,95.9999970703126
471,191,76605,2,0,L|362:182,1,95.9999970703126
260,153,76819,6,0,L|277:59,1,95.9999970703126
392,289,77034,2,0,L|408:383,1,95.9999970703126
89,260,77248,2,0,P|162:239|271:302,1,191.999994140625
162,363,77569,1,0,0:0:0:0:
409,188,77677,6,0,P|341:203|300:197,1,95.9999970703126
340,9,77891,2,0,P|353:54|352:102,1,95.9999970703126
147,134,78105,2,0,L|246:119,1,95.9999970703126
479,297,78319,2,0,L|286:264,1,191.999994140625
117,356,78641,5,0,0:0:0:0:
18,251,78748,1,0,0:0:0:0:
158,218,78855,1,0,0:0:0:0:
117,356,78962,2,0,L|96:296,2,63.9999980468751
212,326,79177,1,0,0:0:0:0:
261,340,79248,1,0,0:0:0:0:
310,329,79319,1,0,0:0:0:0:
346,291,79391,6,0,P|366:238|364:193,1,95.9999970703126
94,161,79605,2,0,B|196:231|196:231|268:227,1,191.999994140625
230,119,79927,1,0,0:0:0:0:
46,237,80034,2,0,P|32:291|41:346,1,95.9999970703126
230,119,80248,2,0,P|233:71|220:25,1,95.9999970703126
23,64,80462,6,0,L|118:81,1,95.9999970703126
419,140,80677,2,0,L|324:157,1,95.9999970703126
82,258,80891,2,0,L|177:275,1,95.9999970703126
470,279,81105,6,0,P|375:261|288:322,1,191.999994140625
56,188,81427,2,0,P|136:236|228:217,1,191.999994140625
168,28,81748,2,0,P|153:90|161:126,1,95.9999970703126
359,93,81962,2,0,L|253:79,1,95.9999970703126
397,190,82177,2,0,L|503:176,1,95.9999970703126
311,349,82391,6,0,P|303:283|312:243,1,95.9999970703126
180,101,82605,2,0,P|185:148|177:195,1,95.9999970703126
33,245,82819,5,0,0:0:0:0:
33,245,83034,2,0,L|22:176,2,63.9999980468751
129,228,83248,2,0,L|198:217,2,63.9999980468751
140,312,83462,2,0,L|151:381,2,63.9999980468751
236,303,83677,1,0,0:0:0:0:
271,329,83748,1,0,0:0:0:0:
315,327,83819,1,0,0:0:0:0:
355,306,83891,1,0,0:0:0:0:
373,265,83962,1,0,0:0:0:0:
359,221,84034,1,0,0:0:0:0:
362,176,84105,1,0,0:0:0:0:
390,140,84177,1,0,0:0:0:0:
433,132,84248,1,0,0:0:0:0:
473,149,84319,1,0,0:0:0:0:
494,188,84391,1,0,0:0:0:0:
489,232,84462,1,0,0:0:0:0:
455,261,84534,1,0,0:0:0:0:
284,217,84677,5,0,0:0:0:0:
265,205,84748,2,0,L|243:131,2,63.9999980468751
189,258,84962,2,0,L|167:332,2,63.9999980468751
110,211,85177,2,0,L|88:137,2,63.9999980468751
133,59,85391,6,0,P|187:43|245:43,1,111.999996582031
485,138,85605,2,0,P|431:122|373:122,1,111.999996582031
232,290,85819,2,0,L|248:170,1,111.999996582031
66,262,86034,2,0,L|80:373,1,111.999996582031
1,141,86248,6,0,P|55:124|177:183,1,191.999994140625
273,72,86569,1,0,0:0:0:0:
378,171,86677,2,0,L|360:282,1,95.9999970703126
163,143,86891,2,0,L|147:48,1,95.9999970703126
504,134,87105,6,0,B|465:137|437:166|437:166|396:124|328:118,1,191.999994140625
189,236,87427,1,0,0:0:0:0:
318,323,87534,2,0,P|345:273|347:227,1,95.9999970703126
202,63,87748,2,0,P|207:110|231:151,1,95.9999970703126
15,229,87962,6,0,P|100:219|188:285,1,191.999994140625
74,343,88284,1,0,0:0:0:0:
318,323,88391,2,0,L|423:313,1,95.9999970703126
341,101,88605,2,0,L|351:206,1,95.9999970703126
243,162,88819,1,0,0:0:0:0:
445,88,88927,1,0,0:0:0:0:
280,22,89034,6,0,P|213:19|176:31,1,95.9999970703126
48,163,89248,2,0,L|27:57,1,95.9999970703126
194,248,89462,2,0,L|175:342,1,95.9999970703126
300,144,89677,6,0,P|365:130|468:205,1,191.999994140625
357,249,89998,1,0,0:0:0:0:
175,143,90105,2,0,B|151:101|151:101|152:54,1,95.9999970703126
357,249,90319,2,0,B|358:296|358:296|334:338,1,95.9999970703126
34,246,90534,6,0,B|128:214|128:277|222:246,1,191.999994140625
336,121,90855,1,0,0:0:0:0:
188,51,90962,2,0,P|170:107|177:149,1,95.9999970703126
352,283,91177,2,0,P|355:235|338:191,1,95.9999970703126
483,103,91391,6,0,P|418:119|308:51,1,191.999994140625
420,2,91712,1,0,0:0:0:0:
271,136,91819,2,0,L|167:123,1,95.9999970703126
196,329,92034,2,0,L|209:225,1,95.9999970703126
0,253,92248,2,0,L|104:266,1,95.9999970703126
74,81,92462,6,0,L|63:168,2,63.9999980468751
145,34,92677,1,0,0:0:0:0:
184,66,92748,1,0,0:0:0:0:
234,67,92819,1,0,0:0:0:0:
277,39,92891,1,0,0:0:0:0:
325,23,92962,1,0,0:0:0:0:
375,31,93034,1,0,0:0:0:0:
409,67,93105,6,0,P|412:126|392:165,1,95.9999970703126
203,235,93319,2,0,B|243:233|273:216|273:216|288:252|315:278|363:292,1,191.999994140625
491,247,93641,1,0,0:0:0:0:
211,132,93748,2,0,L|97:142,1,95.9999970703126
373,86,93962,2,0,L|381:181,1,95.9999970703126
114,347,94177,6,0,P|62:345|15:320,1,95.9999970703126
115,140,94391,2,0,P|95:183|94:231,1,95.9999970703126
306,194,94605,2,0,L|207:207,1,95.9999970703126
313,329,94819,6,0,P|380:346|490:284,1,191.999994140625
436,52,95141,2,0,B|383:133|383:133|383:230,1,191.999994140625
318,70,95462,2,0,P|268:44|221:38,1,95.9999970703126
122,167,95677,6,0,L|225:157,1,95.9999970703126
478,237,95891,2,0,L|382:227,1,95.9999970703126
321,5,96105,2,0,L|331:108,1,95.9999970703126
251,361,96319,2,0,L|260:265,1,95.9999970703126
91,323,96534,5,0,0:0:0:0:
91,323,96748,2,0,L|73:252,2,63.9999980468751
179,248,96962,1,0,0:0:0:0:
221,277,97034,1,0,0:0:0:0:
271,282,97105,1,0,0:0:0:0:
319,263,97177,1,0,0:0:0:0:
345,219,97248,1,0,0:0:0:0:
392,201,97319,1,0,0:0:0:0:
441,215,97391,1,0,0:0:0:0:
463,260,97462,1,0,0:0:0:0:
459,311,97534,1,0,0:0:0:0:
421,345,97605,1,0,0:0:0:0:
369,347,97677,1,0,0:0:0:0:
329,314,97748,1,0,0:0:0:0:
319,263,97819,1,0,0:0:0:0:
319,263,98248,6,0,L|330:166,1,80
175,103,98462,2,0,L|184:182,1,80
287,73,98677,1,0,0:0:0:0:
94,30,98784,2,0,P|42:27|11:35,1,80
53,221,98998,2,0,P|48:181|56:142,1,80
184,182,99212,1,0,0:0:0:0:
87,340,99319,6,0,L|6:335,1,80
53,221,99534,1,0,0:0:0:0:
208,306,99641,2,0,P|206:358|195:388,1,80
306,227,99855,2,0,P|294:188|294:148,1,80
412,176,100069,1,0,0:0:0:0:
180,193,100177,6,0,L|100:183,1,80
6,118,100391,1,0,0:0:0:0:
178,16,100498,2,0,P|174:67|150:106,1,80
288,275,100712,2,0,P|272:238|271:198,1,80
356,123,100927,1,0,0:0:0:0:
496,258,101034,6,0,L|484:353,1,80
369,282,101248,1,0,0:0:0:0:
407,116,101355,2,0,L|419:211,1,80
512,0,101569,2,0,L|500:95,1,80
276,169,101784,1,0,0:0:0:0:
149,94,101891,6,0,P|145:50|155:9,1,80
267,60,102105,1,0,0:0:0:0:
153,212,102212,2,0,L|63:200,1,80
259,288,102427,2,0,L|349:276,1,80
413,192,102641,1,0,0:0:0:0:
161,303,102748,6,0,P|145:351|143:392,1,80
278,362,102962,1,0,0:0:0:0:
234,175,103069,2,0,P|186:159|145:157,1,80
43,234,103284,1,0,0:0:0:0:
287,268,103391,6,0,L|340:263,3,40
433,200,103605,2,0,L|380:195,3,40
296,125,103819,2,0,L|349:120,3,40
237,60,104034,1,0,0:0:0:0:
199,81,104087,1,0,0:0:0:0:
157,96,104141,1,0,0:0:0:0:
113,96,104194,1,0,0:0:0:0:
71,81,104248,5,0,0:0:0:0:
493,190,104677,5,0,0:0:0:0:
25,292,105105,5,0,0:0:0:0:
236,23,105962,6,0,B|221:82|266:124|266:124|217:151|217:151|277:211|243:297,1,320
144,241,106498,5,0,0:0:0:0:
117,226,106552,1,0,0:0:0:0:
94,202,106605,1,0,0:0:0:0:
79,164,106659,1,0,0:0:0:0:
80,124,106712,1,0,0:0:0:0:
98,83,106766,1,0,0:0:0:0:
136,54,106819,6,0,L|237:59,1,80
434,121,107034,2,0,P|361:113|281:159,1,160
94,202,107355,2,0,P|148:206|184:225,1,80
114,317,107569,1,0,0:0:0:0:
300,356,107677,6,0,L|291:272,1,80
419,300,107891,1,0,0:0:0:0:
191,330,107998,2,0,P|141:326|105:312,1,80
176,216,108212,1,0,0:0:0:0:
32,140,108319,2,0,L|44:226,1,80
156,96,108534,6,0,L|167:16,1,80
367,86,108748,2,0,P|325:72|274:75,1,80
433,177,108962,1,0,0:0:0:0:
309,181,109069,2,0,L|319:276,1,80
198,232,109284,1,0,0:0:0:0:
432,296,109391,6,0,P|386:286|274:338,1,160
122,210,109712,2,0,P|166:228|206:231,1,80
189,121,109927,1,0,0:0:0:0:
18,148,110034,2,0,L|36:321,1,160
293,111,110355,5,0,0:0:0:0:
300,66,110409,1,0,0:0:0:0:
307,22,110462,1,0,0:0:0:0:
201,51,110569,1,0,0:0:0:0:
395,106,110677,1,0,0:0:0:0:
398,150,110730,1,0,0:0:0:0:
402,194,110784,1,0,0:0:0:0:
499,143,110891,1,0,0:0:0:0:
295,212,110998,2,0,P|238:211|185:190,1,111.999996582031
0,320,111212,5,0,0:0:0:0:
41,301,111266,1,0,0:0:0:0:
84,293,111319,2,0,P|139:293|191:313,1,111.999996582031
464,237,111534,1,0,0:0:0:0:
419,240,111587,1,0,0:0:0:0:
376,223,111641,2,0,P|329:183|308:131,1,111.999996582031
150,29,111855,2,0,P|145:99|125:144,1,111.999996582031
14,60,112069,1,0,0:0:0:0:
270,35,112177,6,0,P|366:40|425:70,1,160
231,252,112498,2,0,L|224:166,1,80
347,205,112712,1,0,0:0:0:0:
109,214,112819,6,0,P|61:206|23:187,1,80
128,97,113034,1,0,0:0:0:0:
231,252,113141,2,0,L|220:348,1,80
100,333,113355,1,0,0:0:0:0:
357,228,113462,2,0,P|420:225|510:269,1,160
318,332,113784,1,0,0:0:0:0:
261,148,113891,6,0,P|258:98|267:61,1,80
377,112,114105,1,0,0:0:0:0:
157,199,114212,2,0,L|66:183,1,80
148,83,114427,1,0,0:0:0:0:
264,261,114534,6,0,L|257:352,1,80
147,304,114748,1,0,0:0:0:0:
373,289,114855,2,0,P|430:285|480:291,1,80
337,187,115069,1,0,0:0:0:0:
445,50,115177,2,0,B|445:92|445:92|430:134,1,80
257,340,115391,2,0,B|244:304|244:304|244:262,1,80
164,98,115605,6,0,P|108:120|6:98,1,160
267,187,115927,2,0,P|314:197|351:194,1,80
297,67,116141,1,0,0:0:0:0:
152,206,116248,6,0,L|142:290,1,80
37,237,116462,1,0,0:0:0:0:
249,314,116569,2,0,P|177:309|88:360,1,160
360,355,116891,2,0,P|405:332|438:300,1,80
365,68,117105,5,0,0:0:0:0:
345,103,117159,1,0,0:0:0:0:
335,141,117212,1,0,0:0:0:0:
333,181,117266,1,0,0:0:0:0:
338,220,117319,2,0,P|345:241|361:269,3,40
265,299,117534,1,0,0:0:0:0:
229,282,117587,1,0,0:0:0:0:
188,278,117641,1,0,0:0:0:0:
152,295,117694,1,0,0:0:0:0:
111,295,117748,2,0,P|88:291|64:278,3,40
128,212,117962,6,0,P|153:151|152:102,1,111.999996582031
312,241,118177,2,0,P|314:296|337:347,1,111.999996582031
8,188,118391,2,0,P|9:132|33:82,1,111.999996582031
428,220,118605,2,0,P|451:271|454:327,1,111.999996582031
248,107,118820,6,0,P|250:61|267:24,1,80
345,87,119034,1,0,0:0:0:0:
165,150,119141,2,0,P|224:142|320:189,1,160
127,288,119462,5,0,0:0:0:0:
14,188,119570,1,0,0:0:0:0:
127,288,119677,1,0,0:0:0:0:
14,188,119784,2,0,P|3:132|12:101,1,80
121,42,119998,1,0,0:0:0:0:
234,223,120105,6,0,L|245:313,1,80
344,357,120320,1,0,0:0:0:0:
457,223,120427,2,0,P|465:164|434:71,1,160
168,47,120748,5,0,0:0:0:0:
276,121,120855,1,0,0:0:0:0:
361,25,120962,1,0,0:0:0:0:
163,156,121070,2,0,P|149:214|177:310,1,160
257,249,121391,5,0,0:0:0:0:
77,189,121498,1,0,0:0:0:0:
118,369,121605,1,0,0:0:0:0:
240,252,121712,1,0,0:0:0:0:
88,201,121819,1,0,0:0:0:0:
123,353,121927,2,0,P|202:330|289:343,1,160
468,258,122248,6,0,P|410:273|381:270,1,80
265,207,122462,1,0,0:0:0:0:
352,18,122570,2,0,B|371:73|371:73|353:116|353:116|368:170,1,160
190,58,122891,6,0,L|274:67,1,80
453,125,123105,1,0,0:0:0:0:
265,207,123212,2,0,P|209:213|98:182,1,160
10,65,123534,6,0,L|-2:19,3,40
112,68,123748,2,0,L|101:106,3,40
200,115,123962,1,0,0:0:0:0:
238,127,124016,1,0,0:0:0:0:
278,127,124070,1,0,0:0:0:0:
316,116,124123,1,0,0:0:0:0:
349,93,124177,2,0,P|361:76|371:55,3,40
436,127,124391,6,0,B|440:158|456:189|456:189|428:226|428:226|451:258|444:309,1,191.999994140625
177,256,124712,2,0,P|252:231|348:292,1,191.999994140625
250,338,125034,1,0,0:0:0:0:
71,329,125141,1,0,0:0:0:0:
51,285,125194,1,0,0:0:0:0:
51,236,125248,1,0,0:0:0:0:
66,190,125302,1,0,0:0:0:0:
100,158,125355,6,0,P|140:104|51:135,1,223.999993164063
243,174,125677,6,0,P|303:173|347:151,1,95.9999970703126
274,73,125891,1,0,0:0:0:0:
167,249,125998,2,0,L|178:364,1,95.9999970703126
57,311,126212,1,0,0:0:0:0:
286,284,126319,6,0,P|344:285|390:300,1,95.9999970703126
492,215,126534,1,0,0:0:0:0:
380,137,126641,2,0,P|318:152|197:101,1,191.999994140625
20,188,126962,6,0,P|63:176|115:182,1,95.9999970703126
227,254,127177,1,0,0:0:0:0:
78,283,127284,2,0,L|59:77,1,191.999994140625
298,44,127605,5,0,0:0:0:0:
197,172,127712,1,0,0:0:0:0:
133,21,127819,1,0,0:0:0:0:
314,159,127927,2,0,P|326:238|291:352,1,191.999994140625
199,290,128248,5,0,0:0:0:0:
421,250,128355,1,0,0:0:0:0:
184,279,128462,1,0,0:0:0:0:
435,260,128569,1,0,0:0:0:0:
173,258,128677,1,0,0:0:0:0:
446,281,128784,2,0,P|341:290|248:252,1,191.999994140625
280,73,129105,6,0,P|309:120|317:174,1,95.9999970703126
197,160,129319,1,0,0:0:0:0:
407,72,129427,2,0,L|512:82,1,95.9999970703126
317,159,129641,1,0,0:0:0:0:
438,190,129748,6,0,P|444:248|436:294,1,95.9999970703126
338,348,129962,1,0,0:0:0:0:
177,231,130069,2,0,L|148:27,1,191.999994140625
67,111,130391,1,0,0:0:0:0:
252,161,130498,1,0,0:0:0:0:
358,68,130605,6,0,L|370:11,3,47.9999985351563
450,109,130819,2,0,L|459:155,3,47.9999985351563
361,162,131034,1,0,0:0:0:0:
318,140,131087,1,0,0:0:0:0:
269,141,131141,1,0,0:0:0:0:
227,164,131194,1,0,0:0:0:0:
200,204,131248,6,0,P|130:207|97:197,2,95.9999970703126
361,162,131569,2,0,P|364:232|354:265,2,95.9999970703126
319,18,131891,2,0,P|389:15|422:25,2,95.9999970703126
161,51,132212,2,0,L|105:37,3,47.9999985351563
253,93,132427,1,0,0:0:0:0:
253,93,132480,1,0,0:0:0:0:
253,93,132534,6,0,B|276:170|276:170|250:246,1,160
28,156,132855,2,0,P|97:138|188:180,1,160
113,323,133176,6,0,L|98:243,1,80
6,306,133391,1,0,0:0:0:0:
219,103,133498,2,0,L|190:271,1,160
385,212,133819,6,0,P|345:195|303:193,1,80
320,309,134034,1,0,0:0:0:0:
482,293,134141,2,0,P|505:240|476:130,1,160
308,26,134462,6,0,L|324:122,1,80
427,45,134676,1,0,0:0:0:0:
216,78,134784,2,0,P|97:72|50:52,1,160
266,184,135105,6,0,P|313:188|349:199,1,80
269,373,135319,2,0,P|279:334|282:294,1,80
175,255,135534,1,0,0:0:0:0:
406,299,135641,2,0,P|428:245|417:134,1,160
238,23,135962,6,0,P|226:78|233:121,1,80
336,76,136176,1,0,0:0:0:0:
152,140,136284,2,0,P|208:134|304:178,1,160
101,237,136605,6,0,L|20:230,1,80
54,333,136819,1,0,0:0:0:0:
171,323,136926,2,0,L|338:308,1,160
243,137,137248,6,0,P|232:177|243:229,1,80
346,186,137462,1,0,0:0:0:0:
305,45,137569,2,0,P|231:29|152:71,1,160
112,196,137891,5,0,0:0:0:0:
32,74,137998,1,0,0:0:0:0:
112,196,138105,1,0,0:0:0:0:
32,74,138212,2,0,L|14:239,1,160
277,151,138534,6,0,P|231:137|190:136,1,80
214,250,138748,1,0,0:0:0:0:
214,250,138855,1,0,0:0:0:0:
377,214,138962,2,0,P|391:168|392:127,1,80
321,51,139176,1,0,0:0:0:0:
321,51,139284,1,0,0:0:0:0:
476,68,139391,6,0,L|489:167,1,80
429,275,139605,1,0,0:0:0:0:
313,196,139712,2,0,P|235:186|152:236,1,160
240,370,140034,6,0,L|256:279,1,80
349,342,140248,1,0,0:0:0:0:
149,318,140355,2,0,L|127:143,1,160
332,182,140676,6,0,P|284:191|241:183,1,80
404,90,140891,1,0,0:0:0:0:
494,163,140998,2,0,P|508:229|476:316,1,160
404,90,141319,6,0,L|415:6,1,80
511,67,141534,1,0,0:0:0:0:
302,120,141641,2,0,P|254:132|145:101,1,160
15,252,141962,5,0,0:0:0:0:
171,222,142069,1,0,0:0:0:0:
15,252,142176,1,0,0:0:0:0:
171,222,142284,2,0,L|76:211,1,80
185,324,142498,2,0,L|375:302,1,160
469,165,142819,6,0,P|471:116|455:76,1,80
358,138,143034,1,0,0:0:0:0:
278,55,143141,2,0,P|244:137|271:213,1,160
480,261,143462,6,0,P|430:268|394:289,1,80
311,360,143676,1,0,0:0:0:0:
71,269,143784,2,0,P|163:306|230:286,1,160
155,112,144105,6,0,L|165:201,1,80
41,156,144319,1,0,0:0:0:0:
253,144,144426,2,0,L|426:159,1,160
278,306,144748,6,0,P|266:249|272:212,1,80
415,83,144962,1,0,0:0:0:0:
512,270,145069,2,0,P|427:282|353:246,1,160
274,88,145391,2,0,L|270:38,3,40
188,98,145605,1,0,0:0:0:0:
183,137,145658,1,0,0:0:0:0:
178,177,145712,1,0,0:0:0:0:
173,217,145766,1,0,0:0:0:0:
168,256,145819,2,0,L|160:317,3,40
100,348,146033,1,0,0:0:0:0:
37,102,146141,6,0,P|81:52|103:178,1,280
394,170,147105,2,0,P|331:159|228:203,1,160
335,304,147748,1,0,0:0:0:0:
486,223,147962,6,0,L|499:138,1,80
339,36,148391,2,0,L|349:97,2,53.3333333333333
230,88,148819,2,0,P|187:97|77:48,1,160
41,188,149462,2,0,L|27:147,2,26.6666666666667
123,218,149676,6,0,P|184:193|328:278,1,240
202,324,150533,2,0,B|181:175|181:175|218:88,1,240
383,154,151391,6,0,P|336:175|296:177,1,80
26,87,151819,2,0,P|73:66|113:64,1,80
160,194,152248,1,0,0:0:0:0:
27,270,152462,2,0,L|7:180,2,80
149,318,153105,6,0,B|227:344|227:291|305:318,1,160
407,262,153748,1,0,0:0:0:0:
300,136,153962,2,0,P|296:185|311:228,1,80
410,67,154391,1,0,0:0:0:0:
410,67,154605,1,0,0:0:0:0:
144,18,154819,6,0,P|206:48|306:34,1,160
121,127,155462,2,0,P|92:130|66:137,1,40
30,203,155676,2,0,L|44:287,1,80
200,172,156105,2,0,L|213:93,1,80
404,143,156533,6,0,L|412:272,1,120.000004577637
419,367,156962,1,0,0:0:0:0:
419,367,157176,1,0,0:0:0:0:
272,147,157391,2,0,L|282:84,3,60.0000022888184
175,105,157819,2,0,L|112:95,3,60.0000022888184
130,201,158248,2,0,L|120:264,3,60.0000022888184
227,243,158676,2,0,L|290:253,3,60.0000022888184
384,177,159105,6,0,L|335:181,3,40
443,237,159319,2,0,L|482:240,3,40
389,308,159533,1,0,0:0:0:0:
352,325,159587,1,0,0:0:0:0:
311,325,159641,1,0,0:0:0:0:
275,307,159694,1,0,0:0:0:0:
238,288,159748,1,0,0:0:0:0:
199,279,159801,1,0,0:0:0:0:
159,287,159855,1,0,0:0:0:0:
124,306,159908,1,0,0:0:0:0:
103,340,159962,1,0,0:0:0:0:
83,80,162426,5,0,0:0:0:0:
83,80,162480,1,0,0:0:0:0:
83,80,162533,2,0,L|75:127,3,40
179,120,162748,1,0,0:0:0:0:
179,120,162802,1,0,0:0:0:0:
179,120,162855,2,0,L|187:167,3,40
279,117,163069,1,0,0:0:0:0:
279,117,163123,1,0,0:0:0:0:
279,117,163176,1,0,0:0:0:0:
465,148,163391,5,0,0:0:0:0:
356,212,163498,1,0,0:0:0:0:
465,270,163605,2,0,L|448:356,1,80
326,354,163819,1,0,0:0:0:0:
326,354,163926,1,0,0:0:0:0:
187,187,164033,6,0,P|182:143|190:101,1,80
299,149,164248,1,0,0:0:0:0:
299,149,164355,1,0,0:0:0:0:
94,217,164462,6,0,L|4:210,1,80
50,313,164676,1,0,0:0:0:0:
50,313,164783,1,0,0:0:0:0:
240,349,164891,6,0,P|249:303|244:267,1,80
199,177,165105,1,0,0:0:0:0:
199,177,165212,1,0,0:0:0:0:
322,74,165319,6,0,P|318:113|326:152,1,80
405,221,165533,1,0,0:0:0:0:
405,221,165641,1,0,0:0:0:0:
460,81,165748,6,0,L|470:41,3,40
384,36,165962,2,0,P|324:68|178:-3,1,240
102,48,166391,2,0,L|97:131,1,80
30,269,166605,1,0,0:0:0:0:
65,252,166658,1,0,0:0:0:0:
105,249,166712,1,0,0:0:0:0:
143,259,166766,1,0,0:0:0:0:
174,285,166819,6,0,P|223:297|279:283,1,95.9999970703126
248,100,167033,2,0,L|228:195,1,95.9999970703126
343,207,167247,1,0,0:0:0:0:
139,126,167354,2,0,P|85:123|38:135,1,95.9999970703126
343,207,167569,2,0,P|390:210|437:200,1,95.9999970703126
385,84,167783,1,0,0:0:0:0:
228,193,167890,6,0,L|241:300,1,95.9999970703126
143,369,168104,1,0,0:0:0:0:
46,217,168211,2,0,P|40:157|52:113,1,95.9999970703126
223,0,168426,2,0,P|231:46|225:94,1,95.9999970703126
124,48,168640,1,0,0:0:0:0:
333,50,168747,6,0,L|428:61,1,95.9999970703126
497,151,168961,1,0,0:0:0:0:
331,213,169069,2,0,P|275:211|228:193,1,95.9999970703126
448,250,169283,2,0,P|474:299|482:349,1,95.9999970703126
370,377,169497,1,0,0:0:0:0:
223,282,169604,6,0,L|207:89,1,191.999994140625
31,135,169926,2,0,P|77:149|131:146,1,95.9999970703126
400,208,170140,2,0,P|352:206|306:220,1,95.9999970703126
369,313,170354,1,0,0:0:0:0:
491,174,170461,6,0,L|500:72,1,95.9999970703126
397,20,170676,1,0,0:0:0:0:
227,98,170783,2,0,P|286:117|331:107,1,95.9999970703126
123,40,170997,2,0,P|75:36|31:53,1,95.9999970703126
4,194,171211,1,0,0:0:0:0:
80,317,171319,6,0,L|100:120,1,191.999994140625
219,247,171640,2,0,L|228:342,1,95.9999970703126
323,181,171854,2,0,L|332:85,1,95.9999970703126
455,196,172069,5,0,0:0:0:0:
455,196,172122,1,0,0:0:0:0:
455,196,172176,2,0,L|464:252,3,47.9999985351563
369,280,172390,1,0,0:0:0:0:
369,280,172443,1,0,0:0:0:0:
369,280,172497,2,0,L|360:336,3,47.9999985351563
274,353,172711,1,0,0:0:0:0:
153,284,172819,6,0,P|136:225|282:197,1,240
435,302,173247,2,0,B|275:289|275:289|211:235,1,240
365,201,173676,1,0,0:0:0:0:
28,94,174533,6,0,P|109:73|185:126,1,180.000006866455
97,204,174961,2,0,L|89:166,3,30.0000011444092
170,249,175176,2,0,L|163:278,3,30.0000011444092
237,329,175390,5,0,0:0:0:0:
274,343,175444,1,0,0:0:0:0:
313,343,175497,1,0,0:0:0:0:
351,331,175551,1,0,0:0:0:0:
381,305,175604,2,0,P|399:266|399:219,1,80
296,237,175819,1,0,0:0:0:0:
496,232,175926,2,0,L|486:137,1,80
361,20,176140,1,0,0:0:0:0:
361,20,176194,1,0,0:0:0:0:
361,20,176247,2,0,B|344:182|344:182|290:120,1,240
226,46,176676,5,0,0:0:0:0:
109,190,176783,5,0,0:0:0:0:
241,179,176890,5,0,0:0:0:0:
97,62,176997,5,0,0:0:0:0:
