osu file format v14

[General]
AudioFilename: audio.mp3
AudioLeadIn: 0
PreviewTime: 1767
Countdown: 0
SampleSet: Normal
StackLeniency: 0.7
Mode: 1
LetterboxInBreaks: 0
WidescreenStoryboard: 0

[Editor]
DistanceSpacing: 1
BeatDivisor: 4
GridSize: 32
TimelineZoom: 4

[Metadata]
Title:MALICIOUS MAGGOTS
TitleUnicode:MALICIOUS MAGGOTS
Artist:UNDEAD CORPORATION
ArtistUnicode:UNDEAD CORPORATION
Creator:Surono
Version:HELL ONI
Source:東方紅魔郷 ~ The Embodiment of Scarlet Devil.
Tags:Touhou 6 Koumakyou Project EoSD Stage 4 Boss Patchouli Knowledge's Theme Locked Girl ~ The Girl's Secret Room ZUN Rhytoly
BeatmapID:1595900
BeatmapSetID:758760

[Difficulty]
HPDrainRate:5
CircleSize:2
OverallDifficulty:8
ApproachRate:10
SliderMultiplier:1.4
SliderTickRate:1

[Events]
//Background and Video events
0,0,"wew not madnut magnut.jpg",0,110
//Break Periods
//Storyboard Layer 0 (Background)
//Storyboard Layer 1 (Fail)
//Storyboard Layer 2 (Pass)
//Storyboard Layer 3 (Foreground)
//Storyboard Sound Samples

[TimingPoints]
214,214.285714285714,4,1,0,95,1,0
1928,-100,4,1,0,95,0,1
15642,-100,4,1,0,95,0,0
15856,-125,4,1,0,95,0,0
17196,-117.647058823529,4,1,0,95,0,0
17249,-111.111111111111,4,1,0,95,0,0
17303,-105.263157894737,4,1,0,95,0,0
17356,-100,4,1,0,95,0,0
18213,-92.5925925925926,4,1,0,95,0,0
18267,-94.3396226415094,4,1,0,95,0,0
18321,-96.1538461538461,4,1,0,95,0,0
18374,-98.0392156862745,4,1,0,95,0,0
18428,-100,4,1,0,95,0,0
18481,-102.040816326531,4,1,0,95,0,0
18535,-104.166666666667,4,1,0,95,0,0
18588,-106.382978723404,4,1,0,95,0,0
18642,-108.695652173913,4,1,0,95,0,0
18696,-111.111111111111,4,1,0,95,0,0
18749,-113.636363636364,4,1,0,95,0,0
18803,-116.279069767442,4,1,0,95,0,0
18856,-119.047619047619,4,1,0,95,0,0
18963,-121.951219512195,4,1,0,95,0,0
19017,-125,4,1,0,95,0,0
19285,-111.111111111111,4,1,0,95,0,0
19713,-100,4,1,0,95,0,0
20142,-90.9090909090909,4,1,0,95,0,0
21642,-66.6666666666667,4,1,0,95,0,0
21803,-71.4285714285714,4,1,0,95,0,0
22017,-76.9230769230769,4,1,0,95,0,0
22285,-100,4,1,0,95,0,0
35517,-76.9230769230769,4,1,0,95,0,0
35624,-80,4,1,0,95,0,0
35731,-83.3333333333333,4,1,0,95,0,0
35838,-86.9565217391304,4,1,0,95,0,0
35946,-90.9090909090909,4,1,0,95,0,0
36053,-95.2380952380952,4,1,0,95,0,0
36213,-100,4,1,0,95,0,0

[Colours]
Combo1 : 149,149,149
Combo2 : 193,0,0
Combo3 : 153,57,57

[HitObjects]
256,192,214,5,0,0:0:0:0:
256,192,267,1,8,0:0:0:0:
256,192,321,1,8,0:0:0:0:
256,192,374,1,8,0:0:0:0:
256,192,428,1,0,0:0:0:0:
256,192,481,1,0,0:0:0:0:
256,192,535,1,8,0:0:0:0:
256,192,588,1,0,0:0:0:0:
256,192,642,1,8,0:0:0:0:
256,192,696,1,0,0:0:0:0:
256,192,749,1,0,0:0:0:0:
256,192,803,1,0,0:0:0:0:
256,192,856,1,8,0:0:0:0:
256,192,910,1,8,0:0:0:0:
256,192,963,1,0,0:0:0:0:
256,192,1017,1,8,0:0:0:0:
256,192,1071,1,0,0:0:0:0:
256,192,1124,1,0,0:0:0:0:
256,192,1178,1,8,0:0:0:0:
256,192,1231,1,0,0:0:0:0:
256,192,1285,1,8,0:0:0:0:
256,192,1338,1,0,0:0:0:0:
256,192,1392,1,0,0:0:0:0:
256,192,1446,1,0,0:0:0:0:
256,192,1499,1,8,0:0:0:0:
256,192,1606,1,8,0:0:0:0:
256,192,1713,1,0,0:0:0:0:
256,192,1928,1,12,0:0:0:0:
256,192,2035,1,0,0:0:0:0:
256,192,2088,1,0,0:0:0:0:
256,192,2142,1,8,0:0:0:0:
256,192,2196,1,0,0:0:0:0:
256,192,2249,1,0,0:0:0:0:
256,192,2303,1,0,0:0:0:0:
256,192,2356,1,8,0:0:0:0:
256,192,2410,1,0,0:0:0:0:
256,192,2463,1,0,0:0:0:0:
256,192,2517,1,0,0:0:0:0:
256,192,2571,1,8,0:0:0:0:
256,192,2624,1,8,0:0:0:0:
256,192,2678,1,0,0:0:0:0:
256,192,2731,1,0,0:0:0:0:
256,192,2785,1,8,0:0:0:0:
256,192,2838,1,8,0:0:0:0:
256,192,2892,1,0,0:0:0:0:
256,192,2946,1,0,0:0:0:0:
256,192,2999,1,0,0:0:0:0:
256,192,3053,1,0,0:0:0:0:
256,192,3106,1,8,0:0:0:0:
256,192,3160,1,8,0:0:0:0:
256,192,3213,1,0,0:0:0:0:
256,192,3267,1,0,0:0:0:0:
256,192,3321,1,0,0:0:0:0:
256,192,3374,1,0,0:0:0:0:
256,192,3428,1,8,0:0:0:0:
256,192,3481,1,8,0:0:0:0:
256,192,3535,1,8,0:0:0:0:
256,192,3588,1,0,0:0:0:0:
256,192,3642,1,8,0:0:0:0:
256,192,3696,1,8,0:0:0:0:
256,192,3749,1,0,0:0:0:0:
256,192,3803,1,0,0:0:0:0:
256,192,3856,1,8,0:0:0:0:
256,192,3910,1,0,0:0:0:0:
256,192,3963,1,0,0:0:0:0:
256,192,4017,1,0,0:0:0:0:
256,192,4071,1,8,0:0:0:0:
256,192,4124,1,0,0:0:0:0:
256,192,4178,1,0,0:0:0:0:
256,192,4231,1,0,0:0:0:0:
256,192,4285,1,8,0:0:0:0:
256,192,4338,1,8,0:0:0:0:
256,192,4392,1,0,0:0:0:0:
256,192,4446,1,0,0:0:0:0:
256,192,4499,1,8,0:0:0:0:
256,192,4553,1,8,0:0:0:0:
256,192,4606,1,0,0:0:0:0:
256,192,4660,1,0,0:0:0:0:
256,192,4713,1,8,0:0:0:0:
256,192,4767,1,8,0:0:0:0:
256,192,4821,1,0,0:0:0:0:
256,192,4874,1,0,0:0:0:0:
256,192,4928,1,8,0:0:0:0:
256,192,4981,1,8,0:0:0:0:
256,192,5035,1,8,0:0:0:0:
256,192,5088,1,0,0:0:0:0:
256,192,5142,1,8,0:0:0:0:
256,192,5196,1,0,0:0:0:0:
256,192,5249,1,0,0:0:0:0:
256,192,5303,1,0,0:0:0:0:
256,192,5356,1,8,0:0:0:0:
256,192,5410,1,8,0:0:0:0:
256,192,5463,1,0,0:0:0:0:
256,192,5517,1,0,0:0:0:0:
256,192,5571,1,8,0:0:0:0:
256,192,5624,1,0,0:0:0:0:
256,192,5678,1,0,0:0:0:0:
256,192,5731,1,0,0:0:0:0:
256,192,5785,1,8,0:0:0:0:
256,192,5838,1,0,0:0:0:0:
256,192,5892,1,0,0:0:0:0:
256,192,5946,1,0,0:0:0:0:
256,192,5999,1,8,0:0:0:0:
256,192,6053,1,0,0:0:0:0:
256,192,6106,1,8,0:0:0:0:
256,192,6160,1,8,0:0:0:0:
256,192,6213,1,8,0:0:0:0:
256,192,6267,1,0,0:0:0:0:
256,192,6321,1,0,0:0:0:0:
256,192,6374,1,0,0:0:0:0:
256,192,6428,1,8,0:0:0:0:
256,192,6481,1,0,0:0:0:0:
256,192,6535,1,0,0:0:0:0:
256,192,6588,1,0,0:0:0:0:
256,192,6642,1,8,0:0:0:0:
256,192,6696,1,8,0:0:0:0:
256,192,6749,1,0,0:0:0:0:
256,192,6803,1,0,0:0:0:0:
256,192,6856,1,8,0:0:0:0:
256,192,6910,1,0,0:0:0:0:
256,192,6963,1,0,0:0:0:0:
256,192,7017,1,0,0:0:0:0:
256,192,7071,1,8,0:0:0:0:
256,192,7124,1,8,0:0:0:0:
256,192,7178,1,8,0:0:0:0:
256,192,7231,1,8,0:0:0:0:
256,192,7285,1,0,0:0:0:0:
256,192,7338,1,0,0:0:0:0:
256,192,7392,1,0,0:0:0:0:
256,192,7446,1,0,0:0:0:0:
256,192,7499,1,8,0:0:0:0:
256,192,7553,1,0,0:0:0:0:
256,192,7606,1,0,0:0:0:0:
256,192,7660,1,0,0:0:0:0:
256,192,7713,1,8,0:0:0:0:
256,192,7767,1,8,0:0:0:0:
256,192,7821,1,0,0:0:0:0:
256,192,7874,1,0,0:0:0:0:
256,192,7928,1,0,0:0:0:0:
256,192,7981,1,0,0:0:0:0:
256,192,8035,1,8,0:0:0:0:
256,192,8088,1,0,0:0:0:0:
256,192,8142,1,8,0:0:0:0:
256,192,8196,1,8,0:0:0:0:
256,192,8249,1,0,0:0:0:0:
256,192,8303,1,8,0:0:0:0:
256,192,8356,1,8,0:0:0:0:
256,192,8410,1,8,0:0:0:0:
256,192,8463,1,0,0:0:0:0:
256,192,8517,1,8,0:0:0:0:
256,192,8571,1,8,0:0:0:0:
256,192,8624,1,8,0:0:0:0:
256,192,8678,1,0,0:0:0:0:
256,192,8785,1,12,0:0:0:0:
256,192,8892,1,0,0:0:0:0:
256,192,8946,1,0,0:0:0:0:
256,192,8999,1,8,0:0:0:0:
256,192,9053,1,0,0:0:0:0:
256,192,9106,1,0,0:0:0:0:
256,192,9160,1,0,0:0:0:0:
256,192,9213,1,8,0:0:0:0:
256,192,9267,1,0,0:0:0:0:
256,192,9321,1,0,0:0:0:0:
256,192,9374,1,0,0:0:0:0:
256,192,9428,1,8,0:0:0:0:
256,192,9481,1,8,0:0:0:0:
256,192,9535,1,0,0:0:0:0:
256,192,9588,1,0,0:0:0:0:
256,192,9642,1,8,0:0:0:0:
256,192,9696,1,8,0:0:0:0:
256,192,9749,1,0,0:0:0:0:
256,192,9803,1,0,0:0:0:0:
256,192,9856,1,0,0:0:0:0:
256,192,9910,1,0,0:0:0:0:
256,192,9963,1,8,0:0:0:0:
256,192,10017,1,8,0:0:0:0:
256,192,10071,1,0,0:0:0:0:
256,192,10124,1,0,0:0:0:0:
256,192,10178,1,0,0:0:0:0:
256,192,10231,1,0,0:0:0:0:
256,192,10285,1,8,0:0:0:0:
256,192,10338,1,8,0:0:0:0:
256,192,10392,1,8,0:0:0:0:
256,192,10446,1,0,0:0:0:0:
256,192,10499,1,8,0:0:0:0:
256,192,10553,1,8,0:0:0:0:
256,192,10606,1,0,0:0:0:0:
256,192,10660,1,0,0:0:0:0:
256,192,10713,1,8,0:0:0:0:
256,192,10767,1,0,0:0:0:0:
256,192,10821,1,0,0:0:0:0:
256,192,10874,1,0,0:0:0:0:
256,192,10928,1,8,0:0:0:0:
256,192,10981,1,0,0:0:0:0:
256,192,11035,1,0,0:0:0:0:
256,192,11088,1,0,0:0:0:0:
256,192,11142,1,8,0:0:0:0:
256,192,11196,1,8,0:0:0:0:
256,192,11249,1,0,0:0:0:0:
256,192,11303,1,0,0:0:0:0:
256,192,11356,1,8,0:0:0:0:
256,192,11410,1,8,0:0:0:0:
256,192,11463,1,0,0:0:0:0:
256,192,11517,1,0,0:0:0:0:
256,192,11571,1,8,0:0:0:0:
256,192,11624,1,8,0:0:0:0:
256,192,11678,1,0,0:0:0:0:
256,192,11731,1,0,0:0:0:0:
256,192,11785,1,8,0:0:0:0:
256,192,11838,1,8,0:0:0:0:
256,192,11892,1,8,0:0:0:0:
256,192,11946,1,0,0:0:0:0:
256,192,11999,1,8,0:0:0:0:
256,192,12053,1,0,0:0:0:0:
256,192,12106,1,0,0:0:0:0:
256,192,12160,1,0,0:0:0:0:
256,192,12213,1,8,0:0:0:0:
256,192,12267,1,8,0:0:0:0:
256,192,12321,1,0,0:0:0:0:
256,192,12374,1,0,0:0:0:0:
256,192,12428,1,8,0:0:0:0:
256,192,12481,1,0,0:0:0:0:
256,192,12535,1,0,0:0:0:0:
256,192,12588,1,0,0:0:0:0:
256,192,12642,1,8,0:0:0:0:
256,192,12696,1,0,0:0:0:0:
256,192,12749,1,0,0:0:0:0:
256,192,12803,1,0,0:0:0:0:
256,192,12856,1,8,0:0:0:0:
256,192,12910,1,0,0:0:0:0:
256,192,12963,1,8,0:0:0:0:
256,192,13017,1,8,0:0:0:0:
256,192,13071,1,8,0:0:0:0:
256,192,13124,1,0,0:0:0:0:
256,192,13178,1,0,0:0:0:0:
256,192,13231,1,0,0:0:0:0:
256,192,13285,1,8,0:0:0:0:
256,192,13338,1,0,0:0:0:0:
256,192,13392,1,0,0:0:0:0:
256,192,13446,1,0,0:0:0:0:
256,192,13499,1,8,0:0:0:0:
256,192,13553,1,8,0:0:0:0:
256,192,13606,1,0,0:0:0:0:
256,192,13660,1,0,0:0:0:0:
256,192,13713,1,8,0:0:0:0:
256,192,13767,1,0,0:0:0:0:
256,192,13821,1,0,0:0:0:0:
256,192,13874,1,0,0:0:0:0:
256,192,13928,1,8,0:0:0:0:
256,192,13981,1,8,0:0:0:0:
256,192,14035,1,8,0:0:0:0:
256,192,14088,1,8,0:0:0:0:
256,192,14142,1,0,0:0:0:0:
256,192,14196,1,0,0:0:0:0:
256,192,14249,1,0,0:0:0:0:
256,192,14303,1,0,0:0:0:0:
256,192,14356,1,8,0:0:0:0:
256,192,14410,1,0,0:0:0:0:
256,192,14463,1,0,0:0:0:0:
256,192,14517,1,0,0:0:0:0:
256,192,14571,1,8,0:0:0:0:
256,192,14624,1,8,0:0:0:0:
256,192,14678,1,0,0:0:0:0:
256,192,14731,1,0,0:0:0:0:
256,192,14785,1,8,0:0:0:0:
256,192,14838,1,0,0:0:0:0:
256,192,14892,1,8,0:0:0:0:
256,192,14946,1,8,0:0:0:0:
256,192,14999,1,0,0:0:0:0:
256,192,15053,1,8,0:0:0:0:
256,192,15106,1,0,0:0:0:0:
256,192,15160,1,0,0:0:0:0:
256,192,15213,1,8,0:0:0:0:
256,192,15267,1,0,0:0:0:0:
256,192,15321,1,8,0:0:0:0:
256,192,15374,1,8,0:0:0:0:
256,192,15428,1,0,0:0:0:0:
256,192,15481,1,0,0:0:0:0:
256,192,15535,1,8,0:0:0:0:
256,192,15642,1,4,0:0:0:0:
256,192,17142,1,0,0:0:0:0:
256,192,17196,1,0,0:0:0:0:
256,192,17249,1,0,0:0:0:0:
256,192,17303,1,0,0:0:0:0:
256,192,17356,1,8,0:0:0:0:
256,192,17463,1,8,0:0:0:0:
256,192,18213,1,8,0:0:0:0:
256,192,18267,1,8,0:0:0:0:
256,192,18321,1,0,0:0:0:0:
256,192,18374,1,0,0:0:0:0:
256,192,18428,1,8,0:0:0:0:
256,192,18481,1,8,0:0:0:0:
256,192,18535,1,0,0:0:0:0:
256,192,18588,1,0,0:0:0:0:
256,192,18642,1,8,0:0:0:0:
256,192,18696,1,0,0:0:0:0:
256,192,18749,1,0,0:0:0:0:
256,192,18803,1,0,0:0:0:0:
256,192,18856,1,8,0:0:0:0:
256,192,18910,1,0,0:0:0:0:
256,192,18963,1,0,0:0:0:0:
256,192,19017,1,0,0:0:0:0:
256,192,19071,1,8,0:0:0:0:
256,192,19178,1,8,0:0:0:0:
256,192,19499,1,8,0:0:0:0:
256,192,19606,1,8,0:0:0:0:
256,192,19928,1,8,0:0:0:0:
256,192,20035,1,8,0:0:0:0:
256,192,20356,1,8,0:0:0:0:
256,192,20463,1,8,0:0:0:0:
256,192,20785,1,0,0:0:0:0:
256,192,21642,1,4,0:0:0:0:
256,192,21856,1,4,0:0:0:0:
256,192,22071,1,12,0:0:0:0:
256,192,22499,1,4,0:0:0:0:
256,192,22606,1,0,0:0:0:0:
256,192,22713,1,8,0:0:0:0:
256,192,22767,1,8,0:0:0:0:
256,192,22821,1,8,0:0:0:0:
256,192,22928,1,0,0:0:0:0:
256,192,23035,1,0,0:0:0:0:
256,192,23142,1,8,0:0:0:0:
256,192,23196,1,8,0:0:0:0:
256,192,23249,1,8,0:0:0:0:
256,192,23356,1,0,0:0:0:0:
256,192,23463,1,0,0:0:0:0:
256,192,23571,1,8,0:0:0:0:
256,192,23678,1,8,0:0:0:0:
256,192,23785,1,8,0:0:0:0:
256,192,23892,1,0,0:0:0:0:
256,192,23999,1,8,0:0:0:0:
256,192,24053,1,8,0:0:0:0:
256,192,24106,1,8,0:0:0:0:
256,192,24213,1,0,0:0:0:0:
256,192,24321,1,0,0:0:0:0:
256,192,24428,1,8,0:0:0:0:
256,192,24481,1,8,0:0:0:0:
256,192,24535,1,8,0:0:0:0:
256,192,24642,1,0,0:0:0:0:
256,192,24749,1,0,0:0:0:0:
256,192,24856,1,8,0:0:0:0:
256,192,24963,1,8,0:0:0:0:
256,192,25071,1,0,0:0:0:0:
256,192,25124,1,0,0:0:0:0:
256,192,25178,1,8,0:0:0:0:
256,192,25231,1,8,0:0:0:0:
256,192,25285,1,0,0:0:0:0:
256,192,25392,1,0,0:0:0:0:
256,192,25499,1,8,0:0:0:0:
256,192,25553,1,8,0:0:0:0:
256,192,25606,1,0,0:0:0:0:
256,192,25660,1,0,0:0:0:0:
256,192,25713,1,8,0:0:0:0:
256,192,25821,1,8,0:0:0:0:
256,192,25928,1,4,0:0:0:0:
256,192,26035,1,0,0:0:0:0:
256,192,26142,1,8,0:0:0:0:
256,192,26196,1,8,0:0:0:0:
256,192,26249,1,8,0:0:0:0:
256,192,26356,1,0,0:0:0:0:
256,192,26463,1,0,0:0:0:0:
256,192,26571,1,8,0:0:0:0:
256,192,26624,1,8,0:0:0:0:
256,192,26678,1,8,0:0:0:0:
256,192,26785,1,0,0:0:0:0:
256,192,26892,1,0,0:0:0:0:
256,192,26999,1,12,0:0:0:0:
256,192,27106,1,0,0:0:0:0:
256,192,27213,1,12,0:0:0:0:
256,192,27321,1,0,0:0:0:0:
256,192,27374,1,0,0:0:0:0:
256,192,27428,1,0,0:0:0:0:
256,192,27535,1,8,0:0:0:0:
256,192,27642,1,0,0:0:0:0:
256,192,27749,1,0,0:0:0:0:
256,192,27856,1,12,0:0:0:0:
256,192,27963,1,0,0:0:0:0:
256,192,28071,1,0,0:0:0:0:
256,192,28178,1,12,0:0:0:0:
256,192,28285,1,0,0:0:0:0:
256,192,28392,1,12,0:0:0:0:
256,192,28499,1,12,0:0:0:0:
256,192,28606,1,0,0:0:0:0:
256,192,28713,1,12,0:0:0:0:
256,192,28928,1,12,0:0:0:0:
256,192,29142,1,12,0:0:0:0:
256,192,29356,1,0,0:0:0:0:
256,192,29410,1,0,0:0:0:0:
256,192,29463,1,0,0:0:0:0:
256,192,29517,1,0,0:0:0:0:
256,192,29571,1,8,0:0:0:0:
256,192,29624,1,8,0:0:0:0:
256,192,29678,1,0,0:0:0:0:
256,192,29731,1,0,0:0:0:0:
256,192,29785,1,8,0:0:0:0:
256,192,29892,1,8,0:0:0:0:
256,192,30213,1,8,0:0:0:0:
256,192,30321,1,8,0:0:0:0:
256,192,30642,1,0,0:0:0:0:
256,192,30696,1,0,0:0:0:0:
256,192,30749,1,0,0:0:0:0:
256,192,30803,1,0,0:0:0:0:
256,192,30856,1,0,0:0:0:0:
256,192,30910,1,0,0:0:0:0:
256,192,30963,1,0,0:0:0:0:
256,192,31017,1,0,0:0:0:0:
256,192,31071,1,8,0:0:0:0:
256,192,31178,1,8,0:0:0:0:
256,192,31499,1,8,0:0:0:0:
256,192,31606,1,8,0:0:0:0:
256,192,31928,1,8,0:0:0:0:
256,192,31981,1,0,0:0:0:0:
256,192,32035,1,0,0:0:0:0:
256,192,32088,1,0,0:0:0:0:
256,192,32142,1,8,0:0:0:0:
256,192,32196,1,0,0:0:0:0:
256,192,32249,1,0,0:0:0:0:
256,192,32303,1,0,0:0:0:0:
256,192,32356,1,8,0:0:0:0:
256,192,32410,1,8,0:0:0:0:
256,192,32463,1,0,0:0:0:0:
256,192,32517,1,0,0:0:0:0:
256,192,32571,1,8,0:0:0:0:
256,192,32624,1,8,0:0:0:0:
256,192,32678,1,0,0:0:0:0:
256,192,32731,1,0,0:0:0:0:
256,192,32785,1,8,0:0:0:0:
256,192,32838,1,0,0:0:0:0:
256,192,32892,1,0,0:0:0:0:
256,192,32946,1,0,0:0:0:0:
256,192,32999,1,8,0:0:0:0:
256,192,33053,1,0,0:0:0:0:
256,192,33106,1,8,0:0:0:0:
256,192,33160,1,8,0:0:0:0:
256,192,33213,1,0,0:0:0:0:
256,192,33642,1,12,0:0:0:0:
256,192,34071,1,0,0:0:0:0:
256,192,34124,1,0,0:0:0:0:
256,192,34178,1,8,0:0:0:0:
256,192,34231,1,8,0:0:0:0:
256,192,34285,1,0,0:0:0:0:
256,192,34338,1,0,0:0:0:0:
256,192,34392,1,0,0:0:0:0:
256,192,34446,1,0,0:0:0:0:
256,192,34499,1,8,0:0:0:0:
256,192,34606,1,8,0:0:0:0:
256,192,34713,1,0,0:0:0:0:
256,192,34821,1,8,0:0:0:0:
256,192,34928,1,0,0:0:0:0:
256,192,35035,1,12,0:0:0:0:
256,192,35142,1,0,0:0:0:0:
256,192,35249,1,8,0:0:0:0:
256,192,35356,1,4,0:0:0:0:
256,192,35571,1,8,0:0:0:0:
256,192,35678,1,8,0:0:0:0:
256,192,35785,1,8,0:0:0:0:
256,192,35892,1,8,0:0:0:0:
256,192,35999,1,8,0:0:0:0:
256,192,36106,1,8,0:0:0:0:
256,192,36213,1,0,0:0:0:0:
256,192,36267,1,0,0:0:0:0:
256,192,36321,1,8,0:0:0:0:
256,192,36374,1,0,0:0:0:0:
256,192,36428,1,8,0:0:0:0:
256,192,36481,1,8,0:0:0:0:
256,192,36535,1,0,0:0:0:0:
256,192,36588,1,0,0:0:0:0:
256,192,36642,1,8,0:0:0:0:
256,192,36856,1,8,0:0:0:0:
256,192,36963,1,8,0:0:0:0:
256,192,37071,1,0,0:0:0:0:
256,192,37124,1,8,0:0:0:0:
256,192,37178,1,0,0:0:0:0:
256,192,37231,1,0,0:0:0:0:
256,192,37285,1,8,0:0:0:0:
256,192,37338,1,8,0:0:0:0:
256,192,37392,1,0,0:0:0:0:
256,192,37446,1,0,0:0:0:0:
256,192,37499,1,8,0:0:0:0:
256,192,37713,1,0,0:0:0:0:
256,192,37821,1,8,0:0:0:0:
256,192,37928,1,8,0:0:0:0:
256,192,37981,1,0,0:0:0:0:
256,192,38035,1,8,0:0:0:0:
256,192,38088,1,8,0:0:0:0:
256,192,38142,1,0,0:0:0:0:
256,192,38196,1,0,0:0:0:0:
256,192,38249,1,8,0:0:0:0:
256,192,38303,1,0,0:0:0:0:
256,192,38356,1,8,0:0:0:0:
256,192,38571,1,8,0:0:0:0:
256,192,38678,1,0,0:0:0:0:
256,192,38785,5,8,0:0:0:0:
256,192,38838,1,8,0:0:0:0:
256,192,38892,1,0,0:0:0:0:
256,192,38946,1,8,0:0:0:0:
256,192,38999,1,0,0:0:0:0:
256,192,39053,1,0,0:0:0:0:
256,192,39106,1,8,0:0:0:0:
256,192,39160,1,0,0:0:0:0:
256,192,39213,1,8,0:0:0:0:
256,192,39321,1,8,0:0:0:0:
256,192,39428,1,0,0:0:0:0:
256,192,39535,1,8,0:0:0:0:
256,192,39642,1,8,0:0:0:0:
256,192,39696,1,8,0:0:0:0:
256,192,39749,1,0,0:0:0:0:
256,192,39803,1,0,0:0:0:0:
256,192,39856,1,8,0:0:0:0:
256,192,39910,1,8,0:0:0:0:
256,192,39963,1,0,0:0:0:0:
256,192,40017,1,0,0:0:0:0:
256,192,40071,1,8,0:0:0:0:
256,192,40178,1,0,0:0:0:0:
256,192,40285,1,8,0:0:0:0:
256,192,40392,1,8,0:0:0:0:
256,192,40499,1,0,0:0:0:0:
256,192,40553,1,0,0:0:0:0:
256,192,40606,1,8,0:0:0:0:
256,192,40660,1,8,0:0:0:0:
256,192,40713,1,0,0:0:0:0:
256,192,40767,1,0,0:0:0:0:
256,192,40821,1,8,0:0:0:0:
256,192,40874,1,0,0:0:0:0:
256,192,40928,1,8,0:0:0:0:
256,192,41035,1,0,0:0:0:0:
256,192,41142,1,8,0:0:0:0:
256,192,41249,1,8,0:0:0:0:
256,192,41356,1,4,0:0:0:0:
256,192,41571,1,8,0:0:0:0:
256,192,41624,1,8,0:0:0:0:
256,192,41678,1,0,0:0:0:0:
256,192,41731,1,0,0:0:0:0:
256,192,41785,1,8,0:0:0:0:
256,192,41838,1,0,0:0:0:0:
256,192,41892,1,8,0:0:0:0:
256,192,41946,1,8,0:0:0:0:
256,192,41999,1,0,0:0:0:0:
256,192,42053,1,8,0:0:0:0:
256,192,42106,1,0,0:0:0:0:
256,192,42160,1,0,0:0:0:0:
256,192,42213,1,8,0:0:0:0:
256,192,42321,1,0,0:0:0:0:
256,192,42374,1,0,0:0:0:0:
256,192,42428,1,8,0:0:0:0:
256,192,42535,1,0,0:0:0:0:
256,192,42588,1,0,0:0:0:0:
256,192,42642,1,8,0:0:0:0:
256,192,42749,1,8,0:0:0:0:
256,192,42803,1,8,0:0:0:0:
256,192,42856,1,8,0:0:0:0:
256,192,42910,1,0,0:0:0:0:
256,192,42963,1,8,0:0:0:0:
256,192,43017,1,8,0:0:0:0:
256,192,43071,1,0,0:0:0:0:
256,192,43285,1,8,0:0:0:0:
256,192,43392,1,8,0:0:0:0:
256,192,43499,1,0,0:0:0:0:
256,192,43713,1,8,0:0:0:0:
256,192,44142,1,0,0:0:0:0:
256,192,44249,1,0,0:0:0:0:
256,192,44356,1,12,0:0:0:0:
256,192,44571,1,0,0:0:0:0:
256,192,44624,1,0,0:0:0:0:
256,192,44678,1,0,0:0:0:0:
256,192,44731,1,0,0:0:0:0:
256,192,44785,1,0,0:0:0:0:
256,192,44999,1,0,0:0:0:0:
256,192,45213,1,8,0:0:0:0:
256,192,45428,1,8,0:0:0:0:
256,192,45642,1,4,0:0:0:0:
256,192,46071,1,8,0:0:0:0:
256,192,46178,1,8,0:0:0:0:
256,192,46285,1,0,0:0:0:0:
256,192,46392,1,8,0:0:0:0:
256,192,46499,1,4,0:0:0:0:
256,192,46713,1,0,0:0:0:0:
256,192,46821,1,0,0:0:0:0:
256,192,46928,1,12,0:0:0:0:
256,192,47142,1,8,0:0:0:0:
256,192,47356,12,0,47999,0:0:0:0:
