osu file format v14

[General]
AudioFilename: audio.mp3
AudioLeadIn: 0
PreviewTime: 61300
Countdown: 1
SampleSet: Normal
StackLeniency: 0.7
Mode: 1
LetterboxInBreaks: 0
WidescreenStoryboard: 1

[Editor]
Bookmarks: 9149,27009,51567,147567
DistanceSpacing: 1
BeatDivisor: 4
GridSize: 32
TimelineZoom: 2.6

[Metadata]
Title:Kasha no sakebu yoru ni
TitleUnicode:火車の叫ぶ夜に
Artist:UNDEAD CORPORATION
ArtistUnicode:UNDEAD CORPORATION
Creator:sendol
Version:Oni
Source:東方地霊殿 ~ Subterranean Animism.
Tags:東方Project ZUN Team Shanghai Alice Touhou Stage 5 Boss 火焔猫 燐 Kayenbyou Rin Chireiden TH10 瞬殺 みぃ 天外冬黄 Embraced by the flame
BeatmapID:2067653
BeatmapSetID:988426

[Difficulty]
HPDrainRate:5
CircleSize:5
OverallDifficulty:6
ApproachRate:5
SliderMultiplier:1.4
SliderTickRate:1

[Events]
//Background and Video events
0,0,"edgy.jpg",0,0
//Break Periods
2,96139,110367
//Storyboard Layer 0 (Background)
//Storyboard Layer 1 (Fail)
//Storyboard Layer 2 (Pass)
//Storyboard Layer 3 (Foreground)
//Storyboard Layer 4 (Overlay)
//Storyboard Sound Samples

[TimingPoints]
219,279.06976744186,4,1,0,100,1,0
61614,-100,4,1,0,100,0,1
78358,-100,4,1,0,100,0,0
121893,-100,4,1,0,100,0,1
138637,-100,4,1,0,100,0,0
156498,-100,4,1,0,100,0,1
165428,-100,4,1,0,100,0,0
178823,-100,4,1,0,100,0,1
183288,-100,4,1,0,100,0,0
193335,-100,4,1,0,100,0,1
208963,-100,4,1,0,100,0,0
210079,-100,4,1,0,100,0,1
226823,-100,4,1,0,100,0,0

[HitObjects]
251,194,219,5,4,0:0:0:0:
224,224,637,1,8,0:0:0:0:
224,224,1056,1,0,0:0:0:0:
224,224,1474,1,0,0:0:0:0:
251,194,1893,1,12,0:0:0:0:
251,194,2172,1,12,0:0:0:0:
251,194,2451,1,4,0:0:0:0:
192,192,2870,1,8,0:0:0:0:
192,192,3288,1,0,0:0:0:0:
251,194,3707,1,4,0:0:0:0:
251,194,4125,1,12,0:0:0:0:
192,192,4405,1,0,0:0:0:0:
251,194,4684,1,4,0:0:0:0:
163,169,5102,1,0,0:0:0:0:
163,169,5521,1,0,0:0:0:0:
289,192,5939,1,0,0:0:0:0:
289,192,6358,1,12,0:0:0:0:
289,192,6637,1,12,0:0:0:0:
276,210,6916,1,4,0:0:0:0:
192,192,7335,1,8,0:0:0:0:
276,210,7753,1,0,0:0:0:0:
276,210,8032,1,12,0:0:0:0:
159,175,8591,1,8,0:0:0:0:
159,175,8870,1,8,0:0:0:0:
159,175,9149,1,4,0:0:0:0:
320,160,9428,1,0,0:0:0:0:
320,160,9567,1,8,0:0:0:0:
320,160,9707,1,0,0:0:0:0:
320,160,9777,1,0,0:0:0:0:
320,160,9846,1,0,0:0:0:0:
320,160,9986,1,8,0:0:0:0:
320,160,10265,1,0,0:0:0:0:
320,160,10405,1,8,0:0:0:0:
320,160,10544,1,0,0:0:0:0:
320,160,10614,1,0,0:0:0:0:
320,160,10684,1,0,0:0:0:0:
320,160,10753,1,0,0:0:0:0:
320,160,10823,1,8,0:0:0:0:
320,160,10963,1,0,0:0:0:0:
320,160,11032,1,0,0:0:0:0:
320,160,11102,1,8,0:0:0:0:
320,160,11242,1,0,0:0:0:0:
192,192,11381,1,8,0:0:0:0:
192,192,11521,1,0,0:0:0:0:
192,192,11660,1,0,0:0:0:0:
192,192,11800,1,8,0:0:0:0:
192,192,12079,1,0,0:0:0:0:
192,192,12149,1,0,0:0:0:0:
192,192,12218,1,8,0:0:0:0:
192,192,12358,1,0,0:0:0:0:
192,192,12498,1,0,0:0:0:0:
192,192,12567,1,0,0:0:0:0:
192,192,12637,1,8,0:0:0:0:
192,192,12777,1,0,0:0:0:0:
192,192,12916,1,0,0:0:0:0:
192,192,13056,1,8,0:0:0:0:
192,192,13125,1,0,0:0:0:0:
192,192,13195,1,0,0:0:0:0:
192,192,13265,1,0,0:0:0:0:
192,192,13335,1,8,0:0:0:0:
192,192,13614,1,4,0:0:0:0:
195,171,13893,1,0,0:0:0:0:
195,171,14032,1,8,0:0:0:0:
220,203,14172,1,0,0:0:0:0:
220,203,14242,1,0,0:0:0:0:
220,203,14312,1,0,0:0:0:0:
220,203,14451,1,8,0:0:0:0:
220,203,14730,1,0,0:0:0:0:
220,203,14870,1,8,0:0:0:0:
220,203,15009,1,0,0:0:0:0:
220,203,15079,1,0,0:0:0:0:
220,203,15149,1,0,0:0:0:0:
189,199,15218,1,0,0:0:0:0:
220,203,15288,1,8,0:0:0:0:
189,199,15428,1,0,0:0:0:0:
327,174,15498,1,0,0:0:0:0:
327,174,15567,1,8,0:0:0:0:
327,174,15707,1,0,0:0:0:0:
327,174,15846,1,8,0:0:0:0:
338,152,15986,1,8,0:0:0:0:
338,152,16056,1,8,0:0:0:0:
338,152,16125,1,0,0:0:0:0:
338,152,16265,1,0,0:0:0:0:
338,152,16405,1,8,0:0:0:0:
338,152,16475,1,8,0:0:0:0:
338,152,16545,1,0,0:0:0:0:
405,209,16684,1,0,0:0:0:0:
296,186,16963,1,12,0:0:0:0:
345,248,17102,1,8,0:0:0:0:
345,248,17172,1,8,0:0:0:0:
345,248,17242,1,8,0:0:0:0:
345,248,17381,1,0,0:0:0:0:
345,248,17521,1,8,0:0:0:0:
345,248,17591,1,0,0:0:0:0:
345,248,17660,1,0,0:0:0:0:
345,248,17730,1,0,0:0:0:0:
345,248,17800,1,0,0:0:0:0:
269,216,18079,1,8,0:0:0:0:
269,216,18218,1,0,0:0:0:0:
269,216,18358,1,8,0:0:0:0:
269,216,18498,1,8,0:0:0:0:
269,216,18637,1,0,0:0:0:0:
269,216,18777,1,0,0:0:0:0:
269,216,18916,1,8,0:0:0:0:
269,216,19056,1,0,0:0:0:0:
269,216,19195,1,8,0:0:0:0:
269,216,19335,1,8,0:0:0:0:
269,216,19474,1,0,0:0:0:0:
269,216,19614,1,0,0:0:0:0:
269,216,19753,1,8,0:0:0:0:
269,216,19893,1,0,0:0:0:0:
269,216,20032,1,8,0:0:0:0:
269,216,20312,1,8,0:0:0:0:
269,216,20451,1,8,0:0:0:0:
269,216,20591,1,0,0:0:0:0:
269,216,20730,1,8,0:0:0:0:
269,216,20870,1,0,0:0:0:0:
269,216,21009,1,0,0:0:0:0:
269,216,21149,1,8,0:0:0:0:
269,216,21288,1,0,0:0:0:0:
269,216,21428,1,8,0:0:0:0:
269,216,21567,1,8,0:0:0:0:
269,216,21707,1,0,0:0:0:0:
269,216,21846,1,8,0:0:0:0:
269,216,21986,1,0,0:0:0:0:
269,216,22125,1,0,0:0:0:0:
269,216,22265,1,8,0:0:0:0:
269,216,22335,1,8,0:0:0:0:
269,216,22405,1,8,0:0:0:0:
274,206,22544,1,12,0:0:0:0:
211,242,22823,1,8,0:0:0:0:
211,242,22963,1,8,0:0:0:0:
211,242,23102,1,0,0:0:0:0:
211,242,23242,1,0,0:0:0:0:
211,242,23381,1,8,0:0:0:0:
211,242,23521,1,0,0:0:0:0:
211,242,23660,1,0,0:0:0:0:
211,242,23800,1,8,0:0:0:0:
211,242,23939,1,0,0:0:0:0:
211,242,24079,1,8,0:0:0:0:
120,212,24218,1,8,0:0:0:0:
120,212,24358,1,0,0:0:0:0:
120,212,24498,1,8,0:0:0:0:
269,217,24777,5,8,0:0:0:0:
269,217,24847,1,0,0:0:0:0:
269,217,24916,1,0,0:0:0:0:
269,217,25056,1,8,0:0:0:0:
269,217,25125,1,0,0:0:0:0:
269,217,25195,1,0,0:0:0:0:
269,217,25335,1,8,0:0:0:0:
269,217,25405,1,0,0:0:0:0:
269,217,25474,1,0,0:0:0:0:
269,217,25614,1,8,0:0:0:0:
269,217,25753,1,0,0:0:0:0:
197,183,25893,1,12,0:0:0:0:
197,183,26032,1,8,0:0:0:0:
197,183,26102,1,8,0:0:0:0:
197,183,26172,1,8,0:0:0:0:
197,183,26312,1,8,0:0:0:0:
197,183,26451,1,0,0:0:0:0:
197,183,26521,1,0,0:0:0:0:
197,183,26591,1,0,0:0:0:0:
197,183,26660,1,0,0:0:0:0:
197,183,26730,1,8,0:0:0:0:
238,173,27009,1,4,0:0:0:0:
223,214,27288,1,0,0:0:0:0:
223,214,27428,1,8,0:0:0:0:
223,214,27567,1,0,0:0:0:0:
223,214,27707,1,0,0:0:0:0:
223,214,27846,1,8,0:0:0:0:
223,214,28125,1,8,0:0:0:0:
223,214,28195,1,8,0:0:0:0:
223,214,28265,1,8,0:0:0:0:
223,214,28405,1,0,0:0:0:0:
223,214,28544,1,8,0:0:0:0:
223,214,28684,1,0,0:0:0:0:
223,214,28753,1,0,0:0:0:0:
223,214,28823,1,0,0:0:0:0:
223,214,28963,1,8,0:0:0:0:
223,214,29102,1,0,0:0:0:0:
223,214,29242,1,8,0:0:0:0:
223,214,29381,1,8,0:0:0:0:
223,214,29451,1,8,0:0:0:0:
223,214,29521,1,0,0:0:0:0:
223,214,29660,1,8,0:0:0:0:
223,214,29939,1,0,0:0:0:0:
223,214,30079,1,8,0:0:0:0:
264,234,30358,1,0,0:0:0:0:
264,234,30498,1,8,0:0:0:0:
264,234,30567,1,8,0:0:0:0:
264,234,30637,1,0,0:0:0:0:
264,234,30777,1,0,0:0:0:0:
299,162,30916,1,8,0:0:0:0:
299,162,31009,1,8,0:0:0:0:
299,162,31102,1,0,0:0:0:0:
299,162,31195,1,0,0:0:0:0:
248,207,31474,1,4,0:0:0:0:
228,221,31753,1,8,0:0:0:0:
228,221,32032,1,0,0:0:0:0:
228,221,32172,1,0,0:0:0:0:
228,221,32312,1,8,0:0:0:0:
228,221,32591,1,0,0:0:0:0:
228,221,32870,1,8,0:0:0:0:
228,221,33149,1,0,0:0:0:0:
228,221,33288,1,0,0:0:0:0:
228,221,33428,1,8,0:0:0:0:
228,221,33707,1,8,0:0:0:0:
228,221,33777,1,0,0:0:0:0:
228,221,33846,1,0,0:0:0:0:
228,221,33986,1,8,0:0:0:0:
228,221,34056,1,0,0:0:0:0:
228,221,34125,1,0,0:0:0:0:
228,221,34265,1,8,0:0:0:0:
228,221,34335,1,0,0:0:0:0:
228,221,34405,1,0,0:0:0:0:
228,221,34544,1,8,0:0:0:0:
228,221,34614,1,0,0:0:0:0:
228,221,34684,1,0,0:0:0:0:
228,221,34823,1,12,0:0:0:0:
228,221,35102,1,12,0:0:0:0:
228,221,35381,1,12,0:0:0:0:
228,221,35660,1,12,0:0:0:0:
238,173,35939,1,4,0:0:0:0:
223,214,36218,1,0,0:0:0:0:
223,214,36358,1,8,0:0:0:0:
223,214,36497,1,0,0:0:0:0:
223,214,36637,1,0,0:0:0:0:
223,214,36776,1,8,0:0:0:0:
223,214,37055,1,8,0:0:0:0:
223,214,37125,1,8,0:0:0:0:
223,214,37195,1,8,0:0:0:0:
223,214,37335,1,0,0:0:0:0:
223,214,37474,1,8,0:0:0:0:
223,214,37614,1,0,0:0:0:0:
223,214,37683,1,0,0:0:0:0:
223,214,37753,1,0,0:0:0:0:
223,214,37893,1,8,0:0:0:0:
223,214,38032,1,0,0:0:0:0:
223,214,38172,1,8,0:0:0:0:
223,214,38311,1,8,0:0:0:0:
223,214,38381,1,8,0:0:0:0:
223,214,38451,1,0,0:0:0:0:
223,214,38590,1,8,0:0:0:0:
223,214,38869,1,0,0:0:0:0:
223,214,39009,1,8,0:0:0:0:
264,234,39288,1,0,0:0:0:0:
264,234,39428,1,8,0:0:0:0:
264,234,39497,1,8,0:0:0:0:
264,234,39567,1,0,0:0:0:0:
264,234,39707,1,0,0:0:0:0:
299,162,39846,1,8,0:0:0:0:
299,162,39939,1,8,0:0:0:0:
299,162,40032,1,0,0:0:0:0:
299,162,40125,1,0,0:0:0:0:
250,149,41521,1,8,0:0:0:0:
250,149,41591,1,8,0:0:0:0:
250,149,41660,1,8,0:0:0:0:
250,149,41730,1,8,0:0:0:0:
250,149,41800,1,0,0:0:0:0:
250,149,41939,1,0,0:0:0:0:
250,149,42079,1,8,0:0:0:0:
250,149,42218,1,0,0:0:0:0:
250,149,42358,1,0,0:0:0:0:
148,204,42637,1,8,0:0:0:0:
148,204,42916,1,0,0:0:0:0:
148,204,43056,1,8,0:0:0:0:
153,205,43195,1,0,0:0:0:0:
153,205,43265,1,0,0:0:0:0:
153,205,43335,1,0,0:0:0:0:
153,205,43474,1,8,0:0:0:0:
198,200,43753,1,0,0:0:0:0:
198,200,43893,1,0,0:0:0:0:
198,200,43963,1,0,0:0:0:0:
198,200,44032,1,8,0:0:0:0:
296,269,44172,1,0,0:0:0:0:
296,269,44312,1,8,0:0:0:0:
296,269,44451,1,0,0:0:0:0:
296,269,44521,1,0,0:0:0:0:
296,269,44591,1,0,0:0:0:0:
296,269,44870,1,8,0:0:0:0:
296,269,44939,1,8,0:0:0:0:
296,269,45009,1,0,0:0:0:0:
296,269,45149,1,0,0:0:0:0:
296,269,45288,1,8,0:0:0:0:
296,269,45428,1,0,0:0:0:0:
296,269,45498,1,0,0:0:0:0:
296,269,45567,1,0,0:0:0:0:
296,269,45707,1,8,0:0:0:0:
296,269,45846,1,0,0:0:0:0:
276,216,45986,1,12,0:0:0:0:
323,188,46265,1,0,0:0:0:0:
276,216,46405,1,12,0:0:0:0:
323,188,46684,1,0,0:0:0:0:
276,216,46823,1,12,0:0:0:0:
362,173,47102,1,8,0:0:0:0:
323,188,47242,1,0,0:0:0:0:
362,173,47312,1,0,0:0:0:0:
362,173,47381,1,0,0:0:0:0:
362,173,47521,1,8,0:0:0:0:
283,213,47660,1,0,0:0:0:0:
283,213,47730,1,0,0:0:0:0:
283,213,47800,1,0,0:0:0:0:
283,213,47870,1,0,0:0:0:0:
283,213,47939,1,8,0:0:0:0:
283,213,48079,1,0,0:0:0:0:
283,213,48218,1,8,0:0:0:0:
283,213,48288,1,0,0:0:0:0:
283,213,48358,1,0,0:0:0:0:
283,213,48498,1,0,0:0:0:0:
283,213,48637,1,0,0:0:0:0:
283,213,48707,1,0,0:0:0:0:
283,213,48777,1,8,0:0:0:0:
283,213,48916,1,0,0:0:0:0:
283,213,48986,1,0,0:0:0:0:
283,213,49056,1,0,0:0:0:0:
283,213,49335,1,8,0:0:0:0:
283,213,49405,1,8,0:0:0:0:
283,213,49474,1,0,0:0:0:0:
283,213,49614,1,0,0:0:0:0:
354,227,49753,1,8,0:0:0:0:
354,227,49823,1,8,0:0:0:0:
354,227,49893,1,0,0:0:0:0:
354,227,49963,1,0,0:0:0:0:
354,227,50032,1,0,0:0:0:0:
354,227,50172,1,8,0:0:0:0:
354,227,50312,1,0,0:0:0:0:
253,181,50451,1,12,0:0:0:0:
247,175,51009,5,8,0:0:0:0:
250,184,51149,1,8,0:0:0:0:
250,184,51288,1,0,0:0:0:0:
256,192,51567,5,4,0:0:0:0:
256,192,52684,1,4,0:0:0:0:
256,192,53800,1,12,0:0:0:0:
256,192,54916,1,4,0:0:0:0:
256,192,56032,1,12,0:0:0:0:
256,192,57149,1,4,0:0:0:0:
256,192,58265,1,12,0:0:0:0:
256,192,59381,1,4,0:0:0:0:
256,192,60498,1,12,0:0:0:0:
256,192,61614,1,4,0:0:0:0:
256,224,61893,1,0,0:0:0:0:
256,224,62032,1,8,0:0:0:0:
256,224,62172,1,0,0:0:0:0:
256,224,62242,1,0,0:0:0:0:
256,224,62312,1,0,0:0:0:0:
256,224,62451,1,8,0:0:0:0:
256,224,62591,1,0,0:0:0:0:
224,192,62730,1,8,0:0:0:0:
224,192,62801,1,0,0:0:0:0:
224,192,62870,1,0,0:0:0:0:
224,192,63009,1,0,0:0:0:0:
224,192,63149,1,8,0:0:0:0:
224,192,63288,1,0,0:0:0:0:
224,192,63358,1,0,0:0:0:0:
224,192,63428,1,0,0:0:0:0:
224,192,63498,1,0,0:0:0:0:
224,192,63567,1,8,0:0:0:0:
224,192,63707,1,0,0:0:0:0:
288,128,63846,1,8,0:0:0:0:
224,192,63986,1,0,0:0:0:0:
224,192,64056,1,0,0:0:0:0:
224,192,64125,1,8,0:0:0:0:
224,192,64265,1,8,0:0:0:0:
288,128,64405,1,0,0:0:0:0:
288,128,64474,1,0,0:0:0:0:
288,128,64544,1,0,0:0:0:0:
288,128,64684,1,8,0:0:0:0:
288,128,64823,1,0,0:0:0:0:
288,256,64963,1,8,0:0:0:0:
288,256,65032,1,8,0:0:0:0:
288,256,65102,1,0,0:0:0:0:
288,128,65242,1,0,0:0:0:0:
192,128,65381,1,8,0:0:0:0:
192,128,65451,1,8,0:0:0:0:
192,128,65521,1,0,0:0:0:0:
288,128,65660,1,0,0:0:0:0:
288,128,65730,1,0,0:0:0:0:
288,128,65800,1,8,0:0:0:0:
192,128,65939,1,0,0:0:0:0:
224,160,66079,1,4,0:0:0:0:
192,128,66358,1,8,0:0:0:0:
192,128,66637,1,8,0:0:0:0:
192,128,66707,1,8,0:0:0:0:
192,128,66777,1,0,0:0:0:0:
192,128,66846,1,0,0:0:0:0:
192,128,66916,1,8,0:0:0:0:
192,128,67056,1,8,0:0:0:0:
224,160,67195,1,0,0:0:0:0:
192,128,67474,1,0,0:0:0:0:
192,128,67614,1,8,0:0:0:0:
192,128,67753,1,0,0:0:0:0:
192,128,67823,1,0,0:0:0:0:
192,128,67893,1,0,0:0:0:0:
192,128,68032,1,8,0:0:0:0:
192,128,68172,1,0,0:0:0:0:
288,160,68312,1,8,0:0:0:0:
288,160,68381,1,8,0:0:0:0:
192,128,68451,1,0,0:0:0:0:
192,128,68591,1,8,0:0:0:0:
192,128,68730,1,8,0:0:0:0:
192,128,68870,1,0,0:0:0:0:
192,128,68939,1,0,0:0:0:0:
192,128,69009,1,0,0:0:0:0:
192,128,69079,1,0,0:0:0:0:
192,128,69149,1,8,0:0:0:0:
192,128,69288,1,0,0:0:0:0:
288,160,69428,1,8,0:0:0:0:
288,160,69498,1,0,0:0:0:0:
288,160,69567,1,0,0:0:0:0:
288,160,69707,1,0,0:0:0:0:
288,160,69846,1,8,0:0:0:0:
288,160,69986,1,0,0:0:0:0:
288,160,70055,1,0,0:0:0:0:
288,160,70125,1,0,0:0:0:0:
288,160,70265,1,8,0:0:0:0:
288,160,70405,1,0,0:0:0:0:
288,160,70544,1,8,0:0:0:0:
288,160,70684,1,0,0:0:0:0:
288,160,70753,1,0,0:0:0:0:
288,160,70823,1,0,0:0:0:0:
288,160,70963,1,0,0:0:0:0:
288,160,71102,1,8,0:0:0:0:
288,160,71172,1,8,0:0:0:0:
288,160,71242,1,0,0:0:0:0:
288,160,71312,1,0,0:0:0:0:
288,160,71381,1,0,0:0:0:0:
288,160,71660,1,12,0:0:0:0:
256,160,71939,1,0,0:0:0:0:
192,160,72079,1,8,0:0:0:0:
320,224,72218,1,0,0:0:0:0:
320,224,72288,1,0,0:0:0:0:
320,224,72358,1,8,0:0:0:0:
320,224,72498,1,8,0:0:0:0:
320,224,72637,1,0,0:0:0:0:
320,224,72777,1,8,0:0:0:0:
320,224,72846,1,8,0:0:0:0:
320,224,72916,1,0,0:0:0:0:
320,224,73056,1,0,0:0:0:0:
288,160,73195,1,8,0:0:0:0:
288,160,73265,1,0,0:0:0:0:
288,160,73335,1,0,0:0:0:0:
288,160,73474,1,0,0:0:0:0:
288,160,73614,1,8,0:0:0:0:
288,160,73753,1,0,0:0:0:0:
288,160,73893,1,8,0:0:0:0:
288,160,74032,1,0,0:0:0:0:
288,160,74102,1,0,0:0:0:0:
288,160,74172,1,0,0:0:0:0:
288,160,74312,1,8,0:0:0:0:
288,160,74451,1,0,0:0:0:0:
288,160,74521,1,0,0:0:0:0:
288,160,74590,1,0,0:0:0:0:
288,160,74660,1,0,0:0:0:0:
192,128,74730,1,8,0:0:0:0:
192,128,74870,1,0,0:0:0:0:
192,128,75009,1,8,0:0:0:0:
192,128,75079,1,8,0:0:0:0:
192,128,75149,1,0,0:0:0:0:
192,128,75288,1,0,0:0:0:0:
288,128,75428,1,0,0:0:0:0:
288,128,75498,1,0,0:0:0:0:
288,128,75567,1,8,0:0:0:0:
288,128,75637,1,8,0:0:0:0:
288,128,75707,1,0,0:0:0:0:
224,128,75846,1,8,0:0:0:0:
224,128,75916,1,8,0:0:0:0:
224,128,75986,1,0,0:0:0:0:
224,128,76125,1,0,0:0:0:0:
224,128,76405,1,0,0:0:0:0:
224,128,76545,1,8,0:0:0:0:
192,64,76684,1,0,0:0:0:0:
192,64,76753,1,0,0:0:0:0:
192,64,76823,1,0,0:0:0:0:
192,64,76963,1,8,0:0:0:0:
320,288,77102,1,0,0:0:0:0:
320,288,77242,1,12,0:0:0:0:
320,288,77521,1,0,0:0:0:0:
320,288,77591,1,0,0:0:0:0:
320,288,77660,1,0,0:0:0:0:
320,288,77800,1,12,0:0:0:0:
240,198,77939,1,8,0:0:0:0:
288,224,78009,1,0,0:0:0:0:
240,198,78079,1,0,0:0:0:0:
159,175,78358,1,4,0:0:0:0:
320,160,78637,1,0,0:0:0:0:
320,160,78776,1,8,0:0:0:0:
320,160,78916,1,0,0:0:0:0:
320,160,78986,1,0,0:0:0:0:
320,160,79055,1,0,0:0:0:0:
320,160,79195,1,8,0:0:0:0:
320,160,79474,1,0,0:0:0:0:
320,160,79614,1,8,0:0:0:0:
320,160,79753,1,0,0:0:0:0:
320,160,79823,1,0,0:0:0:0:
320,160,79893,1,0,0:0:0:0:
320,160,79962,1,0,0:0:0:0:
320,160,80032,1,8,0:0:0:0:
320,160,80172,1,0,0:0:0:0:
320,160,80241,1,0,0:0:0:0:
320,160,80311,1,8,0:0:0:0:
320,160,80451,1,0,0:0:0:0:
192,192,80590,1,8,0:0:0:0:
192,192,80730,1,0,0:0:0:0:
192,192,80869,1,0,0:0:0:0:
192,192,81009,1,8,0:0:0:0:
192,192,81288,1,0,0:0:0:0:
192,192,81358,1,0,0:0:0:0:
192,192,81427,1,8,0:0:0:0:
192,192,81567,1,0,0:0:0:0:
192,192,81707,1,0,0:0:0:0:
192,192,81776,1,0,0:0:0:0:
192,192,81846,1,8,0:0:0:0:
192,192,81986,1,0,0:0:0:0:
192,192,82125,1,0,0:0:0:0:
192,192,82265,1,8,0:0:0:0:
192,192,82334,1,0,0:0:0:0:
192,192,82404,1,0,0:0:0:0:
192,192,82474,1,0,0:0:0:0:
192,192,82544,1,8,0:0:0:0:
192,192,82823,1,4,0:0:0:0:
195,171,83102,1,0,0:0:0:0:
195,171,83241,1,8,0:0:0:0:
220,203,83381,1,0,0:0:0:0:
220,203,83451,1,0,0:0:0:0:
220,203,83521,1,0,0:0:0:0:
220,203,83660,1,8,0:0:0:0:
220,203,83939,1,0,0:0:0:0:
220,203,84079,1,8,0:0:0:0:
220,203,84218,1,0,0:0:0:0:
220,203,84288,1,0,0:0:0:0:
220,203,84358,1,0,0:0:0:0:
189,199,84427,1,0,0:0:0:0:
220,203,84497,1,8,0:0:0:0:
189,199,84637,1,0,0:0:0:0:
327,174,84707,1,0,0:0:0:0:
327,174,84776,1,8,0:0:0:0:
327,174,84916,1,0,0:0:0:0:
327,174,85055,1,8,0:0:0:0:
338,152,85195,1,8,0:0:0:0:
338,152,85265,1,8,0:0:0:0:
338,152,85334,1,0,0:0:0:0:
338,152,85474,1,0,0:0:0:0:
338,152,85614,1,8,0:0:0:0:
338,152,85684,1,8,0:0:0:0:
338,152,85754,1,0,0:0:0:0:
405,209,85893,1,0,0:0:0:0:
296,186,86172,1,12,0:0:0:0:
345,248,86311,1,8,0:0:0:0:
345,248,86381,1,8,0:0:0:0:
345,248,86451,1,8,0:0:0:0:
345,248,86590,1,0,0:0:0:0:
345,248,86730,1,8,0:0:0:0:
345,248,86800,1,0,0:0:0:0:
345,248,86869,1,0,0:0:0:0:
345,248,86939,1,0,0:0:0:0:
345,248,87009,1,0,0:0:0:0:
238,173,87288,1,4,0:0:0:0:
223,214,87567,1,0,0:0:0:0:
223,214,87707,1,8,0:0:0:0:
223,214,87846,1,0,0:0:0:0:
223,214,87986,1,0,0:0:0:0:
223,214,88125,1,8,0:0:0:0:
223,214,88404,1,8,0:0:0:0:
223,214,88474,1,8,0:0:0:0:
223,214,88544,1,8,0:0:0:0:
223,214,88684,1,0,0:0:0:0:
223,214,88823,1,8,0:0:0:0:
223,214,88963,1,0,0:0:0:0:
223,214,89032,1,0,0:0:0:0:
223,214,89102,1,0,0:0:0:0:
223,214,89242,1,8,0:0:0:0:
223,214,89381,1,0,0:0:0:0:
223,214,89521,1,8,0:0:0:0:
223,214,89660,1,8,0:0:0:0:
223,214,89730,1,8,0:0:0:0:
223,214,89800,1,0,0:0:0:0:
223,214,89939,1,8,0:0:0:0:
223,214,90218,1,0,0:0:0:0:
223,214,90358,1,8,0:0:0:0:
264,234,90637,1,4,0:0:0:0:
264,234,90777,1,8,0:0:0:0:
264,234,90846,1,8,0:0:0:0:
264,234,90916,1,0,0:0:0:0:
264,234,91056,1,0,0:0:0:0:
299,162,91195,1,8,0:0:0:0:
299,162,91288,1,8,0:0:0:0:
299,162,91381,1,0,0:0:0:0:
299,162,91474,1,0,0:0:0:0:
248,207,91753,1,4,0:0:0:0:
228,221,92032,1,8,0:0:0:0:
228,221,92311,1,0,0:0:0:0:
228,221,92451,1,0,0:0:0:0:
228,221,92591,1,8,0:0:0:0:
228,221,92870,1,0,0:0:0:0:
228,221,93149,1,8,0:0:0:0:
228,221,93428,1,0,0:0:0:0:
228,221,93567,1,0,0:0:0:0:
228,221,93707,1,8,0:0:0:0:
228,221,93986,1,8,0:0:0:0:
228,221,94056,1,0,0:0:0:0:
228,221,94125,1,0,0:0:0:0:
228,221,94265,1,8,0:0:0:0:
228,221,94335,1,0,0:0:0:0:
228,221,94404,1,0,0:0:0:0:
228,221,94544,1,8,0:0:0:0:
228,221,94614,1,0,0:0:0:0:
228,221,94684,1,0,0:0:0:0:
228,221,94823,1,8,0:0:0:0:
228,221,94893,1,0,0:0:0:0:
228,221,94963,1,0,0:0:0:0:
228,221,95102,1,12,0:0:0:0:
228,221,95381,1,12,0:0:0:0:
228,221,95660,1,12,0:0:0:0:
228,221,95939,1,12,0:0:0:0:
247,180,111567,5,8,0:0:0:0:
256,192,111846,5,4,0:0:0:0:
256,192,112963,1,4,0:0:0:0:
256,192,114079,1,12,0:0:0:0:
256,192,115195,1,4,0:0:0:0:
256,192,116311,1,12,0:0:0:0:
256,192,117428,1,4,0:0:0:0:
256,192,118544,1,12,0:0:0:0:
256,192,119660,1,4,0:0:0:0:
256,192,120777,1,12,0:0:0:0:
256,192,121893,1,4,0:0:0:0:
256,224,122172,1,0,0:0:0:0:
256,224,122311,1,8,0:0:0:0:
256,224,122451,1,0,0:0:0:0:
256,224,122521,1,0,0:0:0:0:
256,224,122591,1,0,0:0:0:0:
256,224,122730,1,8,0:0:0:0:
256,224,122870,1,0,0:0:0:0:
224,192,123009,1,8,0:0:0:0:
224,192,123080,1,0,0:0:0:0:
224,192,123149,1,0,0:0:0:0:
224,192,123288,1,0,0:0:0:0:
224,192,123428,1,8,0:0:0:0:
224,192,123567,1,0,0:0:0:0:
224,192,123637,1,0,0:0:0:0:
224,192,123707,1,0,0:0:0:0:
224,192,123777,1,0,0:0:0:0:
224,192,123846,1,8,0:0:0:0:
224,192,123986,1,0,0:0:0:0:
288,128,124125,1,8,0:0:0:0:
224,192,124265,1,0,0:0:0:0:
224,192,124335,1,0,0:0:0:0:
224,192,124404,1,8,0:0:0:0:
224,192,124544,1,8,0:0:0:0:
288,128,124684,1,0,0:0:0:0:
288,128,124753,1,0,0:0:0:0:
288,128,124823,1,0,0:0:0:0:
288,128,124963,1,8,0:0:0:0:
288,128,125102,1,0,0:0:0:0:
288,256,125242,1,8,0:0:0:0:
288,256,125311,1,8,0:0:0:0:
288,256,125381,1,0,0:0:0:0:
288,128,125521,1,0,0:0:0:0:
192,128,125660,1,8,0:0:0:0:
192,128,125730,1,8,0:0:0:0:
192,128,125800,1,0,0:0:0:0:
288,128,125939,1,0,0:0:0:0:
288,128,126009,1,0,0:0:0:0:
288,128,126079,1,8,0:0:0:0:
192,128,126218,1,0,0:0:0:0:
224,160,126358,1,0,0:0:0:0:
192,128,126497,1,0,0:0:0:0:
192,128,126567,1,0,0:0:0:0:
192,128,126637,1,8,0:0:0:0:
192,128,126777,1,0,0:0:0:0:
192,128,126916,1,8,0:0:0:0:
192,128,126986,1,8,0:0:0:0:
192,128,127056,1,0,0:0:0:0:
192,128,127125,1,0,0:0:0:0:
192,128,127195,1,8,0:0:0:0:
192,128,127335,1,8,0:0:0:0:
224,160,127474,1,0,0:0:0:0:
192,128,127753,1,0,0:0:0:0:
192,128,127893,1,8,0:0:0:0:
192,128,128032,1,0,0:0:0:0:
192,128,128102,1,0,0:0:0:0:
192,128,128172,1,0,0:0:0:0:
192,128,128311,1,8,0:0:0:0:
192,128,128451,1,0,0:0:0:0:
288,160,128591,1,8,0:0:0:0:
288,160,128660,1,8,0:0:0:0:
192,128,128730,1,0,0:0:0:0:
192,128,128870,1,8,0:0:0:0:
192,128,129009,1,8,0:0:0:0:
192,128,129149,1,0,0:0:0:0:
192,128,129218,1,0,0:0:0:0:
192,128,129288,1,0,0:0:0:0:
192,128,129358,1,0,0:0:0:0:
192,128,129428,1,8,0:0:0:0:
192,128,129567,1,0,0:0:0:0:
288,160,129707,1,8,0:0:0:0:
288,160,129777,1,0,0:0:0:0:
288,160,129846,1,0,0:0:0:0:
288,160,129986,1,0,0:0:0:0:
288,160,130125,1,8,0:0:0:0:
288,160,130265,1,0,0:0:0:0:
288,160,130334,1,0,0:0:0:0:
288,160,130404,1,0,0:0:0:0:
288,160,130544,1,8,0:0:0:0:
288,160,130684,1,0,0:0:0:0:
288,160,130823,1,8,0:0:0:0:
288,160,130963,1,0,0:0:0:0:
288,160,131032,1,0,0:0:0:0:
288,160,131102,1,0,0:0:0:0:
288,160,131242,1,0,0:0:0:0:
288,160,131381,1,8,0:0:0:0:
288,160,131451,1,8,0:0:0:0:
288,160,131521,1,0,0:0:0:0:
288,160,131591,1,0,0:0:0:0:
288,160,131660,1,0,0:0:0:0:
288,160,131939,1,8,0:0:0:0:
192,160,132079,1,0,0:0:0:0:
192,160,132148,1,0,0:0:0:0:
256,160,132218,1,0,0:0:0:0:
192,160,132358,1,8,0:0:0:0:
320,224,132497,1,0,0:0:0:0:
320,224,132567,1,0,0:0:0:0:
320,224,132637,1,8,0:0:0:0:
320,224,132777,1,8,0:0:0:0:
320,224,132916,1,0,0:0:0:0:
320,224,133056,1,8,0:0:0:0:
320,224,133125,1,8,0:0:0:0:
320,224,133195,1,0,0:0:0:0:
320,224,133335,1,0,0:0:0:0:
288,160,133474,1,8,0:0:0:0:
288,160,133544,1,0,0:0:0:0:
288,160,133614,1,0,0:0:0:0:
288,160,133753,1,0,0:0:0:0:
288,160,133893,1,8,0:0:0:0:
288,160,134032,1,0,0:0:0:0:
288,160,134172,1,8,0:0:0:0:
288,160,134311,1,0,0:0:0:0:
288,160,134381,1,0,0:0:0:0:
288,160,134451,1,0,0:0:0:0:
288,160,134591,1,8,0:0:0:0:
288,160,134730,1,0,0:0:0:0:
288,160,134800,1,0,0:0:0:0:
288,160,134869,1,0,0:0:0:0:
288,160,134939,1,0,0:0:0:0:
192,128,135009,1,8,0:0:0:0:
192,128,135149,1,0,0:0:0:0:
192,128,135288,1,8,0:0:0:0:
192,128,135358,1,8,0:0:0:0:
192,128,135428,1,0,0:0:0:0:
192,128,135567,1,0,0:0:0:0:
288,128,135707,1,0,0:0:0:0:
288,128,135777,1,0,0:0:0:0:
288,128,135846,1,8,0:0:0:0:
288,128,135916,1,8,0:0:0:0:
288,128,135986,1,0,0:0:0:0:
224,128,136125,1,8,0:0:0:0:
224,128,136195,1,8,0:0:0:0:
224,128,136265,1,0,0:0:0:0:
224,128,136404,1,0,0:0:0:0:
224,128,136684,1,0,0:0:0:0:
224,128,136824,1,8,0:0:0:0:
192,64,136963,1,0,0:0:0:0:
192,64,137032,1,0,0:0:0:0:
192,64,137102,1,0,0:0:0:0:
192,64,137242,1,8,0:0:0:0:
320,288,137381,1,0,0:0:0:0:
320,288,137521,1,12,0:0:0:0:
320,288,137660,1,0,0:0:0:0:
320,288,137730,1,0,0:0:0:0:
320,288,137800,1,0,0:0:0:0:
320,288,137870,1,0,0:0:0:0:
320,288,137939,1,0,0:0:0:0:
320,288,138079,1,12,0:0:0:0:
320,288,138218,1,0,0:0:0:0:
288,224,138288,1,0,0:0:0:0:
320,288,138358,1,8,0:0:0:0:
288,192,138637,1,4,0:0:0:0:
224,194,138777,1,4,0:0:0:0:
224,194,139753,1,12,0:0:0:0:
224,194,140591,1,0,0:0:0:0:
224,194,140660,1,0,0:0:0:0:
224,194,140730,1,0,0:0:0:0:
238,180,140870,1,4,0:0:0:0:
238,180,141009,1,4,0:0:0:0:
238,180,141986,1,12,0:0:0:0:
247,178,142265,1,8,0:0:0:0:
247,178,142405,1,0,0:0:0:0:
247,178,142544,1,8,0:0:0:0:
247,178,142684,1,0,0:0:0:0:
247,178,142823,1,0,0:0:0:0:
247,178,142963,1,0,0:0:0:0:
147,168,143102,1,12,0:0:0:0:
154,158,143242,1,8,0:0:0:0:
154,158,143381,1,0,0:0:0:0:
154,158,143521,1,8,0:0:0:0:
123,231,143660,1,0,0:0:0:0:
123,231,143800,1,0,0:0:0:0:
123,231,143939,1,8,0:0:0:0:
123,231,144079,1,8,0:0:0:0:
370,287,144218,1,0,0:0:0:0:
370,287,144358,1,8,0:0:0:0:
370,287,144498,1,8,0:0:0:0:
370,287,144637,1,0,0:0:0:0:
133,236,144777,1,8,0:0:0:0:
133,236,144916,1,8,0:0:0:0:
133,236,145056,1,0,0:0:0:0:
133,236,145195,1,8,0:0:0:0:
219,211,145335,1,4,0:0:0:0:
227,209,145614,1,8,0:0:0:0:
227,209,145753,1,0,0:0:0:0:
227,209,145893,1,8,0:0:0:0:
227,209,146032,1,0,0:0:0:0:
227,209,146172,1,8,0:0:0:0:
227,209,146312,1,0,0:0:0:0:
143,179,146451,1,8,0:0:0:0:
143,179,146521,1,8,0:0:0:0:
143,179,146591,1,8,0:0:0:0:
143,179,146660,1,8,0:0:0:0:
143,179,146730,1,0,0:0:0:0:
143,179,146870,1,0,0:0:0:0:
143,179,147009,1,8,0:0:0:0:
143,179,147079,1,0,0:0:0:0:
143,179,147149,1,0,0:0:0:0:
143,179,147218,1,0,0:0:0:0:
143,179,147288,1,0,0:0:0:0:
154,158,147567,1,4,0:0:0:0:
165,157,147846,1,8,0:0:0:0:
165,157,148125,1,0,0:0:0:0:
165,157,148265,1,0,0:0:0:0:
165,157,148405,1,8,0:0:0:0:
165,157,148684,1,0,0:0:0:0:
165,157,148963,1,8,0:0:0:0:
165,157,149242,1,0,0:0:0:0:
165,157,149451,1,0,0:0:0:0:
165,157,149521,1,8,0:0:0:0:
165,157,149800,1,0,0:0:0:0:
165,157,150009,1,0,0:0:0:0:
165,157,150079,1,8,0:0:0:0:
165,157,150218,1,0,0:0:0:0:
165,157,150358,1,8,0:0:0:0:
276,144,150567,1,8,0:0:0:0:
276,144,150637,1,0,0:0:0:0:
276,144,150777,1,8,0:0:0:0:
107,174,150916,1,8,0:0:0:0:
107,174,151125,1,8,0:0:0:0:
242,199,151335,1,0,0:0:0:0:
242,199,151474,1,8,0:0:0:0:
242,199,151614,1,0,0:0:0:0:
107,174,151753,1,8,0:0:0:0:
138,260,152032,1,0,0:0:0:0:
138,260,152102,1,0,0:0:0:0:
138,260,152172,1,8,0:0:0:0:
138,260,152312,1,8,0:0:0:0:
138,260,152451,1,0,0:0:0:0:
138,260,152591,1,8,0:0:0:0:
138,260,152660,1,8,0:0:0:0:
138,260,152730,1,0,0:0:0:0:
138,260,152800,1,0,0:0:0:0:
138,260,152870,1,8,0:0:0:0:
138,260,153009,1,0,0:0:0:0:
138,260,153149,1,8,0:0:0:0:
138,260,153218,1,8,0:0:0:0:
138,260,153288,1,0,0:0:0:0:
138,260,153428,1,8,0:0:0:0:
138,260,153567,1,0,0:0:0:0:
138,260,153707,1,8,0:0:0:0:
138,260,153777,1,0,0:0:0:0:
138,260,153846,1,0,0:0:0:0:
138,260,153986,1,8,0:0:0:0:
138,260,154125,1,0,0:0:0:0:
138,260,154265,1,0,0:0:0:0:
138,260,154544,1,8,0:0:0:0:
138,260,154823,1,0,0:0:0:0:
138,260,155032,1,0,0:0:0:0:
138,260,155102,1,8,0:0:0:0:
138,260,155242,1,0,0:0:0:0:
202,173,155381,1,12,0:0:0:0:
191,178,155521,1,0,0:0:0:0:
191,178,155660,1,0,0:0:0:0:
191,178,155800,1,12,0:0:0:0:
191,178,155939,1,0,0:0:0:0:
191,178,156079,1,0,0:0:0:0:
191,178,156218,1,12,0:0:0:0:
214,228,156498,1,0,0:0:0:0:
214,228,156567,1,0,0:0:0:0:
214,228,156637,1,0,0:0:0:0:
214,228,156777,1,8,0:0:0:0:
242,199,156916,1,0,0:0:0:0:
242,199,157056,1,8,0:0:0:0:
242,199,157125,1,0,0:0:0:0:
242,199,157195,1,0,0:0:0:0:
242,199,157335,1,8,0:0:0:0:
242,199,157474,1,8,0:0:0:0:
252,222,157614,1,0,0:0:0:0:
252,222,157684,1,8,0:0:0:0:
252,222,157753,1,0,0:0:0:0:
242,199,157893,1,8,0:0:0:0:
242,199,158032,1,8,0:0:0:0:
252,222,158172,1,0,0:0:0:0:
252,222,158242,1,0,0:0:0:0:
252,222,158312,1,8,0:0:0:0:
252,222,158451,1,0,0:0:0:0:
252,222,158591,1,8,0:0:0:0:
252,222,158730,1,8,0:0:0:0:
252,222,158800,1,8,0:0:0:0:
252,222,158870,1,0,0:0:0:0:
252,222,159009,1,8,0:0:0:0:
252,222,159149,1,8,0:0:0:0:
252,222,159288,1,0,0:0:0:0:
252,222,159358,1,8,0:0:0:0:
252,222,159428,1,8,0:0:0:0:
252,222,159567,1,0,0:0:0:0:
252,222,159707,1,8,0:0:0:0:
235,196,159846,2,0,L|355:111,3,140
252,180,160963,1,0,0:0:0:0:
252,180,161102,1,8,0:0:0:0:
252,180,161242,1,0,0:0:0:0:
252,180,161381,1,8,0:0:0:0:
304,237,163195,1,0,0:0:0:0:
304,237,163381,1,0,0:0:0:0:
266,138,163474,1,0,0:0:0:0:
301,214,163567,1,8,0:0:0:0:
304,237,163753,1,8,0:0:0:0:
304,237,163939,1,0,0:0:0:0:
258,192,164032,1,0,0:0:0:0:
304,237,164125,1,8,0:0:0:0:
342,258,164312,1,0,0:0:0:0:
342,258,164381,1,0,0:0:0:0:
342,258,164451,1,0,0:0:0:0:
239,215,164591,1,6,0:0:0:0:
233,200,164730,1,0,0:0:0:0:
233,200,164800,1,0,0:0:0:0:
233,200,164870,1,0,0:0:0:0:
233,200,165009,1,12,0:0:0:0:
233,200,165288,1,0,0:0:0:0:
233,200,165428,1,0,0:0:0:0:
257,274,165707,1,8,0:0:0:0:
330,222,165846,1,0,0:0:0:0:
330,222,165916,1,0,0:0:0:0:
330,222,165986,1,0,0:0:0:0:
330,222,166125,1,0,0:0:0:0:
330,222,166265,1,8,0:0:0:0:
330,222,166544,1,0,0:0:0:0:
261,189,166684,1,0,0:0:0:0:
261,189,166753,1,0,0:0:0:0:
261,189,166823,1,8,0:0:0:0:
261,189,167102,1,0,0:0:0:0:
261,189,167312,1,0,0:0:0:0:
261,189,167381,1,8,0:0:0:0:
261,189,167521,1,0,0:0:0:0:
261,189,167660,1,8,0:0:0:0:
261,189,167800,1,0,0:0:0:0:
261,189,167870,1,8,0:0:0:0:
261,189,167939,1,0,0:0:0:0:
261,189,168079,1,0,0:0:0:0:
261,189,168218,1,8,0:0:0:0:
261,189,168358,1,0,0:0:0:0:
261,189,168428,1,8,0:0:0:0:
261,189,168498,1,0,0:0:0:0:
261,189,168637,1,8,0:0:0:0:
335,226,168777,1,0,0:0:0:0:
335,226,168916,1,0,0:0:0:0:
335,226,168986,1,0,0:0:0:0:
335,226,169056,1,8,0:0:0:0:
335,226,169335,1,0,0:0:0:0:
335,226,169405,1,0,0:0:0:0:
335,226,169474,1,8,0:0:0:0:
335,226,169614,1,8,0:0:0:0:
335,226,169684,1,0,0:0:0:0:
335,226,169753,1,0,0:0:0:0:
278,215,169893,1,0,0:0:0:0:
278,215,169963,1,0,0:0:0:0:
278,215,170032,1,8,0:0:0:0:
278,215,170172,1,8,0:0:0:0:
278,215,170242,1,8,0:0:0:0:
278,215,170312,1,0,0:0:0:0:
278,215,170451,1,0,0:0:0:0:
278,215,170521,1,0,0:0:0:0:
278,215,170591,1,8,0:0:0:0:
278,215,170660,1,0,0:0:0:0:
278,215,170730,1,8,0:0:0:0:
278,215,170870,1,0,0:0:0:0:
221,216,171009,1,0,0:0:0:0:
221,216,171079,1,0,0:0:0:0:
221,216,171149,1,8,0:0:0:0:
221,216,171288,1,8,0:0:0:0:
100,186,171358,1,0,0:0:0:0:
221,216,171428,1,0,0:0:0:0:
100,186,171567,1,8,0:0:0:0:
234,144,171707,1,0,0:0:0:0:
234,144,171777,1,0,0:0:0:0:
234,144,171846,1,8,0:0:0:0:
234,144,171916,1,8,0:0:0:0:
234,144,171986,1,0,0:0:0:0:
335,226,172125,1,0,0:0:0:0:
335,226,172195,1,0,0:0:0:0:
335,226,172265,1,8,0:0:0:0:
335,226,172335,1,0,0:0:0:0:
335,226,172405,1,8,0:0:0:0:
335,226,172684,1,8,0:0:0:0:
335,226,172753,1,8,0:0:0:0:
335,226,172823,1,0,0:0:0:0:
335,226,172893,1,0,0:0:0:0:
335,226,172963,1,8,0:0:0:0:
335,226,173102,1,0,0:0:0:0:
368,224,173242,1,0,0:0:0:0:
368,224,173312,1,8,0:0:0:0:
368,224,173381,1,0,0:0:0:0:
368,224,173451,1,0,0:0:0:0:
368,224,173521,1,8,0:0:0:0:
368,224,173660,1,0,0:0:0:0:
368,224,173800,1,0,0:0:0:0:
368,224,173870,1,0,0:0:0:0:
368,224,173939,1,8,0:0:0:0:
368,224,174079,1,8,0:0:0:0:
274,184,174218,1,0,0:0:0:0:
368,224,174358,1,0,0:0:0:0:
368,224,174428,1,0,0:0:0:0:
368,224,174498,1,0,0:0:0:0:
368,224,174567,1,0,0:0:0:0:
368,224,174637,1,8,0:0:0:0:
368,224,174707,1,8,0:0:0:0:
368,224,174777,1,0,0:0:0:0:
368,224,174916,1,8,0:0:0:0:
368,224,174986,1,8,0:0:0:0:
368,224,175056,1,0,0:0:0:0:
368,224,175125,1,0,0:0:0:0:
368,224,175195,1,8,0:0:0:0:
368,224,175265,1,8,0:0:0:0:
368,224,175335,1,8,0:0:0:0:
346,145,175474,1,0,0:0:0:0:
346,145,175544,1,0,0:0:0:0:
346,145,175614,1,8,0:0:0:0:
346,145,175753,1,8,0:0:0:0:
253,221,176032,1,8,0:0:0:0:
253,221,176102,1,0,0:0:0:0:
286,146,176172,1,0,0:0:0:0:
253,221,176312,1,8,0:0:0:0:
253,221,176381,1,8,0:0:0:0:
253,221,176451,1,0,0:0:0:0:
253,221,176591,1,8,0:0:0:0:
253,221,176660,1,0,0:0:0:0:
253,221,176730,1,0,0:0:0:0:
253,221,176800,1,0,0:0:0:0:
253,221,176870,1,8,0:0:0:0:
253,221,177009,1,0,0:0:0:0:
253,221,177149,1,8,0:0:0:0:
253,221,177218,1,0,0:0:0:0:
253,221,177288,1,0,0:0:0:0:
253,221,177358,1,0,0:0:0:0:
253,221,177428,1,8,0:0:0:0:
233,226,177498,1,8,0:0:0:0:
253,221,177567,1,0,0:0:0:0:
233,226,177707,1,8,0:0:0:0:
233,226,177777,1,0,0:0:0:0:
233,226,177846,1,0,0:0:0:0:
233,226,177986,1,8,0:0:0:0:
233,226,178056,1,8,0:0:0:0:
233,226,178125,1,0,0:0:0:0:
346,145,178265,1,8,0:0:0:0:
346,145,178335,1,0,0:0:0:0:
346,145,178405,1,0,0:0:0:0:
346,145,178474,1,8,0:0:0:0:
346,145,178544,1,0,0:0:0:0:
261,200,178823,1,4,0:0:0:0:
233,192,179102,1,8,0:0:0:0:
233,192,179242,1,0,0:0:0:0:
233,192,179381,1,8,0:0:0:0:
216,189,179521,1,0,0:0:0:0:
233,192,179660,1,8,0:0:0:0:
233,192,179730,1,0,0:0:0:0:
233,192,179800,1,0,0:0:0:0:
207,175,179939,1,0,0:0:0:0:
207,175,180032,1,8,0:0:0:0:
207,175,180125,1,8,0:0:0:0:
218,208,180218,1,0,0:0:0:0:
218,208,180312,1,0,0:0:0:0:
218,208,180405,1,0,0:0:0:0:
218,208,180498,1,8,0:0:0:0:
259,210,180591,1,8,0:0:0:0:
259,210,180684,1,8,0:0:0:0:
259,210,180777,1,8,0:0:0:0:
287,136,181056,1,0,0:0:0:0:
287,136,181195,1,0,0:0:0:0:
287,136,181335,1,8,0:0:0:0:
287,136,181474,1,0,0:0:0:0:
287,136,181614,1,8,0:0:0:0:
287,136,181753,1,0,0:0:0:0:
287,136,181893,1,8,0:0:0:0:
287,136,182032,1,8,0:0:0:0:
287,136,182172,1,0,0:0:0:0:
287,136,182312,1,8,0:0:0:0:
287,136,182451,1,8,0:0:0:0:
287,136,182591,1,8,0:0:0:0:
287,136,182730,1,8,0:0:0:0:
287,136,182870,1,8,0:0:0:0:
287,136,183009,1,8,0:0:0:0:
287,136,183149,1,8,0:0:0:0:
234,192,183288,1,4,0:0:0:0:
