osu file format v14

[General]
AudioFilename: audio.mp3
AudioLeadIn: 0
PreviewTime: 61300
Countdown: 1
SampleSet: Normal
StackLeniency: 0.7
Mode: 1
LetterboxInBreaks: 0
WidescreenStoryboard: 1

[Editor]
Bookmarks: 9149,27009,42637,51567
DistanceSpacing: 1
BeatDivisor: 4
GridSize: 32
TimelineZoom: 2.6

[Metadata]
Title:Kasha no sakebu yoru ni
TitleUnicode:火車の叫ぶ夜に
Artist:UNDEAD CORPORATION
ArtistUnicode:UNDEAD CORPORATION
Creator:sendol
Version:Muzukashii
Source:東方地霊殿 ~ Subterranean Animism.
Tags:東方Project ZUN Team Shanghai Alice Touhou Stage 5 Boss 火焔猫 燐 Kayenbyou Rin Chireiden TH10 瞬殺 みぃ 天外冬黄 Embraced by the flame
BeatmapID:2067652
BeatmapSetID:988426

[Difficulty]
HPDrainRate:5
CircleSize:5
OverallDifficulty:5
ApproachRate:5
SliderMultiplier:1.4
SliderTickRate:1

[Events]
//Background and Video events
0,0,"edgy.jpg",0,0
//Break Periods
//Storyboard Layer 0 (Background)
//Storyboard Layer 1 (Fail)
//Storyboard Layer 2 (Pass)
//Storyboard Layer 3 (Foreground)
//Storyboard Layer 4 (Overlay)
//Storyboard Sound Samples

[TimingPoints]
219,279.06976744186,4,1,0,100,1,0
61614,-100,4,1,0,100,0,1
78358,-100,4,1,0,100,0,0
121893,-100,4,1,0,100,0,1
138637,-100,4,1,0,100,0,0
156498,-100,4,1,0,100,0,1
165428,-100,4,1,0,100,0,0
178823,-100,4,1,0,100,0,1
183288,-100,4,1,0,100,0,0
193335,-100,4,1,0,100,0,1
208963,-100,4,1,0,100,0,0
210079,-100,4,1,0,100,0,1
226823,-100,4,1,0,100,0,0

[HitObjects]
251,194,219,5,4,0:0:0:0:
251,194,1893,1,12,0:0:0:0:
251,194,2172,1,12,0:0:0:0:
251,194,2451,1,4,0:0:0:0:
251,194,3707,1,4,0:0:0:0:
251,194,4125,1,12,0:0:0:0:
192,192,4405,1,0,0:0:0:0:
251,194,4684,1,4,0:0:0:0:
163,169,5102,1,0,0:0:0:0:
163,169,5521,1,0,0:0:0:0:
289,192,5939,1,0,0:0:0:0:
289,192,6358,1,12,0:0:0:0:
289,192,6637,1,12,0:0:0:0:
276,210,6916,1,4,0:0:0:0:
192,192,7335,1,8,0:0:0:0:
276,210,7753,1,0,0:0:0:0:
276,210,8032,1,12,0:0:0:0:
217,166,8172,1,0,0:0:0:0:
159,175,8591,1,8,0:0:0:0:
159,175,8870,1,8,0:0:0:0:
159,175,9149,1,4,0:0:0:0:
320,160,9428,1,0,0:0:0:0:
320,160,9567,1,8,0:0:0:0:
320,160,9707,1,0,0:0:0:0:
320,160,9777,1,0,0:0:0:0:
320,160,9846,1,0,0:0:0:0:
320,160,9986,1,8,0:0:0:0:
320,160,10265,1,0,0:0:0:0:
320,160,10405,1,8,0:0:0:0:
320,160,10684,1,0,0:0:0:0:
320,160,10823,1,8,0:0:0:0:
320,160,11102,1,0,0:0:0:0:
192,192,11381,1,8,0:0:0:0:
192,192,11660,1,0,0:0:0:0:
192,192,11800,1,8,0:0:0:0:
192,192,11939,1,0,0:0:0:0:
192,192,12009,1,0,0:0:0:0:
192,192,12079,1,0,0:0:0:0:
192,192,12218,1,8,0:0:0:0:
192,192,12498,1,0,0:0:0:0:
192,192,12637,1,8,0:0:0:0:
192,192,13056,1,8,0:0:0:0:
192,192,13195,1,0,0:0:0:0:
224,170,13335,1,8,0:0:0:0:
192,192,13614,1,12,0:0:0:0:
204,221,13893,1,0,0:0:0:0:
204,221,14032,1,8,0:0:0:0:
204,221,14172,1,0,0:0:0:0:
204,221,14242,1,0,0:0:0:0:
204,221,14312,1,0,0:0:0:0:
204,221,14451,1,8,0:0:0:0:
204,221,14730,1,0,0:0:0:0:
204,221,14870,1,8,0:0:0:0:
204,221,15149,1,0,0:0:0:0:
204,221,15288,1,8,0:0:0:0:
204,221,15428,1,0,0:0:0:0:
204,221,15567,1,8,0:0:0:0:
175,221,15846,1,0,0:0:0:0:
175,221,15986,1,8,0:0:0:0:
175,221,16056,1,8,0:0:0:0:
175,221,16125,1,8,0:0:0:0:
175,221,16265,1,0,0:0:0:0:
175,221,16405,1,8,0:0:0:0:
175,221,16474,1,8,0:0:0:0:
175,221,16544,1,8,0:0:0:0:
175,221,16684,1,0,0:0:0:0:
175,221,16963,1,4,0:0:0:0:
296,211,17521,1,0,0:0:0:0:
296,211,17591,1,0,0:0:0:0:
296,211,17660,1,0,0:0:0:0:
296,211,17730,1,0,0:0:0:0:
296,211,17800,1,0,0:0:0:0:
207,214,18079,1,8,0:0:0:0:
207,214,18218,1,0,0:0:0:0:
207,214,18358,1,0,0:0:0:0:
207,214,18498,1,8,0:0:0:0:
207,214,18637,1,0,0:0:0:0:
183,225,18777,1,0,0:0:0:0:
183,225,18916,1,8,0:0:0:0:
183,225,19195,1,8,0:0:0:0:
183,225,19335,1,8,0:0:0:0:
183,225,19474,1,0,0:0:0:0:
183,225,19614,1,0,0:0:0:0:
183,225,19753,1,8,0:0:0:0:
183,225,19893,1,0,0:0:0:0:
183,225,20032,1,0,0:0:0:0:
183,225,20312,1,8,0:0:0:0:
183,225,20451,1,8,0:0:0:0:
183,225,20591,1,0,0:0:0:0:
183,225,20730,1,8,0:0:0:0:
183,225,20870,1,0,0:0:0:0:
183,225,21009,1,0,0:0:0:0:
183,225,21149,1,0,0:0:0:0:
252,212,21428,1,8,0:0:0:0:
252,212,21567,1,0,0:0:0:0:
252,212,21707,1,0,0:0:0:0:
252,212,21846,1,8,0:0:0:0:
252,212,21986,1,0,0:0:0:0:
252,212,22125,1,0,0:0:0:0:
252,212,22265,1,8,0:0:0:0:
252,212,22335,1,8,0:0:0:0:
252,212,22405,1,8,0:0:0:0:
252,212,22544,1,12,0:0:0:0:
252,212,22823,1,0,0:0:0:0:
252,212,22963,1,8,0:0:0:0:
252,212,23102,1,0,0:0:0:0:
252,212,23242,1,0,0:0:0:0:
252,212,23381,1,8,0:0:0:0:
252,212,23660,1,0,0:0:0:0:
252,212,23800,1,8,0:0:0:0:
252,212,23939,1,0,0:0:0:0:
252,212,24079,1,8,0:0:0:0:
252,212,24218,1,8,0:0:0:0:
252,212,24358,1,0,0:0:0:0:
252,212,24498,1,8,0:0:0:0:
252,212,24777,1,4,0:0:0:0:
256,210,25056,1,4,0:0:0:0:
256,210,25335,1,4,0:0:0:0:
256,210,25614,1,4,0:0:0:0:
256,210,25893,1,12,0:0:0:0:
256,210,26032,1,8,0:0:0:0:
256,210,26102,1,8,0:0:0:0:
256,210,26172,1,8,0:0:0:0:
256,210,26312,1,8,0:0:0:0:
256,210,26451,1,0,0:0:0:0:
256,210,26521,1,0,0:0:0:0:
256,210,26591,1,0,0:0:0:0:
256,210,26660,1,0,0:0:0:0:
256,210,26730,1,0,0:0:0:0:
118,212,27009,1,8,0:0:0:0:
118,212,27288,1,0,0:0:0:0:
118,212,27428,1,8,0:0:0:0:
118,212,27567,1,0,0:0:0:0:
118,212,27707,1,0,0:0:0:0:
118,212,27846,1,8,0:0:0:0:
118,212,28125,1,8,0:0:0:0:
118,212,28265,1,8,0:0:0:0:
118,212,28405,1,0,0:0:0:0:
118,212,28544,1,8,0:0:0:0:
118,212,28684,1,0,0:0:0:0:
118,212,28823,1,0,0:0:0:0:
118,212,28963,1,8,0:0:0:0:
234,236,29242,1,8,0:0:0:0:
288,186,29381,1,8,0:0:0:0:
234,236,29521,1,0,0:0:0:0:
234,236,29660,1,8,0:0:0:0:
194,199,29939,1,0,0:0:0:0:
194,199,30079,1,8,0:0:0:0:
194,199,30358,1,8,0:0:0:0:
194,199,30637,1,0,0:0:0:0:
194,199,30916,1,0,0:0:0:0:
255,178,31056,1,0,0:0:0:0:
194,199,31195,1,8,0:0:0:0:
275,200,31474,1,4,0:0:0:0:
209,238,31753,1,8,0:0:0:0:
209,238,32032,1,0,0:0:0:0:
209,238,32172,1,0,0:0:0:0:
209,238,32312,1,8,0:0:0:0:
209,238,32591,1,0,0:0:0:0:
209,238,32870,1,8,0:0:0:0:
209,238,33149,1,0,0:0:0:0:
209,238,33288,1,0,0:0:0:0:
209,238,33428,1,8,0:0:0:0:
209,238,33707,1,8,0:0:0:0:
209,238,33777,1,8,0:0:0:0:
209,238,33846,1,8,0:0:0:0:
193,182,33986,1,0,0:0:0:0:
193,182,34056,1,0,0:0:0:0:
193,182,34125,1,0,0:0:0:0:
193,182,34265,1,8,0:0:0:0:
193,182,34335,1,8,0:0:0:0:
193,182,34405,1,8,0:0:0:0:
193,182,34544,1,0,0:0:0:0:
193,182,34614,1,0,0:0:0:0:
193,182,34684,1,0,0:0:0:0:
212,239,34823,1,12,0:0:0:0:
212,239,35102,1,12,0:0:0:0:
212,239,35381,1,12,0:0:0:0:
212,239,35660,1,12,0:0:0:0:
262,219,35939,1,4,0:0:0:0:
118,212,36218,1,0,0:0:0:0:
118,212,36358,1,8,0:0:0:0:
118,212,36497,1,0,0:0:0:0:
118,212,36637,1,0,0:0:0:0:
118,212,36776,1,8,0:0:0:0:
118,212,37055,1,8,0:0:0:0:
118,212,37195,1,8,0:0:0:0:
118,212,37335,1,0,0:0:0:0:
118,212,37474,1,8,0:0:0:0:
118,212,37614,1,0,0:0:0:0:
118,212,37753,1,0,0:0:0:0:
118,212,37893,1,8,0:0:0:0:
234,236,38172,1,8,0:0:0:0:
288,186,38311,1,8,0:0:0:0:
234,236,38451,1,0,0:0:0:0:
234,236,38590,1,8,0:0:0:0:
194,199,38869,1,0,0:0:0:0:
194,199,39009,1,8,0:0:0:0:
194,199,39288,1,8,0:0:0:0:
194,199,39567,1,0,0:0:0:0:
194,199,39846,1,0,0:0:0:0:
255,178,39986,1,0,0:0:0:0:
194,199,40125,1,8,0:0:0:0:
250,175,40405,1,4,0:0:0:0:
250,175,40823,1,0,0:0:0:0:
250,176,41242,1,0,0:0:0:0:
18,180,41521,1,8,0:0:0:0:
18,180,41591,1,8,0:0:0:0:
18,180,41660,1,8,0:0:0:0:
18,180,41800,1,0,0:0:0:0:
240,178,41939,1,0,0:0:0:0:
18,180,42079,1,8,0:0:0:0:
18,180,42218,1,0,0:0:0:0:
18,180,42358,1,0,0:0:0:0:
244,189,42637,1,4,0:0:0:0:
244,189,42916,1,0,0:0:0:0:
244,189,43056,1,8,0:0:0:0:
244,189,43195,1,0,0:0:0:0:
244,189,43335,1,0,0:0:0:0:
244,189,43474,1,8,0:0:0:0:
244,189,43753,1,8,0:0:0:0:
244,189,44032,1,0,0:0:0:0:
244,189,44172,1,8,0:0:0:0:
244,189,44312,1,0,0:0:0:0:
230,177,44591,1,8,0:0:0:0:
230,177,44870,1,0,0:0:0:0:
230,177,45009,1,0,0:0:0:0:
230,177,45149,1,8,0:0:0:0:
230,177,45288,1,0,0:0:0:0:
230,177,45567,1,0,0:0:0:0:
230,177,45707,1,8,0:0:0:0:
251,189,45986,5,4,0:0:0:0:
252,189,46405,1,12,0:0:0:0:
252,189,46823,1,12,0:0:0:0:
136,189,47102,1,0,0:0:0:0:
191,172,47381,1,0,0:0:0:0:
191,172,47521,1,8,0:0:0:0:
191,172,47660,1,0,0:0:0:0:
191,172,47800,1,0,0:0:0:0:
191,172,47939,1,8,0:0:0:0:
340,234,48218,1,8,0:0:0:0:
340,234,48498,1,0,0:0:0:0:
340,234,48777,1,8,0:0:0:0:
340,234,48916,1,8,0:0:0:0:
340,234,49056,1,0,0:0:0:0:
140,250,49335,5,8,0:0:0:0:
140,250,49405,1,8,0:0:0:0:
140,250,49474,1,8,0:0:0:0:
140,250,49614,1,0,0:0:0:0:
140,250,49753,1,8,0:0:0:0:
140,250,49823,1,8,0:0:0:0:
140,250,49893,1,8,0:0:0:0:
140,250,50032,1,8,0:0:0:0:
140,250,50172,1,0,0:0:0:0:
223,187,50451,1,12,0:0:0:0:
222,185,51009,1,8,0:0:0:0:
222,185,51149,1,8,0:0:0:0:
222,185,51288,1,0,0:0:0:0:
256,192,51567,5,4,0:0:0:0:
256,192,52684,1,4,0:0:0:0:
256,192,53800,1,12,0:0:0:0:
256,192,54916,1,4,0:0:0:0:
256,192,56032,1,12,0:0:0:0:
256,192,57149,1,4,0:0:0:0:
256,192,58265,1,12,0:0:0:0:
256,192,59381,1,4,0:0:0:0:
256,192,60498,1,12,0:0:0:0:
256,192,61614,1,4,0:0:0:0:
256,224,61893,1,0,0:0:0:0:
256,224,62032,1,8,0:0:0:0:
256,224,62172,1,0,0:0:0:0:
256,224,62242,1,0,0:0:0:0:
256,224,62312,1,0,0:0:0:0:
256,224,62451,1,8,0:0:0:0:
224,192,62730,1,8,0:0:0:0:
224,192,62801,1,8,0:0:0:0:
224,192,62870,1,8,0:0:0:0:
224,192,63009,1,0,0:0:0:0:
224,192,63149,1,8,0:0:0:0:
224,192,63288,1,0,0:0:0:0:
224,192,63358,1,0,0:0:0:0:
224,192,63428,1,0,0:0:0:0:
224,192,63567,1,8,0:0:0:0:
288,128,63846,1,8,0:0:0:0:
224,192,63986,1,0,0:0:0:0:
224,192,64056,1,0,0:0:0:0:
224,192,64125,1,0,0:0:0:0:
224,192,64265,1,8,0:0:0:0:
288,128,64405,1,0,0:0:0:0:
288,128,64474,1,0,0:0:0:0:
288,128,64544,1,0,0:0:0:0:
288,128,64684,1,8,0:0:0:0:
288,256,64963,1,8,0:0:0:0:
288,256,65102,1,0,0:0:0:0:
288,128,65242,1,0,0:0:0:0:
192,128,65381,1,8,0:0:0:0:
192,128,65521,1,0,0:0:0:0:
288,128,65591,1,0,0:0:0:0:
288,128,65661,1,0,0:0:0:0:
288,128,65800,1,8,0:0:0:0:
248,165,66079,1,4,0:0:0:0:
263,206,66637,1,8,0:0:0:0:
273,178,66916,1,0,0:0:0:0:
273,178,67056,1,0,0:0:0:0:
273,178,67195,1,8,0:0:0:0:
192,128,67474,1,0,0:0:0:0:
192,128,67614,1,8,0:0:0:0:
192,128,67753,1,0,0:0:0:0:
192,128,67823,1,0,0:0:0:0:
192,128,67893,1,0,0:0:0:0:
192,128,68032,1,8,0:0:0:0:
288,160,68312,1,8,0:0:0:0:
288,160,68381,1,8,0:0:0:0:
192,128,68451,1,8,0:0:0:0:
192,128,68591,1,0,0:0:0:0:
192,128,68730,1,8,0:0:0:0:
192,128,68870,1,0,0:0:0:0:
192,128,68939,1,0,0:0:0:0:
192,128,69009,1,0,0:0:0:0:
192,128,69149,1,8,0:0:0:0:
288,160,69428,1,0,0:0:0:0:
288,160,69498,1,0,0:0:0:0:
288,160,69567,1,0,0:0:0:0:
288,160,69707,1,0,0:0:0:0:
288,160,69846,1,8,0:0:0:0:
288,160,69986,1,0,0:0:0:0:
288,160,70055,1,0,0:0:0:0:
288,160,70125,1,0,0:0:0:0:
288,160,70265,1,8,0:0:0:0:
288,160,70544,1,0,0:0:0:0:
273,178,71102,1,8,0:0:0:0:
273,178,71172,1,8,0:0:0:0:
273,178,71242,1,8,0:0:0:0:
288,160,71381,1,0,0:0:0:0:
288,160,71660,1,12,0:0:0:0:
256,160,71939,1,0,0:0:0:0:
192,160,72079,1,8,0:0:0:0:
320,224,72218,1,0,0:0:0:0:
320,224,72288,1,0,0:0:0:0:
320,224,72358,1,0,0:0:0:0:
320,224,72498,1,8,0:0:0:0:
320,224,72777,1,8,0:0:0:0:
320,224,72846,1,8,0:0:0:0:
320,224,72916,1,8,0:0:0:0:
320,224,73056,1,0,0:0:0:0:
288,160,73195,1,8,0:0:0:0:
288,160,73335,1,0,0:0:0:0:
288,160,73474,1,0,0:0:0:0:
288,160,73614,1,8,0:0:0:0:
288,160,73893,1,8,0:0:0:0:
288,160,74032,1,0,0:0:0:0:
288,160,74102,1,0,0:0:0:0:
288,160,74172,1,0,0:0:0:0:
288,160,74312,1,8,0:0:0:0:
288,160,74451,1,0,0:0:0:0:
288,160,74590,1,0,0:0:0:0:
192,128,74730,1,8,0:0:0:0:
192,128,75009,1,8,0:0:0:0:
192,128,75079,1,8,0:0:0:0:
192,128,75149,1,8,0:0:0:0:
192,128,75288,1,0,0:0:0:0:
288,128,75428,1,0,0:0:0:0:
288,128,75567,1,8,0:0:0:0:
224,128,75846,1,8,0:0:0:0:
224,128,75986,1,8,0:0:0:0:
224,128,76125,1,0,0:0:0:0:
224,128,76405,1,0,0:0:0:0:
224,128,76545,1,8,0:0:0:0:
192,64,76684,1,0,0:0:0:0:
192,64,76753,1,0,0:0:0:0:
192,64,76823,1,0,0:0:0:0:
192,64,76963,1,8,0:0:0:0:
320,288,77242,1,4,0:0:0:0:
320,288,77381,1,8,0:0:0:0:
320,288,77451,1,8,0:0:0:0:
320,288,77521,1,8,0:0:0:0:
320,288,77660,1,0,0:0:0:0:
320,288,77800,1,8,0:0:0:0:
159,175,78358,1,4,0:0:0:0:
320,160,78637,1,0,0:0:0:0:
320,160,78776,1,8,0:0:0:0:
320,160,78916,1,0,0:0:0:0:
320,160,78986,1,0,0:0:0:0:
320,160,79055,1,0,0:0:0:0:
320,160,79195,1,8,0:0:0:0:
320,160,79474,1,0,0:0:0:0:
320,160,79614,1,8,0:0:0:0:
320,160,79893,1,0,0:0:0:0:
320,160,80032,1,8,0:0:0:0:
320,160,80311,1,0,0:0:0:0:
192,192,80590,1,8,0:0:0:0:
192,192,80869,1,0,0:0:0:0:
192,192,81009,1,8,0:0:0:0:
192,192,81148,1,0,0:0:0:0:
192,192,81218,1,0,0:0:0:0:
192,192,81288,1,0,0:0:0:0:
192,192,81427,1,8,0:0:0:0:
192,192,81707,1,0,0:0:0:0:
192,192,81846,1,8,0:0:0:0:
192,192,82265,1,8,0:0:0:0:
192,192,82404,1,0,0:0:0:0:
224,170,82544,1,8,0:0:0:0:
192,192,82823,1,12,0:0:0:0:
204,221,83102,1,0,0:0:0:0:
204,221,83241,1,8,0:0:0:0:
204,221,83381,1,0,0:0:0:0:
204,221,83451,1,0,0:0:0:0:
204,221,83521,1,0,0:0:0:0:
204,221,83660,1,8,0:0:0:0:
204,221,83939,1,0,0:0:0:0:
204,221,84079,1,8,0:0:0:0:
204,221,84358,1,0,0:0:0:0:
204,221,84497,1,8,0:0:0:0:
204,221,84637,1,0,0:0:0:0:
204,221,84776,1,8,0:0:0:0:
175,221,85055,1,0,0:0:0:0:
175,221,85195,1,8,0:0:0:0:
175,221,85265,1,8,0:0:0:0:
175,221,85334,1,8,0:0:0:0:
175,221,85474,1,0,0:0:0:0:
175,221,85614,1,8,0:0:0:0:
175,221,85683,1,8,0:0:0:0:
175,221,85753,1,8,0:0:0:0:
175,221,85893,1,0,0:0:0:0:
175,221,86172,1,12,0:0:0:0:
261,194,87009,1,8,0:0:0:0:
118,212,87288,1,0,0:0:0:0:
118,212,87567,1,0,0:0:0:0:
118,212,87707,1,8,0:0:0:0:
118,212,87846,1,0,0:0:0:0:
118,212,87986,1,0,0:0:0:0:
118,212,88125,1,8,0:0:0:0:
118,212,88404,1,8,0:0:0:0:
118,212,88544,1,8,0:0:0:0:
118,212,88684,1,0,0:0:0:0:
118,212,88823,1,8,0:0:0:0:
118,212,88963,1,0,0:0:0:0:
118,212,89102,1,0,0:0:0:0:
118,212,89242,1,8,0:0:0:0:
234,236,89521,1,8,0:0:0:0:
288,186,89660,1,8,0:0:0:0:
234,236,89800,1,0,0:0:0:0:
234,236,89939,1,8,0:0:0:0:
194,199,90218,1,0,0:0:0:0:
194,199,90358,1,8,0:0:0:0:
194,199,90637,1,8,0:0:0:0:
194,199,90777,1,0,0:0:0:0:
194,199,90916,1,0,0:0:0:0:
166,227,91195,1,8,0:0:0:0:
166,227,91288,1,8,0:0:0:0:
166,227,91381,1,8,0:0:0:0:
166,227,91474,1,8,0:0:0:0:
238,222,91753,1,4,0:0:0:0:
209,238,92032,1,8,0:0:0:0:
209,238,92311,1,0,0:0:0:0:
209,238,92451,1,0,0:0:0:0:
209,238,92591,1,8,0:0:0:0:
209,238,92870,1,0,0:0:0:0:
209,238,93149,1,8,0:0:0:0:
209,238,93428,1,0,0:0:0:0:
209,238,93567,1,0,0:0:0:0:
209,238,93707,1,8,0:0:0:0:
209,238,93986,1,8,0:0:0:0:
209,238,94056,1,8,0:0:0:0:
209,238,94125,1,8,0:0:0:0:
193,182,94265,1,0,0:0:0:0:
193,182,94335,1,0,0:0:0:0:
193,182,94404,1,0,0:0:0:0:
193,182,94544,1,8,0:0:0:0:
193,182,94614,1,8,0:0:0:0:
193,182,94684,1,8,0:0:0:0:
193,182,94823,1,0,0:0:0:0:
193,182,94893,1,0,0:0:0:0:
193,182,94963,1,0,0:0:0:0:
212,239,95102,1,12,0:0:0:0:
212,239,95381,1,12,0:0:0:0:
212,239,95660,1,12,0:0:0:0:
212,239,95939,1,12,0:0:0:0:
224,204,96218,1,4,0:0:0:0:
118,212,96498,1,0,0:0:0:0:
118,212,96638,1,8,0:0:0:0:
118,212,96777,1,0,0:0:0:0:
118,212,96917,1,0,0:0:0:0:
118,212,97056,1,8,0:0:0:0:
118,212,97335,1,8,0:0:0:0:
118,212,97475,1,8,0:0:0:0:
118,212,97615,1,0,0:0:0:0:
118,212,97754,1,8,0:0:0:0:
118,212,97894,1,0,0:0:0:0:
118,212,98033,1,0,0:0:0:0:
118,212,98173,1,8,0:0:0:0:
234,236,98452,1,8,0:0:0:0:
288,186,98591,1,8,0:0:0:0:
234,236,98731,1,0,0:0:0:0:
234,236,98870,1,8,0:0:0:0:
194,199,99149,1,0,0:0:0:0:
194,199,99289,1,8,0:0:0:0:
194,199,99568,1,8,0:0:0:0:
194,199,99847,1,0,0:0:0:0:
194,199,100126,1,0,0:0:0:0:
255,178,100266,1,0,0:0:0:0:
194,199,100405,1,8,0:0:0:0:
250,175,100685,1,4,0:0:0:0:
250,175,101103,1,0,0:0:0:0:
250,176,101522,1,0,0:0:0:0:
18,180,101801,1,8,0:0:0:0:
18,180,101871,1,8,0:0:0:0:
18,180,101940,1,8,0:0:0:0:
18,180,102080,1,0,0:0:0:0:
240,178,102219,1,0,0:0:0:0:
18,180,102359,1,8,0:0:0:0:
18,180,102498,1,0,0:0:0:0:
18,180,102638,1,0,0:0:0:0:
244,189,102917,1,4,0:0:0:0:
244,189,103196,1,0,0:0:0:0:
244,189,103336,1,8,0:0:0:0:
244,189,103475,1,0,0:0:0:0:
244,189,103615,1,0,0:0:0:0:
244,189,103754,1,8,0:0:0:0:
244,189,104033,1,8,0:0:0:0:
244,189,104312,1,0,0:0:0:0:
244,189,104452,1,8,0:0:0:0:
244,189,104592,1,0,0:0:0:0:
230,177,104871,1,8,0:0:0:0:
230,177,105150,1,0,0:0:0:0:
230,177,105289,1,0,0:0:0:0:
230,177,105429,1,8,0:0:0:0:
230,177,105568,1,0,0:0:0:0:
230,177,105847,1,0,0:0:0:0:
230,177,105987,1,8,0:0:0:0:
251,189,106266,5,4,0:0:0:0:
252,189,106685,1,12,0:0:0:0:
252,189,107103,1,12,0:0:0:0:
136,189,107382,1,0,0:0:0:0:
191,172,107661,1,0,0:0:0:0:
191,172,107801,1,8,0:0:0:0:
191,172,107940,1,0,0:0:0:0:
191,172,108080,1,0,0:0:0:0:
191,172,108219,1,8,0:0:0:0:
340,234,108498,1,8,0:0:0:0:
340,234,108778,1,0,0:0:0:0:
340,234,109057,1,8,0:0:0:0:
340,234,109196,1,8,0:0:0:0:
340,234,109336,1,0,0:0:0:0:
140,250,109615,5,8,0:0:0:0:
140,250,109685,1,8,0:0:0:0:
140,250,109754,1,8,0:0:0:0:
140,250,109894,1,0,0:0:0:0:
140,250,110033,1,8,0:0:0:0:
140,250,110103,1,8,0:0:0:0:
140,250,110173,1,8,0:0:0:0:
140,250,110312,1,8,0:0:0:0:
140,250,110452,5,0,0:0:0:0:
223,187,110731,1,12,0:0:0:0:
231,183,111567,5,8,0:0:0:0:
256,192,111846,5,4,0:0:0:0:
256,192,112963,1,4,0:0:0:0:
256,192,114079,1,12,0:0:0:0:
256,192,115195,1,4,0:0:0:0:
256,192,116311,1,12,0:0:0:0:
256,192,117428,1,4,0:0:0:0:
256,192,118544,1,12,0:0:0:0:
256,192,119660,1,4,0:0:0:0:
256,192,120777,5,12,0:0:0:0:
256,192,121893,5,4,0:0:0:0:
256,224,122172,1,0,0:0:0:0:
256,224,122311,1,8,0:0:0:0:
256,224,122451,1,0,0:0:0:0:
256,224,122521,1,0,0:0:0:0:
256,224,122591,1,0,0:0:0:0:
256,224,122730,1,8,0:0:0:0:
224,192,123009,1,8,0:0:0:0:
224,192,123080,1,8,0:0:0:0:
224,192,123149,1,8,0:0:0:0:
224,192,123288,1,0,0:0:0:0:
224,192,123428,1,8,0:0:0:0:
224,192,123567,1,0,0:0:0:0:
224,192,123637,1,0,0:0:0:0:
224,192,123707,1,0,0:0:0:0:
224,192,123846,1,8,0:0:0:0:
288,128,124125,1,8,0:0:0:0:
224,192,124265,1,0,0:0:0:0:
224,192,124335,1,0,0:0:0:0:
224,192,124404,1,0,0:0:0:0:
224,192,124544,1,8,0:0:0:0:
288,128,124684,1,0,0:0:0:0:
288,128,124753,1,0,0:0:0:0:
288,128,124823,1,0,0:0:0:0:
288,128,124963,1,8,0:0:0:0:
288,256,125242,1,8,0:0:0:0:
288,256,125381,1,0,0:0:0:0:
288,128,125521,1,0,0:0:0:0:
192,128,125660,1,8,0:0:0:0:
192,128,125800,1,0,0:0:0:0:
288,128,125870,1,0,0:0:0:0:
288,128,125940,1,0,0:0:0:0:
288,128,126079,1,8,0:0:0:0:
248,165,126358,1,4,0:0:0:0:
263,206,126916,1,8,0:0:0:0:
273,178,127195,1,0,0:0:0:0:
273,178,127335,1,0,0:0:0:0:
273,178,127474,1,8,0:0:0:0:
192,128,127753,1,0,0:0:0:0:
192,128,127893,1,8,0:0:0:0:
192,128,128032,1,0,0:0:0:0:
192,128,128102,1,0,0:0:0:0:
192,128,128172,1,0,0:0:0:0:
192,128,128311,1,8,0:0:0:0:
288,160,128591,1,8,0:0:0:0:
288,160,128660,1,8,0:0:0:0:
192,128,128730,1,8,0:0:0:0:
192,128,128870,1,0,0:0:0:0:
192,128,129009,1,8,0:0:0:0:
192,128,129149,1,0,0:0:0:0:
192,128,129218,1,0,0:0:0:0:
192,128,129288,1,0,0:0:0:0:
192,128,129428,1,8,0:0:0:0:
288,160,129707,1,0,0:0:0:0:
288,160,129777,1,0,0:0:0:0:
288,160,129846,1,0,0:0:0:0:
288,160,129986,1,0,0:0:0:0:
288,160,130125,1,8,0:0:0:0:
288,160,130265,1,0,0:0:0:0:
288,160,130334,1,0,0:0:0:0:
288,160,130404,1,0,0:0:0:0:
288,160,130544,1,8,0:0:0:0:
288,160,130823,1,0,0:0:0:0:
273,178,131381,1,8,0:0:0:0:
273,178,131451,1,8,0:0:0:0:
273,178,131521,1,8,0:0:0:0:
288,160,131660,1,0,0:0:0:0:
288,160,131939,1,12,0:0:0:0:
256,160,132218,1,0,0:0:0:0:
192,160,132358,1,8,0:0:0:0:
320,224,132497,1,0,0:0:0:0:
320,224,132567,1,0,0:0:0:0:
320,224,132637,1,0,0:0:0:0:
320,224,132777,1,8,0:0:0:0:
320,224,133056,1,8,0:0:0:0:
320,224,133125,1,8,0:0:0:0:
320,224,133195,1,8,0:0:0:0:
320,224,133335,1,0,0:0:0:0:
288,160,133474,1,8,0:0:0:0:
288,160,133614,1,0,0:0:0:0:
288,160,133753,1,0,0:0:0:0:
288,160,133893,1,8,0:0:0:0:
288,160,134172,1,8,0:0:0:0:
288,160,134311,1,0,0:0:0:0:
288,160,134381,1,0,0:0:0:0:
288,160,134451,1,0,0:0:0:0:
288,160,134591,1,8,0:0:0:0:
288,160,134730,1,0,0:0:0:0:
288,160,134869,1,0,0:0:0:0:
192,128,135009,1,8,0:0:0:0:
192,128,135288,1,8,0:0:0:0:
192,128,135358,1,8,0:0:0:0:
192,128,135428,1,8,0:0:0:0:
192,128,135567,1,0,0:0:0:0:
288,128,135707,1,0,0:0:0:0:
288,128,135846,1,8,0:0:0:0:
224,128,136125,1,8,0:0:0:0:
224,128,136265,1,8,0:0:0:0:
224,128,136405,1,4,0:0:0:0:
228,223,136684,1,8,0:0:0:0:
228,223,136753,1,8,0:0:0:0:
228,223,136823,1,8,0:0:0:0:
228,223,136893,1,8,0:0:0:0:
228,223,136963,1,8,0:0:0:0:
263,216,137242,1,0,0:0:0:0:
263,216,137312,1,0,0:0:0:0:
263,216,137381,1,0,0:0:0:0:
228,223,137521,1,8,0:0:0:0:
228,223,137660,1,8,0:0:0:0:
228,223,137800,1,0,0:0:0:0:
228,223,137939,1,8,0:0:0:0:
228,223,138079,1,8,0:0:0:0:
228,223,138149,1,8,0:0:0:0:
228,223,138218,1,8,0:0:0:0:
289,200,138358,1,0,0:0:0:0:
281,177,138637,1,4,0:0:0:0:
281,177,138777,1,4,0:0:0:0:
281,177,139753,1,12,0:0:0:0:
268,193,140870,1,4,0:0:0:0:
268,193,141009,1,4,0:0:0:0:
268,193,141986,1,12,0:0:0:0:
264,235,142265,1,0,0:0:0:0:
264,235,142544,1,8,0:0:0:0:
285,198,142684,1,8,0:0:0:0:
264,235,142823,1,0,0:0:0:0:
285,198,142963,1,0,0:0:0:0:
285,198,143102,1,12,0:0:0:0:
255,243,143381,1,8,0:0:0:0:
255,243,143521,1,8,0:0:0:0:
255,243,143660,1,0,0:0:0:0:
255,243,143800,1,0,0:0:0:0:
255,243,143939,1,8,0:0:0:0:
255,243,144218,1,0,0:0:0:0:
255,243,144358,1,0,0:0:0:0:
255,243,144498,1,8,0:0:0:0:
255,243,144637,1,0,0:0:0:0:
181,184,144777,1,8,0:0:0:0:
181,184,144916,1,0,0:0:0:0:
181,184,145056,1,8,0:0:0:0:
182,182,145335,1,12,0:0:0:0:
169,171,145614,1,12,0:0:0:0:
169,171,145893,1,12,0:0:0:0:
214,175,146172,1,12,0:0:0:0:
216,175,146451,1,0,0:0:0:0:
216,175,146591,1,0,0:0:0:0:
216,175,146730,1,8,0:0:0:0:
216,175,146870,1,8,0:0:0:0:
216,175,147009,1,0,0:0:0:0:
251,171,147079,1,0,0:0:0:0:
216,175,147149,1,0,0:0:0:0:
216,175,147288,1,0,0:0:0:0:
216,175,147567,1,4,0:0:0:0:
361,191,147846,1,8,0:0:0:0:
361,191,148125,1,0,0:0:0:0:
361,191,148265,1,0,0:0:0:0:
361,191,148405,1,8,0:0:0:0:
361,191,148684,1,0,0:0:0:0:
361,191,148963,1,8,0:0:0:0:
361,191,149242,1,0,0:0:0:0:
361,191,149381,1,0,0:0:0:0:
361,191,149521,1,8,0:0:0:0:
252,181,149800,1,0,0:0:0:0:
252,181,150009,1,8,0:0:0:0:
252,181,150218,1,8,0:0:0:0:
252,181,150358,1,0,0:0:0:0:
252,181,150567,1,8,0:0:0:0:
252,181,150777,1,8,0:0:0:0:
281,254,150916,1,0,0:0:0:0:
281,254,151125,1,8,0:0:0:0:
281,254,151335,1,8,0:0:0:0:
281,254,151474,1,0,0:0:0:0:
281,254,151614,1,0,0:0:0:0:
281,254,151753,1,8,0:0:0:0:
278,195,152032,1,4,0:0:0:0:
278,195,152312,1,8,0:0:0:0:
278,195,152381,1,8,0:0:0:0:
278,195,152451,1,8,0:0:0:0:
278,195,152591,1,0,0:0:0:0:
278,195,152730,1,8,0:0:0:0:
278,195,152870,1,0,0:0:0:0:
278,195,153149,1,8,0:0:0:0:
278,195,153218,1,8,0:0:0:0:
278,195,153288,1,8,0:0:0:0:
278,195,153428,1,0,0:0:0:0:
287,184,153567,1,0,0:0:0:0:
278,195,153707,1,8,0:0:0:0:
278,195,153777,1,8,0:0:0:0:
278,195,153846,1,8,0:0:0:0:
278,195,153986,1,0,0:0:0:0:
278,195,154265,1,0,0:0:0:0:
278,195,154544,1,8,0:0:0:0:
278,195,154823,1,0,0:0:0:0:
301,169,155032,1,0,0:0:0:0:
301,169,155102,1,8,0:0:0:0:
262,151,155242,1,0,0:0:0:0:
250,194,155381,1,12,0:0:0:0:
286,206,155660,1,0,0:0:0:0:
228,180,155800,1,12,0:0:0:0:
286,206,156079,1,0,0:0:0:0:
228,180,156218,1,12,0:0:0:0:
286,206,156498,1,0,0:0:0:0:
286,206,156637,1,0,0:0:0:0:
286,206,156777,1,8,0:0:0:0:
286,206,156916,1,0,0:0:0:0:
286,206,157056,1,8,0:0:0:0:
205,153,157195,1,8,0:0:0:0:
286,206,157335,1,0,0:0:0:0:
240,205,157474,1,0,0:0:0:0:
240,205,157614,1,8,0:0:0:0:
286,206,157753,1,0,0:0:0:0:
286,206,157893,1,8,0:0:0:0:
286,206,158032,1,8,0:0:0:0:
272,156,158172,1,0,0:0:0:0:
272,156,158312,1,8,0:0:0:0:
221,181,158451,1,0,0:0:0:0:
221,181,158591,1,0,0:0:0:0:
220,188,158730,1,8,0:0:0:0:
220,188,158870,1,0,0:0:0:0:
220,188,159009,1,8,0:0:0:0:
220,188,159149,1,8,0:0:0:0:
220,188,159288,1,0,0:0:0:0:
220,188,159428,1,0,0:0:0:0:
220,188,159567,1,8,0:0:0:0:
220,188,159707,1,8,0:0:0:0:
207,179,159846,2,0,L|295:166,4,70
248,186,160963,1,4,0:0:0:0:
248,186,161242,1,8,0:0:0:0:
248,186,161381,1,8,0:0:0:0:
248,186,161521,1,0,0:0:0:0:
248,186,161660,1,8,0:0:0:0:
248,186,161800,1,0,0:0:0:0:
102,223,161939,1,8,0:0:0:0:
102,223,162079,1,0,0:0:0:0:
102,223,162218,1,8,0:0:0:0:
102,223,162358,1,0,0:0:0:0:
102,223,162498,1,8,0:0:0:0:
102,223,162637,1,8,0:0:0:0:
102,223,162777,1,8,0:0:0:0:
160,146,162916,1,0,0:0:0:0:
252,189,163056,1,8,0:0:0:0:
304,237,163195,1,0,0:0:0:0:
304,237,163381,1,0,0:0:0:0:
304,237,163567,1,8,0:0:0:0:
304,237,163753,1,8,0:0:0:0:
304,237,163939,1,0,0:0:0:0:
304,237,164125,1,8,0:0:0:0:
287,184,164312,1,0,0:0:0:0:
287,184,164381,1,0,0:0:0:0:
287,184,164451,1,0,0:0:0:0:
200,216,164591,1,12,0:0:0:0:
200,216,164870,1,0,0:0:0:0:
200,216,165009,1,12,0:0:0:0:
296,168,165428,1,0,0:0:0:0:
296,168,165707,1,8,0:0:0:0:
296,168,165986,1,0,0:0:0:0:
296,168,166125,1,0,0:0:0:0:
296,168,166265,1,8,0:0:0:0:
231,191,166544,1,0,0:0:0:0:
231,191,166823,1,8,0:0:0:0:
231,191,167102,1,0,0:0:0:0:
231,191,167312,1,8,0:0:0:0:
231,191,167521,1,8,0:0:0:0:
231,191,167660,1,0,0:0:0:0:
231,191,167870,1,8,0:0:0:0:
231,191,168079,1,0,0:0:0:0:
231,191,168218,1,0,0:0:0:0:
231,191,168428,1,8,0:0:0:0:
231,191,168637,1,8,0:0:0:0:
231,191,168777,1,0,0:0:0:0:
231,191,169056,1,8,0:0:0:0:
277,249,169335,5,0,0:0:0:0:
277,249,169405,1,0,0:0:0:0:
277,249,169474,1,0,0:0:0:0:
277,249,169614,1,8,0:0:0:0:
128,188,169893,1,0,0:0:0:0:
128,188,170032,1,0,0:0:0:0:
128,188,170172,1,8,0:0:0:0:
128,188,170312,1,0,0:0:0:0:
128,188,170451,1,8,0:0:0:0:
128,188,170591,1,8,0:0:0:0:
128,188,170730,1,0,0:0:0:0:
342,186,171009,1,8,0:0:0:0:
342,186,171149,1,0,0:0:0:0:
342,186,171288,1,0,0:0:0:0:
342,186,171428,1,8,0:0:0:0:
342,186,171567,1,0,0:0:0:0:
342,186,171707,1,0,0:0:0:0:
342,186,171846,1,0,0:0:0:0:
342,186,172125,1,0,0:0:0:0:
292,179,172195,1,0,0:0:0:0:
342,186,172265,1,0,0:0:0:0:
292,179,172405,1,8,0:0:0:0:
292,179,172684,1,0,0:0:0:0:
292,179,172753,1,0,0:0:0:0:
292,179,172823,1,0,0:0:0:0:
292,179,172963,1,8,0:0:0:0:
292,179,173102,1,0,0:0:0:0:
64,188,173242,1,8,0:0:0:0:
64,188,173381,1,0,0:0:0:0:
64,188,173521,1,8,0:0:0:0:
64,188,173660,1,8,0:0:0:0:
64,188,173800,1,0,0:0:0:0:
64,188,173939,1,8,0:0:0:0:
64,188,174079,1,0,0:0:0:0:
212,175,174358,1,4,0:0:0:0:
212,175,174637,1,8,0:0:0:0:
212,175,174707,1,8,0:0:0:0:
212,175,174777,1,8,0:0:0:0:
212,175,174916,1,0,0:0:0:0:
212,175,175056,1,0,0:0:0:0:
212,175,175195,1,8,0:0:0:0:
212,175,175474,1,0,0:0:0:0:
212,175,175544,1,0,0:0:0:0:
212,175,175614,1,0,0:0:0:0:
212,175,175753,1,8,0:0:0:0:
405,234,176032,1,0,0:0:0:0:
405,234,176102,1,0,0:0:0:0:
405,234,176172,1,0,0:0:0:0:
405,234,176312,1,8,0:0:0:0:
405,234,176451,1,0,0:0:0:0:
64,188,176591,5,8,0:0:0:0:
64,188,176660,1,8,0:0:0:0:
64,188,176730,1,8,0:0:0:0:
64,188,176870,1,0,0:0:0:0:
64,188,177149,1,8,0:0:0:0:
64,188,177218,1,8,0:0:0:0:
64,188,177288,1,8,0:0:0:0:
64,188,177428,1,0,0:0:0:0:
64,188,177707,1,0,0:0:0:0:
64,188,177777,1,0,0:0:0:0:
64,188,177846,1,0,0:0:0:0:
64,188,177986,1,8,0:0:0:0:
64,188,178265,1,8,0:0:0:0:
64,188,178335,1,8,0:0:0:0:
64,188,178544,1,0,0:0:0:0:
233,192,178823,5,12,0:0:0:0:
233,192,179102,1,8,0:0:0:0:
235,177,179242,1,0,0:0:0:0:
233,192,179381,1,8,0:0:0:0:
235,177,179521,1,0,0:0:0:0:
233,192,179660,1,8,0:0:0:0:
201,185,179800,1,0,0:0:0:0:
312,228,179939,1,8,0:0:0:0:
312,228,180009,1,8,0:0:0:0:
312,228,180079,1,8,0:0:0:0:
312,228,180218,1,0,0:0:0:0:
312,228,180288,1,0,0:0:0:0:
312,228,180358,1,0,0:0:0:0:
312,228,180498,1,8,0:0:0:0:
312,228,180637,1,0,0:0:0:0:
278,201,181056,1,0,0:0:0:0:
278,201,181195,1,0,0:0:0:0:
278,201,181335,1,8,0:0:0:0:
278,201,181474,1,0,0:0:0:0:
278,201,181614,1,8,0:0:0:0:
278,201,181753,1,0,0:0:0:0:
278,201,181893,1,8,0:0:0:0:
278,201,182032,1,8,0:0:0:0:
242,178,182172,1,0,0:0:0:0:
242,178,182312,1,8,0:0:0:0:
242,178,182451,1,8,0:0:0:0:
242,178,182591,1,8,0:0:0:0:
242,178,182730,1,8,0:0:0:0:
242,178,182870,1,8,0:0:0:0:
242,178,183009,1,8,0:0:0:0:
242,178,183149,1,8,0:0:0:0:
256,192,183288,5,4,0:0:0:0:
256,192,184405,1,4,0:0:0:0:
256,192,185521,1,12,0:0:0:0:
256,192,186637,1,4,0:0:0:0:
256,192,187753,1,12,0:0:0:0:
256,192,188870,1,4,0:0:0:0:
256,192,189986,1,12,0:0:0:0:
256,192,191102,1,4,0:0:0:0:
256,192,192219,5,12,0:0:0:0:
256,192,193335,5,4,0:0:0:0:
256,224,193614,1,0,0:0:0:0:
256,224,193753,1,8,0:0:0:0:
256,224,193893,1,0,0:0:0:0:
256,224,193963,1,0,0:0:0:0:
256,224,194033,1,0,0:0:0:0:
256,224,194172,1,8,0:0:0:0:
224,192,194451,1,8,0:0:0:0:
224,192,194522,1,8,0:0:0:0:
224,192,194591,1,8,0:0:0:0:
224,192,194730,1,0,0:0:0:0:
224,192,194870,1,8,0:0:0:0:
224,192,195009,1,0,0:0:0:0:
224,192,195079,1,0,0:0:0:0:
224,192,195149,1,0,0:0:0:0:
224,192,195288,1,8,0:0:0:0:
288,128,195567,1,8,0:0:0:0:
224,192,195707,1,0,0:0:0:0:
224,192,195777,1,0,0:0:0:0:
224,192,195846,1,0,0:0:0:0:
224,192,195986,1,8,0:0:0:0:
288,128,196126,1,0,0:0:0:0:
288,128,196195,1,0,0:0:0:0:
288,128,196265,1,0,0:0:0:0:
288,128,196405,1,8,0:0:0:0:
288,256,196684,1,8,0:0:0:0:
288,256,196823,1,0,0:0:0:0:
288,128,196963,1,0,0:0:0:0:
192,128,197102,1,8,0:0:0:0:
192,128,197242,1,0,0:0:0:0:
288,128,197312,1,0,0:0:0:0:
288,128,197382,1,0,0:0:0:0:
288,128,197521,1,8,0:0:0:0:
248,165,197800,1,4,0:0:0:0:
263,206,198358,1,8,0:0:0:0:
273,178,198637,1,0,0:0:0:0:
273,178,198777,1,0,0:0:0:0:
273,178,198916,1,8,0:0:0:0:
192,128,199195,1,0,0:0:0:0:
192,128,199335,1,8,0:0:0:0:
192,128,199474,1,0,0:0:0:0:
192,128,199544,1,0,0:0:0:0:
192,128,199614,1,0,0:0:0:0:
192,128,199753,1,8,0:0:0:0:
288,160,200033,1,8,0:0:0:0:
288,160,200102,1,8,0:0:0:0:
192,128,200172,1,8,0:0:0:0:
192,128,200312,1,0,0:0:0:0:
192,128,200451,1,8,0:0:0:0:
192,128,200591,1,0,0:0:0:0:
192,128,200660,1,0,0:0:0:0:
192,128,200730,1,0,0:0:0:0:
192,128,200870,1,8,0:0:0:0:
288,160,201149,1,0,0:0:0:0:
288,160,201219,1,0,0:0:0:0:
288,160,201288,1,0,0:0:0:0:
288,160,201428,1,0,0:0:0:0:
288,160,201567,1,8,0:0:0:0:
288,160,201707,1,0,0:0:0:0:
288,160,201776,1,0,0:0:0:0:
288,160,201846,1,0,0:0:0:0:
288,160,201986,1,8,0:0:0:0:
288,160,202265,1,0,0:0:0:0:
273,178,202823,1,8,0:0:0:0:
273,178,202893,1,8,0:0:0:0:
273,178,202963,1,8,0:0:0:0:
288,160,203102,1,0,0:0:0:0:
288,160,203381,1,12,0:0:0:0:
256,160,203660,1,0,0:0:0:0:
192,160,203800,1,8,0:0:0:0:
320,224,203939,1,0,0:0:0:0:
320,224,204009,1,0,0:0:0:0:
320,224,204079,1,0,0:0:0:0:
320,224,204219,1,8,0:0:0:0:
320,224,204498,1,8,0:0:0:0:
320,224,204567,1,8,0:0:0:0:
320,224,204637,1,8,0:0:0:0:
320,224,204777,1,0,0:0:0:0:
288,160,204916,1,8,0:0:0:0:
288,160,205056,1,0,0:0:0:0:
288,160,205195,1,0,0:0:0:0:
288,160,205335,1,8,0:0:0:0:
288,160,205614,1,8,0:0:0:0:
288,160,205753,1,0,0:0:0:0:
288,160,205823,1,0,0:0:0:0:
288,160,205893,1,0,0:0:0:0:
288,160,206033,1,8,0:0:0:0:
288,160,206172,1,0,0:0:0:0:
288,160,206311,1,0,0:0:0:0:
192,128,206451,1,8,0:0:0:0:
192,128,206730,1,8,0:0:0:0:
192,128,206800,1,8,0:0:0:0:
192,128,206870,1,8,0:0:0:0:
192,128,207009,1,0,0:0:0:0:
288,128,207149,1,0,0:0:0:0:
288,128,207288,1,8,0:0:0:0:
224,128,207567,1,8,0:0:0:0:
224,128,207707,1,8,0:0:0:0:
224,128,207846,1,0,0:0:0:0:
224,128,208126,1,0,0:0:0:0:
224,128,208266,1,8,0:0:0:0:
192,64,208405,1,0,0:0:0:0:
192,64,208474,1,0,0:0:0:0:
192,64,208544,1,0,0:0:0:0:
192,64,208684,1,8,0:0:0:0:
320,288,208963,1,4,0:0:0:0:
229,212,209242,1,8,0:0:0:0:
229,212,209312,1,8,0:0:0:0:
229,212,209381,1,8,0:0:0:0:
229,212,209521,1,0,0:0:0:0:
229,212,209591,1,0,0:0:0:0:
229,212,209660,1,0,0:0:0:0:
229,212,209730,1,0,0:0:0:0:
229,212,209800,1,0,0:0:0:0:
256,192,210079,1,4,0:0:0:0:
256,224,210358,1,0,0:0:0:0:
256,224,210497,1,8,0:0:0:0:
256,224,210637,1,0,0:0:0:0:
256,224,210707,1,0,0:0:0:0:
256,224,210777,1,0,0:0:0:0:
256,224,210916,1,8,0:0:0:0:
224,192,211195,1,8,0:0:0:0:
224,192,211266,1,8,0:0:0:0:
224,192,211335,1,8,0:0:0:0:
224,192,211474,1,0,0:0:0:0:
224,192,211614,1,8,0:0:0:0:
224,192,211753,1,0,0:0:0:0:
224,192,211823,1,0,0:0:0:0:
224,192,211893,1,0,0:0:0:0:
224,192,212032,1,8,0:0:0:0:
288,128,212311,1,8,0:0:0:0:
224,192,212451,1,0,0:0:0:0:
224,192,212521,1,0,0:0:0:0:
224,192,212590,1,0,0:0:0:0:
224,192,212730,1,8,0:0:0:0:
288,128,212870,1,0,0:0:0:0:
288,128,212939,1,0,0:0:0:0:
288,128,213009,1,0,0:0:0:0:
288,128,213149,1,8,0:0:0:0:
288,256,213428,1,8,0:0:0:0:
288,256,213567,1,0,0:0:0:0:
288,128,213707,1,0,0:0:0:0:
192,128,213846,1,8,0:0:0:0:
192,128,213986,1,0,0:0:0:0:
288,128,214056,1,0,0:0:0:0:
288,128,214126,1,0,0:0:0:0:
288,128,214265,1,8,0:0:0:0:
248,165,214544,1,4,0:0:0:0:
263,206,215102,1,8,0:0:0:0:
273,178,215381,1,0,0:0:0:0:
273,178,215521,1,0,0:0:0:0:
273,178,215660,1,8,0:0:0:0:
192,128,215939,1,0,0:0:0:0:
192,128,216079,1,8,0:0:0:0:
192,128,216218,1,0,0:0:0:0:
192,128,216288,1,0,0:0:0:0:
192,128,216358,1,0,0:0:0:0:
192,128,216497,1,8,0:0:0:0:
288,160,216777,1,8,0:0:0:0:
288,160,216846,1,8,0:0:0:0:
192,128,216916,1,8,0:0:0:0:
192,128,217056,1,0,0:0:0:0:
192,128,217195,1,8,0:0:0:0:
192,128,217335,1,0,0:0:0:0:
192,128,217404,1,0,0:0:0:0:
192,128,217474,1,0,0:0:0:0:
192,128,217614,1,8,0:0:0:0:
288,160,217893,1,0,0:0:0:0:
288,160,217963,1,0,0:0:0:0:
288,160,218032,1,0,0:0:0:0:
288,160,218172,1,0,0:0:0:0:
288,160,218311,1,8,0:0:0:0:
288,160,218451,1,0,0:0:0:0:
288,160,218520,1,0,0:0:0:0:
288,160,218590,1,0,0:0:0:0:
288,160,218730,1,8,0:0:0:0:
288,160,219009,1,0,0:0:0:0:
273,178,219567,1,8,0:0:0:0:
273,178,219637,1,8,0:0:0:0:
273,178,219707,1,8,0:0:0:0:
288,160,219846,1,0,0:0:0:0:
288,160,220125,1,12,0:0:0:0:
256,160,220404,1,0,0:0:0:0:
192,160,220544,1,8,0:0:0:0:
320,224,220683,1,0,0:0:0:0:
320,224,220753,1,0,0:0:0:0:
320,224,220823,1,0,0:0:0:0:
320,224,220963,1,8,0:0:0:0:
320,224,221242,1,8,0:0:0:0:
320,224,221311,1,8,0:0:0:0:
320,224,221381,1,8,0:0:0:0:
320,224,221521,1,0,0:0:0:0:
288,160,221660,1,8,0:0:0:0:
288,160,221800,1,0,0:0:0:0:
288,160,221939,1,0,0:0:0:0:
288,160,222079,1,8,0:0:0:0:
288,160,222358,1,8,0:0:0:0:
288,160,222497,1,0,0:0:0:0:
288,160,222567,1,0,0:0:0:0:
288,160,222637,1,0,0:0:0:0:
288,160,222777,1,8,0:0:0:0:
288,160,222916,1,0,0:0:0:0:
288,160,223055,1,0,0:0:0:0:
192,128,223195,1,8,0:0:0:0:
192,128,223474,1,8,0:0:0:0:
192,128,223544,1,8,0:0:0:0:
192,128,223614,1,8,0:0:0:0:
192,128,223753,1,0,0:0:0:0:
288,128,223893,1,0,0:0:0:0:
288,128,224032,1,8,0:0:0:0:
224,128,224311,1,8,0:0:0:0:
224,128,224451,1,8,0:0:0:0:
224,128,224590,1,4,0:0:0:0:
240,197,225009,1,8,0:0:0:0:
240,197,225428,1,8,0:0:0:0:
205,162,225707,1,4,0:0:0:0:
188,153,226265,1,8,0:0:0:0:
159,175,226823,5,4,0:0:0:0:
320,160,227102,1,0,0:0:0:0:
320,160,227241,1,8,0:0:0:0:
320,160,227381,1,0,0:0:0:0:
320,160,227451,1,0,0:0:0:0:
320,160,227520,1,0,0:0:0:0:
320,160,227660,1,8,0:0:0:0:
320,160,227939,1,0,0:0:0:0:
320,160,228079,1,8,0:0:0:0:
320,160,228358,1,0,0:0:0:0:
320,160,228497,1,8,0:0:0:0:
320,160,228776,1,0,0:0:0:0:
192,192,229055,1,8,0:0:0:0:
192,192,229334,1,0,0:0:0:0:
192,192,229474,1,8,0:0:0:0:
192,192,229613,1,0,0:0:0:0:
192,192,229683,1,0,0:0:0:0:
192,192,229753,1,0,0:0:0:0:
192,192,229892,1,8,0:0:0:0:
192,192,230172,1,0,0:0:0:0:
192,192,230311,1,8,0:0:0:0:
192,192,230730,1,8,0:0:0:0:
192,192,230869,1,0,0:0:0:0:
224,170,231009,1,8,0:0:0:0:
192,192,231288,1,12,0:0:0:0:
204,221,231567,1,0,0:0:0:0:
204,221,231706,1,8,0:0:0:0:
204,221,231846,1,0,0:0:0:0:
204,221,231916,1,0,0:0:0:0:
204,221,231986,1,0,0:0:0:0:
204,221,232125,1,8,0:0:0:0:
204,221,232404,1,0,0:0:0:0:
204,221,232544,1,8,0:0:0:0:
204,221,232823,1,0,0:0:0:0:
204,221,232962,1,8,0:0:0:0:
204,221,233102,1,0,0:0:0:0:
204,221,233241,1,8,0:0:0:0:
192,192,233521,1,8,0:0:0:0:
192,192,233800,1,0,0:0:0:0:
192,192,233940,1,8,0:0:0:0:
192,192,234079,1,0,0:0:0:0:
192,192,234149,1,0,0:0:0:0:
192,192,234219,1,0,0:0:0:0:
192,192,234358,1,8,0:0:0:0:
192,192,234638,1,0,0:0:0:0:
192,192,234777,1,8,0:0:0:0:
192,192,235196,1,8,0:0:0:0:
192,192,235335,1,0,0:0:0:0:
224,170,235475,1,8,0:0:0:0:
159,175,235753,5,4,0:0:0:0:
320,160,236032,1,0,0:0:0:0:
320,160,236171,1,8,0:0:0:0:
320,160,236311,1,0,0:0:0:0:
320,160,236381,1,0,0:0:0:0:
320,160,236450,1,0,0:0:0:0:
320,160,236590,1,8,0:0:0:0:
320,160,236869,5,0,0:0:0:0:
320,160,237009,1,8,0:0:0:0:
320,160,237288,1,0,0:0:0:0:
320,160,237427,1,8,0:0:0:0:
320,160,237706,1,0,0:0:0:0:
313,173,237986,5,0,0:0:0:0:
313,173,238125,1,0,0:0:0:0:
313,173,238265,1,8,0:0:0:0:
313,173,238405,1,0,0:0:0:0:
190,167,238474,1,0,0:0:0:0:
105,152,238544,1,0,0:0:0:0:
313,173,238684,1,8,0:0:0:0:
197,165,238823,1,0,0:0:0:0:
248,186,238963,1,0,0:0:0:0:
193,135,239102,1,12,0:0:0:0:
252,195,239939,1,8,0:0:0:0:
228,184,240218,1,12,0:0:0:0:
228,184,240358,1,8,0:0:0:0:
228,184,240428,1,8,0:0:0:0:
228,184,240498,1,8,0:0:0:0:
228,184,240637,1,0,0:0:0:0:
359,242,240777,1,8,0:0:0:0:
359,242,240916,1,0,0:0:0:0:
359,242,241056,1,0,0:0:0:0:
359,242,241195,1,0,0:0:0:0:
226,183,241335,1,12,0:0:0:0:
226,183,241474,1,0,0:0:0:0:
226,183,241544,1,0,0:0:0:0:
226,183,241614,1,0,0:0:0:0:
226,183,241753,1,0,0:0:0:0:
226,183,241893,1,0,0:0:0:0:
226,183,241963,1,0,0:0:0:0:
226,183,242032,1,0,0:0:0:0:
226,183,242172,1,8,0:0:0:0:
226,183,242451,1,4,0:0:0:0:
226,183,242591,1,4,0:0:0:0:
