osu file format v14

[General]
AudioFilename: audio.mp3
AudioLeadIn: 0
PreviewTime: 46384
Countdown: 0
SampleSet: Soft
StackLeniency: 0.5
Mode: 0
LetterboxInBreaks: 0
WidescreenStoryboard: 1

[Editor]
DistanceSpacing: 1.3
BeatDivisor: 4
GridSize: 32
TimelineZoom: 1.9

[Metadata]
Title:Karakurenai
TitleUnicode:からくれなゐ
Artist:UNDEAD CORPORATION
ArtistUnicode:UNDEAD CORPORATION
Creator:Entry
Version:Zer0's Hard
Source:東方地霊殿 ~ Subterranean Animism.
Tags:touhou 東方project th11 yuugi hoshiguma 星熊 勇儀 toho complete box special 紅染の鬼が哭く ranko パイン pine tree パインツリー walking the streets of a former hell 旧地獄街道を行く comiket 85 c85 rock metal japanese video game zun mappers' guild featured artist fa eiri- ayyri zer0-
BeatmapID:2737099
BeatmapSetID:1232084

[Difficulty]
HPDrainRate:5
CircleSize:3.8
OverallDifficulty:7
ApproachRate:8
SliderMultiplier:1.4
SliderTickRate:1

[Events]
//Background and Video events
0,0,"yuugi.jpg",0,0
//Break Periods
2,151770,155055
//Storyboard Layer 0 (Background)
//Storyboard Layer 1 (Fail)
//Storyboard Layer 2 (Pass)
//Storyboard Layer 3 (Foreground)
//Storyboard Layer 4 (Overlay)
//Storyboard Sound Samples

[TimingPoints]
13218,352.941176470588,4,2,2,45,1,0
13218,-133.333333333333,4,2,2,45,0,0
13570,-133.333333333333,4,2,1,45,0,0
24512,-100,4,2,1,55,0,0
26629,-100,4,2,2,55,0,0
26982,-100,4,2,1,55,0,0
29453,-100,4,2,2,55,0,0
29806,-100,4,2,1,55,0,0
32276,-100,4,2,2,55,0,0
32629,-100,4,2,1,55,0,0
33335,-100,4,2,1,20,0,0
33423,-100,4,2,1,22,0,0
33512,-100,4,2,1,24,0,0
33600,-100,4,2,1,26,0,0
33688,-100,4,2,1,28,0,0
33776,-100,4,2,1,30,0,0
33865,-100,4,2,1,34,0,0
33953,-100,4,2,1,38,0,0
34041,-100,4,2,1,42,0,0
34129,-100,4,2,1,50,0,0
34394,-100,4,2,1,40,0,0
34482,-100,4,2,0,40,0,0
34659,-100,4,2,1,40,0,0
34923,-100,4,2,0,40,0,0
35100,-100,4,2,1,40,0,0
35188,-100,4,2,0,40,0,0
35453,-100,4,2,1,50,0,0
35806,-100,4,2,1,60,0,0
36865,-100,4,2,0,30,0,0
37041,-100,4,2,1,60,0,0
39688,-100,4,2,0,30,0,0
39865,-100,4,2,1,60,0,0
41453,-100,4,2,1,65,0,0
46570,-100,4,2,1,20,0,0
47100,-100,4,2,3,90,0,1
47276,-100,4,2,1,80,0,1
49923,-100,4,2,2,80,0,1
50100,-100,4,2,1,80,0,1
52747,-100,4,2,3,90,0,1
52923,-100,4,2,1,80,0,1
55570,-100,4,2,2,80,0,1
55747,-100,4,2,1,80,0,1
57776,-100,4,2,1,45,0,1
58394,-100,4,2,3,90,0,1
58570,-100,4,2,1,80,0,1
61217,-100,4,2,2,80,0,1
61394,-100,4,2,1,80,0,1
64041,-100,4,2,3,90,0,1
64217,-100,4,2,1,80,0,1
66865,-100,4,2,2,80,0,1
67041,-100,4,2,1,80,0,1
69688,-100,4,2,1,80,0,0
69776,-100,4,2,1,45,0,0
70394,-100,4,2,1,80,0,0
71100,-100,4,2,3,90,0,0
71276,-100,4,2,2,70,0,0
71806,-100,4,2,1,70,0,0
72159,-100,4,2,2,70,0,0
72512,-100,4,2,1,70,0,0
72688,-100,4,2,2,70,0,0
73217,-100,4,2,1,70,0,0
73570,-100,4,2,2,70,0,0
73923,-100,4,2,3,90,0,0
74100,-100,4,2,2,70,0,0
74629,-100,4,2,1,70,0,0
74982,-100,4,2,2,70,0,0
75335,-100,4,2,1,70,0,0
75512,-100,4,2,2,70,0,0
76041,-100,4,2,1,70,0,0
76394,-100,4,2,2,70,0,0
76747,-100,4,2,3,90,0,0
76923,-100,4,2,2,70,0,0
77453,-100,4,2,1,70,0,0
77806,-100,4,2,2,70,0,0
78159,-100,4,2,1,70,0,0
78335,-100,4,2,2,70,0,0
78865,-100,4,2,1,70,0,0
79217,-100,4,2,2,70,0,0
79570,-100,4,2,3,90,0,0
79747,-100,4,2,2,70,0,0
80276,-100,4,2,1,70,0,0
80365,-100,4,2,1,40,0,0
80806,-100,4,2,2,70,0,0
81688,-100,4,2,1,70,0,0
82394,-100,4,2,1,55,0,0
84512,-100,4,2,2,55,0,0
84865,-100,4,2,1,55,0,0
87335,-100,4,2,2,55,0,0
87688,-100,4,2,1,55,0,0
90159,-100,4,2,2,55,0,0
90512,-100,4,2,1,55,0,0
93159,-100,4,2,0,40,0,0
93335,-100,4,2,1,50,0,0
93688,-100,4,2,1,55,0,0
94747,-100,4,2,0,30,0,0
94923,-100,4,2,1,55,0,0
97570,-100,4,2,0,30,0,0
97747,-100,4,2,1,55,0,0
99335,-100,4,2,1,60,0,0
104629,-100,4,2,1,20,0,0
104982,-100,4,2,3,90,0,1
105159,-100,4,2,1,80,0,1
107806,-100,4,2,2,80,0,1
107982,-100,4,2,1,80,0,1
110629,-100,4,2,3,90,0,1
110806,-100,4,2,1,80,0,1
113453,-100,4,2,2,80,0,1
113629,-100,4,2,1,80,0,1
116276,-100,4,2,3,90,0,1
116453,-100,4,2,1,80,0,1
119100,-100,4,2,2,80,0,1
119276,-100,4,2,1,80,0,1
121923,-100,4,2,3,90,0,1
122100,-100,4,2,1,80,0,1
124747,-100,4,2,2,80,0,1
124923,-100,4,2,1,80,0,1
127570,-100,4,2,1,80,0,0
127659,-100,4,2,1,45,0,0
129335,-100,4,2,1,15,0,0
129688,-100,4,2,1,18,0,0
130041,-100,4,2,1,21,0,0
130394,-100,4,2,1,25,0,0
130747,-100,4,2,1,30,0,0
131100,-100,4,2,1,70,0,0
131276,-100,4,2,1,50,0,0
131806,-100,4,2,1,30,0,0
133570,-100,4,2,1,50,0,0
133923,-100,4,2,1,40,0,0
134629,-100,4,2,1,45,0,0
139041,-100,4,2,1,40,0,0
139923,-100,4,2,1,50,0,0
140276,-100,4,2,3,90,0,0
140453,-100,4,2,1,70,0,0
140629,-100,4,2,2,70,0,0
140806,-100,4,2,1,70,0,0
141335,-100,4,2,2,70,0,0
141688,-100,4,2,1,70,0,0
141865,-100,4,2,2,70,0,0
142394,-100,4,2,1,70,0,0
142747,-100,4,2,2,70,0,0
142923,-100,4,2,1,70,0,0
143100,-100,4,2,3,90,0,0
143276,-100,4,2,1,70,0,0
143453,-100,4,2,2,70,0,0
143629,-100,4,2,1,70,0,0
144159,-100,4,2,2,70,0,0
144512,-100,4,2,1,70,0,0
144688,-100,4,2,2,70,0,0
145217,-100,4,2,1,70,0,0
145570,-100,4,2,0,40,0,0
145747,-100,4,2,1,70,0,0
145923,-100,4,2,3,90,0,0
146100,-100,4,2,1,70,0,0
146276,-100,4,2,2,70,0,0
146453,-100,4,2,1,70,0,0
146982,-100,4,2,2,70,0,0
147335,-100,4,2,1,70,0,0
147512,-100,4,2,2,70,0,0
148041,-100,4,2,1,70,0,0
148394,-100,4,2,2,70,0,0
148570,-100,4,2,1,70,0,0
148747,-100,4,2,3,90,0,0
148923,-100,4,2,1,70,0,0
149100,-100,4,2,2,70,0,0
149276,-100,4,2,1,70,0,0
149541,-100,4,2,1,40,0,0
149982,-100,4,2,2,70,0,0
150865,-100,4,2,1,70,0,0
151570,-100,4,2,1,55,0,0
155806,-133.333333333333,4,2,1,45,0,0
161453,-133.333333333333,4,2,1,30,0,0
162159,-133.333333333333,4,2,1,20,0,0
162865,-100,4,2,3,90,0,1
163041,-100,4,2,1,80,0,1
165688,-100,4,2,2,80,0,1
165865,-100,4,2,1,80,0,1
168512,-100,4,2,3,90,0,1
168688,-100,4,2,1,80,0,1
171335,-100,4,2,2,80,0,1
171512,-100,4,2,1,80,0,1
174159,-100,4,2,3,90,0,1
174335,-100,4,2,1,80,0,1
176982,-100,4,2,2,80,0,1
177159,-100,4,2,1,80,0,1
179806,-100,4,2,3,90,0,1
179982,-100,4,2,1,80,0,1
182629,-100,4,2,2,80,0,1
182806,-100,4,2,1,80,0,1
186953,-100,4,2,1,60,0,1
187923,-100,4,2,1,80,0,0

[Colours]
Combo1 : 224,12,17
Combo2 : 255,177,100
Combo3 : 255,102,36
Combo4 : 171,54,119
Combo5 : 119,45,159
Combo6 : 232,47,98

[HitObjects]
169,159,13218,6,0,B|193:173|219:177|219:177|241:170|262:148,1,105.000004005432,8|0,3:0|3:0,0:0:0:0:
353,20,13923,2,0,B|377:6|403:2|403:2|425:9|446:30,1,105.000004005432,2|0,3:2|3:0,0:0:0:0:
508,174,14629,2,0,L|504:226,1,52.5000020027161,0|0,3:0|0:0,0:0:0:0:
451,284,14982,2,0,L|454:336,1,52.5000020027161,0|0,3:0|0:0,0:0:0:0:
384,366,15335,1,2,3:2:0:0:
384,366,15688,1,0,3:0:0:0:
287,241,16041,6,0,B|237:223|237:223|188:241,1,105.000004005432,0|0,3:0|3:0,0:0:0:0:
61,147,16747,2,0,B|109:165|109:165|159:147,1,105.000004005432,2|0,3:2|3:0,0:0:0:0:
306,89,17453,2,0,P|309:63|306:37,1,52.5000020027161,0|0,3:0|0:0,0:0:0:0:
227,38,17806,2,0,P|223:63|226:89,1,52.5000020027161,0|0,3:0|0:0,0:0:0:0:
271,161,18159,1,2,3:2:0:0:
271,161,18512,1,0,3:0:0:0:
408,84,18865,70,0,P|450:62|475:103,1,105.000004005432,0|0,3:0|3:0,0:0:0:0:
432,255,19570,2,0,P|389:276|364:235,1,105.000004005432,2|0,3:2|3:0,0:0:0:0:
206,235,20276,2,0,P|205:208|211:183,1,52.5000020027161,0|0,3:0|0:0,0:0:0:0:
170,115,20629,2,0,P|182:92|200:72,1,52.5000020027161,0|0,3:0|0:0,0:0:0:0:
236,4,20982,1,2,3:2:0:0:
236,4,21335,1,0,3:0:0:0:
393,8,21688,6,0,B|373:26|373:26|382:103,1,105.000004005432,0|0,3:0|3:0,0:0:0:0:
501,207,22394,2,0,B|521:225|521:225|511:302,1,105.000004005432,2|0,3:2|3:0,0:0:0:0:
460,362,22923,1,0,0:0:0:0:
384,345,23100,2,0,L|279:330,2,105.000004005432,0|0|2,3:0|3:0|3:2,0:0:0:0:
442,295,23982,1,0,1:0:0:0:
442,295,24070,1,0,1:0:0:0:
442,295,24159,1,0,3:0:0:0:
497,348,24335,1,0,1:0:0:0:
360,260,24512,70,0,P|354:226|357:192,1,70,4|0,1:0|3:0,0:0:0:0:
282,173,24865,2,0,P|288:138|285:104,1,70,0|0,1:0|3:0,0:0:0:0:
223,57,25217,2,0,P|189:57|154:63,1,70,2|0,1:2|3:0,0:0:0:0:
106,123,25570,2,0,P|71:122|36:116,1,70,2|0,1:3|0:0,0:0:0:0:
4,188,25923,5,2,1:3:0:0:
4,188,26100,1,0,3:0:0:0:
58,249,26276,1,0,1:0:0:0:
58,249,26453,1,0,3:0:0:0:
8,306,26629,2,0,P|1:341|11:374,1,70,8|8,1:3|3:0,0:0:0:0:
88,366,26982,2,0,L|158:377,1,70,2|0,1:3|0:0,0:0:0:0:
232,362,27335,70,0,B|219:330|219:330|238:299,1,70,0|0,1:0|3:0,0:0:0:0:
303,258,27688,2,0,B|315:226|315:226|296:195,1,70,0|0,1:0|3:0,0:0:0:0:
271,122,28041,2,0,P|287:90|286:56,1,70,2|0,1:2|3:0,0:0:0:0:
211,36,28394,2,0,P|195:67|196:101,1,70,0|0,1:0|3:0,0:0:0:0:
161,172,28747,5,2,1:3:0:0:
161,172,28923,1,0,3:0:0:0:
195,246,29100,1,2,1:3:0:0:
195,246,29276,1,0,3:0:0:0:
271,234,29453,2,0,L|260:303,1,70,8|8,1:3|3:0,0:0:0:0:
315,357,29806,2,0,L|384:367,1,70,2|0,1:3|3:0,0:0:0:0:
443,317,30159,70,0,P|448:282|459:249,1,70,4|0,1:0|3:0,0:0:0:0:
482,178,30512,1,0,1:0:0:0:
482,178,30688,1,8,3:0:0:0:
426,123,30865,2,0,P|393:113|361:99,1,70,2|0,1:2|3:0,0:0:0:0:
310,42,31217,1,4,3:0:0:0:
181,32,31570,5,4,3:0:0:0:
181,32,31747,1,0,3:0:0:0:
120,78,31923,1,4,1:3:0:0:
120,78,32100,1,0,3:0:0:0:
44,64,32276,2,0,P|59:95|64:129,1,70,8|8,1:3|3:0,0:0:0:0:
116,186,32629,2,0,P|100:217|95:251,1,70,4|0,1:2|3:0,0:0:0:0:
41,307,32982,70,0,P|105:282|170:304,1,140,4|8,1:2|1:2,0:0:0:0:
245,350,33512,1,8,0:0:0:0:
245,350,33600,1,8,0:0:0:0:
245,350,33688,2,0,L|252:313,3,35,10|8|8|8,1:2|0:0|0:0|0:0,0:0:0:0:
322,354,34041,2,0,L|329:317,3,35,8|8|8|8,1:2|0:0|0:0|0:0,0:0:0:0:
408,364,34394,5,8,3:2:0:0:
408,364,34482,1,4,3:0:0:0:
408,364,34570,2,0,L|415:327,4,35,4|4|4|0|4,3:0|3:0|3:0|0:0|3:0,0:0:0:0:
480,231,35276,1,4,3:0:0:0:
480,231,35365,1,4,3:0:0:0:
480,231,35453,2,0,P|452:187|454:135,1,105,12|0,3:2|0:0,0:0:0:0:
467,99,35806,69,0,1:0:0:0:
467,99,35982,1,0,0:0:0:0:
399,48,36159,2,0,P|364:52|332:65,1,70,0|0,1:0|0:0,0:0:0:0:
247,64,36512,2,0,L|267:202,1,140,10|2,0:0|3:0,0:0:0:0:
245,289,37041,1,0,1:0:0:0:
245,289,37217,6,0,L|158:281,1,70,0|0,0:0|1:0,0:0:0:0:
111,337,37570,2,0,L|24:329,1,70,0|0,1:0|0:0,0:0:0:0:
11,251,37923,2,0,B|1:182|1:182|34:120,1,140,10|0,0:0|1:0,0:0:0:0:
88,54,38453,1,8,0:0:0:0:
164,98,38629,69,0,1:0:0:0:
164,98,38806,1,0,0:0:0:0:
233,51,38982,2,0,P|267:53|301:64,1,70,0|0,1:0|0:0,0:0:0:0:
382,84,39335,2,0,P|317:80|303:143,1,140,10|2,0:0|3:0,0:0:0:0:
335,222,39865,1,0,1:0:0:0:
413,196,40041,6,0,P|446:183|479:190,1,70,0|0,0:0|1:0,0:0:0:0:
510,225,40306,1,0,1:0:0:0:
510,225,40394,1,0,1:0:0:0:
500,308,40570,1,0,0:0:0:0:
425,347,40747,2,0,P|390:348|357:361,1,70,14|0,0:0|1:0,0:0:0:0:
309,291,41100,2,0,P|274:289|241:276,1,70,8|0,0:0|1:0,0:0:0:0:
212,246,41365,1,0,1:0:0:0:
212,246,41453,22,0,L|208:176,1,70,8|0,0:0|1:0,0:0:0:0:
124,163,41806,2,0,L|128:233,1,70,8|0,0:0|1:0,0:0:0:0:
56,278,42159,1,8,0:0:0:0:
56,278,42335,1,0,1:0:0:0:
14,210,42512,1,8,0:0:0:0:
14,210,42688,1,0,1:0:0:0:
47,132,42865,70,0,L|35:62,1,70,8|0,0:0|1:0,0:0:0:0:
31,25,43129,1,0,1:0:0:0:
31,25,43217,2,0,P|65:15|99:21,1,70,8|0,0:0|1:0,0:0:0:0:
169,67,43570,2,0,P|203:73|236:63,1,70,8|0,0:0|1:0,0:0:0:0:
304,14,43923,2,0,P|337:4|371:10,1,70,8|0,0:0|1:0,0:0:0:0:
417,81,44276,5,12,0:0:0:0:
368,149,44453,1,0,1:0:0:0:
436,198,44629,1,8,0:0:0:0:
485,130,44806,1,0,1:0:0:0:
417,81,44982,2,0,P|382:85|350:100,1,70,8|0,0:0|1:0,0:0:0:0:
295,163,45335,2,0,P|260:158|228:143,1,70,8|0,0:0|1:0,0:0:0:0:
167,200,45688,2,0,L|190:343,1,140,8|0,0:0|1:0,0:0:0:0:
273,381,46217,1,4,1:3:0:0:
273,381,46306,1,0,1:0:0:0:
273,381,46394,1,12,0:0:0:0:
33,145,47100,6,0,P|67:141|100:129,1,70,4|0,3:0|1:0,0:0:0:0:
166,66,47453,1,8,0:0:0:0:
166,66,47629,1,0,1:0:0:0:
243,114,47806,2,0,L|232:183,1,70,8|2,0:0|1:3,0:0:0:0:
225,227,48070,1,0,1:0:0:0:
225,227,48159,1,8,3:2:0:0:
254,312,48335,1,0,1:0:0:0:
344,303,48512,6,0,P|378:308|408:325,1,70,8|0,0:0|1:0,0:0:0:0:
478,267,48865,2,0,P|465:234|464:199,1,70,8|0,0:0|1:0,0:0:0:0:
486,159,49129,1,0,1:0:0:0:
486,159,49217,2,0,B|479:99|479:99|469:84|469:84|462:22,1,140,8|8,0:0|0:0,0:0:0:0:
376,56,49747,1,2,1:3:0:0:
291,22,49923,70,0,B|228:21|229:81|166:75,1,140,12|8,0:0|3:2,0:0:0:0:
77,52,50453,1,0,1:0:0:0:
77,52,50541,1,2,1:3:0:0:
77,52,50629,2,0,L|88:128,1,70,8|0,0:0|1:0,0:0:0:0:
158,178,50982,2,0,L|147:254,1,70,8|0,0:0|1:0,0:0:0:0:
69,293,51335,6,0,P|87:322|118:338,1,70,8|2,3:2|1:3,0:0:0:0:
207,355,51688,2,0,P|241:356|272:340,1,70,8|2,3:2|1:3,0:0:0:0:
302,306,51953,1,0,1:0:0:0:
302,306,52041,2,0,P|353:307|412:381,1,140,8|8,0:0|3:2,0:0:0:0:
501,363,52570,1,0,1:0:0:0:
503,272,52747,70,0,P|502:238|491:204,1,70,4|0,3:0|1:0,0:0:0:0:
443,126,53100,1,8,0:0:0:0:
443,126,53276,1,2,1:3:0:0:
490,49,53453,1,8,3:2:0:0:
490,49,53629,1,2,1:3:0:0:
403,42,53806,1,8,3:2:0:0:
403,42,53982,1,2,1:3:0:0:
338,105,54159,6,0,P|303:111|269:103,1,70,8|0,0:0|1:0,0:0:0:0:
192,151,54512,2,0,P|157:145|123:153,1,70,8|0,0:0|1:0,0:0:0:0:
80,139,54776,1,0,1:0:0:0:
80,139,54865,2,0,L|100:284,1,140,8|8,0:0|0:0,0:0:0:0:
145,356,55394,1,2,1:3:0:0:
235,346,55570,70,0,P|269:346|302:358,1,70,12|2,0:0|1:3,0:0:0:0:
394,383,55923,1,8,3:2:0:0:
394,383,56100,1,0,1:0:0:0:
456,317,56276,2,0,P|461:282|459:247,1,70,8|0,0:0|1:0,0:0:0:0:
441,210,56541,1,0,1:0:0:0:
441,210,56629,1,8,0:0:0:0:
421,120,56806,1,0,1:0:0:0:
343,62,56982,6,0,P|309:59|275:51,1,70,8|2,3:2|1:3,0:0:0:0:
210,115,57335,2,0,P|175:117|141:125,1,70,8|2,3:2|1:3,0:0:0:0:
73,80,57689,1,8,0:0:0:0:
73,80,57777,1,0,1:0:0:0:
73,80,57865,2,0,L|76:40,5,35,2|0|2|0|2|0,1:3|1:0|1:3|1:0|1:3|1:0,0:0:0:0:
58,98,58394,70,0,P|55:132|64:166,1,70,4|0,3:0|1:0,0:0:0:0:
119,239,58747,1,8,0:0:0:0:
119,239,58923,1,0,1:0:0:0:
65,312,59100,2,0,P|99:315|130:330,1,70,8|2,0:0|1:3,0:0:0:0:
163,362,59365,1,0,1:0:0:0:
163,362,59453,1,8,3:2:0:0:
249,333,59629,1,0,1:0:0:0:
264,243,59806,6,0,P|270:208|260:175,1,70,8|0,0:0|1:0,0:0:0:0:
347,148,60159,2,0,P|358:115|383:91,1,70,8|0,0:0|1:0,0:0:0:0:
410,54,60423,1,0,1:0:0:0:
410,54,60512,2,0,P|321:52|261:17,1,140,8|8,0:0|0:0,0:0:0:0:
194,69,61041,1,2,1:3:0:0:
106,45,61217,70,0,P|157:90|165:158,1,140,12|8,0:0|3:2,0:0:0:0:
105,227,61747,1,0,1:0:0:0:
105,227,61835,1,0,3:0:0:0:
105,227,61923,2,0,P|134:245|168:249,1,70,8|0,0:0|1:0,0:0:0:0:
253,283,62276,2,0,P|282:264|316:260,1,70,8|0,0:0|1:0,0:0:0:0:
405,240,62629,6,0,P|409:275|397:308,1,70,8|2,3:2|1:3,0:0:0:0:
316,260,62982,2,0,P|312:225|324:192,1,70,8|2,3:2|1:3,0:0:0:0:
351,155,63247,1,0,1:0:0:0:
351,155,63335,2,0,L|336:15,1,140,8|8,0:0|3:2,0:0:0:0:
426,0,63865,1,2,1:3:0:0:
499,53,64041,70,0,P|499:87|490:121,1,70,4|0,3:0|1:0,0:0:0:0:
432,193,64394,1,8,0:0:0:0:
432,193,64570,1,2,1:3:0:0:
382,270,64747,1,8,3:2:0:0:
382,270,64923,1,2,1:3:0:0:
471,280,65100,2,0,P|478:314|464:346,1,70,8|0,3:2|1:0,0:0:0:0:
379,358,65453,6,0,L|309:354,1,70,8|0,0:0|1:0,0:0:0:0:
229,309,65806,2,0,L|159:312,1,70,8|0,0:0|1:0,0:0:0:0:
116,326,66070,1,0,1:0:0:0:
116,326,66159,2,0,P|83:265|100:199,1,140,8|8,0:0|0:0,0:0:0:0:
149,122,66688,1,2,1:3:0:0:
84,57,66865,70,0,P|49:58|16:71,1,70,12|2,0:0|1:3,0:0:0:0:
7,164,67217,1,8,3:2:0:0:
7,164,67394,1,0,1:0:0:0:
54,241,67570,2,0,P|88:239|121:226,1,70,8|0,0:0|1:0,0:0:0:0:
163,244,67835,1,0,1:0:0:0:
163,244,67923,1,8,0:0:0:0:
238,294,68100,1,0,1:0:0:0:
325,270,68276,6,0,L|337:201,1,70,8|2,3:2|1:3,0:0:0:0:
396,131,68629,2,0,L|383:62,1,70,8|2,3:2|1:3,0:0:0:0:
309,8,68982,2,0,P|368:38|425:2,1,140,8|8,0:0|3:2,0:0:0:0:
504,48,69512,1,0,1:0:0:0:
491,137,69688,70,0,L|495:183,6,35,8|0|0|0|0|0|0,3:2|1:0|1:0|1:0|1:0|1:0|1:0,0:0:0:0:
410,93,70394,1,8,0:0:0:0:
325,125,70570,1,8,0:0:0:0:
243,83,70747,1,8,0:0:0:0:
156,109,70923,1,8,0:0:0:0:
73,131,71100,54,0,P|69:97|83:65,2,70,4|0|4,3:0|1:0|3:0,0:0:0:0:
137,186,71629,2,0,P|140:220|127:252,2,70,0|10|0,1:0|0:0|1:0,0:0:0:0:
206,137,72159,1,8,3:0:0:0:
206,137,72335,1,8,3:0:0:0:
267,193,72512,2,0,P|302:195|334:209,1,70,2|4,1:2|3:0,0:0:0:0:
362,240,72776,1,4,3:0:0:0:
362,240,72865,1,4,3:0:0:0:
442,263,73041,1,8,3:0:0:0:
489,194,73217,2,0,L|493:123,1,70,10|0,0:0|1:0,0:0:0:0:
416,89,73570,2,0,L|412:18,1,70,4|8,3:0|0:0,0:0:0:0:
328,31,73923,6,0,P|293:30|262:47,2,70,4|0|4,3:0|1:0|3:0,0:0:0:0:
351,112,74453,2,0,P|320:128|285:128,2,70,0|10|0,1:0|0:0|1:0,0:0:0:0:
438,119,74982,1,8,3:0:0:0:
438,119,75159,1,8,3:0:0:0:
466,197,75335,70,0,P|461:231|469:265,1,70,2|4,1:2|3:0,0:0:0:0:
488,303,75600,1,4,3:0:0:0:
488,303,75688,1,4,3:0:0:0:
419,351,75865,1,8,3:0:0:0:
349,304,76041,2,0,B|317:288|317:288|284:298,1,70,10|0,0:0|1:0,0:0:0:0:
210,339,76394,2,0,B|177:349|177:349|145:333,1,70,4|0,3:0|1:0,0:0:0:0:
108,311,76659,1,0,1:0:0:0:
108,311,76747,6,0,B|109:251|109:251|121:232|121:232|124:171,1,140,4|4,3:0|3:0,0:0:0:0:
125,90,77276,1,0,1:0:0:0:
186,32,77453,2,0,P|217:46|252:50,1,70,10|0,0:0|1:0,0:0:0:0:
300,120,77806,2,0,P|331:105|366:101,1,70,8|8,3:0|3:0,0:0:0:0:
429,157,78159,70,0,P|425:191|411:223,1,70,2|4,1:2|3:0,0:0:0:0:
332,250,78512,2,0,P|303:229|282:201,1,70,4|8,3:0|3:0,0:0:0:0:
197,193,78865,2,0,P|130:198|91:254,1,140,10|4,0:0|3:0,0:0:0:0:
26,307,79394,1,8,0:0:0:0:
13,224,79570,6,0,L|4:148,2,70,4|8|4,3:0|0:0|3:0,0:0:0:0:
91,254,80100,2,0,L|82:330,2,70,0|10|4,1:0|0:0|0:3,0:0:0:0:
169,223,80629,2,0,B|236:209|236:273|299:257,1,140,4|4,0:0|1:2,0:0:0:0:
380,223,81159,1,4,3:0:0:0:
380,223,81247,1,4,3:0:0:0:
380,223,81335,1,4,3:0:0:0:
449,270,81512,1,8,3:0:0:0:
508,211,81688,2,0,P|518:177|511:143,1,70,10|0,0:0|1:0,0:0:0:0:
430,119,82041,2,0,P|423:85|432:51,1,70,0|8,1:0|0:0,0:0:0:0:
349,31,82394,38,0,P|283:50|214:41,1,140,4|0,1:0|1:0,0:0:0:0:
133,19,82923,1,0,3:0:0:0:
133,19,83100,2,0,L|147:164,1,140,0|2,1:0|1:3,0:0:0:0:
92,223,83629,1,0,0:0:0:0:
92,223,83806,2,0,P|125:234|151:256,1,70,2|0,1:3|3:0,0:0:0:0:
225,296,84159,2,0,P|258:284|284:262,1,70,0|0,1:0|3:0,0:0:0:0:
368,251,84512,1,8,1:3:0:0:
440,209,84688,1,8,3:0:0:0:
480,283,84865,1,2,1:3:0:0:
480,283,85217,6,0,L|490:143,1,140,0|0,1:0|1:0,0:0:0:0:
493,58,85747,1,0,3:0:0:0:
493,58,85923,2,0,P|423:57|357:34,1,140,2|0,1:2|1:0,0:0:0:0:
288,82,86453,1,0,3:0:0:0:
288,82,86629,2,0,L|218:92,1,70,2|0,1:3|3:0,0:0:0:0:
167,159,86982,2,0,L|97:169,1,70,2|0,1:3|3:0,0:0:0:0:
35,226,87335,2,0,P|60:249|94:254,1,70,8|8,1:3|3:0,0:0:0:0:
166,298,87688,2,0,P|191:274|225:269,1,70,2|0,1:3|3:0,0:0:0:0:
291,216,88041,70,0,P|267:248|307:337,1,140,4|0,1:0|1:0,0:0:0:0:
378,374,88570,1,8,3:0:0:0:
378,374,88747,2,0,P|432:334|494:359,1,140,2|4,1:2|3:0,0:0:0:0:
454,291,89276,1,0,0:0:0:0:
454,291,89453,2,0,P|443:258|444:224,1,70,4|0,3:0|3:0,0:0:0:0:
383,164,89806,2,0,P|389:129|407:99,1,70,4|0,1:3|3:0,0:0:0:0:
447,25,90159,1,8,1:3:0:0:
364,9,90335,1,8,3:0:0:0:
294,56,90512,1,4,1:2:0:0:
294,56,90865,6,0,B|226:60|227:7|160:13,1,140,4|0,1:2|1:0,0:0:0:0:
94,60,91394,1,0,3:0:0:0:
94,60,91570,2,0,L|110:202,1,140,2|0,1:2|1:0,0:0:0:0:
69,273,92100,1,0,3:0:0:0:
135,323,92276,70,0,B|205:364|266:320|266:320|336:275|397:317,1,280,2|2,1:3|1:3,0:0:0:0:
483,356,93159,1,4,3:0:0:0:
483,356,93247,1,4,3:0:0:0:
483,356,93335,2,0,L|489:286,1,70,12|0,3:2|0:0,0:0:0:0:
500,206,93688,5,0,1:0:0:0:
500,206,93864,1,0,0:0:0:0:
420,232,94041,2,0,P|385:228|353:215,1,70,0|0,1:0|0:0,0:0:0:0:
275,181,94394,2,0,P|272:112|255:44,1,140,10|2,0:0|3:0,0:0:0:0:
175,16,94923,1,0,1:0:0:0:
101,56,95099,70,0,L|85:125,1,70,0|0,0:0|1:0,0:0:0:0:
53,153,95365,1,0,1:0:0:0:
53,153,95453,2,0,L|69:222,1,70,0|0,1:0|0:0,0:0:0:0:
2,274,95806,2,0,P|69:263|117:310,1,140,10|0,0:0|1:0,0:0:0:0:
182,362,96335,1,8,0:0:0:0:
266,342,96511,5,0,1:0:0:0:
266,342,96688,1,0,0:0:0:0:
348,359,96865,2,0,P|363:329|368:294,1,70,0|0,1:0|0:0,0:0:0:0:
432,241,97217,2,0,P|364:256|298:235,1,140,10|2,0:0|3:0,0:0:0:0:
227,189,97747,1,0,1:0:0:0:
159,238,97923,2,0,P|141:173|181:118,1,140,0|0,0:0|1:0,0:0:0:0:
181,117,98629,2,0,P|146:118|113:131,1,70,14|0,0:0|1:0,0:0:0:0:
89,49,98982,2,0,P|54:48|21:35,1,70,8|0,0:0|1:0,0:0:0:0:
10,78,99247,1,0,1:0:0:0:
10,78,99335,6,0,L|6:148,1,70,8|0,0:0|1:0,0:0:0:0:
70,201,99688,2,0,L|74:271,1,70,8|0,0:0|1:0,0:0:0:0:
115,350,100041,1,8,0:0:0:0:
115,350,100217,1,0,1:0:0:0:
201,369,100394,1,8,0:0:0:0:
201,369,100570,1,0,1:0:0:0:
267,317,100747,6,0,P|301:319|335:328,1,70,8|0,0:0|1:0,0:0:0:0:
381,335,101012,1,0,1:0:0:0:
381,335,101100,2,0,P|391:301|389:267,1,70,8|0,0:0|1:0,0:0:0:0:
422,190,101453,2,0,P|398:164|367:148,1,70,8|0,0:0|1:0,0:0:0:0:
316,81,101806,2,0,P|282:88|253:107,1,70,8|0,0:0|1:0,0:0:0:0:
190,164,102159,69,12,0:0:0:0:
107,149,102335,1,0,1:0:0:0:
97,232,102512,1,8,0:0:0:0:
179,247,102688,1,0,1:0:0:0:
190,163,102865,2,0,P|188:129|176:96,1,70,8|0,0:0|1:0,0:0:0:0:
258,78,103217,2,0,P|259:43|271:10,1,70,8|0,0:0|1:0,0:0:0:0:
347,47,103570,2,0,P|418:25|481:60,1,140,8|0,0:0|1:0,0:0:0:0:
510,138,104099,1,4,1:3:0:0:
510,138,104188,1,0,1:0:0:0:
510,138,104276,1,12,0:0:0:0:
242,340,104982,22,0,L|237:270,1,70,4|0,3:0|1:0,0:0:0:0:
230,183,105335,1,8,0:0:0:0:
230,183,105512,1,0,1:0:0:0:
153,231,105688,2,0,P|119:238|84:235,1,70,8|2,0:0|1:3,0:0:0:0:
45,221,105953,1,0,1:0:0:0:
45,221,106041,1,8,3:2:0:0:
9,137,106217,1,0,1:0:0:0:
78,77,106394,6,0,P|111:86|146:90,1,70,8|0,0:0|1:0,0:0:0:0:
221,141,106747,2,0,P|254:131|289:127,1,70,8|0,0:0|1:0,0:0:0:0:
334,111,107012,1,0,1:0:0:0:
334,111,107100,2,0,B|321:168|321:168|328:186|328:186|317:250,1,140,8|8,0:0|0:0,0:0:0:0:
332,337,107629,1,2,1:3:0:0:
242,354,107806,70,0,B|177:358|178:298|112:300,1,140,12|8,0:0|3:2,0:0:0:0:
27,315,108335,1,0,1:0:0:0:
27,315,108512,2,0,L|35:245,1,70,8|0,0:0|1:0,0:0:0:0:
89,172,108865,2,0,L|80:102,1,70,8|0,0:0|1:0,0:0:0:0:
80,11,109217,6,0,P|114:14|143:33,1,70,8|2,3:2|1:3,0:0:0:0:
192,45,109482,1,0,1:0:0:0:
192,45,109570,2,0,P|206:76|203:111,1,70,8|2,3:2|1:3,0:0:0:0:
266,176,109923,2,0,L|405:165,1,140,8|8,0:0|0:0,0:0:0:0:
443,82,110453,1,0,1:0:0:0:
408,0,110629,70,0,P|378:17|362:48,1,70,4|0,3:0|1:0,0:0:0:0:
300,115,110982,1,8,0:0:0:0:
300,115,111159,1,2,1:3:0:0:
356,192,111335,1,8,3:2:0:0:
356,192,111512,1,2,1:3:0:0:
303,267,111688,1,8,3:2:0:0:
303,267,111865,1,2,1:3:0:0:
350,344,112041,6,0,P|315:346|285:363,1,70,8|0,0:0|1:0,0:0:0:0:
210,311,112394,2,0,P|175:308|145:291,1,70,8|0,0:0|1:0,0:0:0:0:
108,315,112659,1,0,1:0:0:0:
108,315,112747,2,0,L|119:173,1,140,8|8,0:0|0:0,0:0:0:0:
173,102,113276,1,2,1:3:0:0:
247,154,113453,70,0,P|279:167|314:166,1,70,12|2,0:0|1:3,0:0:0:0:
403,147,113806,1,8,3:2:0:0:
403,147,113982,1,0,1:0:0:0:
457,220,114159,2,0,L|458:289,1,70,8|0,0:0|1:0,0:0:0:0:
464,339,114423,1,0,1:0:0:0:
464,339,114512,1,8,0:0:0:0:
374,321,114688,1,0,1:0:0:0:
293,363,114865,6,0,P|258:366|225:354,2,70,8|2|8,3:2|1:3|3:2,0:0:0:0:
274,274,115394,1,2,1:3:0:0:
209,226,115570,1,12,0:0:0:0:
209,226,115659,1,0,1:0:0:0:
209,226,115747,1,2,1:3:0:0:
131,272,115923,2,0,P|130:292|127:306,2,35,12|0|0,3:2|1:0|1:0,0:0:0:0:
62,213,116276,70,0,P|54:180|55:145,1,70,4|0,3:0|1:0,0:0:0:0:
99,65,116629,1,8,0:0:0:0:
99,65,116806,1,0,1:0:0:0:
181,102,116982,2,0,P|215:100|248:87,1,70,8|2,0:0|1:3,0:0:0:0:
285,60,117247,1,0,1:0:0:0:
285,60,117335,1,8,3:2:0:0:
374,44,117512,1,0,1:0:0:0:
423,120,117688,6,0,P|425:154|411:186,1,70,8|0,0:0|1:0,0:0:0:0:
437,273,118041,2,0,P|421:304|393:324,1,70,8|0,0:0|1:0,0:0:0:0:
373,367,118306,1,0,1:0:0:0:
373,367,118394,2,0,P|307:344|238:352,1,140,8|8,0:0|0:0,0:0:0:0:
149,372,118923,1,2,1:3:0:0:
62,342,119100,70,0,P|103:288|171:281,1,140,12|8,0:0|3:2,0:0:0:0:
256,240,119629,1,0,1:0:0:0:
256,240,119806,2,0,P|266:206|265:172,1,70,8|0,0:0|1:0,0:0:0:0:
206,101,120159,2,0,P|205:66|215:33,1,70,8|0,0:0|1:0,0:0:0:0:
305,7,120512,6,0,L|371:28,1,70,8|2,3:2|1:3,0:0:0:0:
395,67,120776,1,0,1:0:0:0:
395,67,120865,2,0,L|461:88,1,70,8|2,3:2|1:3,0:0:0:0:
496,171,121217,2,0,P|467:233|480:301,1,140,8|8,0:0|3:2,0:0:0:0:
428,377,121747,1,2,1:3:0:0:
350,329,121923,70,0,L|281:341,1,70,4|0,3:0|1:0,0:0:0:0:
195,362,122276,1,8,0:0:0:0:
195,362,122453,1,2,1:3:0:0:
125,303,122629,1,8,3:2:0:0:
125,303,122806,1,2,1:3:0:0:
48,253,122982,2,0,P|64:222|93:202,1,70,8|0,3:2|1:0,0:0:0:0:
118,124,123335,6,0,P|153:123|184:138,1,70,8|0,0:0|1:0,0:0:0:0:
244,207,123688,2,0,P|278:207|310:192,1,70,8|0,0:0|1:0,0:0:0:0:
353,208,123953,1,0,1:0:0:0:
353,208,124041,2,0,B|361:143|361:143|371:129|371:129|380:59,1,140,8|8,0:0|0:0,0:0:0:0:
312,8,124570,1,2,1:3:0:0:
238,61,124747,70,0,L|170:42,1,70,12|2,0:0|1:3,0:0:0:0:
82,66,125100,1,8,3:2:0:0:
82,66,125276,1,0,1:0:0:0:
47,150,125453,2,0,P|60:182|65:216,1,70,8|0,0:0|1:0,0:0:0:0:
60,261,125717,1,0,1:0:0:0:
60,261,125806,1,8,0:0:0:0:
102,341,125982,1,0,1:0:0:0:
187,310,126159,6,0,L|328:339,1,140,8|8,3:2|3:2,0:0:0:0:
413,356,126688,1,2,1:3:0:0:
478,291,126865,2,0,P|503:227|480:162,1,140,8|8,0:0|3:2,0:0:0:0:
415,97,127394,1,0,1:0:0:0:
340,149,127570,5,8,3:2:0:0:
340,149,127659,1,0,1:0:0:0:
340,149,127747,2,0,L|305:144,2,35,0|0|4,1:0|1:0|0:3,0:0:0:0:
478,291,128276,1,4,0:3:0:0:
391,342,128453,1,0,1:0:0:0:
391,342,128541,1,0,1:0:0:0:
391,342,128629,2,0,L|317:330,1,70,0|0,1:0|1:0,0:0:0:0:
263,261,128982,1,4,1:2:0:0:
66,120,131100,69,8,0:0:0:0:
138,180,131276,1,0,1:0:0:0:
138,180,131365,1,0,1:0:0:0:
138,180,131453,2,0,L|137:218,3,35,0|0|0|0,1:0|1:0|1:0|1:0,0:0:0:0:
119,252,131806,6,0,P|94:277|60:286,2,70,4|0|0,1:2|0:0|0:0,0:0:0:0:
193,293,132335,2,0,P|183:326|159:351,2,70,0|4|0,0:0|0:0|0:0,0:0:0:0:
276,269,132865,1,0,0:0:0:0:
276,269,133041,1,0,0:0:0:0:
340,322,133217,6,0,P|401:289|468:301,1,140,4|8,0:0|0:0,0:0:0:0:
500,222,133747,1,4,0:3:0:0:
427,175,133923,2,0,P|422:140|431:106,1,70,0|0,1:0|1:0,0:0:0:0:
456,29,134276,1,0,1:0:0:0:
456,29,134453,1,0,1:0:0:0:
373,44,134629,70,0,B|303:50|301:1|240:10,1,140,4|0,1:2|1:0,0:0:0:0:
158,30,135159,1,0,0:0:0:0:
158,30,135335,2,0,L|179:186,1,140,12|0,0:0|1:0,0:0:0:0:
119,230,135865,1,4,0:3:0:0:
119,230,135953,1,4,0:3:0:0:
119,230,136041,6,0,B|85:219|85:219|51:227,1,70,4|0,1:2|1:0,0:0:0:0:
8,299,136394,2,0,B|15:333|15:333|39:358,1,70,0|0,0:0|1:0,0:0:0:0:
123,360,136747,2,0,B|149:336|149:336|159:303,1,70,12|0,0:0|0:0,0:0:0:0:
234,265,137100,1,0,0:0:0:0:
317,307,137276,1,4,0:3:0:0:
317,307,137365,1,4,0:3:0:0:
317,307,137453,70,0,L|461:290,1,140,4|0,1:2|1:0,0:0:0:0:
496,216,137982,1,0,0:0:0:0:
431,162,138159,2,0,L|439:92,2,70,12|0|0,0:0|0:0|0:0,0:0:0:0:
352,193,138688,1,0,0:0:0:0:
285,141,138865,6,0,B|185:140|188:235|99:220,1,210,4|0,0:0|1:0,0:0:0:0:
61,228,139482,1,0,1:0:0:0:
61,228,139570,1,4,0:3:0:0:
12,159,139747,1,4,0:3:0:0:
43,81,139923,1,8,0:0:0:0:
178,26,140276,6,0,P|211:36|245:31,1,70,4|2,3:0|1:3,0:0:0:0:
327,3,140629,1,4,3:0:0:0:
327,3,140806,1,2,1:3:0:0:
386,62,140982,2,0,L|371:130,1,70,10|2,0:0|1:3,0:0:0:0:
345,210,141335,1,8,3:0:0:0:
345,210,141512,1,8,3:0:0:0:
267,241,141688,6,0,P|234:229|200:234,1,70,2|4,1:2|3:0,0:0:0:0:
164,257,141953,1,4,3:0:0:0:
164,257,142041,1,4,3:0:0:0:
85,285,142217,1,8,3:0:0:0:
31,220,142394,2,0,L|39:150,1,70,10|2,3:2|1:3,0:0:0:0:
40,74,142747,1,4,3:0:0:0:
40,74,142835,1,4,3:0:0:0:
40,74,142923,1,8,3:2:0:0:
117,40,143100,70,0,L|186:50,1,70,4|2,3:0|1:3,0:0:0:0:
270,28,143453,1,4,3:0:0:0:
270,28,143629,1,2,1:3:0:0:
319,95,143806,2,0,P|304:126|298:161,1,70,10|2,0:0|1:3,0:0:0:0:
318,242,144159,1,8,3:0:0:0:
318,242,144335,1,8,3:0:0:0:
378,300,144512,6,0,L|453:291,1,70,2|4,1:2|3:0,0:0:0:0:
491,284,144776,1,4,3:0:0:0:
491,284,144865,1,4,3:0:0:0:
507,201,145041,1,8,3:0:0:0:
445,143,145217,2,0,P|432:80|368:84,1,140,10|2,0:0|3:0,0:0:0:0:
297,123,145747,1,0,1:0:0:0:
297,123,145835,1,0,1:0:0:0:
297,123,145923,70,0,P|262:129|229:119,1,70,4|2,3:0|1:3,0:0:0:0:
153,81,146276,1,4,3:0:0:0:
153,81,146453,1,2,1:3:0:0:
85,130,146629,2,0,L|94:199,1,70,10|2,0:0|1:3,0:0:0:0:
58,277,146982,1,8,3:0:0:0:
58,277,147159,1,8,3:0:0:0:
117,335,147335,6,0,P|150:326|185:333,1,70,2|4,1:2|3:0,0:0:0:0:
219,358,147600,1,4,3:0:0:0:
219,358,147688,1,4,3:0:0:0:
295,322,147865,1,8,3:0:0:0:
370,356,148041,2,0,P|386:325|389:290,1,70,10|2,0:0|1:3,0:0:0:0:
355,213,148394,1,4,3:0:0:0:
355,213,148482,1,4,3:0:0:0:
355,213,148570,1,8,3:2:0:0:
405,145,148747,70,0,P|439:144|472:155,1,70,4|2,3:0|1:3,0:0:0:0:
508,79,149100,1,4,3:0:0:0:
508,79,149276,1,2,1:3:0:0:
449,18,149453,2,0,P|415:29|381:28,1,70,10|4,0:0|3:0,0:0:0:0:
341,15,149717,1,4,0:3:0:0:
341,15,149806,2,0,L|330:87,1,70,4|0,0:0|1:0,0:0:0:0:
262,134,150159,6,0,B|164:136|162:39|72:44,1,210,4|8,1:2|3:0,0:0:0:0:
84,128,150865,2,0,B|182:130|184:33|273:38,1,210,10|8,0:0|0:0,0:0:0:0:
333,87,151570,1,4,1:0:0:0:
333,87,155805,37,0,3:0:0:0:
337,82,155893,1,0,3:0:0:0:
341,77,155981,1,0,3:0:0:0:
345,72,156070,1,0,3:0:0:0:
349,67,156158,1,0,3:0:0:0:
231,171,156512,1,0,3:0:0:0:
231,171,156688,1,0,3:0:0:0:
277,241,156865,1,0,3:0:0:0:
277,241,157041,1,0,3:0:0:0:
224,299,157217,6,0,L|171:305,1,52.5000020027161,4|0,3:0|3:0,0:0:0:0:
109,353,157570,2,0,L|56:346,1,52.5000020027161,0|0,0:0|3:0,0:0:0:0:
10,281,157923,2,0,P|18:257|16:231,1,52.5000020027161,0|0,0:0|3:0,0:0:0:0:
66,169,158276,2,0,P|57:144|59:118,1,52.5000020027161,0|0,3:0|0:0,0:0:0:0:
21,47,158629,70,0,P|71:39|117:63,2,105.000004005432,0|0|0,3:0|0:0|0:0,0:0:0:0:
21,47,159688,1,0,3:0:0:0:
21,47,159865,1,0,0:0:0:0:
97,27,160041,6,0,P|123:30|146:42,1,52.5000020027161,4|0,3:0|3:0,0:0:0:0:
198,101,160394,2,0,P|224:98|247:86,1,52.5000020027161,0|0,0:0|3:0,0:0:0:0:
316,48,160747,1,0,0:0:0:0:
316,48,160923,1,0,3:0:0:0:
388,90,161100,1,0,0:0:0:0:
388,90,161276,1,0,3:0:0:0:
455,49,161453,1,4,1:2:0:0:
43,241,162865,38,0,P|78:239|111:251,1,70,4|0,3:0|1:0,0:0:0:0:
173,317,163217,1,8,0:0:0:0:
173,317,163394,1,0,1:0:0:0:
255,280,163570,2,0,L|264:210,1,70,8|2,0:0|1:3,0:0:0:0:
286,170,163835,1,0,1:0:0:0:
286,170,163923,1,8,3:2:0:0:
256,83,164100,1,0,1:0:0:0:
331,33,164276,6,0,P|346:65|344:100,1,70,8|0,0:0|1:0,0:0:0:0:
424,144,164629,2,0,P|404:172|373:188,1,70,8|0,0:0|1:0,0:0:0:0:
346,226,164894,1,0,1:0:0:0:
346,226,164982,2,0,P|283:195|214:196,1,140,8|8,0:0|0:0,0:0:0:0:
133,240,165512,1,2,1:3:0:0:
72,172,165688,70,0,B|135:175|127:109|218:112,1,140,12|8,0:0|3:2,0:0:0:0:
272,65,166217,1,0,1:0:0:0:
272,65,166306,1,2,1:3:0:0:
272,65,166394,2,0,P|304:78|338:82,1,70,8|0,0:0|1:0,0:0:0:0:
393,155,166747,2,0,P|425:141|459:137,1,70,8|0,0:0|1:0,0:0:0:0:
504,217,167100,6,0,L|489:310,1,70,8|2,3:2|1:3,0:0:0:0:
465,323,167365,1,0,1:0:0:0:
465,323,167453,2,0,L|372:308,1,70,8|2,3:2|1:3,0:0:0:0:
321,258,167806,2,0,P|253:260|215:316,1,140,8|8,0:0|3:2,0:0:0:0:
132,353,168335,1,0,1:0:0:0:
57,300,168512,70,0,L|65:230,1,70,4|0,3:0|1:0,0:0:0:0:
107,149,168865,1,8,0:0:0:0:
107,149,169041,1,2,1:3:0:0:
56,73,169217,1,8,3:2:0:0:
56,73,169394,1,2,1:3:0:0:
129,20,169570,1,8,3:2:0:0:
129,20,169747,1,2,1:3:0:0:
199,77,169923,6,0,P|233:79|267:72,1,70,8|0,0:0|1:0,0:0:0:0:
314,150,170276,2,0,P|348:147|382:154,1,70,8|0,0:0|1:0,0:0:0:0:
426,139,170541,1,0,1:0:0:0:
426,139,170629,2,0,L|405:284,1,140,8|8,0:0|0:0,0:0:0:0:
431,365,171159,1,2,1:3:0:0:
342,346,171335,70,0,P|307:344|273:353,1,70,12|2,0:0|1:3,0:0:0:0:
183,367,171688,1,8,3:2:0:0:
183,367,171865,1,0,1:0:0:0:
110,312,172041,2,0,P|76:303|41:304,1,70,8|0,0:0|1:0,0:0:0:0:
5,285,172306,1,0,1:0:0:0:
5,285,172394,1,8,0:0:0:0:
48,205,172570,1,0,1:0:0:0:
4,124,172747,6,0,P|-3:89|2:54,2,70,8|2|8,3:2|1:3|3:2,0:0:0:0:
48,205,173276,1,2,1:3:0:0:
141,182,173453,1,12,0:0:0:0:
141,182,173541,1,0,1:0:0:0:
141,182,173629,1,2,1:3:0:0:
222,223,173806,2,0,P|222:240|227:257,2,35,12|0|0,3:2|1:0|1:0,0:0:0:0:
303,181,174159,70,0,P|309:147|308:112,1,70,4|0,3:0|1:0,0:0:0:0:
264,32,174512,1,8,0:0:0:0:
264,32,174688,1,0,1:0:0:0:
351,6,174865,2,0,L|419:17,1,70,8|2,0:0|1:3,0:0:0:0:
464,27,175129,1,0,1:0:0:0:
464,27,175217,1,8,3:2:0:0:
497,111,175394,1,0,1:0:0:0:
425,166,175570,6,0,P|416:199|424:233,1,70,8|0,0:0|1:0,0:0:0:0:
498,287,175923,2,0,P|505:320|497:354,1,70,8|0,0:0|1:0,0:0:0:0:
454,370,176188,1,0,1:0:0:0:
454,370,176276,2,0,B|401:367|401:367|384:351|384:351|320:344,1,140,8|8,0:0|0:0,0:0:0:0:
231,323,176806,1,2,1:3:0:0:
192,240,176982,70,0,P|185:205|282:170,1,140,12|8,0:0|3:2,0:0:0:0:
329,94,177512,1,0,1:0:0:0:
329,94,177600,1,0,3:0:0:0:
329,94,177688,2,0,P|308:67|298:34,1,70,8|0,0:0|1:0,0:0:0:0:
206,32,178041,2,0,P|196:65|174:92,1,70,8|0,0:0|1:0,0:0:0:0:
83,100,178394,6,0,L|74:169,1,70,8|2,3:2|1:3,0:0:0:0:
47,206,178659,1,0,1:0:0:0:
47,206,178747,2,0,L|55:275,1,70,8|2,3:2|1:3,0:0:0:0:
120,340,179100,2,0,P|182:311|250:323,1,140,8|8,0:0|3:2,0:0:0:0:
332,364,179629,1,2,1:3:0:0:
408,314,179806,70,0,P|419:280|420:246,1,70,4|0,3:0|1:0,0:0:0:0:
381,163,180159,1,8,0:0:0:0:
381,163,180335,1,2,1:3:0:0:
451,104,180512,1,8,3:2:0:0:
451,104,180688,1,2,1:3:0:0:
432,14,180865,2,0,P|399:1|365:7,1,70,8|0,3:2|1:0,0:0:0:0:
285,50,181217,6,0,B|250:54|250:54|219:38,1,70,8|0,0:0|1:0,0:0:0:0:
146,93,181570,2,0,B|111:89|111:89|80:104,1,70,8|0,0:0|1:0,0:0:0:0:
50,140,181835,1,0,1:0:0:0:
50,140,181923,2,0,L|66:279,1,140,8|8,0:0|0:0,0:0:0:0:
135,338,182453,1,2,1:3:0:0:
211,288,182629,70,0,P|245:292|278:305,1,70,12|2,0:0|1:3,0:0:0:0:
350,360,182982,1,8,3:2:0:0:
350,360,183159,1,0,1:0:0:0:
431,319,183335,2,0,L|434:245,1,70,8|0,0:0|1:0,0:0:0:0:
445,204,183600,1,0,1:0:0:0:
445,204,183688,1,8,0:0:0:0:
409,119,183865,1,0,1:0:0:0:
335,171,184041,6,0,P|301:180|266:175,1,70,8|2,3:2|1:3,0:0:0:0:
223,161,184306,1,0,1:0:0:0:
223,161,184394,1,8,3:2:0:0:
151,104,184570,1,2,1:3:0:0:
98,177,184747,2,0,P|69:240|93:304,1,140,8|8,0:0|3:2,0:0:0:0:
165,359,185276,1,0,1:0:0:0:
238,305,185453,70,0,L|251:224,1,70,12|2,3:2|1:3,0:0:0:0:
332,198,185806,1,12,3:2:0:0:
410,262,185982,1,2,1:3:0:0:
410,262,186070,1,0,3:0:0:0:
410,262,186159,1,12,3:2:0:0:
488,216,186335,1,2,1:3:0:0:
482,124,186512,2,0,P|449:135|414:134,1,70,12|0,3:2|1:0,0:0:0:0:
350,68,186865,5,8,3:2:0:0:
350,68,186953,1,0,1:0:0:0:
350,68,187041,2,0,L|355:29,4,35,2|0|2|0|2,1:3|1:0|1:3|1:0|1:3,0:0:0:0:
263,96,187570,1,2,1:3:0:0:
180,56,187747,1,2,1:3:0:0:
99,97,187923,1,12,3:2:0:0:
