osu file format v14

[General]
AudioFilename: audio.mp3
AudioLeadIn: 0
PreviewTime: 46384
Countdown: 0
SampleSet: Soft
StackLeniency: 0.5
Mode: 0
LetterboxInBreaks: 0
WidescreenStoryboard: 1

[Editor]
DistanceSpacing: 0.4
BeatDivisor: 4
GridSize: 8
TimelineZoom: 1.9

[Metadata]
Title:Karakurenai
TitleUnicode:からくれなゐ
Artist:UNDEAD CORPORATION
ArtistUnicode:UNDEAD CORPORATION
Creator:Entry
Version:Lunatic
Source:東方地霊殿 ~ Subterranean Animism.
Tags:touhou 東方project th11 yuugi hoshiguma 星熊 勇儀 toho complete box special 紅染の鬼が哭く ranko パイン pine tree パインツリー walking the streets of a former hell 旧地獄街道を行く comiket 85 c85 rock metal japanese video game zun mappers' guild featured artist fa eiri- ayyri zer0-
BeatmapID:2659696
BeatmapSetID:1232084

[Difficulty]
HPDrainRate:5.5
CircleSize:4
OverallDifficulty:7.7
ApproachRate:9
SliderMultiplier:1.8
SliderTickRate:1

[Events]
//Background and Video events
0,0,"yuugi.jpg",0,0
//Break Periods
2,151770,155206
//Storyboard Layer 0 (Background)
//Storyboard Layer 1 (Fail)
//Storyboard Layer 2 (Pass)
//Storyboard Layer 3 (Foreground)
//Storyboard Layer 4 (Overlay)
//Storyboard Sound Samples

[TimingPoints]
13218,352.941176470588,4,2,2,45,1,0
13218,-166.666666666667,4,2,2,45,0,0
13570,-166.666666666667,4,2,1,45,0,0
24512,-142.857142857143,4,2,1,55,0,0
26629,-142.857142857143,4,2,2,55,0,0
26982,-142.857142857143,4,2,1,55,0,0
29453,-142.857142857143,4,2,2,55,0,0
29806,-142.857142857143,4,2,1,55,0,0
32276,-142.857142857143,4,2,2,55,0,0
32629,-142.857142857143,4,2,1,55,0,0
33335,-142.857142857143,4,2,1,20,0,0
33423,-142.857142857143,4,2,1,22,0,0
33512,-142.857142857143,4,2,1,24,0,0
33600,-142.857142857143,4,2,1,26,0,0
33688,-142.857142857143,4,2,1,28,0,0
33776,-142.857142857143,4,2,1,30,0,0
33865,-142.857142857143,4,2,1,34,0,0
33953,-142.857142857143,4,2,1,38,0,0
34041,-142.857142857143,4,2,1,42,0,0
34129,-142.857142857143,4,2,1,50,0,0
34394,-142.857142857143,4,2,1,40,0,0
34482,-142.857142857143,4,2,0,40,0,0
34659,-142.857142857143,4,2,1,40,0,0
34923,-142.857142857143,4,2,0,40,0,0
35100,-142.857142857143,4,2,1,40,0,0
35188,-142.857142857143,4,2,0,40,0,0
35453,-142.857142857143,4,2,1,50,0,0
35806,-125,4,2,1,60,0,0
36865,-125,4,2,0,30,0,0
37041,-125,4,2,1,60,0,0
39688,-125,4,2,0,30,0,0
39865,-125,4,2,1,60,0,0
41453,-111.111111111111,4,2,1,65,0,0
43217,-90.9090909090908,4,2,1,65,0,0
43570,-111.111111111111,4,2,1,65,0,0
46570,-111.111111111111,4,2,1,20,0,0
47100,-90.9090909090908,4,2,3,90,0,1
47276,-90.9090909090908,4,2,1,80,0,1
48865,-100,4,2,1,80,0,1
49217,-111.111111111111,4,2,1,80,0,1
49570,-90.9090909090908,4,2,1,80,0,1
49923,-90.9090909090908,4,2,2,80,0,1
50100,-90.9090909090908,4,2,1,80,0,1
51688,-83.3333333333333,4,2,1,80,0,1
52041,-76.9230769230769,4,2,1,80,0,1
52394,-90.9090909090909,4,2,1,80,0,1
52747,-90.9090909090909,4,2,3,90,0,1
52923,-90.9090909090909,4,2,1,80,0,1
54512,-83.3333333333333,4,2,1,80,0,1
54865,-76.9230769230769,4,2,1,80,0,1
55217,-90.9090909090909,4,2,1,80,0,1
55570,-90.9090909090909,4,2,2,80,0,1
55747,-90.9090909090909,4,2,1,80,0,1
57688,-100,4,2,1,80,0,1
57776,-100,4,2,1,45,0,1
58394,-90.9090909090909,4,2,3,90,0,1
58570,-90.9090909090909,4,2,1,80,0,1
60159,-100,4,2,1,80,0,1
60512,-111.111111111111,4,2,1,80,0,1
60865,-90.9090909090908,4,2,1,80,0,1
61217,-90.9090909090908,4,2,2,80,0,1
61394,-90.9090909090908,4,2,1,80,0,1
62982,-83.3333333333333,4,2,1,80,0,1
63335,-76.9230769230769,4,2,1,80,0,1
63688,-90.9090909090909,4,2,1,80,0,1
64041,-90.9090909090909,4,2,3,90,0,1
64217,-90.9090909090909,4,2,1,80,0,1
65806,-83.3333333333333,4,2,1,80,0,1
66159,-76.9230769230769,4,2,1,80,0,1
66512,-90.9090909090909,4,2,1,80,0,1
66865,-90.9090909090909,4,2,2,80,0,1
67041,-90.9090909090909,4,2,1,80,0,1
69688,-100,4,2,1,80,0,0
69776,-100,4,2,1,45,0,0
70394,-100,4,2,1,80,0,0
71100,-100,4,2,3,90,0,0
71276,-100,4,2,2,70,0,0
71806,-100,4,2,1,70,0,0
72159,-100,4,2,2,70,0,0
72512,-100,4,2,1,70,0,0
72688,-100,4,2,2,70,0,0
73217,-100,4,2,1,70,0,0
73570,-100,4,2,2,70,0,0
73923,-100,4,2,3,90,0,0
74100,-100,4,2,2,70,0,0
74629,-100,4,2,1,70,0,0
74982,-100,4,2,2,70,0,0
75335,-100,4,2,1,70,0,0
75512,-100,4,2,2,70,0,0
76041,-100,4,2,1,70,0,0
76394,-100,4,2,2,70,0,0
76747,-100,4,2,3,90,0,0
76923,-100,4,2,2,70,0,0
77453,-100,4,2,1,70,0,0
77806,-100,4,2,2,70,0,0
78159,-100,4,2,1,70,0,0
78335,-100,4,2,2,70,0,0
78865,-100,4,2,1,70,0,0
79217,-100,4,2,2,70,0,0
79570,-100,4,2,3,90,0,0
79747,-100,4,2,2,70,0,0
80276,-100,4,2,1,70,0,0
80365,-100,4,2,1,40,0,0
80806,-100,4,2,2,70,0,0
81688,-100,4,2,1,70,0,0
82394,-142.857142857143,4,2,1,55,0,0
84512,-142.857142857143,4,2,2,55,0,0
84865,-142.857142857143,4,2,1,55,0,0
87335,-142.857142857143,4,2,2,55,0,0
87688,-142.857142857143,4,2,1,55,0,0
90159,-142.857142857143,4,2,2,55,0,0
90512,-142.857142857143,4,2,1,55,0,0
93159,-142.857142857143,4,2,0,40,0,0
93335,-142.857142857143,4,2,1,50,0,0
93688,-125,4,2,1,55,0,0
94747,-125,4,2,0,30,0,0
94923,-125,4,2,1,55,0,0
97570,-125,4,2,0,30,0,0
97747,-125,4,2,1,55,0,0
99335,-111.111111111111,4,2,1,60,0,0
101100,-90.9090909090908,4,2,1,60,0,0
101453,-111.111111111111,4,2,1,60,0,0
104629,-111.111111111111,4,2,1,20,0,0
104982,-90.9090909090908,4,2,3,90,0,1
105159,-90.9090909090908,4,2,1,80,0,1
106747,-100,4,2,1,80,0,1
107100,-111.111111111111,4,2,1,80,0,1
107453,-90.9090909090908,4,2,1,80,0,1
107806,-90.9090909090908,4,2,2,80,0,1
107982,-90.9090909090908,4,2,1,80,0,1
108070,-90.9090909090908,4,2,1,5,0,1
108159,-90.9090909090908,4,2,1,80,0,1
109570,-83.3333333333333,4,2,1,80,0,1
109923,-76.9230769230769,4,2,1,80,0,1
110276,-90.9090909090909,4,2,1,80,0,1
110629,-90.9090909090909,4,2,3,90,0,1
110806,-90.9090909090909,4,2,1,80,0,1
112394,-83.3333333333333,4,2,1,80,0,1
112747,-76.9230769230769,4,2,1,80,0,1
113100,-90.9090909090909,4,2,1,80,0,1
113453,-90.9090909090909,4,2,2,80,0,1
113629,-90.9090909090909,4,2,1,80,0,1
116276,-90.9090909090909,4,2,3,90,0,1
116453,-90.9090909090909,4,2,1,80,0,1
118041,-100,4,2,1,80,0,1
118394,-111.111111111111,4,2,1,80,0,1
118747,-90.9090909090909,4,2,1,80,0,1
119100,-90.9090909090909,4,2,2,80,0,1
119276,-90.9090909090909,4,2,1,80,0,1
119365,-90.9090909090909,4,2,1,5,0,1
119453,-90.9090909090909,4,2,1,80,0,1
120865,-83.3333333333333,4,2,1,80,0,1
121217,-76.9230769230769,4,2,1,80,0,1
121570,-90.9090909090909,4,2,1,80,0,1
121923,-90.9090909090909,4,2,3,90,0,1
122100,-90.9090909090909,4,2,1,80,0,1
123688,-83.3333333333333,4,2,1,80,0,1
124041,-76.9230769230769,4,2,1,80,0,1
124394,-90.9090909090909,4,2,1,80,0,1
124747,-90.9090909090909,4,2,2,80,0,1
124923,-90.9090909090909,4,2,1,80,0,1
125012,-90.9090909090909,4,2,1,5,0,1
125100,-90.9090909090909,4,2,1,80,0,1
127570,-100,4,2,1,80,0,0
127659,-100,4,2,1,45,0,0
129335,-500,4,2,1,15,0,0
129688,-500,4,2,1,18,0,0
130041,-500,4,2,1,21,0,0
130394,-500,4,2,1,25,0,0
130747,-500,4,2,1,30,0,0
130923,-111.111111111111,4,2,1,30,0,0
131100,-111.111111111111,4,2,1,70,0,0
131276,-111.111111111111,4,2,1,50,0,0
131806,-111.111111111111,4,2,1,30,0,0
132512,-200,4,2,1,30,0,0
133570,-200,4,2,1,50,0,0
133923,-200,4,2,1,40,0,0
134629,-166.666666666667,4,2,1,45,0,0
139041,-166.666666666667,4,2,1,40,0,0
139923,-166.666666666667,4,2,1,50,0,0
140276,-100,4,2,3,90,0,0
140453,-100,4,2,1,70,0,0
140629,-100,4,2,2,70,0,0
140806,-100,4,2,1,70,0,0
141335,-100,4,2,2,70,0,0
141688,-100,4,2,1,70,0,0
141865,-100,4,2,2,70,0,0
142394,-100,4,2,1,70,0,0
142747,-100,4,2,2,70,0,0
142923,-100,4,2,1,70,0,0
143100,-100,4,2,3,90,0,0
143276,-100,4,2,1,70,0,0
143453,-100,4,2,2,70,0,0
143629,-100,4,2,1,70,0,0
144159,-100,4,2,2,70,0,0
144512,-100,4,2,1,70,0,0
144688,-100,4,2,2,70,0,0
145217,-100,4,2,1,70,0,0
145570,-100,4,2,0,40,0,0
145747,-100,4,2,1,70,0,0
145923,-100,4,2,3,90,0,0
146100,-100,4,2,1,70,0,0
146276,-100,4,2,2,70,0,0
146453,-100,4,2,1,70,0,0
146982,-100,4,2,2,70,0,0
147335,-100,4,2,1,70,0,0
147512,-100,4,2,2,70,0,0
148041,-100,4,2,1,70,0,0
148394,-100,4,2,2,70,0,0
148570,-100,4,2,1,70,0,0
148747,-100,4,2,3,90,0,0
148923,-100,4,2,1,70,0,0
149100,-100,4,2,2,70,0,0
149276,-100,4,2,1,70,0,0
149541,-100,4,2,1,40,0,0
149982,-100,4,2,2,70,0,0
150865,-100,4,2,1,70,0,0
151570,-100,4,2,1,55,0,0
155806,-100,4,2,1,45,0,0
156512,-142.857142857143,4,2,1,45,0,0
161453,-142.857142857143,4,2,1,30,0,0
162159,-142.857142857143,4,2,1,20,0,0
162865,-90.9090909090908,4,2,3,90,0,1
163041,-90.9090909090908,4,2,1,80,0,1
164629,-100,4,2,1,80,0,1
164982,-111.111111111111,4,2,1,80,0,1
165335,-90.9090909090909,4,2,1,80,0,1
165688,-90.9090909090909,4,2,2,80,0,1
165865,-90.9090909090909,4,2,1,80,0,1
167453,-83.3333333333333,4,2,1,80,0,1
167806,-76.9230769230769,4,2,1,80,0,1
168159,-90.9090909090909,4,2,1,80,0,1
168512,-90.9090909090909,4,2,3,90,0,1
168688,-90.9090909090909,4,2,1,80,0,1
170276,-83.3333333333333,4,2,1,80,0,1
170629,-76.9230769230769,4,2,1,80,0,1
170982,-90.9090909090909,4,2,1,80,0,1
171335,-90.9090909090909,4,2,2,80,0,1
171512,-90.9090909090909,4,2,1,80,0,1
174159,-90.9090909090909,4,2,3,90,0,1
174335,-90.9090909090909,4,2,1,80,0,1
175923,-100,4,2,1,80,0,1
176276,-111.111111111111,4,2,1,80,0,1
176629,-90.9090909090908,4,2,1,80,0,1
176982,-90.9090909090908,4,2,2,80,0,1
177159,-90.9090909090908,4,2,1,80,0,1
178747,-83.3333333333333,4,2,1,80,0,1
179100,-76.9230769230769,4,2,1,80,0,1
179453,-90.9090909090909,4,2,1,80,0,1
179806,-90.9090909090909,4,2,3,90,0,1
179982,-90.9090909090909,4,2,1,80,0,1
181570,-83.3333333333333,4,2,1,80,0,1
181923,-76.9230769230769,4,2,1,80,0,1
182276,-90.9090909090909,4,2,1,80,0,1
182629,-90.9090909090909,4,2,2,80,0,1
182806,-90.9090909090909,4,2,1,80,0,1
186953,-90.9090909090909,4,2,1,60,0,1
187923,-90.9090909090908,4,2,1,80,0,0

[Colours]
Combo1 : 224,12,17
Combo2 : 255,177,100
Combo3 : 255,102,36
Combo4 : 171,54,119
Combo5 : 119,45,159
Combo6 : 232,47,98

[HitObjects]
337,360,13041,5,0,3:0:0:0:
337,360,13129,1,0,3:0:0:0:
315,377,13218,6,0,P|266:372|195:368,1,107.999996704102,8|0,3:0|3:0,0:0:0:0:
341,277,13923,2,0,P|394:273|448:268,1,107.999996704102,2|0,3:2|3:0,0:0:0:0:
496,205,14453,1,0,0:0:0:0:
425,124,14629,70,0,P|408:146|386:165,1,53.9999983520508,0|0,3:0|0:0,0:0:0:0:
321,203,14982,1,0,3:0:0:0:
321,203,15159,1,0,0:0:0:0:
244,176,15335,2,0,P|210:133|167:96,1,107.999996704102,2|0,3:2|3:0,0:0:0:0:
150,22,15865,1,0,0:0:0:0:
62,84,16041,6,0,P|51:135|39:202,1,107.999996704102,0|0,3:0|3:0,0:0:0:0:
140,319,16747,2,0,P|129:268|117:201,1,107.999996704102,2|0,3:2|3:0,0:0:0:0:
150,141,17276,1,0,0:0:0:0:
236,207,17453,70,0,P|280:228|340:226,1,107.999996704102,0|0,3:0|3:0,0:0:0:0:
398,176,17982,1,0,0:0:0:0:
398,176,18159,2,0,B|386:101|386:101|364:71,1,107.999996704102,2|0,3:2|3:0,0:0:0:0:
322,11,18688,1,0,0:0:0:0:
223,68,18865,6,0,P|174:73|103:77,1,107.999996704102,0|0,3:0|3:0,0:0:0:0:
249,168,19570,2,0,P|302:172|356:177,1,107.999996704102,2|0,3:2|3:0,0:0:0:0:
425,138,20100,1,0,0:0:0:0:
507,208,20276,70,0,P|475:214|438:228,1,53.9999983520508,0|0,3:0|0:0,0:0:0:0:
397,273,20629,1,0,3:0:0:0:
397,273,20806,1,0,0:0:0:0:
341,329,20982,2,0,P|289:320|228:302,1,107.999996704102,2|0,3:2|3:0,0:0:0:0:
194,238,21512,1,0,0:0:0:0:
152,337,21688,6,0,P|95:347|42:360,2,107.999996704102,0|0|2,3:0|3:0|3:2,0:0:0:0:
221,376,22747,2,0,P|240:354|252:328,1,53.9999983520508,0|0,3:0|0:0,0:0:0:0:
267,255,23100,69,0,3:0:0:0:
263,250,23188,1,0,3:0:0:0:
259,245,23276,1,0,3:0:0:0:
255,240,23365,1,0,3:0:0:0:
251,235,23453,1,0,3:0:0:0:
87,293,23806,5,2,3:2:0:0:
119,222,23982,1,0,1:0:0:0:
103,218,24070,1,0,1:0:0:0:
86,214,24159,1,0,3:0:0:0:
34,156,24335,1,0,1:0:0:0:
150,78,24512,69,4,1:0:0:0:
150,78,24688,2,0,P|148:41|133:2,1,62.9999980773926,0|0,3:0|1:0,0:0:0:0:
218,3,25041,1,0,3:0:0:0:
212,129,25217,1,2,1:2:0:0:
152,179,25394,1,0,3:0:0:0:
152,179,25570,2,0,P|154:216|169:255,1,62.9999980773926,2|0,1:3|0:0,0:0:0:0:
265,314,25923,6,0,L|342:298,1,62.9999980773926,2|0,1:3|3:0,0:0:0:0:
389,353,26276,2,0,P|419:365|450:371,1,62.9999980773926,0|0,1:0|3:0,0:0:0:0:
497,272,26629,1,8,1:3:0:0:
482,350,26806,1,8,3:0:0:0:
404,271,26982,2,0,P|434:259|465:253,1,62.9999980773926,2|0,1:3|0:0,0:0:0:0:
350,196,27335,70,0,P|310:191|275:183,1,62.9999980773926,0|0,1:0|3:0,0:0:0:0:
247,146,27688,2,0,P|286:150|322:159,1,62.9999980773926,0|0,1:0|3:0,0:0:0:0:
448,111,28041,2,0,P|443:71|435:36,1,62.9999980773926,2|0,1:2|3:0,0:0:0:0:
398,8,28394,2,0,P|402:47|411:83,1,62.9999980773926,0|0,1:0|3:0,0:0:0:0:
453,189,28747,6,0,P|488:205|513:235,1,62.9999980773926,2|0,1:3|3:0,0:0:0:0:
512,240,29012,1,0,3:0:0:0:
512,242,29100,2,0,L|502:320,1,62.9999980773926,2|0,1:3|3:0,0:0:0:0:
367,256,29453,2,0,L|386:119,1,125.999996154785,8|2,1:3|1:3,0:0:0:0:
350,60,29982,1,0,3:0:0:0:
224,133,30159,69,4,1:0:0:0:
224,133,30335,2,0,P|257:136|296:144,1,62.9999980773926,0|0,3:0|1:0,0:0:0:0:
277,63,30688,1,8,3:0:0:0:
154,92,30865,1,2,1:2:0:0:
139,172,31041,1,0,3:0:0:0:
139,172,31217,2,0,P|106:169|67:161,1,62.9999980773926,4|0,3:0|0:0,0:0:0:0:
6,287,31570,6,0,P|29:243|29:214,1,62.9999980773926,4|0,3:0|3:0,0:0:0:0:
119,364,31923,2,0,P|96:320|96:291,1,62.9999980773926,4|0,1:3|3:0,0:0:0:0:
152,212,32276,1,8,1:3:0:0:
121,284,32453,1,8,3:0:0:0:
199,384,32629,2,0,L|273:374,1,62.9999980773926,4|0,1:2|3:0,0:0:0:0:
320,262,32982,70,0,L|246:252,1,62.9999980773926,4|0,1:2|0:0,0:0:0:0:
228,173,33335,1,8,1:2:0:0:
232,158,33423,1,8,0:0:0:0:
235,142,33512,2,0,P|237:115|234:93,1,31.4999990386963,8|8,0:0|0:0,0:0:0:0:
152,108,33688,5,10,1:2:0:0:
150,86,33776,1,8,0:0:0:0:
147,63,33865,2,0,P|140:44|132:28,1,31.4999990386963,8|8,0:0|0:0,0:0:0:0:
57,4,34041,2,0,L|47:51,1,31.4999990386963,8|8,1:2|0:0,0:0:0:0:
4,105,34217,2,0,L|14:152,1,31.4999990386963,8|8,0:0|0:0,0:0:0:0:
86,196,34394,69,8,3:2:0:0:
86,196,34482,1,4,3:0:0:0:
86,196,34570,2,0,L|128:182,2,31.4999990386963,4|4|4,3:0|3:0|3:0,0:0:0:0:
42,272,34923,5,4,3:0:0:0:
42,272,35011,1,4,3:0:0:0:
42,272,35100,2,0,L|0:258,3,31.4999990386963,4|4|4|4,3:0|3:0|3:0|3:0,0:0:0:0:
82,340,35453,1,12,3:2:0:0:
82,340,35806,70,0,P|119:322|159:316,1,72,0|0,1:0|0:0,0:0:0:0:
241,263,36159,2,0,P|204:245|164:239,1,72,0|0,1:0|0:0,0:0:0:0:
207,375,36512,2,0,L|355:353,1,144,10|2,0:0|3:0,0:0:0:0:
432,380,37041,1,0,1:0:0:0:
432,380,37217,5,0,0:0:0:0:
490,321,37394,1,0,1:0:0:0:
490,321,37482,1,0,1:0:0:0:
490,321,37570,1,0,1:0:0:0:
430,246,37923,1,10,0:0:0:0:
366,308,38276,1,0,1:0:0:0:
366,308,38364,1,0,1:0:0:0:
366,308,38452,1,8,0:0:0:0:
296,196,38629,70,0,B|283:165|283:165|292:128,1,72,0|0,1:0|0:0,0:0:0:0:
212,33,38982,2,0,B|225:64|225:64|216:101,1,72,0|0,1:0|0:0,0:0:0:0:
366,160,39335,2,0,P|446:155|497:95,1,144,10|2,0:0|3:0,0:0:0:0:
488,32,39865,1,0,1:0:0:0:
488,32,40041,5,0,0:0:0:0:
406,9,40217,1,0,1:0:0:0:
406,9,40306,1,0,1:0:0:0:
406,9,40394,1,0,1:0:0:0:
358,77,40747,2,0,P|327:101|286:117,1,72,14|0,0:0|1:0,0:0:0:0:
128,136,41100,2,0,P|159:160|200:176,1,72,8|0,0:0|1:0,0:0:0:0:
217,183,41365,1,0,1:0:0:0:
217,183,41453,6,0,L|234:271,1,80.9999975280763,8|0,0:0|1:0,0:0:0:0:
61,300,41806,2,0,L|44:388,1,80.9999975280763,8|0,0:0|1:0,0:0:0:0:
127,228,42159,1,8,0:0:0:0:
163,374,42335,1,0,1:0:0:0:
273,270,42512,1,8,0:0:0:0:
133,216,42688,1,0,1:0:0:0:
169,70,42865,5,8,0:0:0:0:
121,9,43041,1,0,1:0:0:0:
108,7,43129,1,0,1:0:0:0:
95,5,43217,2,0,P|48:44|52:100,1,99.0000030212403,8|0,0:0|1:0,0:0:0:0:
186,148,43570,2,0,L|90:134,1,80.9999975280763,8|0,0:0|1:0,0:0:0:0:
249,93,43923,2,0,L|329:81,1,80.9999975280763,8|0,0:0|1:0,0:0:0:0:
481,146,44276,69,12,0:0:0:0:
388,21,44453,1,0,1:0:0:0:
466,43,44629,1,8,0:0:0:0:
422,229,44806,1,0,1:0:0:0:
350,266,44982,2,0,P|308:258|270:246,1,80.9999975280763,8|0,0:0|1:0,0:0:0:0:
162,343,45335,2,0,P|204:335|242:323,1,80.9999975280763,8|0,0:0|1:0,0:0:0:0:
224,179,45688,5,8,0:0:0:0:
147,204,45865,1,8,1:3:0:0:
153,223,45953,1,0,1:0:0:0:
159,242,46041,1,0,1:0:0:0:
82,267,46217,1,4,1:3:0:0:
25,105,46394,69,12,0:0:0:0:
25,105,47100,22,0,P|66:54|108:29,1,99.0000030212403,4|0,3:0|1:0,0:0:0:0:
173,135,47453,1,8,0:0:0:0:
117,20,47629,1,0,1:0:0:0:
184,156,47806,1,8,0:0:0:0:
310,92,47982,1,2,1:3:0:0:
310,92,48070,1,0,1:0:0:0:
310,92,48159,2,0,P|254:85|208:71,1,99.0000030212403,8|0,3:2|1:0,0:0:0:0:
244,226,48512,6,0,P|264:281|274:342,1,99.0000030212403,8|0,0:0|1:0,0:0:0:0:
385,263,48865,2,0,P|365:318|355:379,1,90,8|0,0:0|1:0,0:0:0:0:
277,374,49129,1,0,1:0:0:0:
277,374,49217,2,0,P|238:381|190:384,1,80.9999975280763,8|0,0:0|1:0,0:0:0:0:
73,340,49570,1,8,0:0:0:0:
179,384,49747,1,2,1:3:0:0:
7,267,49923,70,0,B|96:245|96:245|100:233|100:233|192:212,1,198.000006042481,12|8,0:0|3:2,0:0:0:0:
304,264,50453,1,0,1:0:0:0:
304,264,50541,1,2,1:3:0:0:
304,264,50629,2,0,L|202:241,1,99.0000030212403,8|0,0:0|1:0,0:0:0:0:
271,375,50982,2,0,P|327:344|373:338,1,99.0000030212403,8|0,0:0|1:0,0:0:0:0:
472,367,51335,5,8,3:2:0:0:
472,367,51423,1,0,3:0:0:0:
472,367,51512,1,2,1:3:0:0:
381,208,51688,2,0,L|394:319,1,107.999996704102,8|2,3:2|1:3,0:0:0:0:
495,165,52041,2,0,L|481:280,1,116.999994644165,8|2,0:0|1:3,0:0:0:0:
373,350,52394,1,8,3:2:0:0:
480,294,52570,1,0,1:0:0:0:
293,227,52747,70,0,P|233:202|192:175,1,99.0000030212403,4|0,3:0|1:0,0:0:0:0:
234,58,53100,1,8,0:0:0:0:
174,171,53276,1,2,1:3:0:0:
247,310,53453,1,8,3:2:0:0:
187,197,53629,1,2,1:3:0:0:
49,246,53806,1,8,3:2:0:0:
49,246,53982,1,2,1:3:0:0:
112,380,54159,6,0,P|120:325|165:269,1,99.0000030212403,8|0,0:0|1:0,0:0:0:0:
273,292,54512,2,0,P|224:269|164:265,1,107.999996704102,8|0,0:0|1:0,0:0:0:0:
53,286,54776,1,0,1:0:0:0:
53,286,54865,2,0,P|77:225|68:175,1,116.999994644165,8|0,0:0|1:0,0:0:0:0:
16,63,55217,2,0,P|22:116|28:164,1,99.0000030212403,8|2,0:0|1:3,0:0:0:0:
191,158,55570,70,0,B|311:139|311:139|348:151|391:151,1,198.000006042481,12|8,0:0|3:2,0:0:0:0:
476,57,56100,1,0,1:0:0:0:
408,164,56276,1,8,0:0:0:0:
510,255,56453,1,0,1:0:0:0:
510,255,56541,1,0,1:0:0:0:
510,255,56629,2,0,P|514:205|501:145,1,99.0000030212403,8|0,0:0|1:0,0:0:0:0:
444,61,56982,5,8,3:2:0:0:
444,61,57070,1,0,3:0:0:0:
444,61,57159,1,2,1:3:0:0:
326,20,57335,2,0,L|211:10,1,99.0000030212403,8|2,3:2|1:3,0:0:0:0:
115,69,57688,5,8,0:0:0:0:
115,69,57776,1,0,1:0:0:0:
115,69,57865,2,0,L|144:113,1,45,2|0,1:3|1:0,0:0:0:0:
229,103,58041,5,2,1:3:0:0:
229,103,58129,1,0,1:0:0:0:
229,103,58218,2,0,L|258:147,1,45,2|0,1:3|1:0,0:0:0:0:
207,211,58394,38,0,B|185:241|185:241|195:317,1,99.0000030212403,4|0,3:0|1:0,0:0:0:0:
305,369,58747,1,8,0:0:0:0:
180,334,58923,1,0,1:0:0:0:
329,376,59100,1,8,0:0:0:0:
316,240,59276,1,2,1:3:0:0:
316,240,59365,1,0,1:0:0:0:
316,240,59453,2,0,L|302:137,1,99.0000030212403,8|0,3:2|1:0,0:0:0:0:
228,9,59806,6,0,B|303:3|303:3|293:20|294:43,1,99.0000030212403,8|0,0:0|1:0,0:0:0:0:
169,92,60159,2,0,B|239:86|239:86|229:102|230:123,1,90,8|0,0:0|1:0,0:0:0:0:
320,132,60423,1,0,1:0:0:0:
320,132,60512,2,0,L|417:123,1,80.9999975280763,8|2,0:0|1:3,0:0:0:0:
512,187,60865,1,8,0:0:0:0:
413,106,61041,1,2,1:3:0:0:
331,263,61217,70,0,P|334:324|450:343,1,198.000006042481,12|8,0:0|3:2,0:0:0:0:
456,236,61747,1,0,1:0:0:0:
456,236,61835,1,0,3:0:0:0:
456,236,61923,2,0,P|474:284|456:341,1,99.0000030212403,8|0,0:0|1:0,0:0:0:0:
352,384,62276,2,0,L|242:364,1,99.0000030212403,8|0,0:0|1:0,0:0:0:0:
199,284,62629,5,8,3:2:0:0:
199,284,62717,1,0,3:0:0:0:
199,284,62806,1,2,1:3:0:0:
66,384,62982,2,0,P|142:379|178:360,1,107.999996704102,8|2,3:2|1:3,0:0:0:0:
0,280,63335,2,0,P|72:303|112:299,1,116.999994644165,8|2,0:0|1:3,0:0:0:0:
118,168,63688,1,8,3:2:0:0:
143,294,63865,1,2,1:3:0:0:
187,109,64041,70,0,L|203:1,1,99.0000030212403,4|0,3:0|1:0,0:0:0:0:
95,84,64394,1,8,0:0:0:0:
124,204,64570,1,2,1:3:0:0:
124,204,64747,1,8,3:2:0:0:
254,168,64923,1,2,1:3:0:0:
254,168,65100,2,0,P|309:165|357:191,1,99.0000030212403,8|0,3:2|1:0,0:0:0:0:
505,131,65453,6,0,L|391:119,1,99.0000030212403,8|0,0:0|1:0,0:0:0:0:
284,74,65806,2,0,L|392:85,1,107.999996704102,8|0,0:0|1:0,0:0:0:0:
482,173,66070,1,0,1:0:0:0:
482,173,66159,2,0,B|492:200|502:225|502:225|483:248|465:277,1,116.999994644165,8|0,0:0|1:0,0:0:0:0:
391,382,66512,1,8,0:0:0:0:
442,264,66688,1,2,1:3:0:0:
269,210,66865,70,0,B|221:207|176:231|176:231|171:277|191:338,1,198.000006042481,12|8,0:0|3:2,0:0:0:0:
92,288,67394,1,0,1:0:0:0:
92,288,67482,1,0,3:0:0:0:
92,288,67570,2,0,P|85:338|70:389,1,99.0000030212403,8|0,0:0|1:0,0:0:0:0:
4,261,67923,2,0,P|11:211|26:160,1,99.0000030212403,8|0,0:0|1:0,0:0:0:0:
15,41,68276,5,8,3:2:0:0:
15,41,68365,1,0,3:0:0:0:
15,41,68453,1,2,1:3:0:0:
136,4,68629,1,8,3:2:0:0:
200,119,68806,1,2,1:3:0:0:
200,119,68982,2,0,P|146:114|94:93,1,99.0000030212403,8|2,0:0|1:3,0:0:0:0:
251,194,69335,2,0,P|305:189|357:168,1,99.0000030212403,8|0,3:2|1:0,0:0:0:0:
444,91,69688,5,8,3:2:0:0:
444,91,69776,1,0,1:0:0:0:
444,91,69865,2,0,L|503:84,1,45,0|0,1:0|1:0,0:0:0:0:
500,176,70041,5,0,1:0:0:0:
500,176,70129,1,0,1:0:0:0:
500,176,70218,2,0,L|441:183,1,45,0|0,1:0|1:0,0:0:0:0:
372,193,70394,53,8,0:0:0:0:
256,79,70570,1,8,0:0:0:0:
406,12,70747,1,8,0:0:0:0:
391,173,70923,1,8,0:0:0:0:
264,44,71100,38,0,P|229:20|168:5,1,90,4|0,3:0|1:0,0:0:0:0:
85,80,71453,2,0,P|120:56|181:41,1,90,4|0,3:0|1:0,0:0:0:0:
253,175,71806,2,0,L|275:275,1,90,10|0,0:0|1:0,0:0:0:0:
174,191,72159,1,8,3:0:0:0:
283,206,72335,2,0,L|305:306,1,90,8|2,3:0|1:2,0:0:0:0:
325,384,72688,5,4,3:0:0:0:
325,384,72776,1,4,3:0:0:0:
325,384,72865,1,4,3:0:0:0:
224,337,73041,1,8,3:0:0:0:
387,283,73217,2,0,P|444:286|482:306,1,90,10|0,0:0|1:0,0:0:0:0:
419,377,73570,1,4,3:0:0:0:
419,377,73659,1,4,3:0:0:0:
419,377,73747,1,8,0:0:0:0:
306,243,73923,70,0,P|264:235|209:204,1,90,4|0,3:0|1:0,0:0:0:0:
202,92,74276,2,0,P|210:133|243:186,1,90,4|0,3:0|1:0,0:0:0:0:
213,333,74629,2,0,L|114:303,1,90,10|0,0:0|1:0,0:0:0:0:
237,256,74982,1,8,3:0:0:0:
171,344,75158,2,0,L|72:314,1,90,8|2,3:0|1:2,0:0:0:0:
7,292,75512,5,4,3:0:0:0:
7,292,75600,1,4,3:0:0:0:
7,292,75688,1,4,3:0:0:0:
32,384,75865,1,8,3:0:0:0:
109,232,76041,2,0,P|75:189|26:163,1,90,10|0,0:0|1:0,0:0:0:0:
20,62,76394,2,0,B|41:65|63:56|63:56|79:71|101:80,1,90,4|0,3:0|1:0,0:0:0:0:
167,28,76659,1,0,1:0:0:0:
167,28,76747,70,0,B|185:0|223:13|222:57|183:85|176:132|195:173,1,180,4|4,3:0|3:0,0:0:0:0:
234,254,77276,1,0,1:0:0:0:
353,142,77453,2,0,B|315:117|315:117|291:118|267:130,1,90,10|0,0:0|1:0,0:0:0:0:
335,33,77806,2,0,B|357:24|373:9|373:9|395:18|416:15,1,90,8|8,3:0|3:0,0:0:0:0:
505,69,78159,5,2,1:2:0:0:
500,172,78335,1,4,3:0:0:0:
500,172,78423,1,4,3:0:0:0:
500,172,78512,1,4,3:0:0:0:
512,55,78688,1,8,3:0:0:0:
412,195,78865,2,0,B|388:209|381:229|381:229|399:230|399:230|458:257|493:317,1,180,10|4,0:0|3:0,0:0:0:0:
498,345,79306,1,4,3:0:0:0:
498,345,79394,1,8,0:0:0:0:
326,383,79570,70,0,P|359:361|377:305,1,90,4|8,3:0|0:0,0:0:0:0:
287,193,79923,2,0,P|279:231|306:284,1,90,4|0,3:0|1:0,0:0:0:0:
372,171,80276,1,10,0:0:0:0:
372,171,80365,1,4,0:3:0:0:
372,171,80453,2,0,L|357:107,1,45,4|4,0:3|0:3,0:0:0:0:
343,45,80629,1,4,0:0:0:0:
343,45,80982,6,0,P|303:25|256:10,1,90,4|4,1:2|3:0,0:0:0:0:
190,54,81247,1,4,3:0:0:0:
190,54,81335,2,0,L|100:71,1,90,4|8,3:0|3:0,0:0:0:0:
47,177,81688,1,10,0:0:0:0:
47,177,81776,1,0,1:0:0:0:
47,177,81865,1,0,1:0:0:0:
6,91,82041,1,0,1:0:0:0:
50,13,82217,1,8,0:0:0:0:
190,150,82394,37,4,1:0:0:0:
190,150,82570,2,0,P|157:153|118:161,1,62.9999980773926,0|0,3:0|1:0,0:0:0:0:
137,80,82923,1,0,3:0:0:0:
260,109,83100,1,0,1:0:0:0:
275,189,83276,1,0,3:0:0:0:
275,189,83452,2,0,P|308:186|347:178,1,62.9999980773926,2|0,1:3|0:0,0:0:0:0:
455,133,83806,6,0,P|472:103|478:56,1,62.9999980773926,2|0,1:3|3:0,0:0:0:0:
425,16,84159,2,0,L|354:7,1,62.9999980773926,0|0,1:0|3:0,0:0:0:0:
328,113,84512,1,8,1:3:0:0:
342,35,84688,1,8,3:0:0:0:
270,0,84865,2,0,L|207:7,1,62.9999980773926,2|0,1:3|0:0,0:0:0:0:
107,83,85217,70,0,P|147:87|182:95,1,62.9999980773926,0|0,1:0|3:0,0:0:0:0:
210,133,85570,2,0,P|171:129|135:120,1,62.9999980773926,0|0,1:0|3:0,0:0:0:0:
53,237,85923,2,0,P|48:196|40:161,1,62.9999980773926,2|0,1:2|3:0,0:0:0:0:
3,134,86276,2,0,P|7:172|16:208,1,62.9999980773926,0|0,1:0|3:0,0:0:0:0:
44,319,86629,6,0,P|73:359|101:377,1,62.9999980773926,2|0,1:3|3:0,0:0:0:0:
101,376,86894,1,0,3:0:0:0:
101,376,86982,2,0,L|181:366,1,62.9999980773926,2|0,1:3|3:0,0:0:0:0:
86,245,87335,2,0,L|231:226,1,125.999996154785,8|2,1:3|1:3,0:0:0:0:
269,175,87865,1,0,3:0:0:0:
358,295,88041,69,4,1:0:0:0:
358,295,88217,2,0,P|398:299|436:308,1,62.9999980773926,0|0,3:0|1:0,0:0:0:0:
406,382,88570,1,8,3:0:0:0:
503,301,88747,1,2,1:2:0:0:
476,227,88923,1,0,3:0:0:0:
476,227,89100,2,0,P|444:224|413:218,1,62.9999980773926,4|0,3:0|0:0,0:0:0:0:
318,137,89453,6,0,P|281:160|261:187,1,62.9999980773926,4|0,3:0|3:0,0:0:0:0:
315,302,89806,2,0,P|293:279|265:264,1,62.9999980773926,4|0,1:3|3:0,0:0:0:0:
156,284,90159,1,8,1:3:0:0:
230,255,90335,1,8,3:0:0:0:
170,368,90512,2,0,L|86:356,1,62.9999980773926,4|0,1:2|3:0,0:0:0:0:
251,351,90865,70,0,L|398:329,1,125.999996154785,4|0,1:2|1:0,0:0:0:0:
442,379,91394,1,0,3:0:0:0:
510,293,91570,2,0,P|499:246|488:220,1,62.9999980773926,2|0,1:2|3:0,0:0:0:0:
417,200,91923,2,0,P|421:162|432:129,1,62.9999980773926,0|0,1:0|3:0,0:0:0:0:
489,14,92276,6,0,P|457:38|370:62,2,125.999996154785,2|2|2,1:3|1:3|1:3,0:0:0:0:
512,123,93159,1,4,3:0:0:0:
512,123,93247,1,4,3:0:0:0:
512,123,93335,1,12,3:2:0:0:
304,6,93688,70,0,P|294:46|294:86,1,72,0|0,1:0|0:0,0:0:0:0:
247,172,94041,2,0,P|231:139|209:111,1,72,0|0,1:0|0:0,0:0:0:0:
51,69,94394,2,0,B|146:53|146:53|134:28|133:-5,1,144,10|2,0:0|3:0,0:0:0:0:
220,5,94923,1,0,1:0:0:0:
220,5,95100,5,0,0:0:0:0:
243,91,95276,1,0,1:0:0:0:
243,91,95365,1,0,1:0:0:0:
243,91,95453,1,0,1:0:0:0:
186,152,95806,1,10,0:0:0:0:
104,133,96159,1,0,1:0:0:0:
104,133,96247,1,0,1:0:0:0:
104,133,96335,1,8,0:0:0:0:
9,222,96512,70,0,P|18:246|32:304,1,72,0|0,1:0|0:0,0:0:0:0:
100,384,96865,2,0,P|67:377|14:372,1,72,0|0,1:0|0:0,0:0:0:0:
104,242,97217,2,0,P|171:264|181:342,1,144,10|2,0:0|3:0,0:0:0:0:
255,384,97747,1,0,1:0:0:0:
255,384,97923,5,0,0:0:0:0:
339,359,98100,1,0,1:0:0:0:
339,359,98188,1,0,1:0:0:0:
339,359,98276,1,0,1:0:0:0:
419,381,98629,2,0,L|425:303,1,72,14|0,0:0|1:0,0:0:0:0:
487,133,98982,2,0,L|493:211,1,72,8|0,0:0|1:0,0:0:0:0:
497,233,99247,1,0,1:0:0:0:
497,233,99335,6,0,P|456:256|407:258,1,80.9999975280763,8|0,0:0|1:0,0:0:0:0:
336,109,99688,2,0,P|377:86|426:84,1,80.9999975280763,8|0,0:0|1:0,0:0:0:0:
248,17,100041,1,8,0:0:0:0:
261,167,100217,1,0,1:0:0:0:
118,117,100394,1,8,0:0:0:0:
233,20,100570,1,0,1:0:0:0:
83,0,100747,5,8,0:0:0:0:
19,44,100923,1,0,1:0:0:0:
22,57,101012,1,0,1:0:0:0:
24,70,101100,2,0,L|40:178,1,99.0000030212403,8|0,0:0|1:0,0:0:0:0:
177,252,101453,2,0,P|134:234|96:229,1,80.9999975280763,8|0,0:0|1:0,0:0:0:0:
5,337,101806,2,0,P|41:320|81:314,1,80.9999975280763,8|0,0:0|1:0,0:0:0:0:
236,377,102159,69,12,0:0:0:0:
251,222,102335,1,0,1:0:0:0:
324,257,102512,1,8,0:0:0:0:
283,70,102688,1,0,1:0:0:0:
214,26,102865,2,0,P|183:70|178:106,1,80.9999975280763,8|0,0:0|1:0,0:0:0:0:
251,222,103217,2,0,P|282:178|287:142,1,80.9999975280763,8|0,0:0|1:0,0:0:0:0:
358,24,103570,5,8,0:0:0:0:
380,102,103747,1,8,1:3:0:0:
400,99,103835,1,0,1:0:0:0:
420,97,103923,1,0,1:0:0:0:
442,175,104100,1,4,1:3:0:0:
406,335,104276,69,12,0:0:0:0:
406,335,104982,22,0,L|294:355,1,99.0000030212403,4|0,3:0|1:0,0:0:0:0:
242,242,105335,1,8,0:0:0:0:
282,364,105512,1,0,1:0:0:0:
235,220,105688,1,8,0:0:0:0:
137,321,105865,1,2,1:3:0:0:
137,321,105953,1,0,1:0:0:0:
137,321,106041,2,0,P|80:312|34:286,1,99.0000030212403,8|0,3:2|1:0,0:0:0:0:
151,169,106394,6,0,L|126:52,1,99.0000030212403,8|0,0:0|1:0,0:0:0:0:
16,112,106747,2,0,L|41:-5,1,90,8|0,0:0|1:0,0:0:0:0:
127,12,107012,1,0,1:0:0:0:
127,12,107100,2,0,P|159:41|204:52,1,80.9999975280763,8|2,0:0|1:3,0:0:0:0:
318,12,107453,1,8,0:0:0:0:
208,74,107629,1,2,1:3:0:0:
353,201,107806,70,0,P|435:191|494:151,1,148.50000453186,12|0,0:0|0:0,0:0:0:0:
505,119,108159,1,8,3:2:0:0:
460,29,108335,1,0,1:0:0:0:
460,29,108423,1,0,3:0:0:0:
460,29,108512,2,0,P|405:41|367:66,1,99.0000030212403,8|0,0:0|1:0,0:0:0:0:
311,198,108865,2,0,P|303:140|282:84,1,99.0000030212403,8|0,0:0|1:0,0:0:0:0:
231,17,109217,5,8,3:2:0:0:
231,17,109306,1,0,3:0:0:0:
231,17,109394,1,2,1:3:0:0:
61,82,109570,2,0,L|167:98,1,107.999996704102,8|2,3:2|1:3,0:0:0:0:
17,217,109923,2,0,L|137:188,1,116.999994644165,8|2,0:0|1:3,0:0:0:0:
255,224,110276,1,8,0:0:0:0:
149,166,110453,1,0,1:0:0:0:
189,358,110629,70,0,L|288:333,1,99.0000030212403,4|0,3:0|1:0,0:0:0:0:
337,215,110982,1,8,0:0:0:0:
317,343,111159,1,2,1:3:0:0:
365,195,111335,1,8,3:2:0:0:
491,221,111512,1,2,1:3:0:0:
457,368,111688,1,8,3:2:0:0:
457,368,111865,1,2,1:3:0:0:
407,228,112041,6,0,P|403:176|415:107,1,99.0000030212403,8|0,0:0|1:0,0:0:0:0:
442,4,112394,2,0,P|446:56|434:125,1,107.999996704102,8|0,0:0|1:0,0:0:0:0:
323,175,112659,1,0,1:0:0:0:
323,175,112747,2,0,B|285:153|285:153|255:160|191:168,1,116.999994644165,8|0,0:0|1:0,0:0:0:0:
99,115,113100,2,0,L|202:131,1,99.0000030212403,8|2,0:0|1:3,0:0:0:0:
293,263,113453,70,0,P|279:333|152:347,1,198.000006042481,12|8,0:0|3:2,0:0:0:0:
40,371,113982,1,0,1:0:0:0:
162,330,114159,1,8,0:0:0:0:
68,247,114335,1,0,1:0:0:0:
68,247,114423,1,0,1:0:0:0:
68,247,114512,2,0,P|33:201|16:148,1,99.0000030212403,8|0,0:0|1:0,0:0:0:0:
22,46,114865,5,8,3:2:0:0:
22,46,114953,1,0,3:0:0:0:
22,46,115041,1,2,1:3:0:0:
142,8,115217,2,0,L|128:121,1,99.0000030212403,8|2,3:2|1:3,0:0:0:0:
223,229,115570,69,12,0:0:0:0:
215,95,115747,1,2,1:3:0:0:
224,248,115923,1,12,3:2:0:0:
323,150,116100,1,0,1:0:0:0:
323,150,116188,1,0,1:0:0:0:
323,150,116276,6,0,P|363:171|421:184,1,99.0000030212403,4|0,3:0|1:0,0:0:0:0:
507,95,116629,1,8,0:0:0:0:
512,230,116806,1,0,1:0:0:0:
512,230,116894,1,0,3:0:0:0:
512,230,116982,2,0,P|502:282|491:331,1,99.0000030212403,8|2,0:0|1:3,0:0:0:0:
349,286,117335,2,0,P|358:338|370:387,1,99.0000030212403,8|0,3:2|1:0,0:0:0:0:
420,234,117688,70,0,B|428:186|428:186|415:168|405:141,1,99.0000030212403,8|0,0:0|1:0,0:0:0:0:
477,42,118041,2,0,B|436:60|436:60|418:53|392:50,1,90,8|0,0:0|1:0,0:0:0:0:
318,97,118306,1,0,1:0:0:0:
318,97,118394,2,0,P|303:54|297:17,1,80.9999975280763,8|2,0:0|1:3,0:0:0:0:
171,38,118747,1,8,0:0:0:0:
294,0,118923,1,2,1:3:0:0:
337,191,119100,6,0,L|315:349,1,148.50000453186,12|0,0:0|0:0,0:0:0:0:
312,377,119453,1,8,3:2:0:0:
228,320,119629,1,0,1:0:0:0:
228,320,119717,1,0,3:0:0:0:
228,320,119806,2,0,P|181:366|84:371,1,148.50000453186,8|0,0:0|0:0,0:0:0:0:
62,367,120159,2,0,P|53:315|17:278,1,99.0000030212403,8|0,0:0|1:0,0:0:0:0:
51,178,120512,69,8,3:2:0:0:
51,178,120600,1,0,3:0:0:0:
51,178,120688,1,2,1:3:0:0:
242,225,120865,2,0,L|135:243,1,107.999996704102,8|2,3:2|1:3,0:0:0:0:
22,87,121217,2,0,L|139:107,1,116.999994644165,8|2,0:0|1:3,0:0:0:0:
265,127,121570,1,8,3:2:0:0:
147,72,121747,1,2,1:3:0:0:
333,25,121923,6,0,L|443:9,1,99.0000030212403,4|0,3:0|1:0,0:0:0:0:
377,127,122276,1,8,0:0:0:0:
498,115,122453,1,2,1:3:0:0:
498,115,122629,1,8,3:2:0:0:
445,233,122806,1,2,1:3:0:0:
445,233,122982,2,0,L|347:247,1,99.0000030212403,8|0,3:2|1:0,0:0:0:0:
213,345,123335,70,0,P|263:367|317:372,1,99.0000030212403,8|0,0:0|1:0,0:0:0:0:
347,247,123688,2,0,P|348:306|328:358,1,107.999996704102,8|0,0:0|1:0,0:0:0:0:
214,378,123953,1,0,1:0:0:0:
214,378,124041,2,0,P|151:372|83:342,1,116.999994644165,8|2,0:0|1:3,0:0:0:0:
26,248,124394,1,8,0:0:0:0:
75,367,124570,1,2,1:3:0:0:
223,260,124747,6,0,B|250:239|256:213|256:213|232:119,1,148.50000453186,12|0,0:0|0:0,0:0:0:0:
221,87,125100,1,8,3:2:0:0:
337,128,125276,1,0,1:0:0:0:
337,128,125365,1,0,3:0:0:0:
337,128,125453,2,0,L|310:20,1,99.0000030212403,8|0,0:0|1:0,0:0:0:0:
226,4,125717,1,0,1:0:0:0:
226,4,125806,2,0,P|174:10|117:22,1,99.0000030212403,8|0,0:0|1:0,0:0:0:0:
20,80,126159,69,8,3:2:0:0:
20,80,126247,1,0,3:0:0:0:
20,80,126335,1,2,1:3:0:0:
36,201,126512,1,8,3:2:0:0:
56,326,126688,1,2,1:3:0:0:
56,326,126865,2,0,P|107:315|178:306,1,99.0000030212403,8|2,0:0|1:3,0:0:0:0:
217,150,127217,2,0,P|168:140|95:130,1,99.0000030212403,8|0,3:2|1:0,0:0:0:0:
227,246,127570,21,8,3:2:0:0:
227,246,127659,1,0,1:0:0:0:
227,246,127747,2,0,P|237:270|243:295,1,45,0|0,1:0|1:0,0:0:0:0:
318,326,127923,6,0,P|339:366|384:384,2,90,4|0|4,0:3|1:0|0:3,0:0:0:0:
326,244,128453,1,0,1:0:0:0:
327,226,128541,1,0,1:0:0:0:
328,208,128629,1,0,1:0:0:0:
329,190,128717,1,0,1:0:0:0:
331,172,128805,1,0,1:0:0:0:
332,154,128894,1,0,1:0:0:0:
333,136,128982,69,4,1:2:0:0:
463,75,129335,38,0,L|502:69,4,36
399,18,130923,1,4,0:0:0:0:
407,139,131100,21,8,0:0:0:0:
336,112,131276,2,0,L|330:85,2,26.9999991760254,0|0|0,1:0|1:0|1:0,0:0:0:0:
313,128,131453,2,0,L|250:138,1,40.4999987640381,0|0,1:0|1:0,0:0:0:0:
232,130,131629,2,0,L|226:99,3,26.9999991760254,0|0|0|4,1:0|1:0|1:0|1:2,0:0:0:0:
329,257,132512,6,0,L|514:239,1,180,4|4,0:0|0:0,0:0:0:0:
508,239,133570,1,8,0:0:0:0:
495,320,133747,1,4,0:3:0:0:
429,368,133923,1,0,1:0:0:0:
429,368,134100,1,0,1:0:0:0:
344,361,134276,1,0,1:0:0:0:
344,361,134453,1,0,1:0:0:0:
192,360,134629,6,0,P|220:320|292:302,1,107.999996704102,4|0,1:2|1:0,0:0:0:0:
125,212,135335,1,12,0:0:0:0:
185,157,135688,1,0,1:0:0:0:
274,165,135865,1,4,0:3:0:0:
274,165,135953,1,4,0:3:0:0:
274,165,136041,69,4,1:2:0:0:
338,220,136217,2,0,B|381:211|381:211|402:215|402:215|443:209,1,107.999996704102,0|0,1:0|1:0,0:0:0:0:
397,74,136747,2,0,P|368:63|334:43,1,53.9999983520508,12|0,0:0|0:0,0:0:0:0:
277,7,137100,2,0,P|254:28|239:54,1,53.9999983520508,0|4,0:0|0:3,0:0:0:0:
235,76,137365,1,4,0:3:0:0:
235,76,137453,6,0,P|171:102|117:131,1,107.999996704102,4|0,1:2|1:0,0:0:0:0:
65,279,138159,1,12,0:0:0:0:
65,279,138865,69,4,0:0:0:0:
146,262,139041,1,0,1:0:0:0:
147,280,139129,1,0,1:0:0:0:
148,298,139217,1,0,1:0:0:0:
149,316,139305,1,0,1:0:0:0:
151,334,139394,2,0,L|194:347,1,26.9999991760254,0|0,1:0|1:0,0:0:0:0:
255,365,139570,1,4,0:3:0:0:
255,365,139747,1,4,0:3:0:0:
30,384,139923,5,8,0:0:0:0:
30,384,140276,5,4,3:0:0:0:
47,309,140453,1,2,1:3:0:0:
20,237,140629,2,0,L|35:143,1,90,4|2,3:0|1:3,0:0:0:0:
133,263,140982,6,0,L|118:169,1,90,10|2,0:0|1:3,0:0:0:0:
146,100,141335,1,8,3:0:0:0:
129,25,141512,1,8,3:0:0:0:
254,10,141688,69,2,1:2:0:0:
278,92,141865,1,4,3:0:0:0:
278,92,141953,1,4,3:0:0:0:
278,92,142041,1,4,3:0:0:0:
243,160,142217,1,8,3:0:0:0:
335,247,142394,5,10,3:2:0:0:
404,214,142570,1,2,1:3:0:0:
471,181,142747,2,0,L|454:130,2,45,4|4|8,3:0|3:0|3:2,0:0:0:0:
512,310,143100,69,4,3:0:0:0:
455,360,143276,1,2,1:3:0:0:
381,375,143453,2,0,P|336:372|291:349,1,90,4|2,3:0|1:3,0:0:0:0:
267,216,143806,6,0,P|229:191|185:183,1,90,10|2,0:0|1:3,0:0:0:0:
107,182,144159,1,8,3:0:0:0:
36,206,144335,1,8,3:0:0:0:
2,84,144512,69,2,1:2:0:0:
80,67,144688,1,4,3:0:0:0:
80,67,144776,1,4,3:0:0:0:
80,67,144865,1,4,3:0:0:0:
154,82,145041,1,8,3:0:0:0:
257,10,145217,6,0,B|288:49|305:111|299:133|292:151|261:152|243:141|235:117|255:107|270:117,1,180,10|2,0:0|3:0,0:0:0:0:
373,55,145747,1,0,1:0:0:0:
373,55,145835,1,0,1:0:0:0:
373,55,145923,69,4,3:0:0:0:
438,15,146100,1,2,1:3:0:0:
482,80,146276,2,0,L|402:130,1,90,4|2,3:0|1:3,0:0:0:0:
368,234,146629,6,0,L|288:284,1,90,10|2,0:0|1:3,0:0:0:0:
258,210,146982,1,8,3:0:0:0:
323,170,147159,1,8,3:0:0:0:
201,141,147335,69,2,1:2:0:0:
143,188,147512,1,4,3:0:0:0:
143,188,147600,1,4,3:0:0:0:
143,188,147688,1,4,3:0:0:0:
183,253,147865,1,8,3:0:0:0:
65,294,148041,5,10,0:0:0:0:
37,222,148217,1,2,1:3:0:0:
9,152,148394,2,0,L|58:131,2,45,4|4|8,3:0|3:0|3:2,0:0:0:0:
75,44,148747,70,0,L|171:56,1,90,4|2,3:0|1:3,0:0:0:0:
237,15,149100,2,0,L|333:27,1,90,4|2,3:0|1:3,0:0:0:0:
312,151,149453,5,10,0:0:0:0:
310,164,149541,1,4,0:3:0:0:
308,177,149629,1,4,3:0:0:0:
306,190,149717,1,4,0:3:0:0:
304,203,149806,1,4,0:0:0:0:
354,260,149982,1,0,1:0:0:0:
449,177,150159,69,4,1:2:0:0:
506,241,150335,1,4,3:0:0:0:
506,241,150423,1,4,3:0:0:0:
506,241,150512,1,4,3:0:0:0:
456,298,150688,1,8,3:0:0:0:
363,384,150865,5,10,0:0:0:0:
288,367,151041,1,0,1:0:0:0:
341,312,151217,1,0,1:0:0:0:
266,295,151393,1,8,0:0:0:0:
95,353,151570,69,4,1:0:0:0:
403,353,155806,69,0,3:0:0:0:
407,348,155894,1,0,3:0:0:0:
411,343,155982,1,0,3:0:0:0:
415,338,156071,1,0,3:0:0:0:
419,333,156159,1,0,3:0:0:0:
472,203,156512,69,0,3:0:0:0:
472,203,156688,1,0,3:0:0:0:
487,285,156865,1,0,3:0:0:0:
487,285,157041,1,0,3:0:0:0:
361,273,157217,6,0,P|323:267|274:254,1,62.9999980773926,4|0,3:0|3:0,0:0:0:0:
222,281,157570,1,0,0:0:0:0:
222,281,157747,1,0,3:0:0:0:
181,207,157923,2,0,P|188:172|189:133,1,62.9999980773926,0|0,0:0|3:0,0:0:0:0:
155,74,158276,1,0,3:0:0:0:
155,74,158453,1,0,0:0:0:0:
204,9,158629,70,0,P|235:20|272:27,1,62.9999980773926,0|0,3:0|3:0,0:0:0:0:
327,74,158982,2,0,P|364:65|400:49,1,62.9999980773926,0|0,0:0|3:0,0:0:0:0:
448,4,159335,2,0,P|480:33|498:60,1,62.9999980773926,0|0,0:0|3:0,0:0:0:0:
503,132,159688,1,0,3:0:0:0:
503,132,159865,1,0,0:0:0:0:
406,213,160041,6,0,P|370:222|331:238,1,62.9999980773926,4|0,3:0|3:0,0:0:0:0:
274,202,160394,1,0,0:0:0:0:
274,202,160570,1,0,3:0:0:0:
229,267,160747,2,0,P|199:261|164:248,1,62.9999980773926,0|0,0:0|3:0,0:0:0:0:
93,267,161100,1,0,0:0:0:0:
93,267,161276,1,0,3:0:0:0:
28,123,161453,69,4,1:2:0:0:
28,123,162865,54,0,P|81:141|145:152,1,99.0000030212403,4|0,3:0|1:0,0:0:0:0:
171,30,163217,1,8,0:0:0:0:
145,155,163393,1,0,1:0:0:0:
177,7,163570,1,8,0:0:0:0:
283,113,163747,1,2,1:3:0:0:
283,113,163835,1,0,1:0:0:0:
283,113,163923,2,0,P|270:162|262:222,1,99.0000030212403,8|0,3:2|1:0,0:0:0:0:
136,293,164276,6,0,B|95:286|61:304|61:304|70:335,1,99.0000030212403,8|0,0:0|1:0,0:0:0:0:
186,362,164629,2,0,B|224:368|255:351|255:351|247:322,1,90,8|0,0:0|1:0,0:0:0:0:
216,258,164894,1,0,1:0:0:0:
216,258,164982,2,0,P|197:211|190:173,1,80.9999975280763,8|0,0:0|1:0,0:0:0:0:
83,111,165335,1,8,0:0:0:0:
206,149,165512,1,2,1:3:0:0:
383,46,165688,70,0,B|335:13|335:13|319:37|303:73|303:73|321:109|328:155,1,198.000006042481,12|8,0:0|3:2,0:0:0:0:
394,243,166217,1,0,1:0:0:0:
394,243,166306,1,2,1:3:0:0:
394,243,166394,2,0,P|381:192|350:158,1,99.0000030212403,8|0,0:0|1:0,0:0:0:0:
476,78,166747,2,0,L|468:185,1,99.0000030212403,8|0,0:0|1:0,0:0:0:0:
498,288,167100,5,8,3:2:0:0:
498,288,167188,1,0,3:0:0:0:
498,288,167276,1,2,1:3:0:0:
330,367,167453,2,0,L|452:345,1,107.999996704102,8|2,3:2|1:3,0:0:0:0:
287,246,167806,2,0,L|411:268,1,116.999994644165,8|2,0:0|1:3,0:0:0:0:
496,177,168159,1,8,3:2:0:0:
421,271,168335,1,0,1:0:0:0:
258,162,168512,70,0,P|201:134|155:125,1,99.0000030212403,4|0,3:0|1:0,0:0:0:0:
47,176,168865,1,8,0:0:0:0:
153,103,169041,1,2,1:3:0:0:
24,15,169217,1,8,3:2:0:0:
130,88,169393,1,2,1:3:0:0:
105,238,169570,1,8,3:2:0:0:
105,238,169747,1,2,1:3:0:0:
192,363,169923,6,0,P|201:312|183:255,1,99.0000030212403,8|0,0:0|1:0,0:0:0:0:
216,138,170276,2,0,P|206:191|225:250,1,107.999996704102,8|0,0:0|1:0,0:0:0:0:
282,355,170541,1,0,1:0:0:0:
282,355,170629,2,0,B|296:320|296:320|388:331,1,116.999994644165,8|0,0:0|1:0,0:0:0:0:
488,381,170982,2,0,L|366:366,1,99.0000030212403,8|2,0:0|1:3,0:0:0:0:
494,240,171335,70,0,P|496:174|389:100,1,198.000006042481,12|8,0:0|3:2,0:0:0:0:
301,15,171865,1,0,1:0:0:0:
375,120,172041,1,8,0:0:0:0:
252,167,172217,1,0,1:0:0:0:
252,167,172306,1,0,1:0:0:0:
252,167,172394,2,0,L|134:149,1,99.0000030212403,8|0,0:0|1:0,0:0:0:0:
55,96,172747,5,8,3:2:0:0:
55,96,172835,1,0,3:0:0:0:
55,96,172923,1,2,1:3:0:0:
151,35,173100,2,0,L|248:49,1,99.0000030212403,8|2,3:2|1:3,0:0:0:0:
399,22,173453,69,12,0:0:0:0:
374,153,173630,1,2,1:3:0:0:
402,3,173806,1,12,3:2:0:0:
278,58,173982,1,0,1:0:0:0:
278,58,174070,1,0,1:0:0:0:
278,58,174159,6,0,P|239:93|215:147,1,99.0000030212403,4|0,3:0|1:0,0:0:0:0:
255,258,174512,1,8,0:0:0:0:
194,145,174688,1,0,1:0:0:0:
265,279,174865,1,8,0:0:0:0:
139,332,175041,1,2,1:3:0:0:
139,332,175129,1,0,1:0:0:0:
139,332,175217,2,0,P|79:300|49:256,1,99.0000030212403,8|0,3:2|1:0,0:0:0:0:
10,129,175570,70,0,B|27:117|43:93|43:93|66:100|92:101,1,99.0000030212403,8|0,0:0|1:0,0:0:0:0:
207,47,175923,2,0,B|191:36|177:14|177:14|156:20|132:21,1,90,8|0,0:0|1:0,0:0:0:0:
121,113,176188,1,0,1:0:0:0:
121,113,176276,2,0,P|125:151|143:196,1,80.9999975280763,8|2,0:0|1:3,0:0:0:0:
270,198,176629,1,8,0:0:0:0:
143,222,176806,1,2,1:3:0:0:
286,349,176982,6,0,B|419:369|419:369|465:321,1,198.000006042481,12|8,0:0|3:2,0:0:0:0:
382,259,177512,1,0,1:0:0:0:
382,259,177600,1,0,3:0:0:0:
382,259,177688,2,0,B|444:271|444:271|473:296,1,99.0000030212403,8|0,0:0|1:0,0:0:0:0:
368,361,178041,2,0,L|265:346,1,99.0000030212403,8|0,0:0|1:0,0:0:0:0:
190,287,178394,69,8,3:2:0:0:
190,287,178482,1,0,3:0:0:0:
190,287,178570,1,2,1:3:0:0:
28,380,178747,2,0,P|82:377|148:343,1,107.999996704102,8|2,3:2|1:3,0:0:0:0:
1,209,179100,2,0,P|68:219|118:242,1,116.999994644165,8|2,0:0|1:3,0:0:0:0:
190,136,179453,1,8,3:2:0:0:
134,252,179629,1,2,1:3:0:0:
11,101,179806,6,0,P|62:86|113:69,1,99.0000030212403,4|0,3:0|1:0,0:0:0:0:
45,185,180159,1,8,0:0:0:0:
167,155,180335,1,2,1:3:0:0:
167,155,180512,1,8,3:2:0:0:
279,119,180688,1,2,1:3:0:0:
279,119,180865,2,0,P|253:57|211:25,1,99.0000030212403,8|0,3:2|1:0,0:0:0:0:
245,202,181217,70,0,B|257:232|257:232|329:249,1,99.0000030212403,8|0,0:0|1:0,0:0:0:0:
462,267,181570,2,0,B|449:298|449:298|374:316,1,107.999996704102,8|0,0:0|1:0,0:0:0:0:
278,384,181835,1,0,1:0:0:0:
278,384,181923,2,0,P|258:335|192:308,1,116.999994644165,8|0,0:0|1:0,0:0:0:0:
86,253,182276,1,8,0:0:0:0:
190,330,182453,1,2,1:3:0:0:
16,380,182629,6,0,B|18:358|18:358|11:332|11:332|50:251|50:251|41:220|41:220|43:192,1,198.000006042481,12|8,0:0|3:2,0:0:0:0:
132,119,183159,1,0,1:0:0:0:
132,119,183247,1,0,3:0:0:0:
132,119,183335,2,0,P|67:108|24:90,1,99.0000030212403,8|0,0:0|1:0,0:0:0:0:
166,40,183688,2,0,P|231:29|274:11,1,99.0000030212403,8|0,0:0|1:0,0:0:0:0:
394,50,184041,69,8,3:2:0:0:
394,50,184129,1,0,3:0:0:0:
394,50,184217,1,2,1:3:0:0:
365,174,184394,1,8,3:2:0:0:
242,141,184570,1,2,1:3:0:0:
242,141,184747,2,0,P|223:191|220:248,1,99.0000030212403,8|2,0:0|1:3,0:0:0:0:
343,359,185100,2,0,P|338:309|320:263,1,99.0000030212403,8|0,3:2|1:0,0:0:0:0:
481,203,185453,5,12,3:2:0:0:
428,320,185629,1,2,1:3:0:0:
337,229,185806,1,12,3:2:0:0:
465,189,185982,1,2,1:3:0:0:
465,189,186070,1,0,3:0:0:0:
465,189,186159,69,12,3:2:0:0:
412,306,186335,1,2,1:3:0:0:
321,215,186512,2,0,P|329:154|346:103,1,99.0000030212403,12|0,3:2|1:0,0:0:0:0:
386,14,186865,5,8,3:2:0:0:
386,14,186953,1,0,1:0:0:0:
386,14,187041,1,2,1:3:0:0:
282,53,187217,1,2,1:3:0:0:
282,53,187306,1,0,1:0:0:0:
282,53,187394,2,0,L|225:41,1,49.5000015106202,2|0,1:3|1:0,0:0:0:0:
151,0,187570,1,2,1:3:0:0:
93,67,187747,1,2,1:3:0:0:
256,192,187923,69,12,3:2:0:0:
