osu file format v14

[General]
AudioFilename: audio.mp3
AudioLeadIn: 0
PreviewTime: 46384
Countdown: 0
SampleSet: Soft
StackLeniency: 0.7
Mode: 0
LetterboxInBreaks: 0
WidescreenStoryboard: 0

[Editor]
DistanceSpacing: 0.4
BeatDivisor: 4
GridSize: 4
TimelineZoom: 5.699996

[Metadata]
Title:Karakurenai
TitleUnicode:からくれなゐ
Artist:UNDEAD CORPORATION
ArtistUnicode:UNDEAD CORPORATION
Creator:Entry
Version:Extra
Source:東方地霊殿 ~ Subterranean Animism.
Tags:touhou 東方project th11 yuugi hoshiguma 星熊 勇儀 toho complete box special 紅染の鬼が哭く ranko パイン pine tree パインツリー walking the streets of a former hell 旧地獄街道を行く comiket 85 c85 rock metal japanese video game zun mappers' guild featured artist fa eiri- ayyri zer0-
BeatmapID:2561309
BeatmapSetID:1232084

[Difficulty]
HPDrainRate:5.7
CircleSize:4
OverallDifficulty:8.2
ApproachRate:9
SliderMultiplier:2
SliderTickRate:1

[Events]
//Background and Video events
0,0,"yuugi.jpg",0,0
//Break Periods
2,151770,155206
//Storyboard Layer 0 (Background)
//Storyboard Layer 1 (Fail)
//Storyboard Layer 2 (Pass)
//Storyboard Layer 3 (Foreground)
//Storyboard Layer 4 (Overlay)
//Storyboard Sound Samples

[TimingPoints]
13218,352.941176470588,4,2,2,45,1,0
13218,-166.666666666667,4,2,2,45,0,0
13570,-166.666666666667,4,2,1,45,0,0
24512,-142.857142857143,4,2,1,55,0,0
26629,-142.857142857143,4,2,2,55,0,0
26982,-142.857142857143,4,2,1,55,0,0
29453,-142.857142857143,4,2,2,55,0,0
29806,-142.857142857143,4,2,1,55,0,0
32276,-142.857142857143,4,2,2,55,0,0
32629,-142.857142857143,4,2,1,55,0,0
33335,-142.857142857143,4,2,1,20,0,0
33423,-142.857142857143,4,2,1,22,0,0
33512,-142.857142857143,4,2,1,24,0,0
33600,-142.857142857143,4,2,1,26,0,0
33688,-142.857142857143,4,2,1,28,0,0
33776,-142.857142857143,4,2,1,30,0,0
33865,-142.857142857143,4,2,1,34,0,0
33953,-142.857142857143,4,2,1,38,0,0
34041,-142.857142857143,4,2,1,42,0,0
34129,-142.857142857143,4,2,1,50,0,0
34394,-142.857142857143,4,2,1,40,0,0
34482,-142.857142857143,4,2,0,40,0,0
34659,-142.857142857143,4,2,1,40,0,0
34923,-142.857142857143,4,2,0,40,0,0
35100,-142.857142857143,4,2,1,40,0,0
35188,-142.857142857143,4,2,0,40,0,0
35453,-142.857142857143,4,2,1,50,0,0
35717,-142.857142857143,4,2,1,5,0,0
35806,-125,4,2,1,60,0,0
36776,-125,4,2,1,5,0,0
36865,-125,4,2,0,30,0,0
37041,-125,4,2,1,60,0,0
37835,-125,4,2,1,5,0,0
37923,-125,4,2,1,60,0,0
39600,-125,4,2,1,5,0,0
39688,-125,4,2,0,30,0,0
39865,-125,4,2,1,60,0,0
40659,-125,4,2,1,5,0,0
40747,-125,4,2,1,60,0,0
41453,-111.111111111111,4,2,1,65,0,0
43217,-76.9230769230769,4,2,1,65,0,0
43570,-111.111111111111,4,2,1,65,0,0
46570,-111.111111111111,4,2,1,20,0,0
47100,-90.9090909090908,4,2,3,90,0,1
47276,-90.9090909090908,4,2,1,80,0,1
48865,-100,4,2,1,80,0,1
49217,-111.111111111111,4,2,1,80,0,1
49570,-90.9090909090908,4,2,1,80,0,1
49923,-90.9090909090908,4,2,2,80,0,1
50100,-90.9090909090908,4,2,1,80,0,1
51688,-83.3333333333333,4,2,1,80,0,1
52041,-76.9230769230769,4,2,1,80,0,1
52394,-90.9090909090909,4,2,1,80,0,1
52747,-90.9090909090909,4,2,3,90,0,1
52923,-90.9090909090909,4,2,1,80,0,1
54159,-76.9230769230769,4,2,1,80,0,1
54512,-71.4285714285714,4,2,1,80,0,1
54865,-66.6666666666667,4,2,1,80,0,1
55217,-76.9230769230769,4,2,1,80,0,1
55570,-90.9090909090909,4,2,2,80,0,1
55747,-90.9090909090909,4,2,1,80,0,1
57688,-100,4,2,1,80,0,1
57776,-100,4,2,1,45,0,1
58394,-90.9090909090909,4,2,3,90,0,1
58570,-90.9090909090909,4,2,1,80,0,1
60159,-100,4,2,1,80,0,1
60512,-111.111111111111,4,2,1,80,0,1
60865,-90.9090909090908,4,2,1,80,0,1
61217,-90.9090909090908,4,2,2,80,0,1
61394,-90.9090909090908,4,2,1,80,0,1
61482,-90.9090909090908,4,2,1,5,0,1
61570,-90.9090909090908,4,2,1,80,0,1
62982,-83.3333333333333,4,2,1,80,0,1
63335,-76.9230769230769,4,2,1,80,0,1
63688,-90.9090909090909,4,2,1,80,0,1
64041,-90.9090909090909,4,2,3,90,0,1
64217,-90.9090909090909,4,2,1,80,0,1
65453,-76.9230769230769,4,2,1,80,0,1
65806,-71.4285714285714,4,2,1,80,0,1
66159,-66.6666666666667,4,2,1,80,0,1
66512,-90.9090909090909,4,2,1,80,0,1
66865,-90.9090909090909,4,2,2,80,0,1
67041,-90.9090909090909,4,2,1,80,0,1
69688,-100,4,2,1,80,0,0
69776,-100,4,2,1,45,0,0
70394,-100,4,2,1,80,0,0
71100,-100,4,2,3,90,0,0
71276,-100,4,2,2,70,0,0
71806,-100,4,2,1,70,0,0
72159,-100,4,2,2,70,0,0
72512,-100,4,2,1,70,0,0
72688,-100,4,2,2,70,0,0
73217,-100,4,2,1,70,0,0
73570,-100,4,2,2,70,0,0
73923,-100,4,2,3,90,0,0
74100,-100,4,2,2,70,0,0
74629,-100,4,2,1,70,0,0
74982,-100,4,2,2,70,0,0
75335,-100,4,2,1,70,0,0
75512,-100,4,2,2,70,0,0
76041,-100,4,2,1,70,0,0
76394,-100,4,2,2,70,0,0
76747,-100,4,2,3,90,0,0
76923,-100,4,2,2,70,0,0
77453,-100,4,2,1,70,0,0
77806,-100,4,2,2,70,0,0
78159,-100,4,2,1,70,0,0
78335,-100,4,2,2,70,0,0
78865,-100,4,2,1,70,0,0
79217,-100,4,2,2,70,0,0
79570,-100,4,2,3,90,0,0
79747,-100,4,2,2,70,0,0
80276,-100,4,2,1,70,0,0
80365,-100,4,2,1,40,0,0
80806,-100,4,2,2,70,0,0
81688,-100,4,2,1,70,0,0
82394,-142.857142857143,4,2,1,55,0,0
84512,-142.857142857143,4,2,2,55,0,0
84865,-142.857142857143,4,2,1,55,0,0
87335,-142.857142857143,4,2,2,55,0,0
87688,-142.857142857143,4,2,1,55,0,0
90159,-142.857142857143,4,2,2,55,0,0
90512,-142.857142857143,4,2,1,55,0,0
93159,-142.857142857143,4,2,0,40,0,0
93335,-142.857142857143,4,2,1,50,0,0
93600,-142.857142857143,4,2,1,5,0,0
93688,-125,4,2,1,55,0,0
94659,-125,4,2,1,5,0,0
94747,-125,4,2,0,30,0,0
94923,-125,4,2,1,55,0,0
95717,-125,4,2,1,5,0,0
95806,-125,4,2,1,55,0,0
97482,-125,4,2,1,5,0,0
97570,-125,4,2,0,30,0,0
97747,-125,4,2,1,55,0,0
98541,-125,4,2,1,5,0,0
98629,-125,4,2,1,55,0,0
99335,-111.111111111111,4,2,1,60,0,0
101100,-76.9230769230769,4,2,1,60,0,0
101453,-111.111111111111,4,2,1,60,0,0
104276,-166.666666666666,4,2,1,60,0,0
104629,-166.666666666666,4,2,1,20,0,0
104982,-90.9090909090908,4,2,3,90,0,1
105159,-90.9090909090908,4,2,1,80,0,1
106747,-100,4,2,1,80,0,1
107100,-111.111111111111,4,2,1,80,0,1
107453,-90.9090909090909,4,2,1,80,0,1
107806,-90.9090909090909,4,2,2,80,0,1
107982,-90.9090909090909,4,2,1,80,0,1
108070,-90.9090909090909,4,2,1,5,0,1
108159,-90.9090909090909,4,2,1,80,0,1
109570,-83.3333333333333,4,2,1,80,0,1
109923,-76.9230769230769,4,2,1,80,0,1
110276,-90.9090909090909,4,2,1,80,0,1
110629,-90.9090909090909,4,2,3,90,0,1
110806,-90.9090909090909,4,2,1,80,0,1
112041,-76.9230769230769,4,2,1,80,0,1
112394,-71.4285714285714,4,2,1,80,0,1
112747,-66.6666666666667,4,2,1,80,0,1
113100,-76.9230769230769,4,2,1,80,0,1
113453,-90.9090909090909,4,2,2,80,0,1
113629,-90.9090909090909,4,2,1,80,0,1
116276,-90.9090909090909,4,2,3,90,0,1
116453,-90.9090909090909,4,2,1,80,0,1
118041,-100,4,2,1,80,0,1
118394,-111.111111111111,4,2,1,80,0,1
118747,-90.9090909090908,4,2,1,80,0,1
119100,-90.9090909090908,4,2,2,80,0,1
119276,-90.9090909090908,4,2,1,80,0,1
119365,-90.9090909090908,4,2,1,5,0,1
119453,-90.9090909090908,4,2,1,80,0,1
120865,-83.3333333333333,4,2,1,80,0,1
121217,-76.9230769230769,4,2,1,80,0,1
121570,-90.9090909090909,4,2,1,80,0,1
121923,-90.9090909090909,4,2,3,90,0,1
122100,-90.9090909090909,4,2,1,80,0,1
123335,-76.9230769230769,4,2,1,80,0,1
123688,-71.4285714285714,4,2,1,80,0,1
124041,-66.6666666666667,4,2,1,80,0,1
124394,-90.9090909090909,4,2,1,80,0,1
124747,-90.9090909090909,4,2,2,80,0,1
124923,-90.9090909090909,4,2,1,80,0,1
125012,-90.9090909090909,4,2,1,5,0,1
125100,-90.9090909090909,4,2,1,80,0,1
127570,-100,4,2,1,80,0,0
127659,-100,4,2,1,45,0,0
129335,-1000,4,2,1,15,0,0
129688,-1000,4,2,1,18,0,0
130041,-1000,4,2,1,21,0,0
130394,-1000,4,2,1,25,0,0
130747,-1000,4,2,1,30,0,0
130923,-111.111111111111,4,2,1,30,0,0
131100,-111.111111111111,4,2,1,70,0,0
131276,-111.111111111111,4,2,1,50,0,0
131806,-111.111111111111,4,2,1,30,0,0
133570,-111.111111111111,4,2,1,50,0,0
133923,-111.111111111111,4,2,1,40,0,0
134629,-166.666666666666,4,2,1,45,0,0
139041,-166.666666666666,4,2,1,40,0,0
139923,-166.666666666666,4,2,1,50,0,0
140276,-100,4,2,3,90,0,0
140453,-100,4,2,1,70,0,0
140629,-100,4,2,2,70,0,0
140806,-100,4,2,1,70,0,0
141335,-100,4,2,2,70,0,0
141688,-100,4,2,1,70,0,0
141865,-100,4,2,2,70,0,0
142394,-100,4,2,1,70,0,0
142747,-100,4,2,2,70,0,0
142923,-100,4,2,1,70,0,0
143100,-100,4,2,3,90,0,0
143276,-100,4,2,1,70,0,0
143453,-100,4,2,2,70,0,0
143629,-100,4,2,1,70,0,0
144159,-100,4,2,2,70,0,0
144512,-100,4,2,1,70,0,0
144688,-100,4,2,2,70,0,0
145217,-100,4,2,1,70,0,0
145570,-100,4,2,0,40,0,0
145747,-100,4,2,1,70,0,0
145923,-100,4,2,3,90,0,0
146100,-100,4,2,1,70,0,0
146276,-100,4,2,2,70,0,0
146453,-100,4,2,1,70,0,0
146982,-100,4,2,2,70,0,0
147335,-100,4,2,1,70,0,0
147512,-100,4,2,2,70,0,0
148041,-100,4,2,1,70,0,0
148394,-100,4,2,2,70,0,0
148570,-100,4,2,1,70,0,0
148747,-100,4,2,3,90,0,0
148923,-100,4,2,1,70,0,0
149100,-100,4,2,2,70,0,0
149276,-100,4,2,1,70,0,0
149541,-100,4,2,1,40,0,0
149982,-100,4,2,2,70,0,0
150865,-100,4,2,1,70,0,0
151570,-100,4,2,1,55,0,0
155806,-100,4,2,1,45,0,0
156512,-142.857142857143,4,2,1,45,0,0
161453,-142.857142857143,4,2,1,30,0,0
162159,-142.857142857143,4,2,1,20,0,0
162865,-90.9090909090908,4,2,3,90,0,1
163041,-90.9090909090908,4,2,1,80,0,1
164629,-100,4,2,1,80,0,1
164982,-111.111111111111,4,2,1,80,0,1
165335,-90.9090909090908,4,2,1,80,0,1
165688,-90.9090909090908,4,2,2,80,0,1
165865,-90.9090909090908,4,2,1,80,0,1
167453,-83.3333333333333,4,2,1,80,0,1
167806,-76.9230769230769,4,2,1,80,0,1
168159,-90.9090909090909,4,2,1,80,0,1
168512,-90.9090909090909,4,2,3,90,0,1
168688,-90.9090909090909,4,2,1,80,0,1
169923,-76.9230769230769,4,2,1,80,0,1
170276,-71.4285714285714,4,2,1,80,0,1
170629,-66.6666666666667,4,2,1,80,0,1
170982,-76.9230769230769,4,2,1,80,0,1
171335,-90.9090909090909,4,2,2,80,0,1
171512,-90.9090909090909,4,2,1,80,0,1
174159,-90.9090909090909,4,2,3,90,0,1
174335,-90.9090909090909,4,2,1,80,0,1
175923,-100,4,2,1,80,0,1
176276,-111.111111111111,4,2,1,80,0,1
176629,-90.9090909090908,4,2,1,80,0,1
176982,-90.9090909090908,4,2,2,80,0,1
177159,-90.9090909090908,4,2,1,80,0,1
177247,-90.9090909090908,4,2,1,5,0,1
177335,-90.9090909090908,4,2,1,80,0,1
178747,-83.3333333333333,4,2,1,80,0,1
179100,-76.9230769230769,4,2,1,80,0,1
179453,-90.9090909090909,4,2,1,80,0,1
179806,-90.9090909090909,4,2,3,90,0,1
179982,-90.9090909090909,4,2,1,80,0,1
181217,-76.9230769230769,4,2,1,80,0,1
181570,-71.4285714285714,4,2,1,80,0,1
181923,-66.6666666666667,4,2,1,80,0,1
182276,-90.9090909090909,4,2,1,80,0,1
182629,-90.9090909090909,4,2,2,80,0,1
182806,-90.9090909090909,4,2,1,80,0,1
186865,-100,4,2,1,80,0,1
186953,-100,4,2,1,60,0,1
187923,-90.9090909090908,4,2,1,80,0,0

[Colours]
Combo1 : 224,12,17
Combo2 : 255,177,100
Combo3 : 255,102,36
Combo4 : 171,54,119
Combo5 : 119,45,159
Combo6 : 232,47,98

[HitObjects]
31,149,13041,5,0,3:0:0:0:
31,149,13129,1,0,3:0:0:0:
59,197,13218,6,0,P|68:148|73:61,1,119.999996337891,8|0,3:0|3:0,0:0:0:0:
100,376,13923,2,0,P|109:327|114:240,1,119.999996337891,2|0,3:2|3:0,0:0:0:0:
59,197,14453,1,0,0:0:0:0:
195,253,14629,70,0,P|234:249|270:240,1,59.9999981689454,0|0,3:0|0:0,0:0:0:0:
314,189,14982,1,0,3:0:0:0:
314,189,15159,1,0,0:0:0:0:
351,261,15335,2,0,P|413:253|474:238,1,119.999996337891,2|0,3:2|3:0,0:0:0:0:
512,309,15865,1,0,0:0:0:0:
379,371,16041,6,0,P|308:355|255:347,1,119.999996337891,0|0,3:0|3:0,0:0:0:0:
78,322,16747,2,0,P|149:306|202:298,1,119.999996337891,2|0,3:2|3:0,0:0:0:0:
261,347,17276,1,0,0:0:0:0:
189,217,17453,70,0,P|182:173|172:88,1,119.999996337891,0|0,3:0|3:0,0:0:0:0:
183,20,17982,1,0,0:0:0:0:
183,20,18159,2,0,B|225:1|270:23|270:23|276:43|273:64,1,119.999996337891,2|0,3:2|3:0,0:0:0:0:
264,133,18688,1,0,0:0:0:0:
338,259,18865,6,0,P|408:254|463:245,1,119.999996337891,0|0,3:0|3:0,0:0:0:0:
174,340,19570,2,0,P|244:335|299:326,1,119.999996337891,2|0,3:2|3:0,0:0:0:0:
338,259,20100,1,0,0:0:0:0:
445,367,20276,69,0,3:0:0:0:
445,367,20453,1,0,0:0:0:0:
416,290,20629,1,0,3:0:0:0:
416,290,20806,1,0,0:0:0:0:
483,245,20982,2,0,P|483:207|486:120,1,119.999996337891,2|0,3:2|3:0,0:0:0:0:
462,47,21512,1,0,0:0:0:0:
335,121,21688,6,0,L|224:37,2,119.999996337891,0|0|2,3:0|3:0|3:2,0:0:0:0:
310,198,22747,1,0,3:0:0:0:
310,198,22923,1,0,0:0:0:0:
367,255,23100,69,0,3:0:0:0:
372,269,23188,1,0,3:0:0:0:
377,282,23276,1,0,3:0:0:0:
374,296,23365,1,0,3:0:0:0:
371,310,23453,1,0,3:0:0:0:
451,312,23629,1,0,3:0:0:0:
335,121,23806,5,2,3:2:0:0:
274,174,23982,1,0,1:0:0:0:
248,166,24070,1,0,1:0:0:0:
221,158,24159,1,0,3:0:0:0:
195,234,24335,1,0,1:0:0:0:
24,175,24512,69,4,1:0:0:0:
50,183,24688,2,0,P|90:175|124:162,1,69.9999978637696,0|0,3:0|1:0,0:0:0:0:
166,101,25041,1,0,3:0:0:0:
130,258,25217,1,2,1:2:0:0:
142,337,25394,1,0,3:0:0:0:
127,360,25570,2,0,L|52:349,1,69.9999978637696,2|0,1:3|0:0,0:0:0:0:
215,382,25923,5,2,1:3:0:0:
215,382,26100,1,0,3:0:0:0:
275,326,26276,2,0,P|317:331|354:339,1,69.9999978637696,0|0,1:0|3:0,0:0:0:0:
492,376,26629,1,8,1:3:0:0:
412,384,26806,1,8,3:0:0:0:
500,349,26982,2,0,P|490:311|486:271,1,69.9999978637696,2|0,1:3|0:0,0:0:0:0:
360,217,27335,70,0,P|401:192|423:169,1,69.9999978637696,0|0,1:0|3:0,0:0:0:0:
456,113,27688,2,0,P|456:147|449:182,1,69.9999978637696,0|0,1:0|3:0,0:0:0:0:
239,115,28041,2,0,P|238:80|245:45,1,69.9999978637696,2|0,1:2|3:0,0:0:0:0:
335,11,28394,2,0,P|294:36|272:59,1,69.9999978637696,0|0,1:0|3:0,0:0:0:0:
163,180,28747,6,0,P|192:200|217:230,1,69.9999978637696,2|0,1:3|3:0,0:0:0:0:
232,254,29012,1,0,3:0:0:0:
232,254,29100,2,0,P|252:264|300:273,1,69.9999978637696,2|0,1:3|3:0,0:0:0:0:
362,384,29453,2,0,P|379:334|397:245,1,139.999995727539,8|2,1:3|1:3,0:0:0:0:
353,180,29982,1,0,3:0:0:0:
507,277,30159,69,4,1:0:0:0:
484,293,30335,2,0,P|443:282|397:262,1,69.9999978637696,0|0,3:0|1:0,0:0:0:0:
348,313,30688,1,8,3:0:0:0:
204,269,30865,1,2,1:2:0:0:
172,195,31041,1,0,3:0:0:0:
193,176,31217,2,0,P|198:137|207:94,1,69.9999978637696,4|0,3:0|0:0,0:0:0:0:
312,40,31570,6,0,P|281:14|249:0,1,69.9999978637696,4|0,3:0|3:0,0:0:0:0:
407,89,31923,2,0,P|403:48|390:16,1,69.9999978637696,4|0,1:3|3:0,0:0:0:0:
288,129,32276,1,8,1:3:0:0:
364,156,32453,1,8,3:0:0:0:
214,183,32629,2,0,L|298:168,1,69.9999978637696,4|0,1:2|3:0,0:0:0:0:
170,257,32982,70,0,L|238:269,1,69.9999978637696,4|0,1:2|0:0,0:0:0:0:
333,372,33335,1,8,1:2:0:0:
331,351,33423,1,8,0:0:0:0:
329,329,33512,2,0,L|327:292,1,34.9999989318848,8|8,0:0|0:0,0:0:0:0:
221,354,33688,5,10,1:2:0:0:
194,362,33776,1,8,0:0:0:0:
166,366,33865,2,0,P|147:368|119:364,1,34.9999989318848,8|8,0:0|0:0,0:0:0:0:
21,328,34041,2,0,L|27:280,1,34.9999989318848,8|8,1:2|0:0,0:0:0:0:
96,213,34217,2,0,L|85:165,1,34.9999989318848,8|8,0:0|0:0,0:0:0:0:
18,32,34394,69,8,3:2:0:0:
16,45,34482,1,4,3:0:0:0:
15,59,34570,1,4,3:0:0:0:
14,73,34659,1,4,3:0:0:0:
12,87,34747,1,4,3:0:0:0:
99,4,34923,5,4,3:0:0:0:
112,8,35012,1,4,3:0:0:0:
125,14,35100,1,4,3:0:0:0:
137,21,35188,1,4,3:0:0:0:
148,29,35276,1,4,3:0:0:0:
158,39,35365,1,4,3:0:0:0:
177,76,35453,2,0,P|175:123|166:184,1,104.999996795654,12|0,3:2|0:0,0:0:0:0:
185,265,35806,70,0,P|228:275|266:293,1,80,0|0,1:0|0:0,0:0:0:0:
111,337,36159,2,0,L|94:242,1,80,0|0,1:0|0:0,0:0:0:0:
271,335,36512,2,0,P|335:353|406:364,1,120,10|0,0:0|0:0,0:0:0:0:
428,382,36865,1,2,3:0:0:0:
428,382,37041,1,0,1:0:0:0:
506,328,37217,5,0,0:0:0:0:
431,267,37394,1,0,1:0:0:0:
435,251,37482,1,0,1:0:0:0:
439,235,37570,2,0,L|469:101,1,120,0|0,1:0|0:0,0:0:0:0:
486,83,37923,1,10,0:0:0:0:
365,220,38276,1,0,1:0:0:0:
361,236,38365,1,0,1:0:0:0:
357,252,38453,1,8,0:0:0:0:
315,125,38629,70,0,P|275:111|236:109,1,80,0|0,1:0|0:0,0:0:0:0:
341,23,38982,2,0,P|383:26|421:18,1,80,0|0,1:0|0:0,0:0:0:0:
219,64,39335,2,0,P|186:96|148:166,1,120,10|0,0:0|0:0,0:0:0:0:
132,197,39688,1,2,3:0:0:0:
132,197,39865,1,0,1:0:0:0:
218,237,40041,5,0,0:0:0:0:
186,326,40217,1,0,1:0:0:0:
170,330,40306,1,0,1:0:0:0:
154,334,40394,2,0,L|20:364,1,120,0|0,1:0|0:0,0:0:0:0:
2,381,40747,2,0,P|21:329|23:294,1,80,14|0,0:0|1:0,0:0:0:0:
113,119,41100,2,0,L|133:203,1,80,8|0,0:0|1:0,0:0:0:0:
126,239,41365,1,0,1:0:0:0:
126,239,41453,6,0,P|82:223|40:214,1,89.9999972534181,8|0,0:0|1:0,0:0:0:0:
151,47,41806,2,0,P|190:38|237:20,1,89.9999972534181,8|0,0:0|1:0,0:0:0:0:
42,89,42159,1,8,0:0:0:0:
232,115,42335,1,0,1:0:0:0:
185,307,42512,1,8,0:0:0:0:
199,118,42688,1,0,1:0:0:0:
389,92,42865,5,8,0:0:0:0:
346,160,43041,1,0,1:0:0:0:
328,156,43129,1,0,1:0:0:0:
310,152,43217,2,0,P|291:210|281:289,1,129.999994049073,8|0,0:0|1:0,0:0:0:0:
467,233,43570,2,0,P|475:277|475:339,1,89.9999972534181,8|0,0:0|1:0,0:0:0:0:
260,278,43923,2,0,P|252:322|252:384,1,89.9999972534181,8|0,0:0|1:0,0:0:0:0:
415,173,44276,69,12,0:0:0:0:
362,369,44453,1,0,1:0:0:0:
448,343,44629,1,8,0:0:0:0:
328,61,44806,1,0,1:0:0:0:
294,144,44982,5,8,0:0:0:0:
479,56,45159,1,0,1:0:0:0:
412,262,45335,1,8,0:0:0:0:
446,62,45512,1,0,1:0:0:0:
226,101,45688,69,8,0:0:0:0:
276,8,45865,1,8,1:3:0:0:
283,33,45953,1,0,1:0:0:0:
291,58,46041,1,0,1:0:0:0:
161,144,46217,1,4,1:3:0:0:
270,348,46394,53,12,0:0:0:0:
270,348,46570,1,0,0:0:0:0:
270,348,46747,1,0,0:0:0:0:
270,348,46923,1,0,0:0:0:0:
8,367,47100,54,0,P|52:330|111:314,1,110.000003356934,4|0,3:0|1:0,0:0:0:0:
181,134,47453,1,8,0:0:0:0:
19,114,47629,2,0,L|84:122,1,55.0000016784668,0|0,1:0|3:0,0:0:0:0:
200,136,47806,1,8,0:0:0:0:
101,314,47982,1,2,1:3:0:0:
98,286,48070,1,0,1:0:0:0:
95,258,48159,2,0,P|150:289|212:296,1,110.000003356934,8|0,3:2|1:0,0:0:0:0:
406,230,48512,5,8,0:0:0:0:
216,184,48688,1,0,1:0:0:0:
319,32,48865,1,8,0:0:0:0:
478,175,49041,1,0,1:0:0:0:
478,175,49129,1,0,1:0:0:0:
478,175,49217,2,0,P|468:122|456:89,1,89.9999972534181,8|0,0:0|1:0,0:0:0:0:
307,175,49570,1,8,0:0:0:0:
409,8,49747,1,2,1:3:0:0:
406,246,49923,70,0,B|409:290|365:311|365:311|305:284|228:275,1,220.000006713867,12|8,0:0|3:2,0:0:0:0:
114,91,50453,1,0,1:0:0:0:
87,98,50541,1,2,1:3:0:0:
60,105,50629,2,0,P|26:48|32:-2,1,110.000003356934,8|0,0:0|1:0,0:0:0:0:
22,217,50982,1,8,0:0:0:0:
182,337,51159,1,0,1:0:0:0:
201,137,51335,5,8,3:2:0:0:
228,130,51423,1,0,3:0:0:0:
255,123,51512,1,2,1:3:0:0:
380,5,51688,2,0,B|373:143,1,119.999996337891,8|2,3:2|1:3,0:0:0:0:
182,337,52041,2,0,B|174:197,1,129.999994049073,8|2,0:0|1:3,0:0:0:0:
95,23,52394,1,8,3:2:0:0:
289,155,52570,1,0,1:0:0:0:
63,286,52747,70,0,P|32:238|20:184,1,110.000003356934,4|0,3:0|1:0,0:0:0:0:
95,23,53100,1,8,0:0:0:0:
125,163,53276,2,0,P|113:137|106:106,1,55.0000016784668,2|0,1:3|3:0,0:0:0:0:
92,0,53453,1,8,3:2:0:0:
159,245,53629,1,2,1:3:0:0:
230,50,53806,1,8,3:2:0:0:
230,50,53982,1,2,1:3:0:0:
467,142,54159,5,8,0:0:0:0:
382,357,54335,1,0,1:0:0:0:
141,298,54512,1,8,0:0:0:0:
241,76,54688,1,0,1:0:0:0:
241,76,54776,1,0,1:0:0:0:
241,76,54865,2,0,P|322:73|399:17,1,150.000005722046,8|0,0:0|1:0,0:0:0:0:
146,112,55217,2,0,P|85:98|10:86,1,129.999994049073,8|2,0:0|1:3,0:0:0:0:
16,312,55570,70,0,B|34:258|34:258|89:231|89:231|140:270|128:336,1,220.000006713867,12|8,0:0|3:2,0:0:0:0:
301,377,56100,1,0,1:0:0:0:
328,374,56188,1,0,3:0:0:0:
355,371,56276,1,8,0:0:0:0:
267,192,56453,1,0,1:0:0:0:
240,189,56541,1,0,1:0:0:0:
212,186,56629,2,0,P|211:250|233:306,1,110.000003356934,8|0,0:0|1:0,0:0:0:0:
426,330,56982,5,8,3:2:0:0:
453,327,57070,1,0,3:0:0:0:
480,324,57159,1,2,1:3:0:0:
504,129,57335,1,8,3:2:0:0:
322,254,57512,1,2,1:3:0:0:
507,321,57688,5,8,0:0:0:0:
510,301,57776,1,0,1:0:0:0:
512,281,57865,2,0,P|489:271|458:264,1,50,2|0,1:3|1:0,0:0:0:0:
381,124,58041,5,2,1:3:0:0:
378,104,58129,1,0,1:0:0:0:
376,83,58217,2,0,P|399:73|430:66,1,50,2|0,1:3|1:0,0:0:0:0:
194,10,58394,38,0,L|177:119,1,110.000003356934,4|0,3:0|1:0,0:0:0:0:
23,228,58747,1,8,0:0:0:0:
0,372,58923,2,0,L|10:311,1,55.0000016784668,0|0,1:0|3:0,0:0:0:0:
28,199,59100,1,8,0:0:0:0:
257,148,59276,1,2,1:3:0:0:
282,160,59365,1,0,1:0:0:0:
308,169,59453,2,0,P|372:188|427:199,1,110.000003356934,8|0,3:2|1:0,0:0:0:0:
241,279,59806,5,8,0:0:0:0:
419,358,59982,1,0,1:0:0:0:
495,186,60159,1,8,0:0:0:0:
328,259,60335,1,0,1:0:0:0:
328,259,60423,1,0,1:0:0:0:
328,259,60512,2,0,P|288:270|231:280,1,89.9999972534181,8|2,0:0|1:3,0:0:0:0:
101,202,60865,1,8,0:0:0:0:
228,371,61041,1,2,1:3:0:0:
22,384,61217,70,0,P|49:292|62:212,1,165.000005035401,12|0,0:0|0:0,0:0:0:0:
27,138,61570,1,8,3:2:0:0:
119,8,61747,1,0,1:0:0:0:
134,30,61835,1,0,3:0:0:0:
149,52,61923,2,0,P|162:108|151:168,1,110.000003356934,8|0,0:0|1:0,0:0:0:0:
2,57,62276,1,8,0:0:0:0:
125,233,62453,1,0,1:0:0:0:
243,77,62629,5,8,3:2:0:0:
258,55,62717,1,0,3:0:0:0:
273,32,62806,1,2,1:3:0:0:
319,255,62982,2,0,L|200:222,1,119.999996337891,8|2,3:2|1:3,0:0:0:0:
467,330,63335,2,0,L|339:365,1,129.999994049073,8|2,0:0|1:3,0:0:0:0:
396,169,63688,1,8,3:2:0:0:
479,358,63865,1,2,1:3:0:0:
504,158,64041,70,0,P|492:97|474:42,1,110.000003356934,4|0,3:0|1:0,0:0:0:0:
306,156,64394,1,8,0:0:0:0:
338,16,64570,2,0,L|323:82,1,55.0000016784668,2|0,1:3|3:0,0:0:0:0:
301,182,64747,1,8,3:2:0:0:
452,321,64923,1,2,1:3:0:0:
452,321,65100,2,0,P|423:272|403:214,1,110.000003356934,8|0,3:2|1:0,0:0:0:0:
232,384,65453,5,8,0:0:0:0:
280,150,65629,1,0,1:0:0:0:
111,345,65806,1,8,0:0:0:0:
377,381,65982,1,0,1:0:0:0:
377,381,66070,1,0,1:0:0:0:
377,381,66159,2,0,B|360:324|360:324|386:223,1,150.000005722046,8|0,0:0|1:0,0:0:0:0:
492,73,66512,1,8,0:0:0:0:
465,272,66688,1,2,1:3:0:0:
402,54,66865,70,0,P|337:123|201:112,1,220.000006713867,12|8,0:0|3:2,0:0:0:0:
60,11,67394,1,0,1:0:0:0:
87,14,67482,1,0,3:0:0:0:
114,17,67570,2,0,P|170:42|203:93,1,110.000003356934,8|0,0:0|1:0,0:0:0:0:
124,255,67835,1,0,1:0:0:0:
124,255,67923,2,0,L|-1:286,1,110.000003356934,8|0,0:0|1:0,0:0:0:0:
228,229,68276,5,8,3:2:0:0:
221,201,68365,1,0,3:0:0:0:
215,174,68453,1,2,1:3:0:0:
121,343,68629,1,8,3:2:0:0:
315,384,68806,1,2,1:3:0:0:
321,186,68982,2,0,P|320:138|287:76,1,110.000003356934,8|2,0:0|1:3,0:0:0:0:
85,68,69335,2,0,P|133:67|195:34,1,110.000003356934,8|0,3:2|1:0,0:0:0:0:
403,12,69688,5,8,3:2:0:0:
401,31,69776,1,0,1:0:0:0:
400,51,69865,2,0,L|397:102,1,50,0|0,1:0|1:0,0:0:0:0:
505,239,70041,5,0,1:0:0:0:
503,220,70129,1,0,1:0:0:0:
502,200,70217,2,0,L|498:148,1,50,0|0,1:0|1:0,0:0:0:0:
351,185,70394,53,8,0:0:0:0:
471,368,70570,1,8,0:0:0:0:
255,327,70747,1,8,0:0:0:0:
367,141,70923,1,8,0:0:0:0:
452,338,71100,38,0,B|422:371|422:371|367:381,1,100,4|0,3:0|1:0,0:0:0:0:
462,225,71453,2,0,B|486:262|486:262|481:318,1,100,4|0,3:0|1:0,0:0:0:0:
274,366,71806,2,0,L|157:352,1,100,10|0,0:0|1:0,0:0:0:0:
337,302,72159,1,8,3:0:0:0:
169,336,72335,2,0,L|268:347,1,100,8|2,3:0|1:2,0:0:0:0:
294,231,72688,5,4,3:0:0:0:
297,211,72776,1,4,3:0:0:0:
302,191,72865,1,4,3:0:0:0:
337,302,73041,1,8,3:0:0:0:
500,167,73217,2,0,P|437:131|403:127,1,100,10|0,0:0|1:0,0:0:0:0:
235,162,73570,1,4,3:0:0:0:
238,142,73659,1,4,3:0:0:0:
242,122,73747,1,8,0:0:0:0:
91,49,73923,70,0,B|61:16|61:16|6:6,1,100,4|0,3:0|1:0,0:0:0:0:
101,162,74276,2,0,B|125:125|125:125|120:69,1,100,4|0,3:0|1:0,0:0:0:0:
66,272,74629,2,0,L|183:258,1,100,10|0,0:0|1:0,0:0:0:0:
3,208,74982,1,8,3:0:0:0:
171,242,75159,2,0,L|72:253,1,100,8|2,3:0|1:2,0:0:0:0:
25,363,75512,5,4,3:0:0:0:
22,343,75600,1,4,3:0:0:0:
19,323,75688,1,4,3:0:0:0:
3,208,75865,1,8,3:0:0:0:
172,337,76041,2,0,P|217:364|277:371,1,100,10|0,0:0|1:0,0:0:0:0:
342,232,76394,2,0,B|341:213|329:194|329:194|349:165|345:121,1,100,4|0,3:0|1:0,0:0:0:0:
310,69,76659,1,0,1:0:0:0:
310,69,76747,70,0,P|366:32|421:30,1,100,4|0,3:0|1:0,0:0:0:0:
497,124,77100,2,0,P|473:80|434:50,1,100,4|0,3:0|1:0,0:0:0:0:
225,13,77453,2,0,L|119:45,1,100,10|0,0:0|1:0,0:0:0:0:
268,142,77806,1,8,3:0:0:0:
120,57,77982,1,8,3:0:0:0:
69,225,78159,5,2,1:2:0:0:
15,124,78335,1,4,3:0:0:0:
34,127,78423,1,4,3:0:0:0:
53,130,78512,1,4,3:0:0:0:
148,198,78688,1,8,3:0:0:0:
18,366,78865,2,0,P|19:299|33:251,1,100,10|0,0:0|1:0,0:0:0:0:
128,120,79217,1,4,3:0:0:0:
147,123,79306,1,4,3:0:0:0:
166,126,79394,1,8,0:0:0:0:
312,212,79570,69,4,3:0:0:0:
450,186,79747,1,8,0:0:0:0:
338,104,79923,2,0,P|298:162|292:217,1,100,4|0,3:0|1:0,0:0:0:0:
458,263,80276,1,10,0:0:0:0:
456,243,80365,1,4,0:3:0:0:
454,224,80453,1,4,0:3:0:0:
452,205,80541,1,4,0:3:0:0:
450,186,80629,2,0,L|439:75,1,100,4|0,0:0|1:0,0:0:0:0:
409,341,80982,5,4,1:2:0:0:
338,237,81159,1,4,3:0:0:0:
336,217,81247,1,4,3:0:0:0:
334,198,81335,1,4,3:0:0:0:
241,114,81512,69,8,3:0:0:0:
258,238,81688,1,10,0:0:0:0:
256,258,81776,1,0,1:0:0:0:
254,277,81865,1,0,1:0:0:0:
180,377,82041,1,0,1:0:0:0:
304,384,82217,1,8,0:0:0:0:
125,210,82394,53,4,1:0:0:0:
144,190,82570,2,0,P|183:178|219:173,1,69.9999978637696,0|0,3:0|1:0,0:0:0:0:
277,128,82923,1,0,3:0:0:0:
434,171,83100,1,0,1:0:0:0:
492,115,83276,1,0,3:0:0:0:
474,92,83453,2,0,L|483:14,1,69.9999978637696,2|0,1:3|0:0,0:0:0:0:
406,160,83806,5,2,1:3:0:0:
406,160,83982,1,0,3:0:0:0:
366,90,84159,2,0,P|323:81|288:77,1,69.9999978637696,0|0,1:0|3:0,0:0:0:0:
159,13,84512,1,8,1:3:0:0:
238,29,84688,1,8,3:0:0:0:
143,36,84865,2,0,P|134:73|118:111,1,69.9999978637696,2|0,1:3|0:0,0:0:0:0:
136,253,85217,70,0,P|95:228|73:205,1,69.9999978637696,0|0,1:0|3:0,0:0:0:0:
40,149,85570,2,0,P|40:183|47:218,1,69.9999978637696,0|0,1:0|3:0,0:0:0:0:
259,278,85923,2,0,P|259:312|252:347,1,69.9999978637696,2|0,1:2|3:0,0:0:0:0:
163,382,86276,2,0,P|204:357|226:334,1,69.9999978637696,0|0,1:0|3:0,0:0:0:0:
310,198,86629,6,0,P|361:205|395:217,1,69.9999978637696,2|0,1:3|3:0,0:0:0:0:
410,210,86894,1,0,3:0:0:0:
410,210,86982,2,0,P|438:178|449:142,1,69.9999978637696,2|0,1:3|3:0,0:0:0:0:
492,31,87335,2,0,P|456:46|356:25,1,139.999995727539,8|2,1:3|1:3,0:0:0:0:
283,2,87865,1,0,3:0:0:0:
328,173,88041,69,4,1:0:0:0:
309,153,88217,2,0,P|269:141|233:136,1,69.9999978637696,0|0,3:0|1:0,0:0:0:0:
195,70,88570,1,8,3:0:0:0:
159,226,88747,1,2,1:2:0:0:
85,258,88923,1,0,3:0:0:0:
67,236,89100,2,0,P|48:198|41:167,1,69.9999978637696,4|0,3:0|0:0,0:0:0:0:
73,22,89453,5,4,3:0:0:0:
73,22,89629,1,0,3:0:0:0:
37,92,89806,2,0,L|113:107,1,69.9999978637696,4|0,1:3|3:0,0:0:0:0:
254,82,90159,1,8,1:3:0:0:
220,9,90335,1,8,3:0:0:0:
230,162,90512,2,0,P|226:197|211:244,1,69.9999978637696,4|0,1:2|3:0,0:0:0:0:
145,107,90865,70,0,P|127:171|117:264,1,139.999995727539,4|0,1:2|1:0,0:0:0:0:
68,307,91394,1,0,3:0:0:0:
197,262,91570,2,0,P|231:254|265:251,1,69.9999978637696,2|0,1:2|3:0,0:0:0:0:
349,268,91923,1,0,1:0:0:0:
349,268,92100,1,0,3:0:0:0:
432,369,92276,6,0,B|485:322|485:322|477:284|438:262,2,139.999995727539,2|2|2,1:3|1:3|1:3,0:0:0:0:
315,380,93159,1,4,3:0:0:0:
317,366,93247,1,4,3:0:0:0:
334,328,93335,2,0,P|329:277|315:205,1,104.999996795654,12|0,3:2|0:0,0:0:0:0:
357,146,93688,70,0,P|405:143|455:136,1,80,0|0,1:0|0:0,0:0:0:0:
339,13,94041,2,0,P|313:48|301:91,1,80,0|0,1:0|0:0,0:0:0:0:
474,161,94394,2,0,B|485:170|492:190|492:190|468:216|412:215,1,120,10|0,0:0|0:0,0:0:0:0:
378,233,94747,1,2,3:0:0:0:
378,233,94923,1,0,1:0:0:0:
304,293,95100,5,0,0:0:0:0:
226,239,95276,1,0,1:0:0:0:
229,223,95365,1,0,1:0:0:0:
232,207,95453,2,0,L|258:76,1,120,0|0,1:0|0:0,0:0:0:0:
279,56,95806,1,10,0:0:0:0:
158,193,96159,1,0,1:0:0:0:
155,209,96247,1,0,1:0:0:0:
152,225,96335,1,8,0:0:0:0:
33,151,96512,70,0,L|115:116,1,80,0|0,1:0|0:0,0:0:0:0:
205,24,96865,2,0,L|287:59,1,80,0|0,1:0|0:0,0:0:0:0:
121,161,97217,2,0,P|99:196|128:275,1,120,10|0,0:0|0:0,0:0:0:0:
141,307,97570,1,2,3:0:0:0:
141,307,97747,1,0,1:0:0:0:
198,384,97923,5,0,0:0:0:0:
268,318,98100,1,0,1:0:0:0:
284,322,98188,1,0,1:0:0:0:
300,326,98276,2,0,L|434:356,1,120,0|0,1:0|0:0,0:0:0:0:
451,373,98629,2,0,P|470:326|496:293,1,80,14|0,0:0|1:0,0:0:0:0:
370,139,98982,1,8,0:0:0:0:
491,169,99159,1,0,1:0:0:0:
489,184,99247,1,0,1:0:0:0:
487,201,99335,6,0,P|442:222|386:233,1,89.9999972534181,8|0,0:0|1:0,0:0:0:0:
285,66,99688,2,0,P|328:76|369:96,1,89.9999972534181,8|0,0:0|1:0,0:0:0:0:
340,295,100041,1,8,0:0:0:0:
399,113,100217,1,0,1:0:0:0:
512,272,100394,1,8,0:0:0:0:
377,135,100570,1,0,1:0:0:0:
235,268,100747,5,8,0:0:0:0:
300,316,100923,1,0,1:0:0:0:
308,299,101012,1,0,1:0:0:0:
316,282,101100,2,0,P|314:228|286:148,1,129.999994049073,8|0,0:0|1:0,0:0:0:0:
96,184,101453,2,0,P|102:133|120:82,1,89.9999972534181,8|0,0:0|1:0,0:0:0:0:
329,149,101806,2,0,P|323:98|305:47,1,89.9999972534181,8|0,0:0|1:0,0:0:0:0:
404,298,102159,69,12,0:0:0:0:
468,108,102335,1,0,1:0:0:0:
504,190,102512,1,8,0:0:0:0:
245,16,102688,1,0,1:0:0:0:
331,41,102865,5,8,0:0:0:0:
141,114,103041,1,0,1:0:0:0:
316,246,103217,1,8,0:0:0:0:
172,101,103394,1,0,1:0:0:0:
396,97,103570,69,8,0:0:0:0:
321,170,103747,1,8,1:3:0:0:
324,152,103835,1,0,1:0:0:0:
327,134,103923,1,0,1:0:0:0:
465,60,104100,1,4,1:3:0:0:
497,273,104276,54,0,P|472:240|389:217,1,119.999996337891,12|0,0:0|0:0,0:0:0:0:
316,246,104806,1,0,0:0:0:0:
204,109,104982,54,0,P|197:169|185:224,1,110.000003356934,4|0,3:0|1:0,0:0:0:0:
89,363,105335,1,8,0:0:0:0:
107,229,105512,2,0,P|100:255|95:293,1,55.0000016784668,0|0,1:0|3:0,0:0:0:0:
90,384,105688,1,8,0:0:0:0:
108,131,105865,1,2,1:3:0:0:
81,138,105953,1,0,1:0:0:0:
57,151,106041,2,0,P|21:190|2:254,1,110.000003356934,8|0,3:2|1:0,0:0:0:0:
174,373,106394,5,8,0:0:0:0:
122,175,106570,1,0,1:0:0:0:
72,362,106747,1,8,0:0:0:0:
220,201,106923,1,0,1:0:0:0:
220,201,107012,1,0,1:0:0:0:
220,201,107100,2,0,P|265:212|332:245,1,89.9999972534181,8|2,0:0|1:3,0:0:0:0:
418,384,107453,1,8,0:0:0:0:
383,193,107629,1,2,1:3:0:0:
299,383,107806,70,0,P|290:337|171:309,1,165.000005035401,12|0,0:0|0:0,0:0:0:0:
139,372,108159,1,8,3:2:0:0:
24,224,108335,1,0,1:0:0:0:
20,251,108423,1,0,3:0:0:0:
16,278,108512,1,8,0:0:0:0:
189,200,108688,1,0,1:0:0:0:
121,20,108865,2,0,P|81:58|48:125,1,110.000003356934,8|0,0:0|1:0,0:0:0:0:
95,302,109217,5,8,3:2:0:0:
99,275,109306,1,0,3:0:0:0:
103,248,109394,1,2,1:3:0:0:
285,119,109570,2,0,L|271:-12,1,119.999996337891,8|2,3:2|1:3,0:0:0:0:
500,164,109923,2,0,L|486:295,1,129.999994049073,8|2,0:0|1:3,0:0:0:0:
299,365,110276,1,8,0:0:0:0:
389,180,110453,1,0,1:0:0:0:
267,6,110629,70,0,P|295:57|304:107,1,110.000003356934,4|0,3:0|1:0,0:0:0:0:
216,273,110982,1,8,0:0:0:0:
204,131,111159,2,0,P|215:168|215:193,1,55.0000016784668,2|0,1:3|3:0,0:0:0:0:
211,304,111335,1,8,3:2:0:0:
120,118,111512,1,2,1:3:0:0:
308,223,111688,1,8,3:2:0:0:
308,223,111865,1,2,1:3:0:0:
74,295,112041,5,8,0:0:0:0:
298,384,112217,1,0,1:0:0:0:
46,284,112394,1,8,0:0:0:0:
267,139,112570,1,0,1:0:0:0:
267,139,112659,1,0,1:0:0:0:
267,139,112747,2,0,B|255:41|255:41|200:19,1,150.000005722046,8|0,0:0|1:0,0:0:0:0:
12,161,113100,2,0,L|155:169,1,129.999994049073,8|2,0:0|1:3,0:0:0:0:
333,265,113453,70,0,B|289:302|296:371|296:371|366:392|401:333,1,220.000006713867,12|8,0:0|3:2,0:0:0:0:
323,158,113982,1,0,1:0:0:0:
295,153,114070,1,2,1:3:0:0:
267,148,114159,1,8,0:0:0:0:
434,276,114335,1,0,1:0:0:0:
462,271,114423,1,0,1:0:0:0:
490,266,114512,2,0,P|512:323|484:377,1,110.000003356934,8|0,0:0|1:0,0:0:0:0:
423,179,114865,5,8,3:2:0:0:
451,174,114953,1,0,3:0:0:0:
479,169,115041,1,2,1:3:0:0:
332,30,115217,1,8,3:2:0:0:
512,80,115394,1,2,1:3:0:0:
316,8,115570,69,12,0:0:0:0:
351,212,115747,1,2,1:3:0:0:
157,136,115923,1,12,3:2:0:0:
287,5,116100,1,0,1:0:0:0:
295,31,116188,1,0,1:0:0:0:
303,57,116276,6,0,B|278:112|268:188,1,110.000003356934,4|0,3:0|1:0,0:0:0:0:
296,351,116629,1,8,0:0:0:0:
220,234,116806,2,0,P|240:255|258:283,1,55.0000016784668,0|0,1:0|3:0,0:0:0:0:
308,375,116982,1,8,0:0:0:0:
87,340,117159,2,0,P|115:329|140:322,1,55.0000016784668,2|0,1:3|1:0,0:0:0:0:
334,283,117335,2,0,P|388:272|449:269,1,110.000003356934,8|0,3:2|1:0,0:0:0:0:
239,327,117688,69,8,0:0:0:0:
321,150,117865,1,0,1:0:0:0:
134,199,118041,1,8,0:0:0:0:
219,26,118217,1,0,1:0:0:0:
219,26,118306,1,0,1:0:0:0:
219,26,118394,2,0,P|227:77|242:137,1,89.9999972534181,8|2,0:0|1:3,0:0:0:0:
395,0,118747,1,8,0:0:0:0:
311,173,118923,1,2,1:3:0:0:
512,124,119100,6,0,P|453:105|351:88,1,165.000005035401,12|0,0:0|0:0,0:0:0:0:
270,41,119453,1,8,3:2:0:0:
97,115,119629,1,0,1:0:0:0:
104,88,119717,1,0,3:0:0:0:
111,61,119806,2,0,P|53:45|-6:39,1,110.000003356934,8|0,0:0|1:0,0:0:0:0:
97,212,120159,1,8,0:0:0:0:
275,121,120335,1,0,1:0:0:0:
231,316,120512,69,8,3:2:0:0:
224,343,120600,1,0,3:0:0:0:
217,370,120688,1,2,1:3:0:0:
283,146,120865,2,0,L|307:279,1,119.999996337891,8|2,3:2|1:3,0:0:0:0:
314,11,121217,2,0,L|391:121,1,129.999994049073,8|2,0:0|1:3,0:0:0:0:
189,175,121570,1,8,3:2:0:0:
297,0,121747,1,2,1:3:0:0:
478,147,121923,6,0,P|494:211|494:275,1,110.000003356934,4|0,3:0|1:0,0:0:0:0:
351,369,122276,1,8,0:0:0:0:
488,339,122453,2,0,L|420:354,1,55.0000016784668,2|0,1:3|3:0,0:0:0:0:
325,375,122629,1,8,3:2:0:0:
390,172,122806,1,2,1:3:0:0:
390,172,122982,2,0,P|338:154|281:141,1,110.000003356934,8|0,3:2|1:0,0:0:0:0:
97,45,123335,69,8,0:0:0:0:
334,16,123512,1,0,1:0:0:0:
168,216,123688,1,8,0:0:0:0:
22,8,123865,1,0,1:0:0:0:
22,8,123953,1,0,1:0:0:0:
22,8,124041,2,0,B|13:58|13:58|28:96|28:96|21:154,1,150.000005722046,8|2,0:0|1:3,0:0:0:0:
59,359,124394,1,8,0:0:0:0:
109,155,124570,1,2,1:3:0:0:
284,336,124747,6,0,B|257:355|242:379|242:379|192:354|124:347,1,165.000005035401,12|0,0:0|0:0,0:0:0:0:
58,310,125100,1,8,3:2:0:0:
190,173,125276,1,0,1:0:0:0:
188,145,125365,1,0,3:0:0:0:
187,117,125453,1,8,0:0:0:0:
27,48,125629,1,0,1:0:0:0:
25,76,125717,1,0,1:0:0:0:
24,103,125806,2,0,P|70:143|100:189,1,110.000003356934,8|0,0:0|1:0,0:0:0:0:
270,77,126159,69,8,3:2:0:0:
268,49,126247,1,0,3:0:0:0:
267,21,126335,1,2,1:3:0:0:
308,222,126512,1,8,3:2:0:0:
369,34,126688,1,2,1:3:0:0:
512,201,126865,2,0,P|457:203|402:210,1,110.000003356934,8|2,0:0|1:3,0:0:0:0:
369,34,127217,2,0,P|431:26|483:24,1,110.000003356934,8|0,3:2|1:0,0:0:0:0:
321,189,127570,21,8,3:2:0:0:
317,208,127659,1,0,1:0:0:0:
314,227,127747,1,0,1:0:0:0:
310,246,127835,1,0,1:0:0:0:
307,264,127923,5,4,0:3:0:0:
215,225,128100,1,0,1:0:0:0:
145,294,128276,1,4,0:3:0:0:
222,357,128453,69,0,1:0:0:0:
240,358,128541,1,0,1:0:0:0:
259,360,128629,1,0,1:0:0:0:
278,362,128717,1,0,1:0:0:0:
298,365,128806,1,0,1:0:0:0:
317,367,128894,1,0,1:0:0:0:
336,370,128982,5,4,1:2:0:0:
64,362,129335,22,0,L|62:341,4,20
14,276,130923,1,4,0:0:0:0:
300,220,131100,21,8,0:0:0:0:
245,159,131276,2,0,L|230:124,2,29.9999990844727,0|0|0,1:0|1:0|1:0,0:0:0:0:
310,99,131453,2,0,L|288:48,1,44.999998626709,0|0,1:0|1:0,0:0:0:0:
222,10,131629,69,0,1:0:0:0:
207,12,131688,5,0,1:0:0:0:
192,14,131747,69,0,1:0:0:0:
177,16,131806,21,4,1:2:0:0:
134,96,132512,1,4,0:0:0:0:
195,164,133217,1,4,0:0:0:0:
177,16,133570,5,8,0:0:0:0:
134,96,133747,1,4,0:3:0:0:
195,164,133923,1,0,1:0:0:0:
229,153,134100,1,0,1:0:0:0:
312,192,134276,1,0,1:0:0:0:
346,181,134453,1,0,1:0:0:0:
465,59,134629,70,0,P|475:109|481:196,1,119.999996337891,4|0,1:2|1:0,0:0:0:0:
344,14,135335,1,12,0:0:0:0:
320,101,135688,1,0,1:0:0:0:
391,139,135865,1,4,0:3:0:0:
389,165,135953,1,4,0:3:0:0:
387,191,136041,5,4,1:2:0:0:
443,249,136217,2,0,P|447:306|458:375,1,119.999996337891,0|0,1:0|1:0,0:0:0:0:
340,255,136747,2,0,P|308:247|278:234,1,59.9999981689454,12|0,0:0|0:0,0:0:0:0:
243,306,137100,2,0,P|212:319|176:326,1,59.9999981689454,0|4,0:0|0:3,0:0:0:0:
169,346,137365,1,4,0:3:0:0:
169,346,137453,70,0,P|110:352|46:362,1,119.999996337891,4|0,1:2|1:0,0:0:0:0:
274,384,138159,1,12,0:0:0:0:
274,384,138865,5,4,0:0:0:0:
337,334,139041,1,0,1:0:0:0:
333,307,139129,1,0,1:0:0:0:
330,280,139217,1,0,1:0:0:0:
327,253,139306,1,0,1:0:0:0:
323,226,139394,1,0,1:0:0:0:
320,199,139482,1,0,1:0:0:0:
316,172,139570,1,4,0:3:0:0:
240,201,139747,1,4,0:3:0:0:
124,10,139923,70,0,L|148:6,1,14.9999995422363,8|0,0:0|0:0,0:0:0:0:
124,10,140276,21,4,3:0:0:0:
57,70,140453,1,2,1:3:0:0:
41,158,140629,1,4,3:0:0:0:
61,245,140806,1,2,1:3:0:0:
228,155,140982,5,10,0:0:0:0:
141,130,141159,1,2,1:3:0:0:
227,108,141335,1,8,3:0:0:0:
215,198,141512,1,8,3:0:0:0:
284,21,141688,69,2,1:2:0:0:
320,105,141865,1,4,3:0:0:0:
340,102,141953,1,4,3:0:0:0:
360,98,142041,1,4,3:0:0:0:
396,182,142217,1,8,3:0:0:0:
494,18,142394,5,10,3:2:0:0:
458,102,142570,1,2,1:3:0:0:
443,13,142747,2,0,L|497:31,1,50,4|4,3:0|3:0,0:0:0:0:
454,112,142923,1,8,3:2:0:0:
345,268,143100,69,4,3:0:0:0:
371,355,143276,1,2,1:3:0:0:
459,337,143453,1,4,3:0:0:0:
439,249,143629,1,2,1:3:0:0:
240,188,143806,5,10,0:0:0:0:
214,275,143982,1,2,1:3:0:0:
156,206,144159,1,8,3:0:0:0:
236,167,144335,1,8,3:0:0:0:
67,143,144512,69,2,1:2:0:0:
11,213,144688,1,4,3:0:0:0:
15,232,144776,1,4,3:0:0:0:
19,251,144865,1,4,3:0:0:0:
75,321,145041,1,8,3:0:0:0:
256,377,145217,6,0,B|250:334|283:297|283:297|278:284|278:284|281:273|281:273|285:230|249:187,1,200,10|2,0:0|3:0,0:0:0:0:
152,80,145747,21,0,1:0:0:0:
166,76,145806,69,0,1:0:0:0:
180,72,145865,5,0,1:0:0:0:
194,68,145923,37,4,3:0:0:0:
264,11,146100,1,2,1:3:0:0:
341,56,146276,1,4,3:0:0:0:
312,141,146453,1,2,1:3:0:0:
485,218,146629,5,10,0:0:0:0:
480,127,146806,1,2,1:3:0:0:
447,210,146982,1,8,3:0:0:0:
483,292,147159,1,8,3:0:0:0:
301,346,147335,69,2,1:2:0:0:
281,257,147512,1,4,3:0:0:0:
300,257,147600,1,4,3:0:0:0:
319,257,147688,1,4,3:0:0:0:
301,168,147865,1,8,3:0:0:0:
127,94,148041,5,10,0:0:0:0:
163,10,148217,1,2,1:3:0:0:
178,99,148394,2,0,L|124:81,1,50,4|4,3:0|3:0,0:0:0:0:
167,0,148570,1,8,3:2:0:0:
30,132,148747,69,4,3:0:0:0:
101,185,148923,1,2,1:3:0:0:
18,220,149100,1,4,3:0:0:0:
89,273,149276,1,2,1:3:0:0:
268,209,149453,5,10,0:0:0:0:
266,228,149541,1,4,0:3:0:0:
264,247,149629,1,4,3:0:0:0:
262,266,149717,1,4,0:3:0:0:
260,286,149806,1,4,0:0:0:0:
197,349,149982,1,0,1:0:0:0:
148,166,150159,69,4,1:2:0:0:
212,103,150335,1,4,3:0:0:0:
231,105,150423,1,4,3:0:0:0:
250,107,150512,1,4,3:0:0:0:
314,44,150688,1,8,3:0:0:0:
469,155,150865,5,10,0:0:0:0:
387,116,151041,1,0,1:0:0:0:
449,51,151217,1,0,1:0:0:0:
372,132,151394,1,8,0:0:0:0:
467,356,151570,69,4,1:0:0:0:
367,255,155806,53,0,3:0:0:0:
372,269,155894,1,0,3:0:0:0:
377,282,155982,1,0,3:0:0:0:
374,296,156070,1,0,3:0:0:0:
371,310,156159,1,0,3:0:0:0:
302,358,156335,1,0,3:0:0:0:
227,188,156512,5,0,3:0:0:0:
254,183,156688,1,0,3:0:0:0:
317,95,156865,1,0,3:0:0:0:
344,100,157041,1,0,3:0:0:0:
215,100,157217,70,0,P|182:80|159:49,1,69.9999978637696,4|0,3:0|3:0,0:0:0:0:
99,9,157570,1,0,0:0:0:0:
99,9,157747,1,0,3:0:0:0:
62,81,157923,2,0,L|50:161,1,69.9999978637696,0|0,0:0|3:0,0:0:0:0:
10,221,158276,1,0,3:0:0:0:
10,221,158453,1,0,0:0:0:0:
38,297,158629,6,0,P|79:312|102:329,1,69.9999978637696,0|0,3:0|3:0,0:0:0:0:
166,374,158982,2,0,L|245:359,1,69.9999978637696,0|0,0:0|3:0,0:0:0:0:
268,287,159335,2,0,L|183:268,1,69.9999978637696,0|0,0:0|3:0,0:0:0:0:
140,219,159688,1,0,3:0:0:0:
140,219,159865,1,0,0:0:0:0:
289,210,160041,70,0,P|336:196|376:175,1,69.9999978637696,4|0,3:0|3:0,0:0:0:0:
436,216,160394,1,0,0:0:0:0:
436,216,160570,1,0,3:0:0:0:
499,164,160747,2,0,P|485:117|468:92,1,69.9999978637696,0|0,0:0|3:0,0:0:0:0:
431,30,161100,1,0,0:0:0:0:
431,30,161276,1,0,3:0:0:0:
367,264,161453,5,4,1:2:0:0:
214,13,162159,69,0,0:0:0:0:
214,13,162335,1,0,0:0:0:0:
214,13,162512,1,0,0:0:0:0:
214,13,162688,1,0,0:0:0:0:
264,273,162865,54,0,B|283:250|288:222|288:222|276:154,1,110.000003356934,4|0,3:0|1:0,0:0:0:0:
137,41,163217,1,8,0:0:0:0:
300,33,163394,2,0,L|228:37,1,55.0000016784668,0|0,1:0|3:0,0:0:0:0:
119,42,163570,1,8,0:0:0:0:
278,169,163747,1,2,1:3:0:0:
305,167,163835,1,0,1:0:0:0:
332,166,163923,2,0,P|393:137|423:99,1,110.000003356934,8|0,3:2|1:0,0:0:0:0:
282,254,164276,5,8,0:0:0:0:
473,186,164453,1,0,1:0:0:0:
353,38,164629,1,8,0:0:0:0:
396,252,164806,1,0,1:0:0:0:
396,252,164894,1,0,1:0:0:0:
396,252,164982,2,0,P|383:287|347:328,1,89.9999972534181,8|0,0:0|1:0,0:0:0:0:
167,225,165335,1,8,0:0:0:0:
287,384,165512,1,2,1:3:0:0:
308,158,165688,70,0,B|293:134|272:114|272:114|240:125|240:125|191:133|108:139,1,220.000006713867,12|8,0:0|3:2,0:0:0:0:
26,305,166217,1,0,1:0:0:0:
28,277,166306,1,2,1:3:0:0:
31,249,166394,2,0,P|90:255|155:268,1,110.000003356934,8|0,0:0|1:0,0:0:0:0:
328,371,166747,1,8,0:0:0:0:
208,212,166924,1,0,1:0:0:0:
26,305,167100,5,8,3:2:0:0:
25,333,167188,1,0,3:0:0:0:
23,361,167276,1,2,1:3:0:0:
254,305,167453,2,0,L|268:174,1,119.999996337891,8|2,3:2|1:3,0:0:0:0:
43,8,167806,2,0,L|58:151,1,129.999994049073,8|2,0:0|1:3,0:0:0:0:
196,0,168159,1,8,3:2:0:0:
143,190,168335,1,0,1:0:0:0:
359,227,168512,70,0,L|473:212,1,110.000003356934,4|0,3:0|1:0,0:0:0:0:
281,148,168865,1,8,0:0:0:0:
257,289,169041,2,0,L|268:225,1,55.0000016784668,2|0,1:3|3:0,0:0:0:0:
286,120,169217,1,8,3:2:0:0:
352,328,169394,1,2,1:3:0:0:
204,175,169570,1,8,3:2:0:0:
204,175,169747,1,2,1:3:0:0:
46,332,169923,5,8,0:0:0:0:
290,379,170100,1,0,1:0:0:0:
358,142,170276,1,8,0:0:0:0:
134,20,170453,1,0,1:0:0:0:
134,20,170541,1,0,1:0:0:0:
134,20,170629,2,0,P|129:92|117:192,1,150.000005722046,8|0,0:0|1:0,0:0:0:0:
340,67,170982,2,0,L|222:-3,1,129.999994049073,8|2,0:0|1:3,0:0:0:0:
303,240,171335,70,0,B|360:244|394:204|394:204|444:178|510:191,1,220.000006713867,12|8,0:0|3:2,0:0:0:0:
425,363,171865,1,0,1:0:0:0:
397,358,171953,1,0,3:0:0:0:
369,353,172041,1,8,0:0:0:0:
443,157,172217,1,0,1:0:0:0:
471,152,172305,1,0,1:0:0:0:
499,147,172394,2,0,P|508:214|513:288,1,110.000003356934,8|0,0:0|1:0,0:0:0:0:
303,293,172747,5,8,3:2:0:0:
275,288,172835,1,0,3:0:0:0:
247,283,172923,1,2,1:3:0:0:
413,161,173100,1,8,3:2:0:0:
214,127,173276,1,2,1:3:0:0:
31,31,173453,69,12,0:0:0:0:
268,4,173629,1,2,1:3:0:0:
50,52,173806,1,12,3:2:0:0:
201,181,173982,1,0,1:0:0:0:
207,154,174070,1,0,1:0:0:0:
214,127,174159,6,0,P|200:99|139:49,1,110.000003356934,4|0,3:0|1:0,0:0:0:0:
19,192,174512,1,8,0:0:0:0:
50,52,174688,2,0,P|40:82|33:115,1,55.0000016784668,0|0,1:0|3:0,0:0:0:0:
17,220,174865,1,8,0:0:0:0:
160,359,175041,1,2,1:3:0:0:
167,332,175129,1,0,1:0:0:0:
173,305,175218,2,0,P|198:286|275:271,1,110.000003356934,8|0,3:2|1:0,0:0:0:0:
462,196,175570,69,8,0:0:0:0:
321,340,175747,1,0,1:0:0:0:
500,378,175923,1,8,0:0:0:0:
366,226,176100,1,0,1:0:0:0:
366,226,176188,1,0,1:0:0:0:
366,226,176276,2,0,L|271:213,1,89.9999972534181,8|2,0:0|1:3,0:0:0:0:
454,105,176629,1,8,0:0:0:0:
247,69,176806,1,2,1:3:0:0:
96,214,176982,6,0,P|183:225|264:239,1,165.000005035401,12|0,0:0|0:0,0:0:0:0:
327,300,177335,1,8,3:2:0:0:
496,186,177512,1,0,1:0:0:0:
493,158,177600,1,0,3:0:0:0:
490,130,177688,2,0,P|481:97|443:30,1,110.000003356934,8|0,0:0|1:0,0:0:0:0:
254,114,178041,1,8,0:0:0:0:
421,5,178217,1,0,1:0:0:0:
406,206,178394,69,8,3:2:0:0:
403,234,178482,1,0,3:0:0:0:
400,262,178570,1,2,1:3:0:0:
196,158,178747,2,0,L|224:285,1,119.999996337891,8|2,3:2|1:3,0:0:0:0:
282,7,179100,2,0,L|310:134,1,129.999994049073,8|2,0:0|1:3,0:0:0:0:
135,240,179453,1,8,3:2:0:0:
213,55,179629,1,2,1:3:0:0:
36,0,179806,6,0,P|19:51|3:119,1,110.000003356934,4|0,3:0|1:0,0:0:0:0:
187,174,180159,1,8,0:0:0:0:
147,36,180335,2,0,P|159:71|167:101,1,55.0000016784668,2|0,1:3|3:0,0:0:0:0:
192,199,180512,1,8,3:2:0:0:
27,348,180688,1,2,1:3:0:0:
27,348,180865,2,0,P|65:309|79:246,1,110.000003356934,8|0,3:2|1:0,0:0:0:0:
3,54,181217,69,8,0:0:0:0:
239,113,181394,1,0,1:0:0:0:
0,226,181570,1,8,0:0:0:0:
161,13,181747,1,0,1:0:0:0:
161,13,181835,1,0,1:0:0:0:
161,13,181923,2,0,B|199:8|237:11|237:11|221:93,1,150.000005722046,8|0,0:0|1:0,0:0:0:0:
373,204,182276,1,8,0:0:0:0:
316,25,182453,1,2,1:3:0:0:
181,217,182629,6,0,B|38:202|38:202|40:159|56:123,1,220.000006713867,12|8,0:0|3:2,0:0:0:0:
131,306,183159,1,0,1:0:0:0:
126,333,183247,1,0,3:0:0:0:
122,360,183335,2,0,P|174:375|240:382,1,110.000003356934,8|0,0:0|1:0,0:0:0:0:
380,239,183600,1,0,1:0:0:0:
380,239,183688,2,0,P|436:239|497:251,1,110.000003356934,8|0,0:0|1:0,0:0:0:0:
337,383,184041,69,8,3:2:0:0:
331,355,184129,1,0,3:0:0:0:
326,327,184217,1,2,1:3:0:0:
189,197,184394,1,8,3:2:0:0:
314,50,184570,1,2,1:3:0:0:
118,9,184747,2,0,P|55:40|22:86,1,110.000003356934,8|2,0:0|1:3,0:0:0:0:
105,250,185100,2,0,P|163:289|219:294,1,110.000003356934,8|0,3:2|1:0,0:0:0:0:
43,171,185453,5,12,3:2:0:0:
280,115,185629,1,2,1:3:0:0:
229,365,185806,1,12,3:2:0:0:
200,222,185982,1,2,1:3:0:0:
195,195,186070,1,0,3:0:0:0:
190,167,186159,69,12,3:2:0:0:
428,224,186335,1,2,1:3:0:0:
294,5,186512,2,0,L|278:128,1,110.000003356934,12|0,3:2|1:0,0:0:0:0:
120,133,186865,5,8,3:2:0:0:
100,130,186953,1,0,1:0:0:0:
80,127,187041,2,0,L|11:116,1,50,2|0,1:3|1:0,0:0:0:0:
208,246,187217,69,2,1:3:0:0:
227,243,187305,1,0,1:0:0:0:
247,240,187394,2,0,L|316:229,1,50,2|0,1:3|1:0,0:0:0:0:
129,219,187570,1,2,1:3:0:0:
177,323,187747,1,2,1:3:0:0:
500,104,187923,5,12,3:2:0:0:
