osu file format v14

[General]
AudioFilename: audio.mp3
AudioLeadIn: 0
PreviewTime: 140348
Countdown: 0
SampleSet: Normal
StackLeniency: 0.4
Mode: 1
LetterboxInBreaks: 0
WidescreenStoryboard: 1

[Editor]
Bookmarks: 23260,76377,77965,131260,134436,135848,142907,145907,148554,155965,159495
DistanceSpacing: 0.8
BeatDivisor: 1
GridSize: 32
TimelineZoom: 3.2

[Metadata]
Title:Karakurenai
TitleUnicode:からくれなゐ
Artist:UNDEAD CORPORATION
ArtistUnicode:UNDEAD CORPORATION
Creator:ASPIRIN
Version:Idol Class
Source:東方地霊殿 ~ Subterranean Animism.
Tags:touhou 11 stage 3 c82 yuugi hoshiguma 星熊 勇儀 旧地獄街道を行く 桂琳 パイン パインツリー 紅染の鬼が哭く Walking the Streets of a Former Hell ZUN
BeatmapID:1499444
BeatmapSetID:709336

[Difficulty]
HPDrainRate:6
CircleSize:2
OverallDifficulty:6
ApproachRate:4
SliderMultiplier:1.4
SliderTickRate:1

[Events]
//Background and Video events
0,0,"The Spoken-of Unexplainable Phenomena.jpg",0,80
//Break Periods
//Storyboard Layer 0 (Background)
//Storyboard Layer 1 (Fail)
//Storyboard Layer 2 (Pass)
//Storyboard Layer 3 (Foreground)
//Storyboard Sound Samples

[TimingPoints]
11966,352.941176470588,4,1,0,40,1,0
11966,-100,4,1,0,40,0,0
13377,-100,4,1,0,60,0,0
24671,-100,4,1,0,75,0,0
47260,-100,4,1,0,100,0,1
71260,-100,4,1,0,85,0,0
82554,-100,4,1,0,75,0,0
93847,-100,4,1,0,85,0,0
105142,-100,4,1,0,100,0,1
129142,-100,4,1,0,75,0,0
131083,-100,4,1,0,60,0,0
131260,-100,4,1,0,100,0,0
131965,-100,4,1,0,75,0,0
140436,-100,4,1,0,85,0,0
151730,-100,4,1,0,50,0,0
161613,-100,4,1,0,75,0,0
163024,-100,4,1,0,100,0,1
188083,-100,4,1,0,100,0,0

[HitObjects]
256,192,13201,5,0,0:0:0:0:
256,192,13289,1,0,0:0:0:0:
256,192,13377,1,6,0:0:0:0:
256,192,13730,1,0,0:0:0:0:
256,192,14083,1,2,0:0:0:0:
256,192,14436,1,0,0:0:0:0:
256,192,14613,1,0,0:0:0:0:
256,192,14789,1,2,0:0:0:0:
256,192,14965,1,2,0:0:0:0:
256,192,15142,1,0,0:0:0:0:
256,192,15318,1,0,0:0:0:0:
256,192,15495,1,2,0:0:0:0:
256,192,15848,1,0,0:0:0:0:
256,192,16201,1,2,0:0:0:0:
256,192,16554,1,0,0:0:0:0:
256,192,16907,1,2,0:0:0:0:
256,192,17260,1,0,0:0:0:0:
256,192,17436,1,0,0:0:0:0:
256,192,17613,1,0,0:0:0:0:
256,192,17789,1,2,0:0:0:0:
256,192,17965,1,2,0:0:0:0:
256,192,18142,1,0,0:0:0:0:
256,192,18318,1,2,0:0:0:0:
256,192,18671,1,2,0:0:0:0:
256,192,19024,1,2,0:0:0:0:
256,192,19377,1,0,0:0:0:0:
256,192,19730,1,2,0:0:0:0:
256,192,20083,1,0,0:0:0:0:
256,192,20436,1,0,0:0:0:0:
256,192,20613,1,0,0:0:0:0:
256,192,20789,1,2,0:0:0:0:
256,192,20965,1,0,0:0:0:0:
256,192,21142,1,2,0:0:0:0:
256,192,21495,1,0,0:0:0:0:
256,192,21848,1,2,0:0:0:0:
256,192,22201,1,0,0:0:0:0:
256,192,22554,1,2,0:0:0:0:
256,192,22907,1,0,0:0:0:0:
256,192,23083,1,0,0:0:0:0:
256,192,23260,1,2,0:0:0:0:
256,192,23318,1,0,0:0:0:0:
256,192,23377,1,0,0:0:0:0:
256,192,23436,1,0,0:0:0:0:
256,192,23524,1,0,0:0:0:0:
256,192,23613,1,2,0:0:0:0:
256,192,23789,1,0,0:0:0:0:
256,192,23965,1,6,0:0:0:0:
256,192,24142,1,0,0:0:0:0:
256,192,24230,1,0,0:0:0:0:
256,192,24318,1,2,0:0:0:0:
256,192,24495,1,0,0:0:0:0:
256,192,24671,1,6,0:0:0:0:
256,192,24848,1,0,0:0:0:0:
256,192,25024,1,0,0:0:0:0:
256,192,25377,1,2,0:0:0:0:
256,192,25730,1,0,0:0:0:0:
256,192,26083,1,0,0:0:0:0:
256,192,26171,1,2,0:0:0:0:
256,192,26260,1,0,0:0:0:0:
256,192,26436,1,0,0:0:0:0:
256,192,26524,1,0,0:0:0:0:
256,192,26613,1,2,0:0:0:0:
256,192,26789,1,4,0:0:0:0:
256,192,26965,1,0,0:0:0:0:
256,192,27142,1,2,0:0:0:0:
256,192,27318,1,0,0:0:0:0:
256,192,27495,1,2,0:0:0:0:
256,192,27671,1,0,0:0:0:0:
256,192,27848,1,2,0:0:0:0:
256,192,28201,1,2,0:0:0:0:
256,192,28554,1,0,0:0:0:0:
256,192,28730,1,2,0:0:0:0:
256,192,28907,1,2,0:0:0:0:
256,192,28995,1,0,0:0:0:0:
256,192,29083,1,0,0:0:0:0:
256,192,29260,1,2,0:0:0:0:
256,192,29348,1,0,0:0:0:0:
256,192,29436,1,2,0:0:0:0:
256,192,29613,1,4,0:0:0:0:
256,192,29789,1,0,0:0:0:0:
256,192,29965,1,2,0:0:0:0:
256,192,30142,1,0,0:0:0:0:
256,192,30318,1,6,0:0:0:0:
256,192,30495,1,0,0:0:0:0:
256,192,30671,1,0,0:0:0:0:
256,192,31024,1,2,0:0:0:0:
256,192,31377,1,0,0:0:0:0:
256,192,31554,1,0,0:0:0:0:
256,192,31730,1,2,0:0:0:0:
256,192,31818,1,2,0:0:0:0:
256,192,31907,1,2,0:0:0:0:
256,192,32083,1,2,0:0:0:0:
256,192,32171,1,0,0:0:0:0:
256,192,32260,1,0,0:0:0:0:
256,192,32436,1,4,0:0:0:0:
256,192,32613,1,0,0:0:0:0:
256,192,32789,1,6,0:0:0:0:
256,192,33142,1,6,0:0:0:0:
256,192,33495,1,2,0:0:0:0:
256,192,33583,1,2,0:0:0:0:
256,192,33671,1,0,0:0:0:0:
256,192,33760,1,0,0:0:0:0:
256,192,33848,1,2,0:0:0:0:
256,192,33936,1,2,0:0:0:0:
256,192,34024,1,0,0:0:0:0:
256,192,34113,1,0,0:0:0:0:
256,192,34201,1,2,0:0:0:0:
256,192,34289,1,2,0:0:0:0:
256,192,34377,1,2,0:0:0:0:
256,192,34465,1,2,0:0:0:0:
256,192,34554,1,0,0:0:0:0:
256,192,34642,1,0,0:0:0:0:
256,192,34730,1,0,0:0:0:0:
256,192,34818,1,0,0:0:0:0:
256,192,34907,1,2,0:0:0:0:
256,192,35083,1,0,0:0:0:0:
256,192,35171,1,0,0:0:0:0:
256,192,35260,1,2,0:0:0:0:
256,192,35348,1,2,0:0:0:0:
256,192,35436,1,2,0:0:0:0:
256,192,35524,1,0,0:0:0:0:
256,192,35613,1,6,0:0:0:0:
256,192,35965,1,0,0:0:0:0:
256,192,36054,1,0,0:0:0:0:
256,192,36142,1,2,0:0:0:0:
256,192,36230,1,0,0:0:0:0:
256,192,36318,1,2,0:0:0:0:
256,192,36407,1,2,0:0:0:0:
256,192,36495,1,0,0:0:0:0:
256,192,36671,1,6,0:0:0:0:
256,192,36848,1,0,0:0:0:0:
256,192,37024,1,2,0:0:0:0:
256,192,37113,1,2,0:0:0:0:
256,192,37201,1,0,0:0:0:0:
256,192,37289,1,0,0:0:0:0:
256,192,37377,1,2,0:0:0:0:
256,192,37554,1,0,0:0:0:0:
256,192,37642,1,0,0:0:0:0:
256,192,37730,1,2,0:0:0:0:
256,192,37907,1,0,0:0:0:0:
256,192,38083,1,6,0:0:0:0:
256,192,38436,1,2,0:0:0:0:
256,192,38524,1,2,0:0:0:0:
256,192,38613,1,0,0:0:0:0:
256,192,38789,1,0,0:0:0:0:
256,192,38877,1,2,0:0:0:0:
256,192,38965,1,0,0:0:0:0:
256,192,39054,1,0,0:0:0:0:
256,192,39142,1,2,0:0:0:0:
256,192,39230,1,2,0:0:0:0:
256,192,39318,1,0,0:0:0:0:
256,192,39407,1,0,0:0:0:0:
256,192,39495,1,6,0:0:0:0:
256,192,39671,1,0,0:0:0:0:
256,192,39848,1,0,0:0:0:0:
256,192,39936,1,0,0:0:0:0:
256,192,40024,1,2,0:0:0:0:
256,192,40201,1,0,0:0:0:0:
256,192,40289,1,0,0:0:0:0:
256,192,40377,1,0,0:0:0:0:
256,192,40465,1,0,0:0:0:0:
256,192,40554,1,2,0:0:0:0:
256,192,40730,1,0,0:0:0:0:
256,192,40907,1,6,0:0:0:0:
256,192,41083,1,0,0:0:0:0:
256,192,41260,1,6,0:0:0:0:
256,192,41436,1,0,0:0:0:0:
256,192,41524,1,0,0:0:0:0:
256,192,41613,1,0,0:0:0:0:
256,192,41789,1,0,0:0:0:0:
256,192,41877,1,2,0:0:0:0:
256,192,41965,1,2,0:0:0:0:
256,192,42054,1,0,0:0:0:0:
256,192,42142,1,0,0:0:0:0:
256,192,42318,1,2,0:0:0:0:
256,192,42495,1,0,0:0:0:0:
256,192,42583,1,0,0:0:0:0:
256,192,42671,1,2,0:0:0:0:
256,192,42760,1,2,0:0:0:0:
256,192,42848,1,0,0:0:0:0:
256,192,43024,1,2,0:0:0:0:
256,192,43201,1,0,0:0:0:0:
256,192,43289,1,0,0:0:0:0:
256,192,43377,1,2,0:0:0:0:
256,192,43554,1,0,0:0:0:0:
256,192,43730,1,2,0:0:0:0:
256,192,43907,1,0,0:0:0:0:
256,192,44083,1,2,0:0:0:0:
256,192,44171,1,2,0:0:0:0:
256,192,44260,1,0,0:0:0:0:
256,192,44436,1,6,0:0:0:0:
256,192,44613,1,0,0:0:0:0:
256,192,44701,1,0,0:0:0:0:
256,192,44789,1,0,0:0:0:0:
256,192,44877,1,2,0:0:0:0:
256,192,44965,1,2,0:0:0:0:
256,192,45054,1,0,0:0:0:0:
256,192,45142,1,2,0:0:0:0:
256,192,45318,1,0,0:0:0:0:
256,192,45407,1,0,0:0:0:0:
256,192,45495,1,2,0:0:0:0:
256,192,45583,1,2,0:0:0:0:
256,192,45671,1,0,0:0:0:0:
256,192,45848,1,2,0:0:0:0:
256,192,45936,1,2,0:0:0:0:
256,192,46024,1,2,0:0:0:0:
256,192,46113,1,2,0:0:0:0:
256,192,46201,1,0,0:0:0:0:
256,192,46377,1,0,0:0:0:0:
256,192,46554,1,6,0:0:0:0:
256,192,47260,1,6,0:0:0:0:
256,192,47436,1,0,0:0:0:0:
256,192,47613,1,0,0:0:0:0:
256,192,47701,1,2,0:0:0:0:
256,192,47789,1,2,0:0:0:0:
256,192,47877,1,0,0:0:0:0:
256,192,47965,1,2,0:0:0:0:
256,192,48142,1,2,0:0:0:0:
256,192,48230,1,0,0:0:0:0:
256,192,48318,1,2,0:0:0:0:
256,192,48495,1,0,0:0:0:0:
256,192,48583,1,0,0:0:0:0:
256,192,48671,1,2,0:0:0:0:
256,192,48848,1,0,0:0:0:0:
256,192,48936,1,2,0:0:0:0:
256,192,49024,1,2,0:0:0:0:
256,192,49201,1,0,0:0:0:0:
256,192,49289,1,0,0:0:0:0:
256,192,49377,1,2,0:0:0:0:
256,192,49465,1,0,0:0:0:0:
256,192,49554,1,2,0:0:0:0:
256,192,49730,1,2,0:0:0:0:
256,192,49818,1,2,0:0:0:0:
256,192,49907,1,0,0:0:0:0:
256,192,49995,1,0,0:0:0:0:
256,192,50083,1,6,0:0:0:0:
256,192,50260,1,0,0:0:0:0:
256,192,50436,1,2,0:0:0:0:
256,192,50613,1,0,0:0:0:0:
256,192,50701,1,0,0:0:0:0:
256,192,50789,1,2,0:0:0:0:
256,192,50965,1,0,0:0:0:0:
256,192,51054,1,0,0:0:0:0:
256,192,51142,1,2,0:0:0:0:
256,192,51230,1,2,0:0:0:0:
256,192,51318,1,0,0:0:0:0:
256,192,51495,1,2,0:0:0:0:
256,192,51583,1,0,0:0:0:0:
256,192,51671,1,0,0:0:0:0:
256,192,51848,1,2,0:0:0:0:
256,192,51936,1,2,0:0:0:0:
256,192,52024,1,0,0:0:0:0:
256,192,52201,1,2,0:0:0:0:
256,192,52289,1,0,0:0:0:0:
256,192,52377,1,0,0:0:0:0:
256,192,52554,1,2,0:0:0:0:
256,192,52730,1,0,0:0:0:0:
256,192,52907,1,6,0:0:0:0:
256,192,53083,1,0,0:0:0:0:
256,192,53260,1,2,0:0:0:0:
256,192,53348,1,0,0:0:0:0:
256,192,53436,1,0,0:0:0:0:
256,192,53613,1,2,0:0:0:0:
256,192,53701,1,2,0:0:0:0:
256,192,53789,1,0,0:0:0:0:
256,192,53965,1,2,0:0:0:0:
256,192,54054,1,2,0:0:0:0:
256,192,54142,1,0,0:0:0:0:
256,192,54230,1,0,0:0:0:0:
256,192,54318,1,2,0:0:0:0:
256,192,54495,1,0,0:0:0:0:
256,192,54583,1,0,0:0:0:0:
256,192,54671,1,2,0:0:0:0:
256,192,54848,1,0,0:0:0:0:
256,192,54936,1,2,0:0:0:0:
256,192,55024,1,2,0:0:0:0:
256,192,55201,1,0,0:0:0:0:
256,192,55377,1,2,0:0:0:0:
256,192,55465,1,2,0:0:0:0:
256,192,55554,1,2,0:0:0:0:
256,192,55730,1,0,0:0:0:0:
256,192,55907,1,0,0:0:0:0:
256,192,56083,1,2,0:0:0:0:
256,192,56171,1,2,0:0:0:0:
256,192,56260,1,0,0:0:0:0:
256,192,56348,1,0,0:0:0:0:
256,192,56436,1,2,0:0:0:0:
256,192,56613,1,0,0:0:0:0:
256,192,56701,1,0,0:0:0:0:
256,192,56789,1,2,0:0:0:0:
256,192,56877,1,2,0:0:0:0:
256,192,56965,1,0,0:0:0:0:
256,192,57142,1,2,0:0:0:0:
256,192,57230,1,0,0:0:0:0:
256,192,57318,1,2,0:0:0:0:
256,192,57495,1,2,0:0:0:0:
256,192,57671,1,0,0:0:0:0:
256,192,57848,1,2,0:0:0:0:
256,192,57936,1,0,0:0:0:0:
256,192,58024,1,2,0:0:0:0:
256,192,58113,1,2,0:0:0:0:
256,192,58201,1,0,0:0:0:0:
256,192,58289,1,0,0:0:0:0:
256,192,58377,1,2,0:0:0:0:
256,192,58465,1,0,0:0:0:0:
256,192,58554,1,6,0:0:0:0:
256,192,58730,1,0,0:0:0:0:
256,192,58907,1,2,0:0:0:0:
256,192,59083,1,0,0:0:0:0:
256,192,59171,1,0,0:0:0:0:
256,192,59260,1,2,0:0:0:0:
256,192,59436,1,0,0:0:0:0:
256,192,59524,1,0,0:0:0:0:
256,192,59613,1,2,0:0:0:0:
256,192,59701,1,2,0:0:0:0:
256,192,59789,1,0,0:0:0:0:
256,192,59965,1,2,0:0:0:0:
256,192,60142,1,0,0:0:0:0:
256,192,60230,1,0,0:0:0:0:
256,192,60318,1,2,0:0:0:0:
256,192,60495,1,0,0:0:0:0:
256,192,60583,1,0,0:0:0:0:
256,192,60671,1,2,0:0:0:0:
256,192,60760,1,0,0:0:0:0:
256,192,60848,1,2,0:0:0:0:
256,192,61024,1,2,0:0:0:0:
256,192,61113,1,0,0:0:0:0:
256,192,61201,1,0,0:0:0:0:
256,192,61377,1,6,0:0:0:0:
256,192,61554,1,0,0:0:0:0:
256,192,61730,1,2,0:0:0:0:
256,192,61818,1,0,0:0:0:0:
256,192,61907,1,2,0:0:0:0:
256,192,61995,1,0,0:0:0:0:
256,192,62083,1,0,0:0:0:0:
256,192,62260,1,0,0:0:0:0:
256,192,62348,1,0,0:0:0:0:
256,192,62436,1,2,0:0:0:0:
256,192,62524,1,2,0:0:0:0:
256,192,62613,1,0,0:0:0:0:
256,192,62789,1,2,0:0:0:0:
256,192,62878,1,0,0:0:0:0:
256,192,62965,1,0,0:0:0:0:
256,192,63142,1,2,0:0:0:0:
256,192,63231,1,0,0:0:0:0:
256,192,63319,1,2,0:0:0:0:
256,192,63495,1,2,0:0:0:0:
256,192,63583,1,2,0:0:0:0:
256,192,63671,1,0,0:0:0:0:
256,192,63848,1,2,0:0:0:0:
256,192,64024,1,0,0:0:0:0:
256,192,64201,1,6,0:0:0:0:
256,192,64377,1,0,0:0:0:0:
256,192,64554,1,2,0:0:0:0:
256,192,64642,1,2,0:0:0:0:
256,192,64730,1,0,0:0:0:0:
256,192,64818,1,0,0:0:0:0:
256,192,64907,1,2,0:0:0:0:
256,192,65083,1,0,0:0:0:0:
256,192,65260,1,2,0:0:0:0:
256,192,65436,1,0,0:0:0:0:
256,192,65524,1,0,0:0:0:0:
256,192,65613,1,2,0:0:0:0:
256,192,65789,1,0,0:0:0:0:
256,192,65965,1,2,0:0:0:0:
256,192,66142,1,2,0:0:0:0:
256,192,66230,1,2,0:0:0:0:
256,192,66318,1,2,0:0:0:0:
256,192,66495,1,0,0:0:0:0:
256,192,66671,1,2,0:0:0:0:
256,192,66760,1,0,0:0:0:0:
256,192,66848,1,2,0:0:0:0:
256,192,66936,1,2,0:0:0:0:
256,192,67024,1,0,0:0:0:0:
256,192,67201,1,0,0:0:0:0:
256,192,67377,1,2,0:0:0:0:
256,192,67465,1,2,0:0:0:0:
256,192,67554,1,0,0:0:0:0:
256,192,67642,1,0,0:0:0:0:
256,192,67730,1,2,0:0:0:0:
256,192,67818,1,0,0:0:0:0:
256,192,67907,1,0,0:0:0:0:
256,192,67995,1,0,0:0:0:0:
256,192,68083,1,2,0:0:0:0:
256,192,68171,1,2,0:0:0:0:
256,192,68260,1,0,0:0:0:0:
256,192,68436,1,2,0:0:0:0:
256,192,68524,1,0,0:0:0:0:
256,192,68613,1,0,0:0:0:0:
256,192,68789,1,2,0:0:0:0:
256,192,68965,1,0,0:0:0:0:
256,192,69054,1,0,0:0:0:0:
256,192,69142,1,2,0:0:0:0:
256,192,69230,1,2,0:0:0:0:
256,192,69318,1,0,0:0:0:0:
256,192,69495,1,2,0:0:0:0:
256,192,69583,1,2,0:0:0:0:
256,192,69671,1,0,0:0:0:0:
256,192,69848,1,2,0:0:0:0:
256,192,69936,1,2,0:0:0:0:
256,192,70024,1,0,0:0:0:0:
256,192,70113,1,0,0:0:0:0:
256,192,70201,1,0,0:0:0:0:
256,192,70289,1,2,0:0:0:0:
256,192,70377,1,2,0:0:0:0:
256,192,70465,1,0,0:0:0:0:
256,192,70554,1,2,0:0:0:0:
256,192,70730,1,0,0:0:0:0:
256,192,70907,1,2,0:0:0:0:
256,192,71083,1,0,0:0:0:0:
256,192,71260,1,6,0:0:0:0:
256,192,71436,1,0,0:0:0:0:
256,192,71613,1,0,0:0:0:0:
256,192,71789,1,0,0:0:0:0:
256,192,71965,1,6,0:0:0:0:
256,192,72142,1,0,0:0:0:0:
256,192,72318,1,0,0:0:0:0:
256,192,72495,1,0,0:0:0:0:
256,192,72671,1,6,0:0:0:0:
256,192,72848,1,2,0:0:0:0:
256,192,72936,1,2,0:0:0:0:
256,192,73024,1,0,0:0:0:0:
256,192,73201,1,0,0:0:0:0:
256,192,73377,1,6,0:0:0:0:
256,192,73554,1,0,0:0:0:0:
256,192,73730,1,0,0:0:0:0:
256,192,73818,1,2,0:0:0:0:
256,192,73907,1,2,0:0:0:0:
256,192,74083,1,6,0:0:0:0:
256,192,74260,1,0,0:0:0:0:
256,192,74436,1,0,0:0:0:0:
256,192,74613,1,0,0:0:0:0:
256,192,74789,1,6,0:0:0:0:
256,192,74965,1,0,0:0:0:0:
256,192,75142,1,0,0:0:0:0:
256,192,75318,1,0,0:0:0:0:
256,192,75495,1,6,0:0:0:0:
256,192,75671,1,2,0:0:0:0:
256,192,75760,1,2,0:0:0:0:
256,192,75848,1,0,0:0:0:0:
256,192,76024,1,0,0:0:0:0:
256,192,76201,1,6,0:0:0:0:
256,192,76377,1,0,0:0:0:0:
256,192,76554,1,2,0:0:0:0:
256,192,76613,1,2,0:0:0:0:
256,192,76672,1,0,0:0:0:0:
256,192,76730,1,2,0:0:0:0:
256,192,76789,1,0,0:0:0:0:
256,192,76848,1,2,0:0:0:0:
256,192,76907,1,2,0:0:0:0:
256,192,77083,1,0,0:0:0:0:
256,192,77260,1,0,0:0:0:0:
256,192,77436,1,0,0:0:0:0:
256,192,77613,1,6,0:0:0:0:
256,192,77789,1,0,0:0:0:0:
256,192,77965,1,2,0:0:0:0:
256,192,78024,1,0,0:0:0:0:
256,192,78082,1,2,0:1:0:0:
256,192,78141,1,2,0:0:0:0:
256,192,78230,1,0,0:0:0:0:
256,192,78318,1,2,0:0:0:0:
256,192,78377,1,2,0:0:0:0:
256,192,78435,1,0,0:0:0:0:
256,192,78495,1,2,0:0:0:0:
256,192,78583,1,0,0:0:0:0:
256,192,78671,1,0,0:0:0:0:
256,192,78848,1,0,0:0:0:0:
256,192,79024,1,6,0:0:0:0:
256,192,79201,1,0,0:0:0:0:
256,192,79377,1,0,0:0:0:0:
256,192,79436,1,0,0:0:0:0:
256,192,79495,1,2,0:0:0:0:
256,192,79554,1,2,0:0:0:0:
256,192,79730,1,6,0:0:0:0:
256,192,79907,1,0,0:0:0:0:
256,192,79995,1,2,0:0:0:0:
256,192,80083,1,0,0:0:0:0:
256,192,80171,1,2,0:0:0:0:
256,192,80260,1,2,0:0:0:0:
256,192,80436,1,4,0:0:0:0:
256,192,80613,1,0,0:0:0:0:
256,192,80789,1,6,0:0:0:0:
256,192,80965,1,0,0:0:0:0:
256,192,81054,1,0,0:0:0:0:
256,192,81142,1,2,0:0:0:0:
256,192,81318,1,2,0:0:0:0:
256,192,81407,1,2,0:0:0:0:
256,192,81495,1,0,0:0:0:0:
256,192,81671,1,0,0:0:0:0:
256,192,81848,1,6,0:0:0:0:
256,192,82024,1,0,0:0:0:0:
256,192,82201,1,0,0:0:0:0:
256,192,82377,1,2,0:0:0:0:
256,192,82554,1,6,0:0:0:0:
256,192,82907,1,0,0:0:0:0:
256,192,83083,1,0,0:0:0:0:
256,192,83260,1,2,0:0:0:0:
256,192,83436,1,0,0:0:0:0:
256,192,83613,1,0,0:0:0:0:
256,192,83789,1,0,0:0:0:0:
256,192,83965,1,2,0:0:0:0:
256,192,84054,1,0,0:0:0:0:
256,192,84142,1,2,0:0:0:0:
256,192,84318,1,0,0:0:0:0:
256,192,84407,1,0,0:0:0:0:
256,192,84495,1,2,0:0:0:0:
256,192,84671,1,4,0:0:0:0:
256,192,84848,1,0,0:0:0:0:
256,192,85024,1,2,0:0:0:0:
256,192,85377,1,2,0:0:0:0:
256,192,85554,1,0,0:0:0:0:
256,192,85730,1,2,0:0:0:0:
256,192,85907,1,0,0:0:0:0:
256,192,86083,1,2,0:0:0:0:
256,192,86436,1,0,0:0:0:0:
256,192,86613,1,0,0:0:0:0:
256,192,86789,1,0,0:0:0:0:
256,192,86877,1,2,0:0:0:0:
256,192,86965,1,2,0:0:0:0:
256,192,87142,1,0,0:0:0:0:
256,192,87230,1,0,0:0:0:0:
256,192,87318,1,0,0:0:0:0:
256,192,87495,1,2,0:0:0:0:
256,192,87848,1,0,0:0:0:0:
256,192,88024,1,0,0:0:0:0:
256,192,88201,1,6,0:0:0:0:
256,192,88377,1,0,0:0:0:0:
256,192,88554,1,0,0:0:0:0:
256,192,88730,1,0,0:0:0:0:
256,192,88907,1,2,0:0:0:0:
256,192,89083,1,0,0:0:0:0:
256,192,89260,1,0,0:0:0:0:
256,192,89436,1,0,0:0:0:0:
256,192,89613,1,2,0:0:0:0:
256,192,89701,1,0,0:0:0:0:
256,192,89789,1,2,0:0:0:0:
256,192,89965,1,0,0:0:0:0:
256,192,90054,1,2,0:0:0:0:
256,192,90142,1,0,0:0:0:0:
256,192,90318,1,4,0:0:0:0:
256,192,90495,1,0,0:0:0:0:
256,192,90671,1,6,0:0:0:0:
256,192,91024,1,4,0:0:0:0:
256,192,91377,1,6,0:0:0:0:
256,192,91730,1,6,0:0:0:0:
256,192,92083,1,2,0:0:0:0:
256,192,92260,1,0,0:0:0:0:
256,192,92436,1,2,0:0:0:0:
256,192,92789,1,0,0:0:0:0:
256,192,93142,1,6,0:0:0:0:
256,192,93318,1,0,0:0:0:0:
256,192,93407,1,0,0:0:0:0:
256,192,93495,1,6,0:0:0:0:
256,192,93848,1,0,0:0:0:0:
256,192,93936,1,2,0:0:0:0:
256,192,94024,1,0,0:0:0:0:
256,192,94113,1,0,0:0:0:0:
256,192,94201,1,2,0:0:0:0:
256,192,94289,1,2,0:0:0:0:
256,192,94377,1,0,0:0:0:0:
256,192,94554,1,6,0:0:0:0:
256,192,94730,1,2,0:0:0:0:
256,192,94818,1,0,0:0:0:0:
256,192,94907,1,2,0:0:0:0:
256,192,94995,1,0,0:0:0:0:
256,192,95083,1,2,0:0:0:0:
256,192,95260,1,2,0:0:0:0:
256,192,95436,1,0,0:0:0:0:
256,192,95524,1,0,0:0:0:0:
256,192,95613,1,2,0:0:0:0:
256,192,95789,1,0,0:0:0:0:
256,192,95965,1,6,0:0:0:0:
256,192,96142,1,0,0:0:0:0:
256,192,96318,1,2,0:0:0:0:
256,192,96407,1,0,0:0:0:0:
256,192,96495,1,0,0:0:0:0:
256,192,96671,1,2,0:0:0:0:
256,192,96760,1,2,0:0:0:0:
256,192,96848,1,0,0:0:0:0:
256,192,96936,1,0,0:0:0:0:
256,192,97024,1,2,0:0:0:0:
256,192,97113,1,2,0:0:0:0:
256,192,97201,1,0,0:0:0:0:
256,192,97377,1,6,0:0:0:0:
256,192,97554,1,0,0:0:0:0:
256,192,97730,1,2,0:0:0:0:
256,192,97818,1,0,0:0:0:0:
256,192,97907,1,0,0:0:0:0:
256,192,98083,1,2,0:0:0:0:
256,192,98260,1,0,0:0:0:0:
256,192,98348,1,0,0:0:0:0:
256,192,98436,1,2,0:0:0:0:
256,192,98613,1,0,0:0:0:0:
256,192,98789,1,6,0:0:0:0:
256,192,98965,1,0,0:0:0:0:
256,192,99142,1,6,0:0:0:0:
256,192,99318,1,0,0:0:0:0:
256,192,99495,1,0,0:0:0:0:
256,192,99583,1,0,0:0:0:0:
256,192,99671,1,0,0:0:0:0:
256,192,99760,1,0,0:0:0:0:
256,192,99848,1,2,0:0:0:0:
256,192,99936,1,2,0:0:0:0:
256,192,100024,1,0,0:0:0:0:
256,192,100113,1,0,0:0:0:0:
256,192,100201,1,2,0:0:0:0:
256,192,100289,1,2,0:0:0:0:
256,192,100377,1,0,0:0:0:0:
256,192,100465,1,0,0:0:0:0:
256,192,100554,1,2,0:0:0:0:
256,192,100730,1,0,0:0:0:0:
256,192,100907,1,2,0:0:0:0:
256,192,101083,1,0,0:0:0:0:
256,192,101171,1,0,0:0:0:0:
256,192,101260,1,2,0:0:0:0:
256,192,101436,1,0,0:0:0:0:
256,192,101613,1,2,0:0:0:0:
256,192,101789,1,0,0:0:0:0:
256,192,101965,1,2,0:0:0:0:
256,192,102054,1,2,0:0:0:0:
256,192,102142,1,0,0:0:0:0:
256,192,102318,1,6,0:0:0:0:
256,192,102495,1,0,0:0:0:0:
256,192,102583,1,0,0:0:0:0:
256,192,102671,1,2,0:0:0:0:
256,192,102759,1,2,0:0:0:0:
256,192,102847,1,0,0:0:0:0:
256,192,102936,1,0,0:0:0:0:
256,192,103024,1,0,0:0:0:0:
256,192,103200,1,0,0:0:0:0:
256,192,103289,1,0,0:0:0:0:
256,192,103377,1,2,0:0:0:0:
256,192,103465,1,2,0:0:0:0:
256,192,103553,1,0,0:0:0:0:
256,192,103730,1,2,0:0:0:0:
256,192,103818,1,2,0:0:0:0:
256,192,103906,1,2,0:0:0:0:
256,192,103995,1,2,0:0:0:0:
256,192,104083,1,0,0:0:0:0:
256,192,104259,1,0,0:0:0:0:
256,192,104436,1,6,0:0:0:0:
256,192,105142,1,6,0:0:0:0:
256,192,105318,1,0,0:0:0:0:
256,192,105495,1,0,0:0:0:0:
256,192,105583,1,2,0:0:0:0:
256,192,105671,1,2,0:0:0:0:
256,192,105760,1,0,0:0:0:0:
256,192,105848,1,2,0:0:0:0:
256,192,105936,1,0,0:0:0:0:
256,192,106024,1,2,0:0:0:0:
256,192,106113,1,0,0:0:0:0:
256,192,106201,1,2,0:0:0:0:
256,192,106377,1,2,0:0:0:0:
256,192,106465,1,2,0:0:0:0:
256,192,106554,1,2,0:0:0:0:
256,192,106730,1,0,0:0:0:0:
256,192,106818,1,2,0:0:0:0:
256,192,106907,1,0,0:0:0:0:
256,192,107083,1,0,0:0:0:0:
256,192,107171,1,0,0:0:0:0:
256,192,107260,1,0,0:0:0:0:
256,192,107436,1,2,0:0:0:0:
256,192,107613,1,2,0:0:0:0:
256,192,107701,1,2,0:0:0:0:
256,192,107789,1,0,0:0:0:0:
256,192,107877,1,0,0:0:0:0:
256,192,107965,1,6,0:0:0:0:
256,192,108142,1,0,0:0:0:0:
256,192,108230,1,0,0:0:0:0:
256,192,108318,1,2,0:0:0:0:
256,192,108495,1,0,0:0:0:0:
256,192,108583,1,0,0:0:0:0:
256,192,108671,1,2,0:0:0:0:
256,192,108760,1,2,0:0:0:0:
256,192,108848,1,0,0:0:0:0:
256,192,108936,1,0,0:0:0:0:
256,192,109024,1,2,0:0:0:0:
256,192,109201,1,0,0:0:0:0:
256,192,109377,1,2,0:0:0:0:
256,192,109465,1,0,0:0:0:0:
256,192,109554,1,0,0:0:0:0:
256,192,109730,1,2,0:0:0:0:
256,192,109818,1,2,0:0:0:0:
256,192,109907,1,0,0:0:0:0:
256,192,110083,1,2,0:0:0:0:
256,192,110171,1,0,0:0:0:0:
256,192,110260,1,0,0:0:0:0:
256,192,110436,1,2,0:0:0:0:
256,192,110524,1,2,0:0:0:0:
256,192,110613,1,0,0:0:0:0:
256,192,110701,1,0,0:0:0:0:
256,192,110789,1,6,0:0:0:0:
256,192,110965,1,0,0:0:0:0:
256,192,111142,1,2,0:0:0:0:
256,192,111230,1,0,0:0:0:0:
256,192,111318,1,0,0:0:0:0:
256,192,111407,1,2,0:0:0:0:
256,192,111495,1,2,0:0:0:0:
256,192,111671,1,0,0:0:0:0:
256,192,111760,1,0,0:0:0:0:
256,192,111848,1,2,0:0:0:0:
256,192,111936,1,2,0:0:0:0:
256,192,112024,1,0,0:0:0:0:
256,192,112201,1,2,0:0:0:0:
256,192,112377,1,2,0:0:0:0:
256,192,112465,1,2,0:0:0:0:
256,192,112554,1,0,0:0:0:0:
256,192,112730,1,0,0:0:0:0:
256,192,112818,1,2,0:0:0:0:
256,192,112907,1,2,0:0:0:0:
256,192,113083,1,0,0:0:0:0:
256,192,113260,1,2,0:0:0:0:
256,192,113348,1,2,0:0:0:0:
256,192,113436,1,0,0:0:0:0:
256,192,113613,1,2,0:0:0:0:
256,192,113701,1,0,0:0:0:0:
256,192,113789,1,0,0:0:0:0:
256,192,113877,1,0,0:0:0:0:
256,192,113965,1,2,0:0:0:0:
256,192,114142,1,0,0:0:0:0:
256,192,114230,1,0,0:0:0:0:
256,192,114318,1,2,0:0:0:0:
256,192,114495,1,0,0:0:0:0:
256,192,114583,1,0,0:0:0:0:
256,192,114671,1,2,0:0:0:0:
256,192,114760,1,2,0:0:0:0:
256,192,114848,1,0,0:0:0:0:
256,192,115024,1,2,0:0:0:0:
256,192,115113,1,0,0:0:0:0:
256,192,115201,1,0,0:0:0:0:
256,192,115289,1,0,0:0:0:0:
256,192,115377,1,2,0:0:0:0:
256,192,115554,1,0,0:0:0:0:
256,192,115730,1,6,0:0:0:0:
256,192,115907,1,0,0:0:0:0:
256,192,115995,1,0,0:0:0:0:
256,192,116083,1,6,0:0:0:0:
256,192,116260,1,2,0:0:0:0:
256,192,116348,1,2,0:0:0:0:
256,192,116436,1,4,0:0:0:0:
256,192,116613,1,2,0:0:0:0:
256,192,116789,1,0,0:0:0:0:
256,192,116965,1,0,0:0:0:0:
256,192,117054,1,0,0:0:0:0:
256,192,117142,1,2,0:0:0:0:
256,192,117318,1,0,0:0:0:0:
256,192,117407,1,0,0:0:0:0:
256,192,117495,1,2,0:0:0:0:
256,192,117583,1,2,0:0:0:0:
256,192,117671,1,2,0:0:0:0:
256,192,117848,1,0,0:0:0:0:
256,192,118024,1,0,0:0:0:0:
256,192,118113,1,0,0:0:0:0:
256,192,118201,1,2,0:0:0:0:
256,192,118377,1,2,0:0:0:0:
256,192,118465,1,2,0:0:0:0:
256,192,118554,1,0,0:0:0:0:
256,192,118730,1,0,0:0:0:0:
256,192,118907,1,2,0:0:0:0:
256,192,118995,1,0,0:0:0:0:
256,192,119083,1,0,0:0:0:0:
256,192,119260,1,6,0:0:0:0:
256,192,119436,1,0,0:0:0:0:
256,192,119613,1,2,0:0:0:0:
256,192,119701,1,0,0:0:0:0:
256,192,119789,1,2,0:0:0:0:
256,192,119877,1,0,0:0:0:0:
256,192,119965,1,0,0:0:0:0:
256,192,120142,1,0,0:0:0:0:
256,192,120230,1,2,0:0:0:0:
256,192,120318,1,0,0:0:0:0:
256,192,120407,1,0,0:0:0:0:
256,192,120495,1,2,0:0:0:0:
256,192,120671,1,2,0:0:0:0:
256,192,120760,1,0,0:0:0:0:
256,192,120848,1,0,0:0:0:0:
256,192,121024,1,2,0:0:0:0:
256,192,121113,1,0,0:0:0:0:
256,192,121201,1,2,0:0:0:0:
256,192,121377,1,2,0:0:0:0:
256,192,121465,1,2,0:0:0:0:
256,192,121554,1,0,0:0:0:0:
256,192,121730,1,2,0:0:0:0:
256,192,121818,1,0,0:0:0:0:
256,192,121907,1,0,0:0:0:0:
256,192,122083,1,6,0:0:0:0:
256,192,122260,1,0,0:0:0:0:
256,192,122436,1,2,0:0:0:0:
256,192,122524,1,2,0:0:0:0:
256,192,122613,1,0,0:0:0:0:
256,192,122701,1,0,0:0:0:0:
256,192,122789,1,2,0:0:0:0:
256,192,122965,1,0,0:0:0:0:
256,192,123142,1,2,0:0:0:0:
256,192,123318,1,0,0:0:0:0:
256,192,123407,1,0,0:0:0:0:
256,192,123495,1,2,0:0:0:0:
256,192,123671,1,2,0:0:0:0:
256,192,123760,1,2,0:0:0:0:
256,192,123848,1,0,0:0:0:0:
256,192,124024,1,2,0:0:0:0:
256,192,124113,1,2,0:0:0:0:
256,192,124201,1,2,0:0:0:0:
256,192,124377,1,0,0:0:0:0:
256,192,124554,1,2,0:0:0:0:
256,192,124642,1,2,0:1:0:0:
256,192,124730,1,2,0:1:0:0:
256,192,124818,1,0,0:0:0:0:
256,192,124907,1,0,0:0:0:0:
256,192,125083,1,0,0:0:0:0:
256,192,125260,1,2,0:0:0:0:
256,192,125348,1,2,0:0:0:0:
256,192,125436,1,0,0:0:0:0:
256,192,125524,1,0,0:0:0:0:
256,192,125613,1,2,0:0:0:0:
256,192,125789,1,0,0:0:0:0:
256,192,125877,1,0,0:0:0:0:
256,192,125965,1,2,0:0:0:0:
256,192,126054,1,2,0:0:0:0:
256,192,126142,1,0,0:0:0:0:
256,192,126318,1,0,0:0:0:0:
256,192,126407,1,0,0:0:0:0:
256,192,126495,1,0,0:0:0:0:
256,192,126583,1,0,0:0:0:0:
256,192,126671,1,2,0:0:0:0:
256,192,126848,1,0,0:0:0:0:
256,192,126936,1,0,0:0:0:0:
256,192,127024,1,2,0:0:0:0:
256,192,127113,1,2,0:0:0:0:
256,192,127201,1,0,0:0:0:0:
256,192,127377,1,2,0:0:0:0:
256,192,127465,1,2,0:0:0:0:
256,192,127554,1,0,0:0:0:0:
256,192,127730,1,0,0:0:0:0:
256,192,127818,1,2,0:0:0:0:
256,192,127907,1,2,0:0:0:0:
256,192,127995,1,0,0:0:0:0:
256,192,128083,1,0,0:0:0:0:
256,192,128171,1,2,0:0:0:0:
256,192,128260,1,2,0:0:0:0:
256,192,128348,1,0,0:0:0:0:
256,192,128436,1,0,0:0:0:0:
256,192,128613,1,2,0:0:0:0:
256,192,128701,1,0,0:0:0:0:
256,192,128789,1,2,0:0:0:0:
256,192,128877,1,0,0:0:0:0:
256,192,128965,1,2,0:0:0:0:
256,192,129054,1,0,0:0:0:0:
256,192,129142,1,6,0:0:0:0:
256,192,131083,1,2,0:0:0:0:
256,192,131260,1,2,0:0:0:0:
256,192,131348,1,2,0:0:0:0:
256,192,131436,1,0,0:0:0:0:
256,192,131495,1,0,0:0:0:0:
256,192,131554,1,0,0:0:0:0:
256,192,131613,1,2,0:0:0:0:
256,192,131701,1,2,0:0:0:0:
256,192,131789,1,0,0:0:0:0:
256,192,131848,1,0,0:0:0:0:
256,192,131907,1,0,0:0:0:0:
256,192,131965,1,2,0:0:0:0:
256,192,132318,1,0,0:0:0:0:
256,192,132671,1,6,0:0:0:0:
256,192,133024,1,0,0:0:0:0:
256,192,133377,1,6,0:0:0:0:
256,192,133730,1,2,0:0:0:0:
256,192,133907,1,2,0:0:0:0:
256,192,134083,1,0,0:0:0:0:
256,192,134260,1,0,0:0:0:0:
256,192,134436,1,2,0:0:0:0:
256,192,134495,1,2,0:0:0:0:
256,192,134554,1,0,0:0:0:0:
256,192,134612,1,2,0:0:0:0:
256,192,134671,1,0,0:0:0:0:
256,192,134730,1,2,0:0:0:0:
256,192,134789,1,2,0:0:0:0:
256,192,135142,1,0,0:0:0:0:
256,192,135495,1,6,0:0:0:0:
256,192,135848,1,2,0:0:0:0:
256,192,135907,1,0,0:0:0:0:
256,192,135965,1,2,0:1:0:0:
256,192,136024,1,2,0:0:0:0:
256,192,136113,1,0,0:0:0:0:
256,192,136201,1,2,0:0:0:0:
256,192,136260,1,2,0:0:0:0:
256,192,136318,1,0,0:0:0:0:
256,192,136377,1,2,0:0:0:0:
256,192,136554,1,0,0:0:0:0:
256,192,136730,1,0,0:0:0:0:
256,192,136907,1,6,0:0:0:0:
256,192,137260,1,0,0:0:0:0:
256,192,137436,1,2,0:0:0:0:
256,192,137524,1,2,0:0:0:0:
256,192,137613,1,4,0:0:0:0:
256,192,137965,1,0,0:0:0:0:
256,192,138318,1,6,0:0:0:0:
256,192,139024,1,6,0:0:0:0:
256,192,139201,1,0,0:0:0:0:
256,192,139289,1,0,0:0:0:0:
256,192,139377,1,2,0:0:0:0:
256,192,139465,1,2,0:0:0:0:
256,192,139554,1,0,0:0:0:0:
256,192,139642,1,0,0:0:0:0:
256,192,139730,1,2,0:0:0:0:
256,192,139907,1,0,0:0:0:0:
256,192,140083,1,6,0:0:0:0:
256,192,140436,1,6,0:0:0:0:
256,192,140613,1,0,0:0:0:0:
256,192,140789,1,0,0:0:0:0:
256,192,140965,1,0,0:0:0:0:
256,192,141142,1,6,0:0:0:0:
256,192,141318,1,0,0:0:0:0:
256,192,141495,1,0,0:0:0:0:
256,192,141671,1,0,0:0:0:0:
256,192,141848,1,6,0:0:0:0:
256,192,142024,1,0,0:0:0:0:
256,192,142113,1,2,0:0:0:0:
256,192,142201,1,2,0:0:0:0:
256,192,142377,1,0,0:0:0:0:
256,192,142554,1,6,0:0:0:0:
256,192,142730,1,0,0:0:0:0:
256,192,142907,1,0,0:0:0:0:
256,192,142965,1,0,0:0:0:0:
256,192,143024,1,2,0:0:0:0:
256,192,143083,1,2,0:0:0:0:
256,192,143260,1,6,0:0:0:0:
256,192,143436,1,0,0:0:0:0:
256,192,143613,1,0,0:0:0:0:
256,192,143789,1,0,0:0:0:0:
256,192,143965,1,6,0:0:0:0:
256,192,144142,1,0,0:0:0:0:
256,192,144318,1,0,0:0:0:0:
256,192,144495,1,0,0:0:0:0:
256,192,144671,1,6,0:0:0:0:
256,192,144848,1,0,0:0:0:0:
256,192,144936,1,2,0:0:0:0:
256,192,145024,1,2,0:0:0:0:
256,192,145201,1,0,0:0:0:0:
256,192,145377,1,2,0:0:0:0:
256,192,145465,1,2,0:0:0:0:
256,192,145554,1,0,0:0:0:0:
256,192,145642,1,0,0:0:0:0:
256,192,145730,1,2,0:0:0:0:
256,192,145818,1,2,0:0:0:0:
256,192,145907,1,0,0:0:0:0:
256,192,145965,1,0,0:0:0:0:
256,192,146024,1,2,0:0:0:0:
256,192,146083,1,2,0:0:0:0:
256,192,146260,1,0,0:0:0:0:
256,192,146436,1,0,0:0:0:0:
256,192,146613,1,0,0:0:0:0:
256,192,146789,1,6,0:0:0:0:
256,192,146965,1,0,0:0:0:0:
256,192,147142,1,0,0:0:0:0:
256,192,147318,1,0,0:0:0:0:
256,192,147495,1,6,0:0:0:0:
256,192,147671,1,0,0:0:0:0:
256,192,147760,1,2,0:0:0:0:
256,192,147848,1,2,0:0:0:0:
256,192,148024,1,0,0:0:0:0:
256,192,148201,1,6,0:0:0:0:
256,192,148377,1,0,0:0:0:0:
256,192,148554,1,0,0:0:0:0:
256,192,148613,1,0,0:0:0:0:
256,192,148671,1,2,0:0:0:0:
256,192,148730,1,2,0:0:0:0:
256,192,148907,1,6,0:0:0:0:
256,192,149083,1,0,0:0:0:0:
256,192,149260,1,0,0:0:0:0:
256,192,149436,1,0,0:0:0:0:
256,192,149613,1,2,0:0:0:0:
256,192,149701,1,2,0:0:0:0:
256,192,149789,1,0,0:0:0:0:
256,192,149877,1,0,0:0:0:0:
256,192,149965,1,6,0:0:0:0:
256,192,150142,1,0,0:0:0:0:
256,192,150318,1,2,0:0:0:0:
256,192,150407,1,0,0:0:0:0:
256,192,150495,1,0,0:0:0:0:
256,192,150583,1,2,0:0:0:0:
256,192,150671,1,2,0:0:0:0:
256,192,150760,1,0,0:0:0:0:
256,192,150848,1,0,0:0:0:0:
256,192,151024,1,2,0:0:0:0:
256,192,151113,1,2,0:0:0:0:
256,192,151201,1,0,0:0:0:0:
256,192,151289,1,0,0:0:0:0:
256,192,151377,1,2,0:0:0:0:
256,192,151465,1,0,0:0:0:0:
256,192,151554,1,2,0:0:0:0:
256,192,151730,1,6,0:0:0:0:
256,192,152083,1,2,0:0:0:0:
256,192,152436,1,0,0:0:0:0:
256,192,152613,1,2,0:0:0:0:
256,192,152789,1,0,0:0:0:0:
256,192,152965,1,0,0:0:0:0:
256,192,153054,1,0,0:0:0:0:
256,192,153142,1,2,0:0:0:0:
256,192,153318,1,0,0:0:0:0:
256,192,153495,1,2,0:0:0:0:
256,192,153671,1,0,0:0:0:0:
256,192,153848,1,2,0:0:0:0:
256,192,154024,1,0,0:0:0:0:
256,192,154201,1,2,0:0:0:0:
256,192,154377,1,2,0:0:0:0:
256,192,154554,1,0,0:0:0:0:
256,192,154730,1,0,0:0:0:0:
256,192,154907,1,2,0:0:0:0:
256,192,155083,1,0,0:0:0:0:
256,192,155260,1,2,0:0:0:0:
256,192,155436,1,0,0:0:0:0:
256,192,155613,1,2,0:0:0:0:
256,192,155701,1,2,0:0:0:0:
256,192,155789,1,0,0:0:0:0:
256,192,155965,1,2,0:0:0:0:
256,192,156024,1,2,0:0:0:0:
256,192,156083,1,2,0:0:0:0:
256,192,156142,1,2,0:0:0:0:
256,192,156230,1,0,0:0:0:0:
256,192,156318,1,2,0:0:0:0:
256,192,156495,1,0,0:0:0:0:
256,192,156671,1,2,0:0:0:0:
256,192,156848,1,2,0:0:0:0:
256,192,156936,1,0,0:0:0:0:
256,192,157024,1,2,0:0:0:0:
256,192,157201,1,0,0:0:0:0:
256,192,157377,1,6,0:0:0:0:
256,192,157554,1,0,0:0:0:0:
256,192,157730,1,2,0:0:0:0:
256,192,157907,1,2,0:0:0:0:
256,192,158083,1,2,0:0:0:0:
256,192,158260,1,0,0:0:0:0:
256,192,158436,1,0,0:0:0:0:
256,192,158613,1,0,0:0:0:0:
256,192,158789,1,2,0:0:0:0:
256,192,158965,1,2,0:0:0:0:
256,192,159142,1,0,0:0:0:0:
256,192,159318,1,0,0:0:0:0:
256,192,159495,1,2,0:0:0:0:
256,192,159554,1,2,0:0:0:0:
256,192,159613,1,0,0:0:0:0:
256,192,159671,1,0,0:0:0:0:
256,192,159760,1,2,0:0:0:0:
256,192,159848,1,0,0:0:0:0:
256,192,160024,1,2,0:0:0:0:
256,192,160201,1,4,0:0:0:0:
256,192,160377,1,0,0:0:0:0:
256,192,160554,1,2,0:0:0:0:
256,192,160730,1,0,0:0:0:0:
256,192,160907,1,2,0:0:0:0:
256,192,161083,1,0,0:0:0:0:
256,192,161260,1,0,0:0:0:0:
256,192,161436,1,0,0:0:0:0:
256,192,161613,1,6,0:0:0:0:
256,192,163024,1,2,0:0:0:0:
256,192,163113,1,0,0:0:0:0:
256,192,163201,1,0,0:0:0:0:
256,192,163289,1,0,0:0:0:0:
256,192,163377,1,2,0:0:0:0:
256,192,163554,1,2,0:0:0:0:
256,192,163642,1,0,0:0:0:0:
256,192,163730,1,2,0:0:0:0:
256,192,163907,1,2,0:0:0:0:
256,192,163995,1,0,0:0:0:0:
256,192,164083,1,2,0:0:0:0:
256,192,164171,1,0,0:0:0:0:
256,192,164260,1,0,0:0:0:0:
256,192,164348,1,0,0:0:0:0:
256,192,164436,1,2,0:0:0:0:
256,192,164613,1,0,0:0:0:0:
256,192,164789,1,2,0:0:0:0:
256,192,164877,1,0,0:0:0:0:
256,192,164965,1,0,0:0:0:0:
256,192,165054,1,0,0:0:0:0:
256,192,165142,1,2,0:0:0:0:
256,192,165318,1,0,0:0:0:0:
256,192,165495,1,2,0:0:0:0:
256,192,165583,1,2,0:0:0:0:
256,192,165671,1,0,0:0:0:0:
256,192,165760,1,0,0:0:0:0:
256,192,165848,1,6,0:0:0:0:
256,192,166024,1,0,0:0:0:0:
256,192,166201,1,2,0:0:0:0:
256,192,166377,1,0,0:0:0:0:
256,192,166465,1,0,0:0:0:0:
256,192,166554,1,2,0:0:0:0:
256,192,166642,1,0,0:0:0:0:
256,192,166730,1,0,0:0:0:0:
256,192,166818,1,0,0:0:0:0:
256,192,166907,1,2,0:0:0:0:
256,192,166995,1,2,0:0:0:0:
256,192,167083,1,0,0:0:0:0:
256,192,167260,1,2,0:0:0:0:
256,192,167348,1,0,0:0:0:0:
256,192,167436,1,0,0:0:0:0:
256,192,167613,1,2,0:0:0:0:
256,192,167701,1,2,0:0:0:0:
256,192,167789,1,0,0:0:0:0:
256,192,167965,1,2,0:0:0:0:
256,192,168054,1,0,0:0:0:0:
256,192,168142,1,0,0:0:0:0:
256,192,168318,1,2,0:0:0:0:
256,192,168495,1,0,0:0:0:0:
256,192,168671,1,6,0:0:0:0:
256,192,168848,1,0,0:0:0:0:
256,192,169024,1,2,0:0:0:0:
256,192,169113,1,0,0:0:0:0:
256,192,169201,1,0,0:0:0:0:
256,192,169289,1,2,0:0:0:0:
256,192,169377,1,2,0:0:0:0:
256,192,169554,1,0,0:0:0:0:
256,192,169642,1,0,0:0:0:0:
256,192,169730,1,2,0:0:0:0:
256,192,169818,1,2,0:0:0:0:
256,192,169907,1,0,0:0:0:0:
256,192,170083,1,0,0:0:0:0:
256,192,170260,1,0,0:0:0:0:
256,192,170348,1,0,0:0:0:0:
256,192,170436,1,2,0:0:0:0:
256,192,170613,1,2,0:0:0:0:
256,192,170701,1,2,0:0:0:0:
256,192,170789,1,0,0:0:0:0:
256,192,170965,1,0,0:0:0:0:
256,192,171142,1,2,0:0:0:0:
256,192,171230,1,2,0:0:0:0:
256,192,171318,1,0,0:0:0:0:
256,192,171495,1,0,0:0:0:0:
256,192,171671,1,0,0:0:0:0:
256,192,171848,1,2,0:0:0:0:
256,192,171936,1,2,0:0:0:0:
256,192,172024,1,0,0:0:0:0:
256,192,172113,1,0,0:0:0:0:
256,192,172201,1,2,0:0:0:0:
256,192,172377,1,0,0:0:0:0:
256,192,172465,1,0,0:0:0:0:
256,192,172554,1,2,0:0:0:0:
256,192,172642,1,2,0:0:0:0:
256,192,172730,1,0,0:0:0:0:
256,192,172907,1,2,0:0:0:0:
256,192,172995,1,0,0:0:0:0:
256,192,173083,1,0,0:0:0:0:
256,192,173260,1,2,0:0:0:0:
256,192,173436,1,0,0:0:0:0:
256,192,173524,1,0,0:0:0:0:
256,192,173613,1,6,0:0:0:0:
256,192,173789,1,2,0:0:0:0:
256,192,173877,1,0,0:0:0:0:
256,192,173965,1,6,0:0:0:0:
256,192,174142,1,2,0:0:0:0:
256,192,174230,1,2,0:0:0:0:
256,192,174318,1,4,0:0:0:0:
256,192,174495,1,2,0:0:0:0:
256,192,174671,1,0,0:0:0:0:
256,192,174848,1,0,0:0:0:0:
256,192,174936,1,0,0:0:0:0:
256,192,175024,1,0,0:0:0:0:
256,192,175201,1,0,0:0:0:0:
256,192,175289,1,0,0:0:0:0:
256,192,175377,1,2,0:0:0:0:
256,192,175465,1,2,0:0:0:0:
256,192,175554,1,0,0:0:0:0:
256,192,175730,1,2,0:0:0:0:
256,192,175907,1,0,0:0:0:0:
256,192,175995,1,0,0:0:0:0:
256,192,176083,1,2,0:0:0:0:
256,192,176260,1,0,0:0:0:0:
256,192,176348,1,0,0:0:0:0:
256,192,176436,1,2,0:0:0:0:
256,192,176524,1,0,0:0:0:0:
256,192,176613,1,0,0:0:0:0:
256,192,176789,1,2,0:0:0:0:
256,192,176877,1,0,0:0:0:0:
256,192,176965,1,0,0:0:0:0:
256,192,177142,1,6,0:0:0:0:
256,192,177318,1,0,0:0:0:0:
256,192,177495,1,2,0:0:0:0:
256,192,177583,1,0,0:0:0:0:
256,192,177671,1,2,0:0:0:0:
256,192,177760,1,2,0:0:0:0:
256,192,177848,1,2,0:0:0:0:
256,192,178024,1,2,0:0:0:0:
256,192,178113,1,2,0:0:0:0:
256,192,178201,1,0,0:0:0:0:
256,192,178377,1,0,0:0:0:0:
256,192,178554,1,2,0:0:0:0:
256,192,178642,1,0,0:0:0:0:
256,192,178731,1,0,0:0:0:0:
256,192,178907,1,2,0:0:0:0:
256,192,178996,1,0,0:0:0:0:
256,192,179083,1,2,0:0:0:0:
256,192,179260,1,2,0:0:0:0:
256,192,179348,1,2,0:0:0:0:
256,192,179437,1,0,0:0:0:0:
256,192,179613,1,0,0:0:0:0:
256,192,179789,1,2,0:0:0:0:
256,192,179965,1,6,0:0:0:0:
256,192,180142,1,0,0:0:0:0:
256,192,180318,1,2,0:0:0:0:
256,192,180407,1,2,0:0:0:0:
256,192,180495,1,0,0:0:0:0:
256,192,180583,1,0,0:0:0:0:
256,192,180671,1,2,0:0:0:0:
256,192,180848,1,0,0:0:0:0:
256,192,181024,1,2,0:0:0:0:
256,192,181201,1,0,0:0:0:0:
256,192,181289,1,0,0:0:0:0:
256,192,181377,1,2,0:0:0:0:
256,192,181554,1,0,0:0:0:0:
256,192,181730,1,2,0:0:0:0:
256,192,181907,1,0,0:0:0:0:
256,192,181995,1,0,0:0:0:0:
256,192,182083,1,2,0:0:0:0:
256,192,182260,1,0,0:0:0:0:
256,192,182436,1,2,0:0:0:0:
256,192,182613,1,0,0:0:0:0:
256,192,182789,1,2,0:0:0:0:
256,192,182965,1,0,0:0:0:0:
256,192,183142,1,2,0:0:0:0:
256,192,183230,1,2,0:0:0:0:
256,192,183318,1,0,0:0:0:0:
256,192,183406,1,0,0:0:0:0:
256,192,183495,1,2,0:0:0:0:
256,192,183671,1,0,0:0:0:0:
256,192,183760,1,0,0:0:0:0:
256,192,183848,1,2,0:0:0:0:
256,192,184024,1,0,0:0:0:0:
256,192,184113,1,0,0:0:0:0:
256,192,184201,1,2,0:0:0:0:
256,192,184289,1,2,0:0:0:0:
256,192,184377,1,0,0:0:0:0:
256,192,184554,1,2,0:0:0:0:
256,192,184730,1,0,0:0:0:0:
256,192,184818,1,0,0:0:0:0:
256,192,184907,1,2,0:0:0:0:
256,192,185083,1,2,0:0:0:0:
256,192,185171,1,0,0:0:0:0:
256,192,185260,1,2,0:0:0:0:
256,192,185348,1,0,0:0:0:0:
256,192,185436,1,0,0:0:0:0:
256,192,185524,1,0,0:0:0:0:
256,192,185613,1,6,0:0:0:0:
256,192,185789,1,2,0:0:0:0:
256,192,185877,1,0,0:0:0:0:
256,192,185965,1,6,0:0:0:0:
256,192,186142,1,2,0:0:0:0:
256,192,186230,1,2,0:0:0:0:
256,192,186318,1,4,0:0:0:0:
256,192,186495,1,0,0:0:0:0:
256,192,186671,1,6,0:0:0:0:
256,192,186848,1,0,0:0:0:0:
256,192,186936,1,0,0:0:0:0:
256,192,187024,1,2,0:0:0:0:
256,192,187113,1,2,0:0:0:0:
256,192,187201,1,0,0:0:0:0:
256,192,187289,1,0,0:0:0:0:
256,192,187377,1,2,0:0:0:0:
256,192,187465,1,0,0:0:0:0:
256,192,187554,1,2,0:0:0:0:
256,192,187642,1,0,0:0:0:0:
256,192,187730,1,2,0:0:0:0:
256,192,187907,1,0,0:0:0:0:
256,192,188083,1,2,0:0:0:0:
