osu file format v14

[General]
AudioFilename: audio.mp3
AudioLeadIn: 0
PreviewTime: 140348
Countdown: 0
SampleSet: Normal
StackLeniency: 0.4
Mode: 1
LetterboxInBreaks: 0
WidescreenStoryboard: 0

[Editor]
DistanceSpacing: 0.8
BeatDivisor: 1
GridSize: 32
TimelineZoom: 1.1

[Metadata]
Title:Karakurenai
TitleUnicode:からくれなゐ
Artist:UNDEAD CORPORATION
ArtistUnicode:UNDEAD CORPORATION
Creator:ASPIRIN
Version:Kantan
Source:東方地霊殿 ~ Subterranean Animism.
Tags:touhou 11 stage 3 c82 yuugi hoshiguma 星熊 勇儀 旧地獄街道を行く 桂琳 パイン パインツリー 紅染の鬼が哭く Walking the Streets of a Former Hell ZUN
BeatmapID:1499445
BeatmapSetID:709336

[Difficulty]
HPDrainRate:8
CircleSize:2
OverallDifficulty:3
ApproachRate:4
SliderMultiplier:1.4
SliderTickRate:1

[Events]
//Background and Video events
0,0,"The Spoken-of Unexplainable Phenomena.jpg",0,80
//Break Periods
//Storyboard Layer 0 (Background)
//Storyboard Layer 1 (Fail)
//Storyboard Layer 2 (Pass)
//Storyboard Layer 3 (Foreground)
//Storyboard Sound Samples

[TimingPoints]
11966,352.941176470588,4,1,0,40,1,0
11966,-100,4,1,0,40,0,0
13377,-100,4,1,0,60,0,0
24671,-100,4,1,0,75,0,0
35965,-100,4,1,0,85,0,0
47260,-100,4,1,0,100,0,1
71260,-100,4,1,0,85,0,0
82554,-100,4,1,0,75,0,0
93847,-100,4,1,0,85,0,0
105142,-100,4,1,0,100,0,1
129142,-100,4,1,0,75,0,0
131260,-100,4,1,0,100,0,0
131965,-100,4,1,0,75,0,0
140436,-100,4,1,0,85,0,0
151730,-100,4,1,0,50,0,0
161613,-100,4,1,0,75,0,0
163024,-100,4,1,0,100,0,1
188083,-100,4,1,0,100,0,0

[HitObjects]
256,192,13377,5,4,0:0:0:0:
256,192,14083,1,2,0:0:0:0:
256,192,14789,1,0,0:0:0:0:
256,192,16201,1,0,0:0:0:0:
256,192,16907,1,2,0:0:0:0:
256,192,17613,1,2,0:0:0:0:
256,192,19024,1,0,0:0:0:0:
256,192,19730,1,2,0:0:0:0:
256,192,20436,1,0,0:0:0:0:
256,192,21848,1,0,0:0:0:0:
256,192,22554,1,2,0:0:0:0:
256,192,23260,1,0,0:0:0:0:
256,192,23613,1,0,0:0:0:0:
256,192,23965,1,6,0:0:0:0:
256,192,24671,1,4,0:0:0:0:
256,192,25377,1,2,0:0:0:0:
256,192,26083,1,0,0:0:0:0:
256,192,26789,1,0,0:0:0:0:
256,192,27142,1,2,0:0:0:0:
256,192,27495,1,0,0:0:0:0:
256,192,28201,1,2,0:0:0:0:
256,192,28907,1,2,0:0:0:0:
256,192,30318,1,4,0:0:0:0:
256,192,31024,1,2,0:0:0:0:
256,192,31730,1,0,0:0:0:0:
256,192,32436,1,0,0:0:0:0:
256,192,32789,1,6,0:0:0:0:
256,192,33142,1,4,0:0:0:0:
256,192,33848,1,2,0:0:0:0:
256,192,34201,1,2,0:0:0:0:
256,192,34554,1,0,0:0:0:0:
256,192,35613,1,6,0:0:0:0:
256,192,35965,1,0,0:0:0:0:
256,192,36671,1,2,0:0:0:0:
256,192,37377,1,0,0:0:0:0:
256,192,38789,1,0,0:0:0:0:
256,192,39495,1,2,0:0:0:0:
256,192,40201,1,0,0:0:0:0:
256,192,40907,1,6,0:0:0:0:
256,192,41260,1,6,0:0:0:0:
256,192,41613,1,0,0:0:0:0:
256,192,42318,1,2,0:0:0:0:
256,192,43024,1,0,0:0:0:0:
256,192,43377,1,2,0:0:0:0:
256,192,43730,1,0,0:0:0:0:
256,192,44436,1,6,0:0:0:0:
256,192,45142,1,2,0:0:0:0:
256,192,45848,1,0,0:0:0:0:
256,192,47260,1,6,0:0:0:0:
256,192,47965,1,2,0:0:0:0:
256,192,48671,1,2,0:0:0:0:
256,192,49024,1,2,0:0:0:0:
256,192,49377,1,0,0:0:0:0:
256,192,50083,1,6,0:0:0:0:
256,192,50789,1,0,0:0:0:0:
256,192,51495,1,2,0:0:0:0:
256,192,52554,1,0,0:0:0:0:
256,192,52907,1,6,0:0:0:0:
256,192,53613,1,0,0:0:0:0:
256,192,54318,1,2,0:0:0:0:
256,192,54671,1,0,0:0:0:0:
256,192,55024,1,2,0:0:0:0:
256,192,55730,1,0,0:0:0:0:
256,192,56436,1,2,0:0:0:0:
256,192,57142,1,2,0:0:0:0:
256,192,58554,1,6,0:0:0:0:
256,192,59260,1,2,0:0:0:0:
256,192,59965,1,2,0:0:0:0:
256,192,60318,1,2,0:0:0:0:
256,192,60671,1,0,0:0:0:0:
256,192,61377,1,6,0:0:0:0:
256,192,62083,1,0,0:0:0:0:
256,192,62789,1,2,0:0:0:0:
256,192,63848,1,0,0:0:0:0:
256,192,64201,1,6,0:0:0:0:
256,192,64907,1,2,0:0:0:0:
256,192,65613,1,2,0:0:0:0:
256,192,65965,1,0,0:0:0:0:
256,192,66318,1,2,0:0:0:0:
256,192,67024,1,0,0:0:0:0:
256,192,67730,1,2,0:0:0:0:
256,192,68436,1,2,0:0:0:0:
256,192,69142,1,2,0:0:0:0:
256,192,69495,1,2,0:0:0:0:
256,192,69848,1,0,0:0:0:0:
256,192,71260,1,2,0:0:0:0:
256,192,71965,1,2,0:0:0:0:
256,192,73024,1,0,0:0:0:0:
256,192,73377,1,2,0:0:0:0:
256,192,74083,1,2,0:0:0:0:
256,192,74789,1,2,0:0:0:0:
256,192,75848,1,0,0:0:0:0:
256,192,76201,1,2,0:0:0:0:
256,192,76907,1,2,0:0:0:0:
256,192,77613,1,2,0:0:0:0:
256,192,78671,1,0,0:0:0:0:
256,192,79024,1,2,0:0:0:0:
256,192,79730,1,2,0:0:0:0:
256,192,80436,1,2,0:0:0:0:
256,192,80789,1,6,0:0:0:0:
256,192,81142,1,0,0:0:0:0:
256,192,82554,1,4,0:0:0:0:
256,192,83260,1,2,0:0:0:0:
256,192,83965,1,2,0:0:0:0:
256,192,85377,1,0,0:0:0:0:
256,192,86083,1,2,0:0:0:0:
256,192,86789,1,0,0:0:0:0:
256,192,88201,1,4,0:0:0:0:
256,192,88907,1,2,0:0:0:0:
256,192,89613,1,2,0:0:0:0:
256,192,91024,1,4,0:0:0:0:
256,192,91730,1,2,0:0:0:0:
256,192,92083,1,0,0:0:0:0:
256,192,92436,1,2,0:0:0:0:
256,192,93495,1,6,0:0:0:0:
256,192,93848,1,0,0:0:0:0:
256,192,94554,1,6,0:0:0:0:
256,192,95260,1,0,0:0:0:0:
256,192,96671,1,0,0:0:0:0:
256,192,97377,1,6,0:0:0:0:
256,192,98083,1,0,0:0:0:0:
256,192,98789,1,6,0:0:0:0:
256,192,99142,1,6,0:0:0:0:
256,192,99495,1,0,0:0:0:0:
256,192,100201,1,2,0:0:0:0:
256,192,100907,1,0,0:0:0:0:
256,192,101260,1,2,0:0:0:0:
256,192,101613,1,2,0:0:0:0:
256,192,102318,1,6,0:0:0:0:
256,192,103024,1,0,0:0:0:0:
256,192,103730,1,2,0:0:0:0:
256,192,105142,1,6,0:0:0:0:
256,192,105848,1,2,0:0:0:0:
256,192,106554,1,2,0:0:0:0:
256,192,106907,1,2,0:0:0:0:
256,192,107260,1,0,0:0:0:0:
256,192,107965,1,6,0:0:0:0:
256,192,108671,1,0,0:0:0:0:
256,192,109377,1,2,0:0:0:0:
256,192,110436,1,0,0:0:0:0:
256,192,110789,1,6,0:0:0:0:
256,192,111495,1,0,0:0:0:0:
256,192,112201,1,2,0:0:0:0:
256,192,112554,1,0,0:0:0:0:
256,192,112907,1,2,0:0:0:0:
256,192,113613,1,2,0:0:0:0:
256,192,114318,1,2,0:0:0:0:
256,192,115024,1,0,0:0:0:0:
256,192,116436,1,4,0:0:0:0:
256,192,117142,1,2,0:0:0:0:
256,192,117848,1,0,0:0:0:0:
256,192,118201,1,2,0:0:0:0:
256,192,118554,1,0,0:0:0:0:
256,192,119260,1,6,0:0:0:0:
256,192,119965,1,0,0:0:0:0:
256,192,120671,1,2,0:0:0:0:
256,192,121730,1,0,0:0:0:0:
256,192,122083,1,6,0:0:0:0:
256,192,122789,1,2,0:0:0:0:
256,192,123495,1,2,0:0:0:0:
256,192,123848,1,0,0:0:0:0:
256,192,124201,1,2,0:0:0:0:
256,192,124907,1,0,0:0:0:0:
256,192,125613,1,2,0:0:0:0:
256,192,125965,1,0,0:0:0:0:
256,192,126318,1,0,0:0:0:0:
256,192,127024,1,2,0:0:0:0:
256,192,127730,1,0,0:0:0:0:
256,192,128436,1,0,0:0:0:0:
256,192,129142,1,6,0:0:0:0:
256,192,131260,1,2,0:0:0:0:
256,192,131965,1,0,0:0:0:0:
256,192,132671,1,2,0:0:0:0:
256,192,133730,1,2,0:0:0:0:
256,192,134083,1,0,0:0:0:0:
256,192,134789,1,2,0:0:0:0:
256,192,135495,1,2,0:0:0:0:
256,192,136554,1,0,0:0:0:0:
256,192,136907,1,2,0:0:0:0:
256,192,137613,1,0,0:0:0:0:
256,192,138318,1,2,0:0:0:0:
256,192,139377,1,0,0:0:0:0:
256,192,139730,1,2,0:0:0:0:
256,192,140083,1,2,0:0:0:0:
256,192,140436,1,0,0:0:0:0:
256,192,141142,1,2,0:0:0:0:
256,192,142201,1,0,0:0:0:0:
256,192,142554,1,2,0:0:0:0:
256,192,143260,1,0,0:0:0:0:
256,192,143965,1,2,0:0:0:0:
256,192,144671,1,0,0:0:0:0:
256,192,145024,1,0,0:0:0:0:
256,192,145377,1,2,0:0:0:0:
256,192,146083,1,0,0:0:0:0:
256,192,146789,1,2,0:0:0:0:
256,192,147848,1,0,0:0:0:0:
256,192,148201,1,2,0:0:0:0:
256,192,148907,1,0,0:0:0:0:
256,192,149613,1,2,0:0:0:0:
256,192,149965,1,6,0:0:0:0:
256,192,150318,1,0,0:0:0:0:
256,192,151024,1,0,0:0:0:0:
256,192,151730,1,2,0:0:0:0:
256,192,153142,1,0,0:0:0:0:
256,192,153848,1,2,0:0:0:0:
256,192,154554,1,0,0:0:0:0:
256,192,155965,1,2,0:0:0:0:
256,192,156671,1,2,0:0:0:0:
256,192,157377,1,2,0:0:0:0:
256,192,158789,1,2,0:0:0:0:
256,192,159495,1,0,0:0:0:0:
256,192,160201,1,0,0:0:0:0:
256,192,160907,1,0,0:0:0:0:
256,192,161613,1,6,0:0:0:0:
256,192,163024,1,6,0:0:0:0:
256,192,163730,1,2,0:0:0:0:
256,192,164436,1,2,0:0:0:0:
256,192,164789,1,2,0:0:0:0:
256,192,165142,1,0,0:0:0:0:
256,192,165848,1,6,0:0:0:0:
256,192,166554,1,0,0:0:0:0:
256,192,167260,1,2,0:0:0:0:
256,192,168318,1,0,0:0:0:0:
256,192,168671,1,6,0:0:0:0:
256,192,169377,1,2,0:0:0:0:
256,192,170083,1,0,0:0:0:0:
256,192,170436,1,2,0:0:0:0:
256,192,170789,1,0,0:0:0:0:
256,192,171495,1,0,0:0:0:0:
256,192,172201,1,2,0:0:0:0:
256,192,172907,1,2,0:0:0:0:
256,192,174318,1,4,0:0:0:0:
256,192,175024,1,0,0:0:0:0:
256,192,175730,1,2,0:0:0:0:
256,192,176083,1,2,0:0:0:0:
256,192,176436,1,0,0:0:0:0:
256,192,177142,1,6,0:0:0:0:
256,192,177848,1,2,0:0:0:0:
256,192,178201,1,0,0:0:0:0:
256,192,178554,1,2,0:0:0:0:
256,192,179965,1,6,0:0:0:0:
256,192,180671,1,2,0:0:0:0:
256,192,181377,1,0,0:0:0:0:
256,192,181730,1,0,0:0:0:0:
256,192,182083,1,2,0:0:0:0:
256,192,182789,1,2,0:0:0:0:
256,192,183495,1,2,0:0:0:0:
256,192,183848,1,0,0:0:0:0:
256,192,184201,1,0,0:0:0:0:
256,192,184907,1,2,0:0:0:0:
256,192,185613,1,2,0:0:0:0:
256,192,186318,1,2,0:0:0:0:
256,192,187024,1,2,0:0:0:0:
256,192,187377,1,0,0:0:0:0:
256,192,187730,1,0,0:0:0:0:
256,192,188083,1,2,0:0:0:0:
