osu file format v14

[General]
AudioFilename: audio.mp3
AudioLeadIn: 0
PreviewTime: 440
Countdown: 0
SampleSet: Soft
StackLeniency: 0.7
Mode: 0
LetterboxInBreaks: 0
WidescreenStoryboard: 0

[Editor]
DistanceSpacing: 1.3
BeatDivisor: 4
GridSize: 32
TimelineZoom: 1

[Metadata]
Title:Iki wa Yoiyoi
TitleUnicode:いきはよいよい
Artist:UNDEAD CORPORATION
ArtistUnicode:UNDEAD CORPORATION
Creator:PandaHero
Version:Normal
Source:東方星蓮船 ~ Undefined Fantastic Object.
Tags:Touhou Seirensen 東方 Project パインツリー Fires of Hokkai 法界の火 Hijiri Byakuren Oni Fairy-tale Book 鬼伽草子 Togizoushi Reitaisai 8 pinetree ZUN 博麗神社例大祭 Hakurei Jinja Team Shanghai Alice 上海アリス幻樂団 TOHO COMPLETE BOX
BeatmapID:1347604
BeatmapSetID:635068

[Difficulty]
HPDrainRate:3
CircleSize:4
OverallDifficulty:3
ApproachRate:5
SliderMultiplier:1.15
SliderTickRate:1

[Events]
//Background and Video events
0,0,"13435435445252.jpg",0,0
//Break Periods
//Storyboard Layer 0 (Background)
//Storyboard Layer 1 (Fail)
//Storyboard Layer 2 (Pass)
//Storyboard Layer 3 (Foreground)
//Storyboard Sound Samples

[TimingPoints]
5240,600,4,2,0,35,1,0
23840,-100,4,2,0,40,0,0
37640,-100,4,2,0,43,0,0
38240,-100,4,2,0,45,0,0
38840,-100,4,2,0,48,0,0
39440,-100,4,2,0,40,0,0
43640,-100,4,2,0,38,0,0
64040,-100,4,2,0,30,0,0
67640,-100,4,2,0,25,0,0
86990,-100,4,2,0,15,0,0
88640,-100,4,2,0,10,0,0
89840,-100,4,2,0,5,0,0

[Colours]
Combo1 : 85,240,128
Combo2 : 210,89,217
Combo3 : 235,90,126
Combo4 : 89,218,236

[HitObjects]
31,38,5240,5,4,0:3:0:0:
36,188,5840,2,0,P|42:224|50:263,2,57.5,0|4|4,0:0|0:3|0:3,0:0:0:0:
76,124,6740,2,0,P|142:130|211:121,1,115,4|0,0:3|0:3,0:0:0:0:
244,72,7640,5,4,0:3:0:0:
392,60,8240,2,0,P|428:44|453:27,2,57.5,0|4|4,0:0|0:3|0:3,0:0:0:0:
328,96,9140,2,0,P|322:157|332:221,1,115,4|0,0:3|0:0,0:0:0:0:
376,268,10040,5,4,0:3:0:0:
500,352,10640,2,0,P|507:317|507:277,1,57.5,2|4,0:3|0:3,0:0:0:0:
460,236,11240,2,0,P|453:201|453:161,1,57.5,4|4,0:3|0:3,0:0:0:0:
484,112,11840,1,2,0:3:0:0:
360,24,12440,5,4,0:3:0:0:
264,136,13040,2,0,P|229:129|189:129,1,57.5,2|4,0:3|0:3,0:0:0:0:
136,152,13640,2,0,P|101:159|61:159,1,57.5,4|4,0:3|0:3,0:0:0:0:
28,108,14240,1,2,0:3:0:0:
40,256,14840,5,4,1:3:0:0:
188,276,15440,2,0,P|215:277|264:272,2,57.5,2|4|4,0:3|0:3|0:3,0:0:0:0:
160,344,16340,2,0,P|218:350|282:340,1,115,4|0,0:3|0:3,0:0:0:0:
348,332,17240,5,4,0:3:0:0:
456,228,17840,2,0,P|478:206|494:186,2,57.5,2|4|4,0:3|0:3|0:3,0:0:0:0:
384,244,18740,2,0,P|327:251|270:245,1,115,4|0,0:3|0:0,0:0:0:0:
196,236,19640,5,4,0:3:0:0:
60,300,20240,2,0,P|51:270|49:231,1,57.5,2|4,0:3|0:3,0:0:0:0:
84,176,20840,2,0,P|93:146|95:107,1,57.5,4|4,0:3|0:3,0:0:0:0:
72,48,21440,1,2,0:3:0:0:
216,88,22040,5,4,0:3:0:0:
364,80,22640,2,0,P|396:77|433:66,1,57.5,2|4,0:3|0:3,0:0:0:0:
448,140,23240,2,0,P|445:172|434:209,1,57.5,4|4,0:3|0:3,0:0:0:0:
392,256,23840,2,0,P|395:288|406:325,1,57.5,2|0,0:0|0:0,0:0:0:0:
332,344,24440,6,0,P|276:352|207:342,1,115,4|2,1:3|0:3,0:0:0:0:
148,324,25340,1,4,0:3:0:0:
84,288,25640,2,0,P|71:257|65:216,1,57.5,4|4,0:3|0:3,0:0:0:0:
84,160,26240,2,0,P|104:133|136:107,1,57.5,2|0,0:0|0:0,0:0:0:0:
196,120,26840,5,4,0:3:0:0:
76,28,27440,2,0,P|38:45|3:74,1,57.5,2|4,0:3|0:3,0:0:0:0:
20,128,28040,2,0,B|48:171|-3:208|31:258,1,115,4|2,0:3|0:0,0:0:0:0:
48,308,28940,1,0,0:0:0:0:
112,348,29240,6,0,P|176:356|235:349,2,115,4|2|4,1:3|0:3|0:3,0:0:0:0:
48,308,30740,1,4,0:3:0:0:
60,236,31040,2,0,P|77:218|107:197,1,57.5,2|0,0:0|0:0,0:0:0:0:
172,168,31640,6,0,P|205:216|231:283,1,115,4|4,0:3|0:3,0:0:0:0:
252,340,32540,1,4,0:3:0:0:
324,356,32840,2,0,P|356:353|392:341,1,57.5,4|4,0:3|0:3,0:0:0:0:
452,332,33440,2,0,P|480:334|508:341,1,57.5,2|0,0:0|0:0,0:0:0:0:
508,268,34040,6,0,P|513:210|498:136,1,115,4|2,1:3|0:3,0:0:0:0:
472,88,34940,1,4,0:3:0:0:
400,104,35240,2,0,P|393:140|391:185,1,57.5,4|4,0:3|0:3,0:0:0:0:
344,216,35840,2,0,P|308:223|263:225,1,57.5,2|0,0:0|0:0,0:0:0:0:
224,188,36440,5,4,0:3:0:0:
104,96,37040,2,0,P|124:67|148:48,1,57.5,2|4,0:3|0:3,0:0:0:0:
212,32,37640,2,0,B|268:55|279:21|342:41,1,115,4|2,0:3|0:0,0:0:0:0:
400,32,38540,1,0,0:0:0:0:
468,64,38840,6,0,P|483:129|471:201,1,115,4|2,0:3|0:3,0:0:0:0:
408,200,39740,1,4,0:3:0:0:
336,188,40040,2,0,P|302:194|250:217,1,57.5,4|4,0:3|0:3,0:0:0:0:
272,276,40640,2,0,P|266:309|243:362,1,57.5,2|0,0:0|0:0,0:0:0:0:
188,356,41240,5,4,0:3:0:0:
48,304,41840,2,0,P|18:273|-4:240,1,57.5,4|4,0:3|0:3,0:0:0:0:
56,200,42440,2,0,P|86:169|108:136,1,57.5,4|0,0:3|0:3,0:0:0:0:
48,100,43040,2,0,P|18:69|-4:36,1,57.5,2|0,0:0|0:0,0:0:0:0:
76,28,43640,6,0,P|138:35|211:23,1,115,4|2,0:3|0:3,0:0:0:0:
264,28,44540,1,4,0:3:0:0:
332,60,44840,1,4,0:3:0:0:
320,136,45140,1,0,0:3:0:0:
252,172,45440,2,0,P|247:204|251:252,1,57.5,2|0,0:0|0:0,0:0:0:0:
308,272,46040,6,0,P|376:281|453:266,1,115,4|2,0:3|0:3,0:0:0:0:
480,228,46940,1,4,0:3:0:0:
488,152,47240,1,4,0:3:0:0:
428,108,47540,1,0,0:3:0:0:
356,120,47840,2,0,P|328:142|303:176,1,57.5,2|0,0:0|0:0,0:0:0:0:
252,204,48440,6,0,P|222:209|186:203,2,57.5,4|0|2,0:3|0:0|0:3,0:0:0:0:
324,228,49340,1,4,0:3:0:0:
356,296,49640,1,4,0:3:0:0:
308,352,49940,1,4,0:3:0:0:
236,328,50240,2,0,P|206:325|170:330,1,57.5,2|0,0:0|0:0,0:0:0:0:
108,352,50840,5,4,0:3:0:0:
32,224,51440,1,2,0:3:0:0:
28,148,51740,1,4,0:3:0:0:
88,100,52040,2,0,P|121:101|156:104,1,57.5,4|0,0:3|0:3,0:0:0:0:
188,164,52640,2,0,P|187:202|177:224,1,57.5,2|0,0:0|0:0,0:0:0:0:
140,284,53240,5,4,0:3:0:0:
288,308,53840,2,0,P|325:317|358:333,1,57.5,2|0,0:3|0:3,0:0:0:0:
416,320,54440,2,0,P|443:309|471:303,1,57.5,4|0,0:3|0:3,0:0:0:0:
492,232,55040,1,2,0:0:0:0:
472,160,55340,1,0,0:3:0:0:
404,132,55640,6,0,P|352:134|296:162,1,115,4|2,0:3|0:3,0:0:0:0:
260,228,56540,1,4,0:3:0:0:
188,248,56840,1,4,0:3:0:0:
120,220,57140,2,0,P|100:169|104:95,1,115,0|0,0:3|0:0,0:0:0:0:
148,52,58040,6,0,P|200:30|281:39,1,115,2|2,1:2|0:0,0:0:0:0:
308,88,58940,1,0,0:0:0:0:
300,164,59240,2,0,P|299:210|312:247,1,57.5,2|2,0:0|0:0,0:0:0:0:
344,280,59840,2,0,P|345:326|332:363,1,57.5,2|0,0:0|0:0,0:0:0:0:
416,356,60440,5,4,0:3:0:0:
484,224,61040,1,0,0:0:0:0:
480,148,61340,1,4,0:3:0:0:
420,104,61640,2,0,P|381:97|348:100,1,57.5,4|4,0:3|0:3,0:0:0:0:
312,152,62240,2,0,P|308:184|317:228,1,57.5,2|0,0:0|0:0,0:0:0:0:
292,280,62840,6,0,P|231:301|163:301,1,115,4|0,0:3|0:0,0:0:0:0:
104,304,63740,1,0,0:0:0:0:
44,256,64040,6,0,P|28:176|56:72,1,172.5,4|0,0:3|0:0,0:0:0:0:
104,40,65240,2,0,B|260:100|224:0|364:52|364:52|384:92|352:140,1,345,4|0,0:3|0:0,0:0:0:0:
480,36,67640,6,0,B|491:96|491:96|478:165,1,115,4|2,0:3|0:3,0:0:0:0:
440,208,68540,1,2,0:0:0:0:
372,240,68840,2,0,B|318:249|318:249|258:238,1,115,4|2,0:3|0:3,0:0:0:0:
200,192,69740,1,0,0:0:0:0:
128,180,70040,6,0,P|112:236|124:312,1,115,4|2,0:3|0:3,0:0:0:0:
164,348,70940,1,2,0:0:0:0:
236,360,71240,2,0,P|292:368|360:352,1,115,4|0,0:3|0:0,0:0:0:0:
404,308,72140,1,0,0:0:0:0:
436,240,72440,6,0,P|442:183|429:127,1,115,4|2,0:3|0:3,0:0:0:0:
360,96,73340,1,2,0:0:0:0:
288,120,73640,2,0,P|197:111|119:79,1,172.5,4|0,0:3|0:0,0:0:0:0:
60,40,74840,6,0,P|49:91|60:166,1,115,4|2,0:3|0:3,0:0:0:0:
76,224,75740,1,2,0:0:0:0:
144,260,76040,2,0,P|200:268|276:256,1,115,4|2,0:3|0:0,0:0:0:0:
312,212,76940,1,0,0:0:0:0:
384,224,77240,6,0,P|390:282|376:340,1,115,4|2,0:3|0:3,0:0:0:0:
304,360,78140,1,2,0:0:0:0:
232,344,78440,1,4,0:3:0:0:
188,284,78740,2,2,B|176:228|216:228|200:164,1,115,2|0,0:0|0:0,0:0:0:0:
176,104,79640,5,4,0:3:0:0:
304,28,80240,1,2,0:3:0:0:
348,88,80540,1,2,0:0:0:0:
424,88,80840,1,4,0:3:0:0:
488,52,81140,2,2,B|464:111|504:111|480:167,1,115,2|0,0:0|0:0,0:0:0:0:
440,228,82040,6,0,P|364:212|264:240,1,172.5,4|2,0:3|0:0,0:0:0:0:
200,256,83240,2,0,P|117:278|33:262,1,172.5,4|2,0:3|0:0,0:0:0:0:
20,188,84440,6,0,B|-4:140|-4:88|-4:88|44:88|76:112|76:112|64:152,1,230,4|4,0:3|0:3,0:0:0:0:
92,220,85940,2,0,B|81:256|81:256|116:282|178:291,1,115,2|0,0:0|0:0,0:0:0:0:
224,276,86840,5,2,0:0:0:0:
256,192,86990,12,0,91640,0:0:0:0:
