osu file format v14

[General]
AudioFilename: audio.mp3
AudioLeadIn: 0
PreviewTime: 440
Countdown: 0
SampleSet: Soft
StackLeniency: 0.7
Mode: 0
LetterboxInBreaks: 0
WidescreenStoryboard: 0

[Editor]
DistanceSpacing: 1
BeatDivisor: 4
GridSize: 4
TimelineZoom: 1.7

[Metadata]
Title:Iki wa Yoiyoi
TitleUnicode:いきはよいよい
Artist:UNDEAD CORPORATION
ArtistUnicode:UNDEAD CORPORATION
Creator:PandaHero
Version:Hard
Source:東方星蓮船 ~ Undefined Fantastic Object.
Tags:Touhou Seirensen 東方 Project パインツリー Fires of Hokkai 法界の火 Hijiri Byakuren Oni Fairy-tale Book 鬼伽草子 Togizoushi Reitaisai 8 pinetree ZUN 博麗神社例大祭 Hakurei Jinja Team Shanghai Alice 上海アリス幻樂団 TOHO COMPLETE BOX
BeatmapID:1347603
BeatmapSetID:635068

[Difficulty]
HPDrainRate:4
CircleSize:4.7
OverallDifficulty:5
ApproachRate:6
SliderMultiplier:1.25
SliderTickRate:1

[Events]
//Background and Video events
0,0,"13435435445252.jpg",0,0
//Break Periods
//Storyboard Layer 0 (Background)
//Storyboard Layer 1 (Fail)
//Storyboard Layer 2 (Pass)
//Storyboard Layer 3 (Foreground)
//Storyboard Sound Samples

[TimingPoints]
5240,600,4,2,0,35,1,0
23840,-200,4,2,0,40,0,0
24440,-83.3333333333333,4,2,0,40,0,0
26240,-200,4,2,0,40,0,0
26840,-83.3333333333333,4,2,0,40,0,0
31040,-200,4,2,0,40,0,0
31640,-83.3333333333333,4,2,0,40,0,0
33440,-200,4,2,0,40,0,0
34040,-83.3333333333333,4,2,0,40,0,0
35840,-200,4,2,0,40,0,0
36440,-83.3333333333333,4,2,0,40,0,0
37640,-76.9230769230769,4,2,0,43,0,0
38240,-71.4285714285714,4,2,0,45,0,0
38840,-66.6666666666667,4,2,0,48,0,0
39440,-83.3333333333333,4,2,0,40,0,0
40640,-200,4,2,0,40,0,0
41240,-83.3333333333333,4,2,0,40,0,0
43040,-200,4,2,0,40,0,0
43640,-100,4,2,0,38,0,0
45440,-200,4,2,0,38,0,0
46040,-100,4,2,0,38,0,0
47840,-200,4,2,0,38,0,0
48440,-100,4,2,0,38,0,0
50240,-200,4,2,0,38,0,0
50840,-100,4,2,0,38,0,0
52640,-200,4,2,0,38,0,0
53240,-100,4,2,0,38,0,0
57440,-200,4,2,0,38,0,0
58040,-100,4,2,0,38,0,0
59840,-200,4,2,0,38,0,0
60440,-100,4,2,0,38,0,0
62240,-200,4,2,0,38,0,0
62840,-100,4,2,0,38,0,0
64040,-142.857142857143,4,2,0,30,0,0
67640,-142.857142857143,4,2,0,25,0,0
86990,-142.857142857143,4,2,0,15,0,0
88640,-142.857142857143,4,2,0,10,0,0
89840,-142.857142857143,4,2,0,5,0,0

[Colours]
Combo1 : 192,192,192
Combo2 : 210,89,217
Combo3 : 235,90,126
Combo4 : 89,218,236
Combo5 : 85,240,128

[HitObjects]
76,96,5240,6,0,P|120:92|168:80,2,93.75,4|0|4,0:3|0:0|0:3,0:0:0:0:
28,184,6440,2,0,P|24:232|28:268,1,62.5,4|4,0:3|0:3,0:3:0:0:
76,324,7040,1,2,0:3:0:0:
164,360,7340,1,0,0:3:0:0:
256,336,7640,6,0,P|304:316|348:276,2,93.75,4|0|4,0:3|0:0|0:3,0:0:0:0:
176,288,8840,2,0,P|164:260|160:220,1,62.5,4|4,0:3|0:3,0:3:0:0:
156,136,9440,1,2,0:3:0:0:
208,60,9740,1,0,0:0:0:0:
416,72,10040,5,4,0:3:0:0:
416,72,10640,2,0,P|459:63|497:50,1,62.5,2|4,0:3|0:3,0:0:0:0:
363,150,11240,2,0,P|319:141|281:128,1,62.5,4|4,0:3|0:3,0:0:0:0:
448,184,11840,1,2,0:3:0:0:
448,304,12140,5,0,0:0:0:0:
440,332,12290,1,0,0:0:0:0:
428,360,12440,1,4,0:3:0:0:
136,356,13040,2,0,P|95:335|62:313,1,62.5,2|4,0:3|0:3,0:3:0:0:
220,268,13640,2,0,P|260:247|293:225,1,62.5,4|4,0:3|0:3,0:3:0:0:
104,180,14240,1,2,0:3:0:0:
208,344,14540,21,0,0:0:0:0:
208,344,14690,1,0,0:0:0:0:
208,344,14840,2,0,P|260:344|316:360,1,93.75,4|0,1:3|0:0,0:0:0:0:
332,356,15440,2,0,P|376:356|412:348,1,62.5,2|4,0:3|0:3,0:3:0:0:
488,272,16040,1,4,0:3:0:0:
484,240,16190,1,0,0:0:0:0:
472,212,16340,1,4,0:3:0:0:
408,152,16640,1,2,0:3:0:0:
300,216,16940,5,0,0:3:0:0:
292,248,17090,1,0,0:3:0:0:
284,280,17240,2,0,P|240:280|192:272,1,93.75,4|0,0:3|0:0,0:0:0:0:
160,268,17840,2,0,P|124:272|84:292,1,62.5,2|4,0:3|0:3,0:3:0:0:
40,176,18440,1,4,0:3:0:0:
68,160,18590,1,0,0:0:0:0:
100,152,18740,1,4,0:3:0:0:
192,160,19040,1,2,0:3:0:0:
336,120,19340,5,0,0:0:0:0:
360,100,19490,1,0,0:0:0:0:
372,72,19640,2,0,P|332:40|284:24,1,93.75,4|0,0:3|0:0,0:0:0:0:
260,32,20240,1,2,0:3:0:0:
228,144,20540,1,4,0:3:0:0:
108,48,20840,1,4,0:3:0:0:
80,60,20990,1,0,0:0:0:0:
48,60,21140,1,4,0:3:0:0:
32,220,21440,1,2,0:3:0:0:
36,140,21740,5,0,0:0:0:0:
68,144,21890,1,0,0:0:0:0:
96,156,22040,2,0,P|140:184|176:220,1,93.75,4|0,0:3|0:0,0:0:0:0:
184,240,22640,1,2,0:3:0:0:
168,360,22940,1,4,0:3:0:0:
284,264,23240,1,4,0:3:0:0:
312,252,23390,1,0,0:0:0:0:
342,246,23540,1,4,0:3:0:0:
373,246,23690,1,0,0:0:0:0:
403,252,23840,6,0,P|423:259|453:281,1,46.875,2|0,0:0|0:0,0:0:0:0:
480,356,24440,6,0,P|488:304|476:240,1,112.499996566773,4|0,1:3|0:3,0:0:0:0:
466,211,25040,1,2,0:3:0:0:
328,136,25340,1,4,0:3:0:0:
336,284,25640,1,4,0:3:0:0:
364,260,25790,1,0,0:0:0:0:
380,228,25940,1,4,0:3:0:0:
232,272,26240,54,0,P|224:296|220:320,1,46.875,2|0,0:0|0:0,0:0:0:0:
212,356,26840,22,0,P|164:356|92:348,1,112.499996566773,4|0,0:3|0:0,0:0:0:0:
64,340,27440,1,2,0:3:0:0:
15,194,27740,1,4,0:3:0:0:
200,228,28040,2,0,P|264:212|308:172,1,112.499996566773,4|0,0:3|0:0,0:1:0:0:
316,148,28640,2,0,P|344:192|356:264,1,112.499996566773,2|0,0:0|0:0,0:0:0:0:
356,288,29240,5,4,1:3:0:0:
476,48,29840,2,0,P|432:52|392:52,1,74.9999977111817,2|0,0:3|0:0,0:0:0:0:
255,88,30440,2,0,P|259:132|259:172,1,74.9999977111817,4|4,0:3|0:3,0:3:0:0:
192,296,31040,22,0,P|167:284|152:272,1,46.875,2|0,0:0|0:0,0:0:0:0:
120,252,31640,53,4,0:3:0:0:
5,107,32240,1,4,0:3:0:0:
92,26,32540,1,4,0:3:0:0:
212,128,32840,1,4,0:3:0:0:
247,140,32990,1,0,0:3:0:0:
284,144,33140,1,4,0:3:0:0:
321,144,33290,1,0,0:3:0:0:
356,133,33440,6,0,P|382:113|401:94,1,46.875,2|0,0:0|0:0,0:0:0:0:
440,72,34040,6,0,P|448:124|444:196,1,112.499996566773,4|0,1:3|0:0,0:0:0:0:
436,220,34640,1,2,0:3:0:0:
353,311,34940,1,4,0:3:0:0:
490,360,35240,1,4,0:3:0:0:
494,324,35390,1,0,0:3:0:0:
490,288,35540,1,4,0:3:0:0:
357,230,35840,54,0,P|329:234|309:242,1,46.875,2|0,0:0|0:0,0:0:0:0:
286,267,36440,22,0,P|233:288|160:297,1,112.499996566773,4|0,0:3|0:0,0:0:0:0:
140,295,37040,1,2,0:3:0:0:
175,187,37340,1,4,0:3:0:0:
352,136,37640,6,0,P|352:80|296:28,1,121.874994421006,4|0,0:3|0:0,0:0:0:0:
376,200,38240,6,0,P|404:151|376:68,1,131.249995994568,2|0,0:0|0:0,0:0:0:0:
288,160,38840,22,0,P|260:224|288:296,1,140.625005364418,4|0,0:3|0:0,0:0:0:0:
308,316,39440,1,2,0:3:0:0:
195,269,39740,1,4,0:3:0:0:
72,360,40040,1,4,0:3:0:0:
44,336,40190,1,0,0:3:0:0:
28,304,40340,1,4,0:3:0:0:
149,218,40640,54,0,P|169:194|181:174,1,46.875,2|0,0:0|0:0,0:0:0:0:
193,146,41240,21,4,0:3:0:0:
44,27,41840,1,4,0:3:0:0:
77,142,42140,1,4,0:3:0:0:
76,178,42290,1,0,0:3:0:0:
68,213,42440,2,0,P|38:259|-2:278,1,74.9999977111817,4|0,0:3|0:3,0:3:0:0:
176,315,43040,38,0,P|200:311|228:315,1,46.875,2|0,0:0|0:0,0:0:0:0:
260,344,43640,38,0,P|329:352|403:339,1,125,4|2,0:3|0:3,0:3:0:0:
468,300,44540,1,4,0:3:0:0:
488,208,44840,2,0,P|489:187|492:161,2,31.25,4|0|0,0:3|0:3|0:3,0:3:0:0:
348,240,45440,22,0,P|344:269|350:300,1,46.875,2|0,0:0|0:0,0:0:0:0:
363,312,46040,53,4,0:3:0:0:
184,340,46640,2,0,P|155:346|120:363,1,62.5,2|4,0:3|0:3,0:3:0:0:
36,321,47240,2,0,P|27:303|16:280,2,31.25,4|0|0,0:3|0:3|0:3,0:3:0:0:
94,201,47840,6,0,P|123:208|149:218,1,46.875,2|0,0:0|0:0,0:0:0:0:
168,224,48440,6,0,P|187:175|184:104,1,125,4|2,0:3|0:3,0:3:0:0:
120,32,49340,1,4,0:3:0:0:
60,108,49640,2,0,L|59:155,2,31.25,4|0|0,0:3|0:3|0:3,0:3:0:0:
120,229,50240,54,0,P|145:231|175:231,1,46.875,2|0,0:0|0:0,0:0:0:0:
183,257,50840,22,0,P|248:253|313:274,1,125,4|2,0:3|0:3,0:3:0:0:
381,313,51740,1,4,0:3:0:0:
485,251,52040,2,0,P|489:221|492:183,1,62.5,4|0,0:3|0:3,0:3:0:0:
434,131,52640,38,0,P|430:101|428:76,1,46.875,2|0,0:0|0:0,0:0:0:0:
376,30,53240,37,4,0:3:0:0:
259,40,53690,1,0,0:3:0:0:
232,57,53840,2,0,L|163:57,1,62.5,2|0,0:3|0:3,0:3:0:0:
50,37,54440,2,0,L|12:71,2,31.25,4|0|0,0:3|0:3|0:3,0:3:0:0:
136,120,55040,21,2,0:0:0:0:
27,157,55340,53,0,0:3:0:0:
28,188,55490,1,0,0:3:0:0:
30,219,55640,2,0,P|36:283|54:349,1,125,4|2,0:3|0:3,0:3:0:0:
143,352,56540,1,4,0:3:0:0:
172,342,56690,1,0,0:3:0:0:
203,342,56840,2,0,B|241:346|273:360,1,62.5,4|0,0:3|0:3,0:3:0:0:
378,327,57440,6,0,P|411:326|430:331,1,46.875,2|0,0:0|0:0,0:0:0:0:
473,257,58040,6,0,P|483:211|481:169,1,62.5,2|0,1:2|0:0,0:0:0:0:
480,164,58490,1,0,0:0:0:0:
448,165,58640,6,0,P|433:120|394:66,1,93.75,2|0,0:0|0:0,0:0:0:0:
382,99,59240,6,0,P|362:112|346:122,2,31.25,2|0|0,0:0|0:0|0:0,0:0:0:0:
252,114,59840,22,0,P|226:114|205:114,1,46.875,2|0,0:0|0:0,0:0:0:0:
182,203,60440,54,0,P|230:206|292:200,2,93.75,4|0|4,0:3|0:0|0:3,0:0:0:0:
96,164,61640,1,4,0:3:0:0:
86,193,61790,1,0,0:0:0:0:
80,223,61940,1,4,0:3:0:0:
81,254,62090,1,0,0:0:0:0:
86,284,62240,6,0,P|102:315|111:331,1,46.875,2|0,0:0|0:0,0:0:0:0:
148,348,62840,5,4,0:3:0:0:
35,173,64040,6,2,P|32:84|86:33,1,153.124995326996,4|0,0:3|0:0,0:0:0:0:
144,56,65240,2,0,B|245:109|298:2|412:56,1,262.499991989136,4|0,0:3|0:0,0:0:0:0:
480,336,67640,6,0,L|479:378,2,21.874999332428,2|0|0,0:0|0:0|0:0,0:0:0:0:
489,248,68240,2,0,P|490:199|488:172,1,65.624997997284,2|0,0:3|0:0,0:0:0:0:
484,138,68840,1,4,0:3:0:0:
447,58,69140,6,0,L|421:88,1,21.874999332428,2|0,0:0|0:0,0:0:0:0:
368,32,69440,2,0,L|360:70,1,21.874999332428,2|0,0:0|0:0,0:0:0:0:
284,40,69740,2,0,L|296:77,1,21.874999332428,2|0,0:0|0:0,0:0:0:0:
328,152,70040,22,0,L|344:188,2,21.874999332428,2|0|0,0:0|0:0|0:0,0:0:0:0:
240,148,70640,2,0,P|200:152|160:148,1,65.624997997284,2|0,0:3|0:0,0:0:0:0:
132,140,71240,1,4,0:3:0:0:
68,80,71540,6,0,L|41:57,1,21.874999332428,2|0,0:0|0:0,0:0:0:0:
40,144,71840,2,0,L|5:136,1,21.874999332428,2|0,0:0|0:0,0:0:0:0:
40,216,72140,2,0,L|6:227,1,21.874999332428,2|0,0:0|0:0,0:0:0:0:
88,272,72440,6,0,L|72:308,2,21.874999332428,2|0|0,0:0|0:0|0:0,0:0:0:0:
168,240,73040,2,0,P|208:244|248:240,1,65.624997997284,2|0,0:3|0:0,0:0:0:0:
272,224,73640,1,4,0:3:0:0:
360,188,73940,6,0,L|388:168,1,21.874999332428,2|0,0:0|0:0,0:0:0:0:
380,256,74240,2,0,L|416:256,1,21.874999332428,2|0,0:0|0:0,0:0:0:0:
368,328,74540,2,0,L|396:348,1,21.874999332428,2|0,0:0|0:0,0:0:0:0:
292,344,74840,22,0,L|291:386,2,21.874999332428,2|0|0,0:0|0:0|0:0,0:0:0:0:
232,284,75440,2,0,P|183:283|156:285,1,65.624997997284,2|0,0:3|0:0,0:0:0:0:
124,292,76040,1,4,0:3:0:0:
36,280,76340,6,0,L|15:273,1,21.874999332428,2|0,0:0|0:0,0:0:0:0:
64,212,76640,2,0,L|47:193,1,21.874999332428,2|0,0:0|0:0,0:0:0:0:
128,176,76940,2,0,L|122:154,1,21.874999332428,2|0,0:0|0:0,0:0:0:0:
204,196,77240,6,0,L|215:160,2,21.874999332428,2|0|0,0:0|0:0|0:0,0:0:0:0:
272,252,77840,2,0,P|321:253|348:251,1,65.624997997284,2|0,0:3|0:0,0:0:0:0:
380,244,78440,1,4,0:3:0:0:
452,292,78740,6,0,L|469:306,1,21.874999332428,2|0,0:0|0:0,0:0:0:0:
460,220,79040,2,0,L|484:220,1,21.874999332428,2|0,0:0|0:0,0:0:0:0:
432,156,79340,2,0,L|452:140,1,21.874999332428,2|0,0:0|0:0,0:0:0:0:
356,144,79640,22,0,L|356:122,2,21.874999332428,2|0|0,0:0|0:0|0:0,0:0:0:0:
288,200,80240,2,0,P|239:199|212:201,1,65.624997997284,2|0,0:3|0:0,0:0:0:0:
180,208,80840,1,4,0:3:0:0:
96,180,81140,6,0,L|76:172,1,21.874999332428,2|0,0:0|0:0,0:0:0:0:
132,116,81440,2,0,L|118:99,1,21.874999332428,2|0,0:0|0:0,0:0:0:0:
192,68,81740,2,0,L|188:46,1,21.874999332428,2|0,0:0|0:0,0:0:0:0:
268,68,82040,6,0,L|280:38,2,21.874999332428,2|0|0,0:0|0:0|0:0,0:0:0:0:
264,156,82640,2,0,P|271:188|280:219,1,65.624997997284,2|0,0:3|0:0,0:0:0:0:
303,257,83240,1,4,0:3:0:0:
376,212,83540,6,0,L|384:192,1,21.874999332428,2|0,0:0|0:0,0:0:0:0:
356,104,83840,22,2,L|368:88,5,14.5833328882853
284,117,84440,6,2,B|242:140|228:195|228:195|256:242|302:256,1,196.874993991852,4|0,0:3|0:0,0:0:0:0:
264,320,85940,2,0,P|224:296|188:260,1,87.499997329712,2|2,0:0|0:0,0:0:0:0:
152,192,86840,1,2,0:0:0:0:
256,192,86990,12,0,91640,0:0:0:0:
