osu file format v14

[General]
AudioFilename: UNDEAD CORPORATION - Hafuri.mp3
AudioLeadIn: 0
PreviewTime: 118903
Countdown: 0
SampleSet: Soft
StackLeniency: 0.5
Mode: 0
LetterboxInBreaks: 0
EpilepsyWarning: 1
WidescreenStoryboard: 1

[Editor]
DistanceSpacing: 0.9
BeatDivisor: 4
GridSize: 4
TimelineZoom: 1.099999

[Metadata]
Title:Hafuri
TitleUnicode:葬
Artist:UNDEAD CORPORATION
ArtistUnicode:UNDEAD CORPORATION
Creator:tokiko
Version:Normal
Source:東方風神録 ~ Mountain of Faith.
Tags:鬼ーONIー 明日ハレの日、ケの昨日 Ashita Hare no Hi Ke no Kinou Tomorrow will be Special Yesterday was Not パインツリー Pine Tree Touhou Fuujinroku ZUN pine パイン Benizome no Oni ga Naku 紅染の鬼が哭く The Scarlet-Dyed Oni Howls LIQU@。ZUN Suwako Moriya 洩矢 諏訪子 Bury Sou Eastern Wind God Chronicles TOHO COMPLETE BOX Minstrel C82 Comiket 82 東方PROJECT Team Shanghai Alice metalcore traditional
BeatmapID:1320642
BeatmapSetID:624607

[Difficulty]
HPDrainRate:4
CircleSize:3.6
OverallDifficulty:3.5
ApproachRate:5
SliderMultiplier:1.3
SliderTickRate:1

[Events]
//Background and Video events
0,0,"UNDEAD CORPORATION - Hafuri.jpg",0,0
//Break Periods
2,177496,181239
//Storyboard Layer 0 (Background)
//Storyboard Layer 1 (Fail)
//Storyboard Layer 2 (Pass)
//Storyboard Layer 3 (Foreground)
//Storyboard Sound Samples

[TimingPoints]
6,413.793103448276,4,2,1,50,1,0
4970,-100,4,2,2,25,0,0
6419,-100,4,2,1,40,0,0
12212,-100,4,2,2,15,0,0
12419,-100,4,2,1,35,0,0
26488,413.793103448276,4,2,1,55,1,0
57936,483.870967741935,4,2,2,25,1,0
58177,428.571428571429,4,2,2,25,1,0
58605,380.952380952381,4,2,2,25,1,0
58795,444.444444444444,4,2,2,25,1,0
59643,428.571428571429,4,3,22,40,1,1
59643,-100,4,3,22,40,0,1
60071,-100,4,2,1,40,0,1
60500,-100,4,3,22,40,0,1
60928,-100,4,2,1,40,0,1
63071,-100,4,3,22,40,0,1
63500,-100,4,2,1,40,0,1
63928,-100,4,3,22,40,0,1
64357,-100,4,2,1,40,0,1
66500,-100,4,3,22,45,0,1
66928,-100,4,2,1,45,0,1
67357,-100,4,3,22,45,0,1
67785,-100,4,2,1,45,0,1
69928,-100,4,3,22,45,0,1
70357,-100,4,2,1,45,0,1
70785,-100,4,3,22,45,0,1
71214,-100,4,2,1,45,0,1
73410,413.793103448276,4,2,1,50,1,0
73978,413.793103448276,4,2,1,50,1,0
85357,428.571428571429,4,2,1,50,1,0
85785,419.58041958042,4,2,1,50,1,0
86064,428.571428571429,4,2,1,50,1,0
86349,373.831775700935,4,2,1,50,1,0
86598,413.793103448276,4,2,1,55,1,0
118046,428.571428571429,4,2,1,50,1,0
119760,-100,4,3,22,50,0,1
120188,-100,4,2,1,50,0,1
120617,-100,4,3,22,50,0,1
121046,-100,4,2,1,50,0,1
123188,-100,4,3,22,50,0,1
123617,-100,4,2,1,50,0,1
124045,-100,4,3,22,50,0,1
124474,-100,4,2,1,50,0,1
126617,-100,4,3,22,50,0,1
127046,-100,4,2,1,50,0,1
127474,-100,4,3,22,50,0,1
127903,-100,4,2,1,50,0,1
133474,-100,4,2,1,50,0,0
154039,413.793103448276,4,2,1,50,1,0
159832,-100,4,3,22,50,0,0
160659,-100,4,2,1,50,0,0
175763,483.870967741935,4,2,1,50,1,0
176004,428.571428571429,4,2,1,50,1,0
176218,380.952380952381,4,2,1,50,1,0
176408,444.444444444444,4,2,1,50,1,0
177297,428.571428571429,4,2,1,50,1,0
182439,-100,4,2,1,30,0,0
184154,-100,4,2,1,40,0,0
191011,-100,4,2,1,40,0,1
204713,413.793103448276,4,2,1,40,1,0
216299,-100,4,2,2,40,0,0
217747,-100,4,2,1,40,0,0
222919,-100,4,2,2,40,0,0
224575,480,4,2,1,40,1,0
224781,413.793103448276,4,2,1,40,1,0
225401,480,4,2,1,40,1,0
225608,413.793103448276,4,2,1,40,1,0
226228,480,4,2,1,40,1,0
226435,413.793103448276,4,2,1,40,1,0
226848,480,4,2,2,40,1,0
227108,387.096774193548,4,2,2,40,1,0
227237,400,4,2,2,40,1,0

[Colours]
Combo1 : 238,17,34
Combo2 : 253,234,168
Combo3 : 179,225,242
Combo4 : 168,2,15

[HitObjects]
192,154,626,5,8,0:3:0:0:
192,154,2281,5,8,0:3:0:0:
400,340,3316,2,0,L|296:336,1,97.5,4|4,0:0|0:0,0:0:0:0:
232,288,3937,2,0,P|244:228|216:152,1,130,8|0,0:3|0:0,0:0:0:0:
180,124,4557,2,0,L|188:40,1,65,8|8,0:3|0:3,0:0:0:0:
244,48,4971,38,0,P|292:56|348:44,2,97.5,8|8|8,0:0|0:0|0:0,0:0:0:0:
192,24,5799,2,0,P|144:15|96:23,2,97.5,8|8|8,0:0|0:0|0:0,0:0:0:0:
228,72,6626,2,0,L|240:204,1,130,0|8,0:0|0:0,0:0:0:0:
200,244,7247,6,0,P|132:252|68:240,1,130,8|0,0:3|0:0,0:0:0:0:
28,204,7868,1,8,0:3:0:0:
88,104,8281,1,0,0:0:0:0:
200,72,8695,1,8,0:0:0:0:
252,100,8902,38,0,P|316:108|388:96,1,130,8|0,0:3|0:0,0:0:0:0:
432,72,9523,1,8,0:3:0:0:
444,188,9937,1,0,0:0:0:0:
460,304,10350,1,8,0:0:0:0:
416,340,10557,6,0,B|372:348|372:348|284:340,1,130,8|0,0:3|0:0,0:0:0:0:
240,304,11178,2,0,L|232:208,1,65,8|8,0:3|0:3,0:0:0:0:
204,188,11592,38,0,P|156:196|100:184,2,97.5,4|4|8,0:0|0:0|0:0,0:0:0:0:
240,140,12419,2,0,P|288:131|344:143,2,97.5,4|4|8,0:0|0:0|0:0,0:0:0:0:
204,188,13247,2,0,L|200:292,1,97.5,4|4,0:0|0:0,0:0:0:0:
120,320,13868,6,0,B|108:288|108:288|112:188,1,130,8|0,0:3|0:0,0:0:0:0:
128,136,14488,1,8,0:3:0:0:
208,52,14902,1,0,0:0:0:0:
240,164,15316,1,8,0:0:0:0:
288,196,15523,38,0,B|328:204|328:204|424:196,1,130,8|0,0:3|0:0,0:0:0:0:
468,172,16143,1,8,0:3:0:0:
428,280,16557,1,0,0:0:0:0:
316,320,16971,1,8,0:0:0:0:
264,348,17178,6,0,P|196:356|120:340,1,130,8|0,0:3|0:0,0:0:0:0:
108,292,17799,2,0,L|112:220,1,65,8|8,0:3|0:3,0:0:0:0:
144,180,18212,38,0,B|176:168|176:168|244:172,2,97.5,2|2|0,0:3|3:0|0:3,0:0:0:0:
111,227,19040,2,0,B|79:239|79:239|11:235,2,97.5,2|2|0,0:3|0:3|0:0,0:0:0:0:
144,180,19868,6,0,L|148:44,2,130,4|0|0,0:3|0:0|0:0,0:0:0:0:
204,280,21109,1,0,0:0:0:0:
304,220,21523,2,0,L|308:84,2,130,4|0|0,0:3|0:0|0:0,0:0:0:0:
392,296,22764,1,0,0:0:0:0:
292,356,23178,38,0,P|224:364|148:352,2,130,4|0|0,0:3|0:0|0:0,0:0:0:0:
392,296,24419,1,10,0:0:0:0:
292,236,24833,2,0,P|227:228|163:236,2,130,4|2|0,0:3|0:0|0:0,0:0:0:0:
356,188,25937,2,0,P|364:144|348:76,1,86.6666666666667,0|6,0:0|0:0,0:0:0:0:
300,48,26488,6,0,P|248:52|152:44,1,130,4|0,0:0|0:0,0:0:0:0:
56,16,27315,2,0,L|52:92,1,65,0|0,0:0|0:0,0:0:0:0:
104,112,27729,2,0,L|108:188,1,65,10|2,0:0|0:0,0:0:0:0:
152,212,28143,38,0,P|220:220|296:208,2,130,2|2|2,0:0|0:0|0:0,0:0:0:0:
52,148,29384,1,0,0:0:0:0:
61,206,29591,1,2,0:0:0:0:
72,264,29798,1,10,0:0:0:0:
176,312,30212,2,0,L|312:304,2,130,2|2|0,0:0|0:0|0:0,0:0:0:0:
72,264,31453,6,0,P|60:196|76:132,1,130,10|4,0:0|0:0,0:0:0:0:
112,92,32074,2,0,L|256:84,1,130,4|0,0:0|0:0,0:0:0:0:
300,84,32694,1,2,0:0:0:0:
380,172,33108,38,0,B|396:212|396:212|380:304,1,130,10|4,0:0|0:0,0:0:0:0:
332,328,33729,2,0,P|272:336|200:324,1,130,4|0,0:0|0:0,0:0:0:0:
156,292,34350,1,4,0:3:0:0:
212,188,34763,6,0,L|220:48,1,130,2|0,0:0|0:0,0:0:0:0:
336,84,35591,2,0,L|420:80,1,65,6|2,0:0|0:0,0:0:0:0:
428,132,36005,2,0,L|492:135,1,65,10|2,0:0|0:0,0:0:0:0:
512,192,36419,38,0,L|504:336,2,130,2|0|2,0:0|0:0|0:0,0:0:0:0:
396,216,37660,1,0,0:0:0:0:
340,232,37867,1,0,0:0:0:0:
284,244,38074,1,0,0:0:0:0:
204,328,38488,2,0,B|156:340|156:340|48:332,2,130,10|0|0,0:0|0:0|0:0,0:0:0:0:
284,244,39729,6,0,P|296:172|280:104,1,130,10|4,0:0|0:0,0:0:0:0:
236,84,40350,2,0,L|96:80,1,130,4|0,0:0|0:0,0:0:0:0:
48,76,40970,1,2,0:0:0:0:
88,184,41384,38,0,B|128:192|128:192|236:180,1,130,2|4,0:0|0:0,0:0:0:0:
276,172,42005,1,4,0:0:0:0:
312,124,42212,2,0,L|320:16,2,86.6666666666667,0|0|0,0:0|0:0|0:0,0:0:0:0:
371,182,43039,6,0,P|379:222|363:290,2,97.5,4|0|0,0:0|0:0|0:0,0:0:0:0:
320,156,43867,2,0,P|312:116|332:24,1,130,8|0,0:0|0:0,0:0:0:0:
228,88,44694,1,8,0:0:0:0:
116,52,45108,1,0,0:0:0:0:
228,88,45522,1,8,0:0:0:0:
284,72,45729,1,0,0:0:0:0:
332,104,45936,2,0,L|412:100,1,65,0|0,0:0|0:0,0:0:0:0:
452,124,46350,38,0,P|464:176|444:232,2,97.5
412,80,47177,1,8,0:0:0:0:
364,188,47591,1,8,0:0:0:0:
316,296,48005,2,0,P|252:304|184:296,2,130,0|8|10,0:0|0:0|0:0,0:0:0:0:
400,212,49246,1,2,0:0:0:0:
376,156,49453,1,2,0:3:0:0:
344,104,49660,6,0,B|309:110|309:110|224:100,2,97.5,4|0|0,0:3|0:0|0:0,0:0:0:0:
396,76,50488,1,8,0:0:0:0:
464,172,50901,1,0,0:0:0:0:
404,272,51315,2,0,P|336:280|248:264,2,130,0|0|8,0:0|0:0|0:0,0:0:0:0:
440,224,52350,1,0,0:0:0:0:
456,168,52556,2,0,L|444:92,1,65,0|0,0:0|0:0,0:0:0:0:
392,80,52970,38,0,L|276:72,2,97.5
452,84,53798,1,10,0:0:0:0:
376,172,54212,1,0,0:0:0:0:
272,220,54625,6,0,P|224:216|152:224,2,97.5,4|4|0,0:0|0:0|0:0,0:0:0:0:
312,264,55453,2,0,P|360:267|432:260,2,97.5,4|4|0,0:0|0:0|0:0,0:0:0:0:
272,220,56281,38,0,L|268:96,2,97.5,6|2|4,0:0|0:0|0:0,0:0:0:0:
216,236,57108,2,0,P|156:228|84:232,1,130
28,312,57936,6,0,L|104:308,1,65
140,344,58391,2,0,L|204:347,1,65
256,352,58795,1,0,0:0:0:0:
368,328,59239,1,0,0:0:0:0:
384,272,59461,1,10,0:0:0:0:
384,216,59643,22,0,L|372:72,1,130,12|2,0:0|0:0,0:0:0:0:
315,96,60285,1,2,0:0:0:0:
268,132,60500,38,0,L|257:261,1,130,12|2,0:0|0:0,0:0:0:0:
208,296,61143,1,2,0:0:0:0:
156,324,61357,5,6,0:0:0:0:
44,292,61785,1,2,0:0:0:0:
124,208,62214,2,0,P|136:160|124:80,1,130,12|0,0:0|0:0,0:0:0:0:
180,100,62857,1,0,0:0:0:0:
232,128,63071,38,0,B|268:132|268:132|368:124,1,130,4|0,0:3|0:0,0:0:0:0:
406,166,63714,1,0,0:0:0:0:
420,224,63928,6,0,B|384:228|384:228|284:220,1,130,12|0,0:3|0:0,0:0:0:0:
233,208,64571,1,0,0:0:0:0:
176,196,64785,37,6,0:0:0:0:
208,308,65214,1,0,0:0:0:0:
320,348,65643,2,0,P|372:352|452:340,1,130,10|2,0:0|0:0,0:0:0:0:
484,228,66500,6,0,L|492:88,1,130,4|0,0:3|0:0,0:0:0:0:
436,120,67143,1,0,0:0:0:0:
384,148,67357,38,0,L|376:18,1,130,12|2,0:3|0:0,0:0:0:0:
318,35,68000,1,0,0:0:0:0:
268,68,68214,5,12,0:0:0:0:
156,108,68643,1,2,0:0:0:0:
44,76,69071,2,0,L|56:220,1,130,12|0,0:0|0:0,0:0:0:0:
144,284,69928,38,0,P|212:292|280:280,1,130,4|0,0:3|0:0,0:0:0:0:
323,248,70571,1,0,0:0:0:0:
344,192,70785,6,0,P|276:184|208:196,1,130,12|0,0:3|0:0,0:0:0:0:
155,193,71428,1,0,0:0:0:0:
108,232,71643,38,0,L|24:228,2,65,12|0|0,0:0|0:0|0:0,0:0:0:0:
148,276,72285,2,0,L|232:272,2,65,12|0|0,0:0|0:0|0:0,0:0:0:0:
112,320,72928,1,0,0:0:0:0:
48,32,73978,22,0,L|56:168,1,130
96,204,74598,1,8,0:0:0:0:
196,264,75012,2,0,P|264:272|348:260,1,130,2|8,0:0|0:0,0:0:0:0:
372,232,75633,6,0,L|376:100,1,130,2|0,0:0|0:0,0:0:0:0:
380,44,76253,1,8,0:0:0:0:
280,104,76667,2,0,B|240:112|240:112|136:100,1,130,2|8,0:0|0:0,0:0:0:0:
96,124,77288,38,0,P|88:196|108:252,1,130,2|0,0:0|0:0,0:0:0:0:
152,284,77909,1,8,0:0:0:0:
260,244,78322,6,0,P|312:236|376:244,2,97.5,2|2|2,0:3|0:3|0:3,0:0:0:0:
240,300,79150,2,0,P|220:344|176:376,2,97.5,2|2|2,0:3|0:3|0:3,0:0:0:0:
208,252,79978,2,0,B|172:244|172:244|120:264|120:264|72:260,1,130,2|8,0:0|0:0,0:0:0:0:
36,228,80598,38,0,P|28:160|40:92,1,130,4|0,0:0|0:0,0:0:0:0:
64,48,81219,1,8,0:0:0:0:
160,112,81633,2,0,B|224:136|224:88|304:104,1,130,2|8,0:0|0:0,0:0:0:0:
344,120,82253,6,0,P|364:184|340:252,1,130,4|0,0:0|0:0,0:0:0:0:
304,284,82874,1,8,0:0:0:0:
200,340,83288,2,0,B|152:348|152:348|52:340,1,130,2|8,0:0|0:0,0:0:0:0:
32,296,83909,38,0,P|44:228|24:160,1,130,4|0,0:0|0:0,0:0:0:0:
0,120,84529,1,8,0:0:0:0:
112,156,84943,6,0,L|276:152,1,130
356,188,85785,2,0,P|364:240|352:284,1,86.6666666666667,8|8,0:0|0:0,0:0:0:0:
328,347,86349,1,0,0:0:0:0:
256,316,86598,38,0,L|100:312,1,130
60,216,87425,2,0,L|64:132,1,65,2|0,0:0|0:0,0:0:0:0:
116,124,87839,2,0,L|120:40,1,65,0|2,0:0|0:0,0:0:0:0:
168,28,88253,6,0,B|204:36|204:36|304:24,2,130,2|2|2,0:0|0:0|0:0,0:0:0:0:
116,124,89494,1,0,0:0:0:0:
132,180,89701,1,2,0:0:0:0:
152,236,89908,1,2,0:0:0:0:
248,304,90322,2,0,P|308:312|400:296,2,130,2|2|0,0:0|0:0|0:0,0:0:0:0:
300,200,91563,38,0,L|304:60,1,130,8|4,0:0|0:0,0:0:0:0:
336,20,92184,2,0,B|376:12|376:12|464:24,1,130,4|0,0:0|0:0,0:0:0:0:
508,60,92804,1,2,0:0:0:0:
448,160,93218,6,0,P|392:164|304:156,1,130,2|4,0:0|0:0,0:0:0:0:
264,140,93839,2,0,L|256:276,1,130,4|0,0:0|0:0,0:0:0:0:
252,328,94460,1,0,0:0:0:0:
148,272,94873,38,0,P|132:208|140:116,1,130
224,72,95701,2,0,L|232:148,1,65,6|2,0:0|0:0,0:0:0:0:
284,156,96115,2,0,L|292:232,1,65,10|2,0:0|0:0,0:0:0:0:
340,256,96529,6,0,P|412:264|496:248,2,130,0|0|2,0:0|0:0|0:0,0:0:0:0:
236,200,97770,1,0,0:0:0:0:
216,256,97977,1,0,0:0:0:0:
196,312,98184,1,0,0:0:0:0:
84,344,98598,2,0,L|72:204,2,130,10|0|0,0:0|0:0|0:0,0:0:0:0:
196,312,99839,38,0,L|208:172,1,130,10|4,0:0|0:0,0:0:0:0:
236,132,100460,2,0,B|272:120|272:120|384:124,1,130,4|0,0:0|0:0,0:0:0:0:
420,132,101080,1,0,0:0:0:0:
352,228,101494,6,0,P|284:240|200:228,1,130,0|6,0:0|0:0,0:0:0:0:
172,208,102115,1,6,0:0:0:0:
120,184,102322,2,0,P|68:176|8:192,2,97.5,2|2|0,0:0|0:0|0:0,0:0:0:0:
172,208,103149,38,0,P|224:216|284:200,2,97.5
124,244,103977,2,0,L|112:384,1,130,8|0,0:0|0:0,0:0:0:0:
224,332,104804,1,8,0:0:0:0:
332,288,105218,1,0,0:0:0:0:
224,332,105632,1,8,0:0:0:0:
232,272,105839,1,0,0:0:0:0:
240,212,106046,2,0,L|248:136,1,65,0|0,0:0|0:0,0:0:0:0:
304,152,106460,6,0,P|356:160|404:152,2,97.5,0|0|0,0:0|0:0|0:0,0:0:0:0:
260,116,107287,1,8,0:0:0:0:
160,176,107701,1,0,0:0:0:0:
44,152,108115,2,0,P|32:84|56:20,2,130,0|8|10,0:0|0:0|0:0,0:0:0:0:
100,272,109356,1,2,0:0:0:0:
156,264,109563,1,2,0:3:0:0:
212,280,109770,38,0,P|264:288|320:272,2,97.5,4|0|0,0:3|0:0|0:0,0:0:0:0:
156,264,110598,1,8,0:0:0:0:
192,152,111011,1,0,0:0:0:0:
300,108,111425,2,0,P|308:148|276:236,2,130,0|0|8,0:0|0:0|0:0,0:0:0:0:
264,64,112460,1,0,0:0:0:0:
212,40,112666,2,0,L|124:36,1,65,0|0,0:0|0:0,0:0:0:0:
92,56,113080,6,0,B|84:92|84:92|100:160,2,97.5,0|0|0,0:0|0:0|0:0,0:0:0:0:
132,12,113908,1,10,0:0:0:0:
228,76,114322,1,0,0:0:0:0:
340,48,114735,38,0,L|448:44,2,97.5,4|4|0,0:0|0:0|0:0,0:0:0:0:
300,92,115563,2,0,L|192:88,2,97.5,4|4|0,0:0|0:0|0:0,0:0:0:0:
340,136,116391,6,0,P|352:196|332:248,2,97.5,6|2|4,0:0|0:0|0:0,0:0:0:0:
300,92,117218,2,0,L|164:88,1,130,0|10,0:0|0:0,0:0:0:0:
80,156,118046,38,0,L|76:236,1,65
128,248,118474,2,0,L|132:328,1,65
185,336,118903,1,0,0:0:0:0:
392,212,119760,22,0,L|232:208,1,130,4|0,0:0|0:0,0:0:0:0:
224,164,120403,1,0,0:0:0:0:
191,116,120617,6,0,L|351:112,1,130,12|2,0:0|0:0,0:0:0:0:
380,112,121260,1,2,0:0:0:0:
440,112,121474,37,10,0:0:0:0:
368,204,121903,1,0,0:0:0:0:
268,260,122331,2,0,P|192:264|120:232,1,130,10|0,0:0|0:0,0:0:0:0:
96,208,122974,1,0,0:0:0:0:
60,160,123188,6,0,B|52:128|52:128|60:4,1,130,4|0,0:0|0:0,0:0:0:0:
116,56,123831,1,0,0:0:0:0:
168,84,124046,38,0,B|176:115|176:115|168:236,1,130,12|0,0:0|0:0,0:0:0:0:
140,264,124688,1,0,0:0:0:0:
84,284,124903,5,12,0:0:0:0:
176,356,125331,1,0,0:0:0:0:
280,304,125760,2,0,P|348:292|424:304,1,130,10|2,0:0|0:0,0:0:0:0:
492,216,126617,38,0,L|472:64,1,130,4|0,0:0|0:0,0:0:0:0:
432,48,127260,1,0,0:0:0:0:
376,28,127474,6,0,L|359:156,1,130,4|2,0:0|0:0,0:0:0:0:
340,212,128117,1,2,0:0:0:0:
284,228,128331,37,0,0:0:0:0:
172,192,128760,1,0,0:0:0:0:
64,236,129188,2,0,P|56:288|80:368,1,130,8|0,0:0|0:0,0:0:0:0:
136,360,129831,1,0,0:0:0:0:
192,348,130046,6,0,L|352:328,1,130,12|0,0:0|0:0,0:0:0:0:
364,292,130688,1,0,0:0:0:0:
380,236,130903,38,0,L|220:216,1,130
192,208,131546,1,0,0:0:0:0:
136,200,131760,5,4,0:0:0:0:
228,128,132188,1,0,0:0:0:0:
120,80,132617,1,8,0:0:0:0:
228,128,133046,1,8,0:0:0:0:
340,96,133474,6,0,L|360:240,1,130,0|0,0:0|0:0,0:0:0:0:
284,316,134331,1,8,0:0:0:0:
172,348,134760,5,2,0:0:0:0:
128,308,134974,1,2,0:0:0:0:
88,264,135188,2,0,L|76:132,1,130,8|8,0:0|0:0,0:0:0:0:
132,32,136046,1,8,0:0:0:0:
196,132,136474,37,0,0:0:0:0:
252,140,136688,1,0,0:0:0:0:
300,108,136903,2,0,P|348:100|444:112,1,130,8|8,0:0|0:0,0:0:0:0:
512,192,137760,1,8,0:0:0:0:
444,288,138188,5,2,0:0:0:0:
384,284,138403,1,2,0:0:0:0:
324,280,138617,2,0,B|236:292|236:292|176:276,1,130,8|8,0:0|0:0,0:0:0:0:
120,192,139474,1,8,0:0:0:0:
172,88,139903,37,0,0:0:0:0:
224,116,140117,1,0,0:0:0:0:
272,152,140331,2,0,L|288:296,1,130,8|8,0:0|0:0,0:0:0:0:
216,372,141188,1,8,0:0:0:0:
104,340,141617,5,0,0:0:0:0:
88,284,141831,1,0,0:0:0:0:
108,228,142046,2,0,P|124:168|100:80,1,130,8|8,0:0|0:0,0:0:0:0:
32,16,142903,1,8,0:0:0:0:
136,68,143331,37,2,0:0:0:0:
192,80,143546,1,2,0:0:0:0:
244,56,143760,2,0,B|288:48|288:48|396:52,1,130,8|8,0:0|0:0,0:0:0:0:
484,96,144617,1,8,0:0:0:0:
452,208,145046,1,0,0:0:0:0:
356,276,145474,6,0,P|288:284|208:272,1,130,8|8,0:0|0:0,0:0:0:0:
180,240,146117,1,8,0:0:0:0:
144,196,146331,2,0,P|79:189|15:197,1,130,0|0,0:0|0:0,0:0:0:0:
52,308,147188,38,0,L|140:304,1,65
176,300,147617,1,8,0:0:0:0:
224,268,147831,2,0,P|212:220|228:152,1,97.5,2|2,0:0|0:0,0:0:0:0:
272,104,148474,2,0,L|364:100,1,65,8|2,0:0|0:0,0:0:0:0:
388,128,148903,6,0,B|400:164|400:164|388:280,1,130,2|8,0:0|0:0,0:0:0:0:
356,304,149546,2,0,P|304:312|240:300,1,97.5,2|2,0:0|0:0,0:0:0:0:
180,268,150188,2,0,L|88:264,1,65,8|8,0:0|0:0,0:0:0:0:
64,236,150617,37,8,0:0:0:0:
116,132,151046,1,2,0:0:0:0:
168,160,151260,2,0,P|232:156|288:128,1,97.5,2|0,0:0|0:0,0:0:0:0:
340,100,151903,2,0,L|356:192,1,65,8|2,0:0|0:0,0:0:0:0:
384,212,152331,6,0,P|440:224|504:160,2,130,2|2|10,0:0|0:0|0:0,0:0:0:0:
292,136,153617,2,0,L|244:132,2,43.3333333333333,2|8|0,0:0|0:0|0:0,0:0:0:0:
332,136,154039,38,0,P|348:76|324:4,1,130,12|0,0:0|0:0,0:0:0:0:
272,24,154659,1,0,0:0:0:0:
220,48,154866,2,0,L|128:44,1,65,8|0,0:0|0:0,0:0:0:0:
96,40,155280,1,0,0:0:0:0:
52,148,155694,6,0,P|88:200|160:216,1,130,2|2,0:0|0:0,0:0:0:0:
204,192,156314,1,0,0:0:0:0:
260,212,156521,2,0,L|272:288,1,65,0|0,0:0|0:0,0:0:0:0:
276,336,156935,1,0,0:0:0:0:
388,296,157349,38,0,B|400:256|400:256|388:144,1,130,12|2,0:0|0:0,0:0:0:0:
364,116,157970,1,2,0:0:0:0:
376,60,158176,2,0,L|464:56,1,65,8|2,0:0|0:0,0:0:0:0:
500,52,158590,1,0,0:0:0:0:
460,164,159004,6,0,L|456:304,1,130,0|8,0:0|0:0,0:0:0:0:
420,340,159625,1,2,0:0:0:0:
368,364,159832,2,0,P|320:368|260:356,2,86.6666666666667,6|4|4,0:0|0:0|0:0,0:0:0:0:
420,340,160659,38,0,P|432:296|408:228,2,97.5
368,364,161487,2,0,L|224:360,1,130,8|0,0:0|0:0,0:0:0:0:
128,320,162314,1,8,0:0:0:0:
20,272,162728,1,0,0:0:0:0:
116,208,163142,1,8,0:0:0:0:
172,224,163349,1,0,0:0:0:0:
228,212,163556,2,0,L|312:208,1,65,0|0,0:0|0:0,0:0:0:0:
340,244,163970,6,0,P|352:296|336:340,2,97.5,0|0|0,0:0|0:0|0:0,0:0:0:0:
376,196,164797,1,8,0:0:0:0:
436,96,165211,1,8,0:0:0:0:
348,16,165625,2,0,P|280:24|176:8,2,130,0|8|10,0:0|0:0|0:0,0:0:0:0:
436,96,166866,1,2,0:0:0:0:
424,152,167073,1,2,0:3:0:0:
404,208,167280,38,0,B|368:216|368:216|280:208,2,97.5,4|0|0,0:3|0:0|0:0,0:0:0:0:
440,256,168107,1,8,0:0:0:0:
352,332,168521,1,0,0:0:0:0:
240,300,168935,2,0,P|172:292|88:304,2,130,0|0|8,0:0|0:0|0:0,0:0:0:0:
352,332,170176,1,0,0:0:0:0:
356,272,170383,1,0,0:0:0:0:
360,212,170590,6,0,P|320:212|248:184,2,97.5,0|0|0,0:0|0:0|0:0,0:0:0:0:
396,164,171418,2,0,P|408:100|376:16,1,130,10|0,0:0|0:0,0:0:0:0:
296,104,172245,38,0,P|252:112|196:100,2,97.5,4|4|0,0:0|0:0|0:0,0:0:0:0:
340,64,173073,2,0,P|384:56|440:68,2,97.5,4|4|0,0:0|0:0|0:0,0:0:0:0:
296,104,173901,6,0,B|292:156|292:156|312:220,2,97.5,6|2|4,0:0|0:0|0:0,0:0:0:0:
268,52,174728,2,0,L|136:48,1,130,0|0,0:0|0:0,0:0:0:0:
60,136,175556,38,0,L|136:132,1,65
172,168,176004,2,0,L|236:171,1,65
280,196,176408,1,0,0:0:0:0:
368,116,176852,1,8,0:0:0:0:
372,176,177074,1,2,0:0:0:0:
376,236,177296,1,6,0:0:0:0:
259,77,182439,5,0,0:0:0:0:
264,196,182868,1,0,0:0:0:0:
269,313,183297,2,0,P|213:325|133:301,1,130,0|12,0:0|0:0,0:0:0:0:
144,308,184154,38,0,L|136:164,1,130,6|2,0:0|0:0,0:0:0:0:
160,124,184797,1,2,0:0:0:0:
203,84,185011,2,0,P|267:92|355:80,1,130,10|2,0:0|0:0,0:0:0:0:
384,64,185654,1,2,0:0:0:0:
440,48,185868,2,0,B|456:88|456:88|440:191,1,130,14|2,0:0|0:0,0:0:0:0:
368,264,186725,2,0,L|224:260,1,130,12|0,0:0|0:0,0:0:0:0:
148,188,187582,6,0,P|156:252|136:320,1,130,10|2,0:0|0:0,0:0:0:0:
48,244,188439,2,0,P|40:180|60:112,1,130,12|0,0:0|0:0,0:0:0:0:
98,76,189082,1,0,0:0:0:0:
152,52,189297,2,0,L|300:40,1,130,12|2,0:0|0:0,0:0:0:0:
340,56,189939,1,12,0:0:0:0:
400,64,190154,1,2,0:3:0:0:
320,152,190582,1,0,0:0:0:0:
260,160,190797,1,0,0:0:0:0:
216,196,191011,6,0,B|168:204|168:204|72:188,1,130,12|4,0:0|0:0,0:0:0:0:
47,148,191654,1,0,0:0:0:0:
28,92,191868,6,0,B|76:83|76:83|172:99,1,130,12|0,0:0|0:0,0:0:0:0:
204,132,192511,1,0,0:0:0:0:
256,160,192725,37,4,0:0:0:0:
368,128,193154,1,4,0:0:0:0:
484,140,193582,2,0,P|496:208|472:268,1,130,12|2,0:0|0:0,0:0:0:0:
428,300,194225,1,2,0:0:0:0:
376,328,194439,6,0,L|228:324,1,130,4|6,0:0|0:0,0:0:0:0:
200,288,195082,1,2,0:0:0:0:
160,244,195297,38,0,L|308:240,1,130,12|4,0:0|0:0,0:0:0:0:
328,196,195939,1,0,0:0:0:0:
352,144,196154,5,4,0:0:0:0:
244,104,196582,1,4,0:0:0:0:
144,168,197011,2,0,P|76:176|8:168,1,130,12|12,0:0|0:0,0:0:0:0:
84,264,197868,38,0,B|136:268|136:268|232:256,1,130,12|6,0:0|0:0,0:0:0:0:
256,216,198511,1,2,0:0:0:0:
276,160,198725,6,0,B|224:156|224:156|128:168,1,130,12|6,0:0|0:0,0:0:0:0:
92,184,199368,1,2,0:0:0:0:
36,200,199582,37,12,0:0:0:0:
52,316,200011,1,4,0:0:0:0:
160,364,200439,2,0,P|220:372|304:356,1,130,12|4,0:0|0:0,0:0:0:0:
380,288,201297,6,0,L|384:144,1,130,12|4,0:0|0:0,0:0:0:0:
344,112,201939,1,0,0:0:0:0:
284,108,202154,38,0,L|287:237,1,130,12|4,0:0|0:0,0:0:0:0:
264,292,202797,1,0,0:0:0:0:
211,315,203011,5,0,0:0:0:0:
133,237,203440,1,0,0:0:0:0:
211,161,203868,1,0,0:0:0:0:
287,237,204297,1,0,0:0:0:0:
468,112,205333,5,8,0:0:0:0:
468,112,206988,5,8,0:0:0:0:
280,336,208023,2,0,B|244:344|244:344|156:336,1,97.5,8|8,0:0|0:0,0:0:0:0:
124,272,208644,2,0,P|136:216|120:136,1,130,8|0,0:0|0:0,0:0:0:0:
92,96,209264,2,0,L|188:88,1,65,8|8,0:0|0:0,0:0:0:0:
208,116,209678,38,0,P|260:120|320:104,2,97.5,8|2|2,0:0|0:0|0:0,0:0:0:0:
156,90,210506,2,0,P|104:86|44:102,2,97.5,6|0|0,0:0|0:0|0:0,0:0:0:0:
172,148,211333,2,0,L|180:296,1,130,0|0,0:0|0:0,0:0:0:0:
224,316,211954,6,0,P|272:324|364:308,1,130,8|0,0:0|0:0,0:0:0:0:
396,276,212575,1,2,0:0:0:0:
380,160,212988,1,0,0:0:0:0:
432,56,213402,1,8,0:0:0:0:
376,68,213609,38,0,B|336:76|336:76|240:68,1,130,8|0,0:0|0:0,0:0:0:0:
188,64,214230,1,2,0:0:0:0:
128,164,214644,1,0,0:0:0:0:
152,280,215057,1,8,0:0:0:0:
200,316,215264,6,0,P|268:324|344:312,1,130,8|0,0:0|0:0,0:0:0:0:
372,276,215885,2,0,L|376:184,1,65,2|2,0:0|0:0,0:0:0:0:
376,152,216299,2,0,P|416:148|480:156,2,97.5,8|8|8,0:0|0:0|0:0,0:0:0:0:
328,184,217126,2,0,P|288:188|224:179,2,97.5,8|8|8,0:0|0:0|0:0,0:0:0:0:
340,128,217954,2,0,L|332:12,1,97.5,4|4,0:0|0:0,0:0:0:0:
260,76,218575,38,0,P|192:80|120:72,1,130,8|0,0:0|0:0,0:0:0:0:
72,60,219195,1,2,0:0:0:0:
120,168,219609,1,0,0:0:0:0:
116,284,220023,1,8,0:0:0:0:
156,328,220230,6,0,P|208:336|296:316,1,130,8|0,0:0|0:0,0:0:0:0:
320,276,220850,1,2,0:0:0:0:
352,164,221264,1,0,0:0:0:0:
236,184,221678,1,8,0:0:0:0:
184,208,221885,38,0,B|132:216|132:216|56:208,1,130,8|0,0:0|0:0,0:0:0:0:
36,152,222506,2,0,L|96:124,1,65,8|8,0:0|0:0,0:0:0:0:
152,132,222919,2,0,P|204:136|276:120,2,97.5,0|8|8,0:0|0:0|0:0,0:0:0:0:
120,84,223747,2,0,P|68:80|-4:96,2,97.5,8|8|0,0:0|3:0|0:0,0:0:0:0:
152,132,224575,5,0,0:0:0:0:
236,152,224884,1,4,0:0:0:0:
180,220,225194,1,4,0:0:0:0:
132,232,225401,37,0,0:0:0:0:
48,248,225711,1,4,0:0:0:0:
104,316,226021,1,4,0:0:0:0:
152,332,226228,5,0,0:0:0:0:
240,320,226538,1,4,0:0:0:0:
268,236,226848,1,0,0:0:0:0:
344,276,227108,37,0,0:0:0:0:
368,304,227237,2,0,L|376:368,2,43.3333333333333,0|2|2,0:0|0:0|0:0,0:0:0:0:
