osu file format v14

[General]
AudioFilename: UNDEAD CORPORATION - Gone With The Blast.mp3
AudioLeadIn: 0
PreviewTime: 70413
Countdown: 0
SampleSet: Normal
StackLeniency: 0.7
Mode: 0
LetterboxInBreaks: 0
WidescreenStoryboard: 0

[Editor]
DistanceSpacing: 1
BeatDivisor: 4
GridSize: 4
TimelineZoom: 2.2

[Metadata]
Title:Gone With The Blast
TitleUnicode:Gone With The Blast
Artist:UNDEAD CORPORATION
ArtistUnicode:UNDEAD CORPORATION
Creator:Ekoro
Version:Lunatic
Source:
Tags:O. D. Akemi 朱美 West Village 窪田道元 original
BeatmapID:804963
BeatmapSetID:326461

[Difficulty]
HPDrainRate:5
CircleSize:4
OverallDifficulty:9
ApproachRate:9.5
SliderMultiplier:1.6
SliderTickRate:1

[Events]
//Background and Video events
0,0,"558861.jpg",0,0
//Break Periods
2,8944,10790
2,187229,188862
//Storyboard Layer 0 (Background)
//Storyboard Layer 1 (Fail)
//Storyboard Layer 2 (Pass)
//Storyboard Layer 3 (Foreground)
//Storyboard Sound Samples

[TimingPoints]
6815,214.285714285714,4,1,1,80,1,0
7030,222.222222222222,4,1,1,80,1,0
7696,214.285714285714,4,1,1,80,1,0
7887,214.285714285714,4,1,1,80,1,0
32744,-100,4,1,1,80,0,1
36172,-100,4,1,1,80,0,0
43029,-100,4,1,1,80,0,1
46458,-100,4,1,1,80,0,0
49887,-142.857142857143,4,1,1,80,0,0
70458,-142.857142857143,4,1,1,80,0,1
87601,-100,4,1,1,80,0,0
94458,-100,4,1,1,80,0,1
97886,-100,4,1,1,80,0,0
104744,-100,4,1,1,80,0,1
108172,-100,4,1,1,80,0,0
111601,-142.857142857143,4,1,1,80,0,0
116744,-100,4,1,1,80,0,0
118458,-142.857142857143,4,1,1,80,0,0
132172,-142.857142857143,4,1,1,80,0,1
145886,-200,4,1,1,80,0,0
159601,-166.666666666667,4,1,1,80,0,0
161315,-125,4,1,1,80,0,0
163029,-100,4,1,1,80,0,0
166458,-142.857142857143,4,1,1,80,0,0
190458,-100,4,1,1,80,0,0
200744,-142.857142857143,4,1,1,80,0,0
207601,-125,4,1,1,80,0,1
221315,-125,4,1,1,80,0,0

[Colours]
Combo1 : 78,78,92
Combo2 : 180,152,139
Combo3 : 99,53,7

[HitObjects]
32,20,6815,6,0,L|36:64,3,40
64,88,7029,1,8,0:0:0:0:
136,119,7141,2,0,P|175:119|215:115,1,80,8|0,0:0|0:0,0:0:0:0:
372,88,7474,6,0,P|392:56|408:16,2,80,2|0|2,0:0|0:0|0:0,0:0:0:0:
216,116,7887,2,0,P|178:114|135:120,2,80,2|0|2,0:0|0:0|0:0,0:0:0:0:
318,237,8315,2,0,P|335:270|361:305,2,80,2|0|2,0:0|0:0|0:0,0:0:0:0:
372,88,8744,1,4,0:0:0:0:
372,88,11315,5,8,0:0:0:0:
372,88,11369,1,0,0:0:0:0:
372,88,11422,2,0,L|292:76,1,80
236,132,11637,1,8,0:0:0:0:
236,132,11691,5,0,0:0:0:0:
236,132,11744,2,0,L|156:144,1,80
84,108,11958,1,12,0:0:0:0:
84,108,12172,5,12,0:0:0:0:
8,136,12279,1,0,0:0:0:0:
68,188,12387,2,0,B|72:240|72:240|56:292|56:292|60:348,1,160,12|8,0:0|0:0,0:0:0:0:
136,364,12708,1,8,0:0:0:0:
208,328,12815,2,0,L|216:244,1,80,4|8,0:0|0:0,0:0:0:0:
200,172,13029,5,4,0:0:0:0:
276,196,13137,1,0,0:0:0:0:
348,164,13244,2,0,B|408:156|408:156|444:176|444:176|504:168,1,160,12|12,0:0|0:0,0:0:0:0:
388,320,13565,2,0,P|380:280|384:240,1,80,8|0,0:0|0:0,0:0:0:0:
464,96,13779,1,8,0:0:0:0:
508,248,13887,6,0,L|512:288,3,40,8|0|0|0,0:0|0:0|0:0|0:0,0:0:0:0:
496,324,14101,2,0,P|460:340|416:344,1,80
348,308,14315,6,0,L|352:268,3,40,0|0|0|0,0:0|0:0|0:0|0:0,0:0:0:0:
336,232,14529,2,0,P|300:216|256:212,1,80
188,248,14744,5,12,0:0:0:0:
188,248,15601,5,4,0:0:0:0:
160,324,15708,1,0,0:0:0:0:
108,264,15815,2,0,P|112:180|76:108,1,160,8|0,0:0|0:0,0:0:0:0:
124,44,16137,2,0,L|204:36,1,80,8|0,0:0|0:0,0:0:0:0:
284,28,16351,1,8,0:0:0:0:
344,84,16458,6,0,P|348:128|340:168,1,80
276,208,16672,2,0,B|216:216|216:216|192:244|192:244|128:252,1,160,8|0,0:0|0:0,0:0:0:0:
264,292,16994,2,0,L|352:280,1,80,8|0,0:0|0:0,0:0:0:0:
148,168,17208,2,0,L|60:180,1,80,8|4,0:0|0:0,0:0:0:0:
20,240,17422,5,0,0:0:0:0:
4,320,17529,2,0,P|84:348|168:332,1,160,8|0,0:0|0:0,0:0:0:0:
220,288,17851,2,0,L|300:296,1,80,8|0,0:0|0:0,0:0:0:0:
356,352,18065,2,0,L|436:344,1,80,8|0,0:0|0:0,0:0:0:0:
488,284,18279,5,0,0:0:0:0:
408,264,18387,2,0,B|376:192|376:192|388:112,1,160,8|0,0:0|0:0,0:0:0:0:
468,96,18708,2,0,L|456:180,1,80,8|0,0:0|0:0,0:0:0:0:
296,204,18922,1,8,0:0:0:0:
296,204,19029,6,0,L|308:120,1,80,4|0,0:0|0:0,0:0:0:0:
268,56,19244,2,0,P|196:88|116:80,1,160,8|0,0:0|0:0,0:0:0:0:
40,56,19565,2,0,L|52:140,1,80,8|0,0:0|0:0,0:0:0:0:
112,188,19779,1,8,0:0:0:0:
36,216,19887,6,0,L|24:300,1,80
80,352,20101,2,0,P|144:364|232:336,1,160,8|0,0:0|0:0,0:0:0:0:
260,260,20422,2,0,L|248:176,2,80,8|0|8,0:0|0:0|0:0,0:0:0:0:
312,324,20744,6,0,L|304:376,2,53.3333333333333
344,280,20958,1,8,0:0:0:0:
392,260,21029,1,8,0:0:0:0:
420,216,21101,1,8,0:0:0:0:
408,164,21172,2,0,L|352:152,2,53.3333333333333
436,116,21387,2,0,L|492:104,2,53.3333333333333
420,64,21601,5,12,0:0:0:0:
420,64,21654,1,0,0:0:0:0:
420,64,21708,2,0,L|340:48,1,80
272,92,21922,1,12,0:0:0:0:
272,92,21975,1,0,0:0:0:0:
272,92,22029,2,0,L|192:108,1,80
124,64,22244,2,0,L|44:48,1,80,12|0,0:0|0:0,0:0:0:0:
16,124,22458,5,0,0:0:0:0:
16,124,22565,1,0,0:0:0:0:
16,124,22672,2,0,B|20:188|20:188|44:208|44:208|48:272,1,160,8|8,0:0|0:0,0:0:0:0:
16,348,22994,1,8,0:0:0:0:
96,332,23101,2,0,L|176:344,1,80,0|8,0:0|0:0,0:0:0:0:
252,368,23315,5,0,0:0:0:0:
252,368,23422,1,0,0:0:0:0:
252,368,23529,2,0,B|256:304|256:304|280:284|280:284|284:220,1,160,8|8,0:0|0:0,0:0:0:0:
252,144,23851,1,8,0:0:0:0:
332,160,23958,2,0,L|412:148,1,80,0|8,0:0|0:0,0:0:0:0:
488,172,24172,5,0,0:0:0:0:
488,172,24279,1,0,0:0:0:0:
488,172,24387,2,0,P|496:252|476:328,1,160,8|8,0:0|0:0,0:0:0:0:
404,360,24708,1,8,0:0:0:0:
328,340,24815,2,0,L|320:260,1,80,0|8,0:0|0:0,0:0:0:0:
360,192,25029,5,0,0:0:0:0:
360,192,25136,1,0,0:0:0:0:
360,192,25244,2,0,P|368:112|348:36,1,160,8|8,0:0|0:0,0:0:0:0:
276,4,25565,1,8,0:0:0:0:
200,24,25672,2,0,L|192:104,1,80,0|8,0:0|0:0,0:0:0:0:
120,144,25887,6,0,L|80:120,2,40,4|0|0,0:0|0:0|0:0,0:0:0:0:
188,184,26101,2,0,P|232:188|272:180,1,80,8|0,0:0|0:0,0:0:0:0:
332,136,26315,2,0,P|376:132|416:140,1,80,8|8,0:0|0:0,0:0:0:0:
472,192,26529,2,0,L|480:276,1,80,0|8,0:0|0:0,0:0:0:0:
420,328,26744,6,0,L|416:368,2,40
352,288,26958,2,0,P|308:284|268:292,1,80,8|0,0:0|0:0,0:0:0:0:
208,336,27172,2,0,P|164:340|124:332,1,80,8|8,0:0|0:0,0:0:0:0:
68,280,27386,2,0,L|60:196,1,80,0|8,0:0|0:0,0:0:0:0:
116,144,27601,5,8,0:0:0:0:
196,160,27708,1,8,0:0:0:0:
212,80,27815,1,8,0:0:0:0:
132,64,27922,1,0,0:0:0:0:
132,64,27976,1,0,0:0:0:0:
132,64,28029,2,0,L|44:72,1,80,8|8,0:0|0:0,0:0:0:0:
144,224,28244,2,0,L|232:232,1,80,0|8,0:0|0:0,0:0:0:0:
296,200,28458,5,12,0:0:0:0:
300,180,28512,1,0,0:0:0:0:
304,160,28565,2,0,L|324:56,1,80
396,64,28779,5,12,0:0:0:0:
400,84,28833,1,0,0:0:0:0:
404,104,28886,2,0,L|424:208,1,80
480,236,29101,2,0,L|460:340,1,80,12|0,0:0|0:0,0:0:0:0:
396,356,29315,6,0,P|296:316|160:324,1,240,4|4,0:0|0:0,0:0:0:0:
52,112,29958,1,4,0:0:0:0:
52,112,30172,2,0,P|152:152|288:144,1,240,4|4,0:0|0:0,0:0:0:0:
424,68,30708,2,0,L|428:24,2,40,0|0|4,0:0|0:0|0:0,0:0:0:0:
424,68,31244,6,0,L|408:232,2,160,4|4|4,0:0|0:0|0:0,0:0:0:0:
268,28,31887,5,8,0:0:0:0:
252,40,31940,1,0,0:0:0:0:
232,48,31994,2,0,P|192:52|152:48,1,80
104,112,32208,1,8,0:0:0:0:
120,124,32261,1,0,0:0:0:0:
140,132,32315,2,0,P|180:136|220:132,1,80
212,212,32529,2,0,P|172:216|132:212,1,80,8|0,0:0|0:0,0:0:0:0:
60,180,32744,6,0,B|52:240|52:240|68:272|68:272|56:344,1,160,4|0,0:0|0:0,0:0:0:0:
132,368,33065,1,0,0:0:0:0:
200,324,33172,2,0,P|244:316|284:320,3,80,8|0|0|0,0:0|0:0|0:0|0:0,0:0:0:0:
304,244,33601,2,0,P|344:262|375:288,3,80,8|0|0|0,0:0|0:0|0:0|0:0,0:0:0:0:
440,244,34029,2,0,P|462:282|472:321,1,80,8|0,0:0|0:0,0:0:0:0:
376,188,34244,1,8,0:0:0:0:
380,168,34297,1,8,0:0:0:0:
388,148,34351,1,0,0:0:0:0:
400,132,34404,1,0,0:0:0:0:
416,120,34458,5,8,0:0:0:0:
492,100,34565,1,0,0:0:0:0:
472,24,34672,1,0,0:0:0:0:
396,44,34779,1,0,0:0:0:0:
320,180,34887,5,8,0:0:0:0:
244,160,34994,1,0,0:0:0:0:
264,84,35101,1,0,0:0:0:0:
340,104,35208,1,0,0:0:0:0:
260,240,35315,6,0,L|220:244,3,40,10|8|8|8,0:0|0:0|0:0|0:0,0:0:0:0:
256,264,35529,2,0,L|216:268,3,40,0|0|8|8,0:0|0:0|0:0|0:0,0:0:0:0:
252,288,35744,1,0,0:0:0:0:
256,308,35797,1,0,0:0:0:0:
268,324,35851,1,0,0:0:0:0:
284,336,35904,1,0,0:0:0:0:
304,344,35958,2,0,L|388:352,1,80,12|0,0:0|0:0,0:0:0:0:
464,360,36172,6,0,B|456:300|456:300|428:272|428:272|420:208,1,160,6|0,0:0|0:0,0:0:0:0:
480,156,36494,2,0,B|480:116|480:116|468:76,1,80,8|0,0:0|0:0,0:0:0:0:
404,124,36708,1,8,0:0:0:0:
328,92,36815,2,0,B|328:132|328:132|340:172,1,80,2|8,0:0|0:0,0:0:0:0:
376,244,37029,6,0,B|312:252|312:252|288:276|288:276|224:284,1,160,2|0,0:0|0:0,0:0:0:0:
352,328,37351,2,0,L|436:316,1,80,10|0,0:0|0:0,0:0:0:0:
276,360,37565,1,8,0:0:0:0:
248,200,37672,2,0,L|164:212,1,80,0|8,0:0|0:0,0:0:0:0:
96,244,37887,6,0,P|80:208|72:168,1,80,0|8,0:0|0:0,0:0:0:0:
132,316,38101,2,0,P|96:332|56:340,1,80,2|8,0:0|0:0,0:0:0:0:
204,284,38315,2,0,P|220:320|228:360,1,80,2|8,0:0|0:0,0:0:0:0:
168,211,38529,2,0,P|204:195|244:187,1,80,2|8,0:0|0:0,0:0:0:0:
320,212,38744,6,0,P|392:216|440:148,1,160,2|0,0:0|0:0,0:0:0:0:
512,188,39065,2,0,L|496:272,1,80,8|0,0:0|0:0,0:0:0:0:
360,140,39279,2,0,L|376:56,2,80,8|0|8,0:0|0:0|0:0,0:0:0:0:
280,144,39601,5,4,0:0:0:0:
264,64,39708,1,8,0:0:0:0:
200,16,39815,2,0,L|116:24,1,80,2|8,0:0|0:0,0:0:0:0:
112,104,40029,2,0,L|196:96,1,80,2|8,0:0|0:0,0:0:0:0:
184,176,40244,2,0,L|100:184,1,80,2|8,0:0|0:0,0:0:0:0:
36,228,40458,6,0,P|76:292|160:312,1,160,2|0,0:0|0:0,0:0:0:0:
154,312,40779,1,8,0:0:0:0:
224,272,40887,2,0,P|299:291|342:356,1,160,2|0,0:0|0:0,0:0:0:0:
342,356,41208,1,8,0:0:0:0:
416,328,41315,5,8,0:0:0:0:
412,308,41369,1,8,0:0:0:0:
412,288,41422,1,0,0:0:0:0:
416,268,41476,1,8,0:0:0:0:
424,252,41529,2,0,P|440:216|448:176,1,80,2|0,0:0|0:0,0:0:0:0:
376,140,41744,1,2,0:0:0:0:
300,160,41851,1,0,0:0:0:0:
228,128,41958,1,2,0:0:0:0:
152,148,42065,1,0,0:0:0:0:
80,116,42172,6,0,L|72:64,3,40,10|0|0|0,0:0|0:0|0:0|0:0,0:0:0:0:
88,60,42387,2,0,P|124:48|160:24,1,80,0|8,0:0|0:0,0:0:0:0:
232,60,42601,6,0,L|224:112,3,40,2|0|0|0,0:0|0:0|0:0|0:0,0:0:0:0:
240,116,42816,2,0,P|276:128|312:152,1,80,12|0,0:0|0:0,0:0:0:0:
372,204,43029,6,0,L|456:200,1,80,12|0,0:0|0:0,0:0:0:0:
360,280,43244,2,0,L|444:276,1,80,8|0,0:0|0:0,0:0:0:0:
288,304,43458,2,0,L|204:308,1,80,8|0,0:0|0:0,0:0:0:0:
300,228,43673,2,0,L|216:232,1,80,8|0,0:0|0:0,0:0:0:0:
384,128,43887,6,0,L|468:124,1,80,8|0,0:0|0:0,0:0:0:0:
372,204,44102,2,0,L|456:200,1,80,8|0,0:0|0:0,0:0:0:0:
300,228,44316,2,0,L|216:232,1,80,8|0,0:0|0:0,0:0:0:0:
312,152,44529,2,0,L|228:156,1,80,8|0,0:0|0:0,0:0:0:0:
396,52,44744,6,0,L|424:4,2,40,8|0|0,0:0|0:0|0:0,0:0:0:0:
320,76,44958,2,0,P|280:80|240:76,1,80,8|0,0:0|0:0,0:0:0:0:
164,52,45172,2,0,L|136:4,2,40,8|0|0,0:0|0:0|0:0,0:0:0:0:
176,132,45387,2,0,P|136:136|96:132,1,80,8|0,0:0|0:0,0:0:0:0:
20,112,45601,6,0,L|16:156,3,40
32,168,45815,2,0,L|36:212,3,40,8|0|0|0,0:0|0:0|0:0|0:0,0:0:0:0:
28,228,46029,2,0,P|24:280|44:336,2,106.666666666667,2|2|2,0:0|0:0|0:0,0:0:0:0:
108,208,46458,6,0,L|188:220,1,80
256,256,46672,2,0,L|336:268,1,80
416,256,46887,1,0,0:0:0:0:
388,332,46994,1,0,0:0:0:0:
468,320,47101,5,8,0:0:0:0:
468,320,47208,1,8,0:0:0:0:
451,167,47315,6,0,L|371:155,1,80
303,119,47529,2,0,L|223:107,1,80
143,119,47744,1,0,0:0:0:0:
171,43,47851,1,0,0:0:0:0:
11,66,47958,6,0,L|91:54,1,80,8|0,0:0|0:0,0:0:0:0:
224,108,48172,5,0,0:0:0:0:
228,128,48226,1,0,0:0:0:0:
228,148,48279,1,0,0:0:0:0:
224,168,48333,1,0,0:0:0:0:
216,188,48387,2,0,L|136:200,1,80
64,232,48601,5,8,0:0:0:0:
60,252,48655,1,0,0:0:0:0:
60,272,48708,1,8,0:0:0:0:
64,292,48762,1,0,0:0:0:0:
72,312,48816,2,0,L|152:324,1,80
228,352,49029,1,12,0:0:0:0:
228,352,49458,6,0,L|220:296,5,53.3333333333333,2|0|0|0|0|0,0:0|0:0|0:0|0:0|0:0|0:0,0:0:0:0:
260,268,49887,6,0,P|332:304|420:296,1,167.999994873047,12|0,0:0|0:0,0:0:0:0:
476,252,50315,2,0,L|484:136,1,111.999996582031,12|0,0:0|0:0,0:0:0:0:
335,140,50744,6,0,P|261:176|178:169,1,167.999994873047,12|0,0:0|0:0,0:0:0:0:
120,124,51172,6,0,L|112:60,1,55.9999982910157,12|0,0:0|0:0,0:0:0:0:
48,148,51387,2,0,L|40:212,1,55.9999982910157,12|0,0:0|0:0,0:0:0:0:
72,268,51601,6,0,P|128:264|180:284,1,111.999996582031,0|12,0:0|0:0,0:0:0:0:
296,372,52029,2,0,P|352:376|404:356,1,111.999996582031,12|0,0:0|0:0,0:0:0:0:
496,244,52458,2,0,L|504:132,1,111.999996582031,12|0,0:0|0:0,0:0:0:0:
432,116,52779,2,0,L|424:228,1,111.999996582031,12|0,0:0|0:0,0:0:0:0:
352,236,53101,1,12,0:0:0:0:
276,112,53315,6,0,P|200:76|116:84,1,167.999994873047,12|0,0:0|0:0,0:0:0:0:
56,124,53744,2,0,L|48:236,1,111.999996582031,12|0,0:0|0:0,0:0:0:0:
144,344,54172,6,0,P|220:380|304:372,1,167.999994873047,12|0,0:0|0:0,0:0:0:0:
364,332,54601,2,0,L|372:220,1,111.999996582031,12|0,0:0|0:0,0:0:0:0:
320,172,54922,1,0,0:0:0:0:
320,172,54976,1,0,0:0:0:0:
320,172,55029,6,0,L|148:152,2,167.999994873047,8|8|0,0:0|0:0|0:0,0:0:0:0:
332,100,55779,1,0,0:0:0:0:
332,100,55833,1,0,0:0:0:0:
332,100,55887,2,0,L|504:80,2,167.999994873047,8|8|0,0:0|0:0|0:0,0:0:0:0:
212,16,56744,6,0,L|36:36,1,167.999994873047,4|0,0:0|0:0,0:0:0:0:
40,108,57172,2,0,P|72:148|128:168,1,111.999996582031,12|0,0:0|0:0,0:0:0:0:
272,140,57601,2,0,B|360:120|360:120|436:144,1,167.999994873047,4|0,0:0|0:0,0:0:0:0:
480,200,58029,2,0,P|468:256|476:312,1,111.999996582031,12|0,0:0|0:0,0:0:0:0:
344,376,58458,6,0,P|301:337|249:316,1,111.999996582031,4|0,0:0|0:0,0:0:0:0:
180,308,58779,1,0,0:0:0:0:
108,324,58887,2,0,P|84:340|64:360,3,55.9999982910157,12|0|0|0,0:0|0:0|0:0|0:0,0:0:0:0:
8,316,59315,6,0,L|16:204,1,111.999996582031,12|0,0:0|0:0,0:0:0:0:
84,176,59637,2,0,L|92:64,1,111.999996582031,12|0,0:0|0:0,0:0:0:0:
28,28,59958,1,12,0:0:0:0:
172,16,60172,6,0,P|180:100|232:164,1,167.999994873047,4|0,0:0|0:0,0:0:0:0:
300,188,60601,2,0,L|420:180,1,111.999996582031,12|0,0:0|0:0,0:0:0:0:
452,320,61029,2,0,L|284:332,1,167.999994873047,4|0,0:0|0:0,0:0:0:0:
224,292,61458,2,0,L|104:284,1,111.999996582031,12|0,0:0|0:0,0:0:0:0:
28,164,61887,6,0,P|12:112|20:52,1,111.999996582031,4|0,0:0|0:0,0:0:0:0:
84,20,62208,1,0,0:0:0:0:
156,40,62315,2,0,P|172:92|164:152,1,111.999996582031,12|8,0:0|0:0,0:0:0:0:
116,204,62637,1,0,0:0:0:0:
188,220,62744,6,0,P|236:188|268:140,1,111.999996582031,12|0,0:0|0:0,0:0:0:0:
328,184,63065,2,0,P|348:130|347:72,1,111.999996582031,12|0,0:0|0:0,0:0:0:0:
420,92,63387,1,12,0:0:0:0:
508,208,63601,6,0,L|484:376,2,167.999994873047,4|4|4,0:0|0:0|0:0,0:0:0:0:
364,176,64458,2,0,L|340:8,1,167.999994873047,4|4,0:0|0:0,0:0:0:0:
196,24,64994,2,0,L|164:28,2,27.9999991455078,0|0|4,0:0|0:0|0:0,0:0:0:0:
196,24,65529,5,4,0:0:0:0:
264,152,65744,1,4,0:0:0:0:
332,280,65958,1,4,0:0:0:0:
224,376,66172,5,8,0:0:0:0:
204,372,66226,1,8,0:0:0:0:
184,368,66279,1,0,0:0:0:0:
164,364,66333,1,0,0:0:0:0:
144,360,66387,2,0,L|136:300,1,55.9999982910157
200,184,66601,5,8,0:0:0:0:
172,144,66673,1,8,0:0:0:0:
128,124,66744,1,0,0:0:0:0:
80,124,66816,1,0,0:0:0:0:
36,144,66887,2,0,L|28:188,1,37.3333321940105
64,252,67029,6,0,P|176:240|272:300,1,223.999993164063,4|0,0:0|0:0,0:0:0:0:
380,200,67672,1,0,0:0:0:0:
476,88,67887,5,8,0:0:0:0:
416,48,67994,1,0,0:0:0:0:
344,28,68101,2,0,L|288:24,1,55.9999982910157
216,44,68315,6,0,L|204:96,5,37.3333321940105,8|0|2|0|2|2,0:0|0:0|0:0|0:0|0:0|0:0,0:0:0:0:
164,104,68744,6,2,P|88:132|32:264,1,223.999993164063,0|14,0:0|0:0,0:0:0:0:
116,376,69387,1,0,0:0:0:0:
220,272,69601,5,10,0:0:0:0:
264,252,69672,1,0,0:0:0:0:
312,252,69744,1,0,0:0:0:0:
356,276,69815,1,0,0:0:0:0:
400,300,69887,1,0,0:0:0:0:
448,300,69959,1,0,0:0:0:0:
492,280,70030,1,10,0:0:0:0:
492,280,70458,6,0,L|504:168,1,111.999996582031
444,128,70779,1,0,0:0:0:0:
376,152,70887,2,0,L|364:264,1,111.999996582031,8|0,0:0|0:0,0:0:0:0:
296,288,71208,1,0,0:0:0:0:
232,252,71315,2,0,P|176:260|124:296,1,111.999996582031
64,260,71637,1,0,0:0:0:0:
32,196,71744,2,0,L|28:136,1,55.9999982910157,8|0,0:0|0:0,0:0:0:0:
88,96,71958,2,0,L|92:36,1,55.9999982910157
164,28,72172,6,0,L|156:148,1,111.999996582031
216,184,72494,1,0,0:0:0:0:
288,196,72601,2,0,P|344:188|392:152,1,111.999996582031,8|0,0:0|0:0,0:0:0:0:
428,96,72922,1,0,0:0:0:0:
464,160,73029,2,0,L|472:280,1,111.999996582031
476,344,73351,1,0,0:0:0:0:
404,360,73458,2,0,P|358:328|303:320,1,111.999996582031,8|0,0:0|0:0,0:0:0:0:
160,352,73887,6,0,P|105:343|59:311,1,111.999996582031,4|0,0:0|0:0,0:0:0:0:
44,240,74208,1,0,0:0:0:0:
116,260,74315,2,0,P|170:251|216:219,1,111.999996582031,8|0,0:0|0:0,0:0:0:0:
252,156,74637,1,0,0:0:0:0:
252,156,74744,6,0,L|244:96,1,55.9999982910157
316,84,74958,2,0,L|324:24,1,55.9999982910157
396,44,75172,2,0,P|396:100|412:156,1,111.999996582031,8|0,0:0|0:0,0:0:0:0:
492,276,75601,5,0,0:0:0:0:
448,332,75708,1,0,0:0:0:0:
380,360,75815,1,0,0:0:0:0:
308,352,75922,1,0,0:0:0:0:
244,316,76029,2,0,P|188:296|132:296,1,111.999996582031,8|0,0:0|0:0,0:0:0:0:
64,316,76351,1,0,0:0:0:0:
16,260,76458,5,0,0:0:0:0:
16,260,76565,2,0,L|8:144,1,111.999996582031,8|0,0:0|0:0,0:0:0:0:
60,96,76887,6,0,L|64:40,1,55.9999982910157,10|0,0:0|0:0,0:0:0:0:
140,128,77101,2,0,L|144:72,1,55.9999982910157,4|0,0:0|0:0,0:0:0:0:
228,36,77315,6,0,L|220:152,1,111.999996582031,6|0,0:0|0:0,0:0:0:0:
260,212,77637,1,0,0:0:0:0:
332,232,77744,2,0,P|388:224|436:196,1,111.999996582031,8|0,0:0|0:0,0:0:0:0:
500,232,78065,1,0,0:0:0:0:
500,232,78172,6,0,L|504:348,1,111.999996582031
436,372,78494,1,0,0:0:0:0:
380,328,78601,1,8,0:0:0:0:
308,320,78708,1,0,0:0:0:0:
240,348,78815,2,0,P|208:360|184:364,1,55.9999982910157
120,340,79029,6,0,P|76:300|24:288,1,111.999996582031
32,216,79351,1,0,0:0:0:0:
96,180,79458,2,0,P|140:220|192:232,1,111.999996582031,8|0,0:0|0:0,0:0:0:0:
260,212,79779,1,0,0:0:0:0:
260,212,79887,2,0,L|268:96,1,111.999996582031
272,28,80208,1,0,0:0:0:0:
344,20,80315,2,0,P|397:33|437:72,1,111.999996582031,8|0,0:0|0:0,0:0:0:0:
472,216,80744,6,0,L|480:336,1,111.999996582031,4|0,0:0|0:0,0:0:0:0:
416,368,81065,1,0,0:0:0:0:
348,344,81172,2,0,P|356:312|356:288,1,55.9999982910157,8|0,0:0|0:0,0:0:0:0:
292,256,81387,2,0,P|284:288|284:312,1,55.9999982910157
228,356,81601,5,0,0:0:0:0:
228,356,81708,1,0,0:0:0:0:
160,332,81815,2,0,L|104:336,1,55.9999982910157,2|0,0:0|0:0,0:0:0:0:
8,276,82029,5,8,0:0:0:0:
8,276,82136,1,0,0:0:0:0:
76,252,82243,2,0,L|132:256,1,55.9999982910157,2|0,0:0|0:0,0:0:0:0:
224,192,82458,5,0,0:0:0:0:
208,120,82565,1,0,0:0:0:0:
240,56,82672,1,0,0:0:0:0:
308,32,82779,1,0,0:0:0:0:
376,56,82887,2,0,P|432:64|484:48,1,111.999996582031,8|0,0:0|0:0,0:0:0:0:
484,47,83208,1,0,0:0:0:0:
456,140,83315,5,0,0:0:0:0:
456,140,83422,2,0,L|340:132,1,111.999996582031,8|0,0:0|0:0,0:0:0:0:
336,204,83744,2,0,L|452:212,1,111.999996582031,8|0,0:0|0:0,0:0:0:0:
492,356,84172,5,0,0:0:0:0:
420,372,84279,1,0,0:0:0:0:
348,352,84387,1,0,0:0:0:0:
292,304,84494,1,0,0:0:0:0:
256,240,84601,2,0,P|232:188|192:148,1,111.999996582031,8|0,0:0|0:0,0:0:0:0:
193,149,84922,1,0,0:0:0:0:
40,160,85029,6,0,L|32:216,1,55.9999982910157,8|8,0:0|0:0,0:0:0:0:
96,260,85244,2,0,L|104:316,1,55.9999982910157
120,132,85458,6,0,L|112:188,1,55.9999982910157
176,232,85673,2,0,L|184:288,1,55.9999982910157
228,344,85887,6,0,P|356:360|440:312,1,223.999993164063,4|4,0:0|0:0,0:0:0:0:
435,316,86744,2,0,L|448:288,8,27.9999991455078,8|2|0|2|0|2|0|2|8,0:0|0:0|0:0|0:0|0:0|0:0|0:0|0:0|0:0,0:0:0:0:
284,32,87601,5,4,0:0:0:0:
312,108,87708,1,0,0:0:0:0:
232,92,87815,2,0,P|168:88|88:136,1,160,8|0,0:0|0:0,0:0:0:0:
12,108,88137,2,0,L|24:24,2,80,8|0|8,0:0|0:0|0:0,0:0:0:0:
28,188,88458,5,0,0:0:0:0:
0,264,88565,1,0,0:0:0:0:
80,248,88672,2,0,P|144:244|224:292,1,160,8|0,0:0|0:0,0:0:0:0:
300,264,88994,2,0,L|288:180,2,80,8|0|8,0:0|0:0|0:0,0:0:0:0:
288,344,89315,5,0,0:0:0:0:
364,368,89422,1,0,0:0:0:0:
436,336,89529,2,0,B|444:272|444:272|424:240|424:240|432:180,1,160,8|0,0:0|0:0,0:0:0:0:
484,120,89851,2,0,B|496:84|496:84|492:40,1,80,8|0,0:0|0:0,0:0:0:0:
420,76,90065,1,8,0:0:0:0:
356,32,90172,6,0,B|344:68|344:68|348:112,1,80
292,168,90387,2,0,P|228:164|148:212,1,160,8|0,0:0|0:0,0:0:0:0:
76,176,90708,2,0,B|88:140|88:140|84:96,1,80,8|0,0:0|0:0,0:0:0:0:
12,60,90922,1,0,0:0:0:0:
80,16,91029,6,0,L|160:24,1,80,4|0,0:0|0:0,0:0:0:0:
220,80,91244,2,0,P|284:88|368:40,1,160,8|0,0:0|0:0,0:0:0:0:
440,20,91565,2,0,L|444:100,1,80,8|0,0:0|0:0,0:0:0:0:
448,180,91779,1,8,0:0:0:0:
372,204,91887,6,0,L|292:212,1,80
232,268,92102,2,0,P|168:276|84:228,1,160,8|0,0:0|0:0,0:0:0:0:
12,208,92423,2,0,L|8:288,1,80,8|0,0:0|0:0,0:0:0:0:
4,368,92637,1,8,0:0:0:0:
76,332,92744,5,8,0:0:0:0:
96,328,92797,1,0,0:0:0:0:
116,328,92851,1,8,0:0:0:0:
136,332,92904,1,0,0:0:0:0:
156,340,92958,2,0,P|192:356|240:360,1,80,8|0,0:0|0:0,0:0:0:0:
300,316,93172,1,8,0:0:0:0:
376,340,93279,1,8,0:0:0:0:
424,276,93387,1,0,0:0:0:0:
376,212,93494,1,8,0:0:0:0:
300,240,93601,5,12,0:0:0:0:
280,236,93654,1,0,0:0:0:0:
260,232,93708,2,0,L|180:216,1,80
160,140,93922,5,12,0:0:0:0:
180,136,93975,1,0,0:0:0:0:
200,132,94029,2,0,L|280:116,1,80
256,40,94244,2,0,L|176:24,1,80,12|0,0:0|0:0,0:0:0:0:
100,40,94458,6,0,P|104:80|96:120,1,80,8|0,0:0|0:0,0:0:0:0:
32,164,94672,2,0,P|24:203|28:242,1,80,8|0,0:0|0:0,0:0:0:0:
80,304,94887,2,0,L|164:308,1,80,8|0,0:0|0:0,0:0:0:0:
220,252,95101,2,0,L|304:248,1,80,8|0,0:0|0:0,0:0:0:0:
356,304,95315,6,0,P|392:328|432:336,1,80,8|0,0:0|0:0,0:0:0:0:
299,248,95529,2,0,P|260:267|233:297,1,80,8|0,0:0|0:0,0:0:0:0:
376,228,95744,2,0,P|378:184|365:146,1,80,8|0,0:0|0:0,0:0:0:0:
292,124,95958,1,0,0:0:0:0:
272,128,96012,1,0,0:0:0:0:
252,132,96065,1,0,0:0:0:0:
232,136,96119,1,0,0:0:0:0:
212,140,96172,6,0,P|209:96|222:58,1,80,8|0,0:0|0:0,0:0:0:0:
56,32,96387,1,0,0:0:0:0:
76,28,96441,1,0,0:0:0:0:
96,24,96494,1,0,0:0:0:0:
116,20,96548,1,0,0:0:0:0:
136,16,96601,6,0,P|138:59|125:97,1,80,8|0,0:0|0:0,0:0:0:0:
64,144,96815,1,0,0:0:0:0:
52,160,96869,1,0,0:0:0:0:
48,180,96922,1,0,0:0:0:0:
48,200,96976,1,0,0:0:0:0:
56,216,97029,6,0,L|100:224,3,40,2|0|0|0,0:0|0:0|0:0|0:0,0:0:0:0:
112,236,97244,2,0,L|156:244,3,40
172,240,97458,1,0,0:0:0:0:
192,244,97512,1,0,0:0:0:0:
212,252,97565,1,0,0:0:0:0:
228,264,97619,1,0,0:0:0:0:
236,280,97672,2,0,P|276:300|316:308,1,80,8|0,0:0|0:0,0:0:0:0:
392,308,97887,6,0,B|400:248|400:248|388:224|388:224|400:152,1,160,6|0,0:0|0:0,0:0:0:0:
476,132,98208,2,0,L|464:212,1,80,8|0,0:0|0:0,0:0:0:0:
312,344,98422,2,0,L|324:264,1,80,8|0,0:0|0:0,0:0:0:0:
308,184,98637,1,8,0:0:0:0:
240,144,98744,6,0,P|164:184|84:172,1,160,2|0,0:0|0:0,0:0:0:0:
28,132,99065,2,0,L|20:48,1,80,10|0,0:0|0:0,0:0:0:0:
100,96,99279,2,0,L|108:12,2,80,8|0|8,0:0|0:0|0:0,0:0:0:0:
24,208,99601,6,0,L|16:292,1,80,0|8,0:0|0:0,0:0:0:0:
96,276,99815,2,0,L|137:349,1,80,2|8,0:0|0:0,0:0:0:0:
196,296,100029,2,0,L|272:332,1,80,0|8,0:0|0:0,0:0:0:0:
284,251,100243,2,0,L|367:236,1,80,2|8,0:0|0:0,0:0:0:0:
324,168,100458,6,0,L|440:52,1,160,2|4,0:0|0:0,0:0:0:0:
508,92,100779,2,0,L|448:152,1,80,8|0,0:0|0:0,0:0:0:0:
312,72,100994,2,0,L|252:132,2,80,8|4|8,0:0|0:0|0:0,0:0:0:0:
248,24,101315,5,0,0:0:0:0:
168,16,101422,1,8,0:0:0:0:
108,68,101529,2,0,P|84:100|48:120,1,80,2|8,0:0|0:0,0:0:0:0:
68,200,101744,2,0,P|107:204|143:225,1,80,2|8,0:0|0:0,0:0:0:0:
200,172,101958,2,0,P|184:135|184:94,1,80,2|8,0:0|0:0,0:0:0:0:
248,44,102172,6,0,P|328:52|400:16,1,160,2|0,0:0|0:0,0:0:0:0:
460,72,102494,1,8,0:0:0:0:
472,152,102601,2,0,P|392:144|320:180,1,160,2|0,0:0|0:0,0:0:0:0:
296,252,102922,1,0,0:0:0:0:
268,328,103029,5,8,0:0:0:0:
216,348,103101,1,0,0:0:0:0:
164,332,103172,1,0,0:0:0:0:
136,288,103244,1,2,0:0:0:0:
136,236,103315,1,0,0:0:0:0:
108,188,103387,1,0,0:0:0:0:
56,172,103458,6,0,L|4:184,2,53.3333333333333,10|0|0,0:0|0:0|0:0,0:0:0:0:
64,120,103672,2,0,L|16:96,2,53.3333333333333,2|0|0,0:0|0:0|0:0,0:0:0:0:
108,88,103887,6,0,L|76:12,2,80,10|0|0,0:0|0:0|0:0,0:0:0:0:
180,120,104208,2,0,L|148:196,2,80,8|2|0,0:0|0:0|0:0,0:0:0:0:
236,60,104529,2,0,P|272:44|312:36,1,80,8|0,0:0|0:0,0:0:0:0:
388,64,104744,6,0,L|392:144,1,80,8|0,0:0|0:0,0:0:0:0:
444,204,104958,2,0,L|448:284,1,80,8|0,0:0|0:0,0:0:0:0:
308,80,105172,2,0,L|312:160,1,80,8|0,0:0|0:0,0:0:0:0:
364,220,105386,2,0,L|368:300,1,80,8|0,0:0|0:0,0:0:0:0:
292,332,105601,6,0,P|252:336|212:328,1,80,8|0,0:0|0:0,0:0:0:0:
144,288,105815,2,0,P|104:280|65:284,1,80,8|0,0:0|0:0,0:0:0:0:
300,248,106029,2,0,P|260:252|220:244,1,80,8|0,0:0|0:0,0:0:0:0:
152,204,106243,2,0,P|112:196|73:200,1,80,8|0,0:0|0:0,0:0:0:0:
32,132,106458,6,0,L|12:96,2,40,8|0|0,0:0|0:0|0:0,0:0:0:0:
108,112,106672,2,0,P|148:116|192:128,1,80,8|0,0:0|0:0,0:0:0:0:
260,164,106887,2,0,P|300:160|344:148,1,80,8|0,0:0|0:0,0:0:0:0:
404,108,107101,1,8,0:0:0:0:
404,108,107208,1,8,0:0:0:0:
460,164,107315,6,0,L|512:176,2,53.3333333333333,8|8|8,0:0|0:0|0:0,0:0:0:0:
428,208,107529,2,0,P|432:244|448:284,1,80
332,360,107744,6,0,L|280:348,2,53.3333333333333
364,316,107958,2,0,P|360:280|344:240,1,80,8|0,0:0|0:0,0:0:0:0:
272,208,108172,6,0,P|200:204|128:264,1,160,6|8,0:0|0:0,0:0:0:0:
104,332,108494,1,0,0:0:0:0:
52,272,108601,2,0,L|40:192,1,80,0|8,0:0|0:0,0:0:0:0:
92,132,108815,2,0,L|104:52,1,80,0|8,0:0|0:0,0:0:0:0:
176,20,109029,5,0,0:0:0:0:
224,84,109137,1,0,0:0:0:0:
300,112,109244,2,0,P|372:116|444:56,1,160,8|0,0:0|0:0,0:0:0:0:
504,112,109565,2,0,L|496:196,2,80,8|0|8,0:0|0:0|0:0,0:0:0:0:
440,64,109887,6,0,L|436:8,2,53.3333333333333,8|8|8,0:0|0:0|0:0,0:0:0:0:
392,88,110101,1,0,0:0:0:0:
372,92,110154,1,0,0:0:0:0:
352,96,110208,1,8,0:0:0:0:
332,100,110262,1,8,0:0:0:0:
312,104,110315,2,0,P|272:96|236:72,1,80,0|8,0:0|0:0,0:0:0:0:
180,20,110529,1,0,0:0:0:0:
160,16,110582,1,0,0:0:0:0:
140,12,110636,1,0,0:0:0:0:
120,8,110690,1,0,0:0:0:0:
100,4,110744,5,12,0:0:0:0:
100,4,111172,6,0,L|40:16,5,53.3333333333333,10|0|0|0|0|0,0:0|0:0|0:0|0:0|0:0|0:0,0:0:0:0:
68,48,111601,6,0,P|72:144|36:212,1,167.999994873047,12|0,0:0|0:0,0:0:0:0:
76,272,112029,2,0,L|204:284,1,111.999996582031,12|0,0:0|0:0,0:0:0:0:
328,240,112458,6,0,P|324:144|360:76,1,167.999994873047,12|0,0:0|0:0,0:0:0:0:
320,16,112887,6,0,L|252:8,1,55.9999982910157,12|0,0:0|0:0,0:0:0:0:
432,52,113101,2,0,L|500:44,1,55.9999982910157,12|0,0:0|0:0,0:0:0:0:
420,128,113315,6,0,P|400:180|412:236,1,111.999996582031,0|12,0:0|0:0,0:0:0:0:
272,384,113744,2,0,P|292:332|280:276,1,111.999996582031,12|0,0:0|0:0,0:0:0:0:
200,156,114172,2,0,L|84:148,1,111.999996582031,12|0,0:0|0:0,0:0:0:0:
20,172,114494,2,0,P|0:224|8:280,1,111.999996582031,12|0,0:0|0:0,0:0:0:0:
72,312,114815,1,12,0:0:0:0:
216,324,115029,6,0,L|228:144,1,167.999994873047,12|0,0:0|0:0,0:0:0:0:
260,92,115458,2,0,P|320:88|364:64,1,111.999996582031,12|0,0:0|0:0,0:0:0:0:
500,116,115887,6,0,L|488:296,1,167.999994873047,12|0,0:0|0:0,0:0:0:0:
456,348,116316,2,0,P|396:352|352:376,1,111.999996582031,12|0,0:0|0:0,0:0:0:0:
280,360,116637,1,0,0:0:0:0:
244,288,116744,6,0,L|248:244,2,40,8|0|0,0:0|0:0|0:0,0:0:0:0:
168,312,116958,1,0,0:0:0:0:
92,340,117065,2,0,L|96:384,2,40,8|0|0,0:0|0:0|0:0,0:0:0:0:
36,284,117279,1,0,0:0:0:0:
112,256,117387,2,0,P|124:216|120:176,1,80,8|0,0:0|0:0,0:0:0:0:
52,136,117601,5,8,0:0:0:0:
48,116,117654,1,0,0:0:0:0:
44,96,117708,1,0,0:0:0:0:
40,76,117762,1,0,0:0:0:0:
36,56,117815,1,0,0:0:0:0:
104,16,117922,1,8,0:0:0:0:
164,68,118029,2,0,P|196:84|244:92,1,80
316,72,118244,1,8,0:0:0:0:
464,124,118458,6,0,L|472:304,1,167.999994873047,4|0,0:0|0:0,0:0:0:0:
424,348,118887,2,0,P|368:360|312:352,1,111.999996582031,12|0,0:0|0:0,0:0:0:0:
212,252,119315,6,0,L|220:72,1,167.999994873047,4|0,0:0|0:0,0:0:0:0:
172,28,119744,2,0,P|116:16|60:24,1,111.999996582031,12|0,0:0|0:0,0:0:0:0:
8,160,120172,6,0,L|16:272,1,111.999996582031,4|0,0:0|0:0,0:0:0:0:
56,332,120494,1,0,0:0:0:0:
124,356,120601,2,0,P|152:360|184:360,3,55.9999982910157,12|0|0|0,0:0|0:0|0:0|0:0,0:0:0:0:
244,324,121029,6,0,L|252:212,1,111.999996582031,12|0,0:0|0:0,0:0:0:0:
192,168,121351,2,0,L|184:56,1,111.999996582031,12|0,0:0|0:0,0:0:0:0:
244,12,121672,1,12,0:0:0:0:
388,28,121887,6,0,P|444:48|488:152,1,167.999994873047,4|0,0:0|0:0,0:0:0:0:
488,212,122315,2,0,L|484:324,1,111.999996582031,12|0,0:0|0:0,0:0:0:0:
348,380,122744,6,0,P|292:360|248:256,1,167.999994873047,4|0,0:0|0:0,0:0:0:0:
248,196,123172,2,0,L|252:84,1,111.999996582031,12|0,0:0|0:0,0:0:0:0:
256,12,123494,1,0,0:0:0:0:
108,36,123601,5,8,0:0:0:0:
107,55,123654,1,8,0:0:0:0:
106,75,123708,1,8,0:0:0:0:
105,94,123761,1,8,0:0:0:0:
104,112,123815,2,0,L|102:177,1,55.9999982910157
248,196,124029,5,0,0:0:0:0:
248,215,124082,1,0,0:0:0:0:
249,235,124136,1,0,0:0:0:0:
250,254,124189,1,0,0:0:0:0:
252,272,124243,2,0,L|254:337,1,55.9999982910157,8|0,0:0|0:0,0:0:0:0:
400,356,124458,6,0,L|408:244,1,111.999996582031,8|0,0:0|0:0,0:0:0:0:
456,192,124779,1,0,0:0:0:0:
456,192,124887,2,0,L|452:136,1,55.9999982910157,8|0,0:0|0:0,0:0:0:0:
400,84,125101,2,0,L|404:28,1,55.9999982910157,8|8,0:0|0:0,0:0:0:0:
272,52,125315,6,0,P|204:80|108:68,1,167.999994873047,4|4,0:0|0:0,0:0:0:0:
12,264,125958,1,4,0:0:0:0:
152,300,126172,2,0,P|220:272|316:284,1,167.999994873047,4|4,0:0|0:0,0:0:0:0:
448,336,126708,2,0,L|456:372,2,27.9999991455078,0|0|4,0:0|0:0|0:0,0:0:0:0:
448,336,127244,6,0,L|464:224,2,111.999996582031,4|4|4,0:0|0:0|0:0,0:0:0:0:
304,356,127887,5,8,0:0:0:0:
284,352,127940,1,0,0:0:0:0:
264,348,127994,1,0,0:0:0:0:
244,344,128047,1,0,0:0:0:0:
224,340,128101,2,0,L|164:348,1,55.9999982910157
100,376,128315,5,0,0:0:0:0:
40,332,128422,1,0,0:0:0:0:
40,332,128476,1,0,0:0:0:0:
40,332,128529,2,0,L|44:276,1,55.9999982910157,8|0,0:0|0:0,0:0:0:0:
76,212,128744,6,0,P|84:156|68:104,1,111.999996582031,4|0,0:0|0:0,0:0:0:0:
176,8,129172,1,0,0:0:0:0:
176,8,129387,1,0,0:0:0:0:
216,148,129601,2,0,P|208:204|224:256,1,111.999996582031
364,212,130029,6,0,L|368:172,2,37.3333321940105,8|2|0,0:0|0:0|0:0,0:0:0:0:
412,196,130244,2,0,L|432:160,2,37.3333321940105,2|0|2,0:0|0:0|0:0,0:0:0:0:
456,216,130458,6,0,P|476:312|380:384,1,223.999993164063,0|4,0:0|0:0,0:0:0:0:
248,344,131101,1,0,0:0:0:0:
196,208,131315,5,10,0:0:0:0:
216,164,131387,1,0,0:0:0:0:
212,116,131458,1,0,0:0:0:0:
184,76,131529,1,0,0:0:0:0:
140,52,131601,1,0,0:0:0:0:
92,56,131672,1,0,0:0:0:0:
52,84,131744,1,10,0:0:0:0:
52,84,132172,6,0,L|56:144,1,55.9999982910157,4|0,0:0|0:0,0:0:0:0:
16,200,132387,2,0,L|12:260,1,55.9999982910157
48,320,132601,2,0,P|96:340|160:332,1,111.999996582031,8|0,0:0|0:0,0:0:0:0:
216,292,132922,1,0,0:0:0:0:
276,252,133029,6,0,P|331:245|382:266,1,111.999996582031
436,320,133351,1,0,0:0:0:0:
436,320,133458,2,0,L|440:380,1,55.9999982910157,8|0,0:0|0:0,0:0:0:0:
460,248,133672,2,0,L|464:188,1,55.9999982910157
408,144,133887,6,0,P|376:148|348:144,1,55.9999982910157
284,120,134101,2,0,P|255:104|234:85,1,55.9999982910157,0|0,0:3|0:3,0:3:0:0:
188,36,134315,2,0,P|140:20|80:24,1,111.999996582031,8|0,0:0|0:0,0:0:0:0:
40,84,134637,1,0,0:0:0:0:
60,156,134744,2,0,P|108:172|168:168,1,111.999996582031
236,140,135065,1,0,0:0:0:0:
264,72,135172,5,8,0:0:0:0:
312,128,135279,1,0,0:0:0:0:
384,140,135387,2,0,L|448:132,1,55.9999982910157
496,180,135601,6,0,L|504:296,1,111.999996582031,4|0,0:0|0:0,0:0:0:0:
464,352,135922,1,0,0:0:0:0:
396,376,136029,2,0,P|340:364|296:328,1,111.999996582031,8|0,0:0|0:0,0:0:0:0:
268,264,136351,1,0,0:0:0:0:
340,268,136458,6,0,L|400:272,1,55.9999982910157
224,328,136672,2,0,L|164:332,1,55.9999982910157
108,292,136887,2,0,P|120:232|112:180,1,111.999996582031,8|0,0:0|0:0,0:0:0:0:
24,68,137315,5,0,0:0:0:0:
88,104,137422,1,0,0:0:0:0:
160,120,137529,2,0,P|192:120|216:116,1,55.9999982910157,4|0,0:0|0:0,0:0:0:0:
280,80,137744,2,0,L|284:20,1,55.9999982910157,8|0,0:0|0:0,0:0:0:0:
340,124,137958,2,0,L|344:184,1,55.9999982910157
408,88,138172,6,0,P|436:104|456:120,1,55.9999982910157
492,184,138387,2,0,P|497:215|498:241,1,55.9999982910157
388,336,138601,6,0,P|393:304|394:278,1,55.9999982910157,10|0,0:0|0:0,0:0:0:0:
340,124,138815,2,0,P|319:99|300:82,1,55.9999982910157,4|0,0:0|0:0,0:0:0:0:
144,36,139029,6,0,L|28:32,1,111.999996582031,6|0,0:0|0:0,0:0:0:0:
8,100,139351,1,0,0:0:0:0:
56,156,139458,2,0,P|84:164|112:168,1,55.9999982910157,8|0,0:0|0:0,0:0:0:0:
176,132,139672,2,0,P|203:136|230:143,1,55.9999982910157
284,196,139887,5,0,0:0:0:0:
276,268,139994,1,0,0:0:0:0:
312,332,140101,1,0,0:0:0:0:
380,356,140208,1,0,0:0:0:0:
448,332,140315,2,0,L|464:216,1,111.999996582031,8|0,0:0|0:0,0:0:0:0:
472,148,140637,1,0,0:0:0:0:
428,92,140744,6,0,L|368:96,1,55.9999982910157
320,44,140958,2,0,L|260:40,1,55.9999982910157
204,80,141172,2,0,P|152:104|92:112,1,111.999996582031,8|0,0:0|0:0,0:0:0:0:
32,148,141494,1,0,0:0:0:0:
32,148,141601,6,0,L|36:212,1,55.9999982910157
84,260,141815,2,0,L|88:324,1,55.9999982910157
172,352,142029,6,0,L|176:288,1,55.9999982910157,8|0,0:0|0:0,0:0:0:0:
224,163,142243,2,0,L|228:99,1,55.9999982910157,4|0,0:0|0:0,0:0:0:0:
312,48,142458,6,0,P|368:52|420:32,1,111.999996582031,4|0,0:0|0:0,0:0:0:0:
484,64,142779,1,0,0:0:0:0:
484,64,142887,2,0,L|488:176,1,111.999996582031,8|0,0:0|0:0,0:0:0:0:
424,308,143315,5,0,0:0:0:0:
360,344,143422,1,0,0:0:0:0:
288,356,143529,2,0,P|280:328|280:300,1,55.9999982910157,2|0,0:0|0:0,0:0:0:0:
343,182,143744,5,8,0:0:0:0:
407,218,143851,1,0,0:0:0:0:
479,230,143958,2,0,P|487:202|487:174,1,55.9999982910157,10|0,0:0|0:0,0:0:0:0:
444,116,144172,6,0,L|388:124,1,55.9999982910157,12|8,0:0|0:0,0:0:0:0:
332,172,144387,2,0,L|281:146,1,55.9999982910157
216,180,144601,2,0,L|189:130,1,55.9999982910157,8|0,0:0|0:0,0:0:0:0:
125,93,144816,2,0,L|131:36,1,55.9999982910157,8|8,0:0|0:0,0:0:0:0:
60,20,145029,6,0,P|40:44|28:68,1,55.9999982910157
12,136,145244,2,0,P|9:167|13:193,1,55.9999982910157,0|0,0:3|0:3,0:3:0:0:
40,260,145458,2,0,P|55:287|74:306,1,55.9999982910157
136,344,145673,2,0,P|164:357|190:362,1,55.9999982910157,0|0,0:3|0:3,0:3:0:0:
268,352,145886,6,0,P|312:344|424:376,1,160,4|0,0:0|0:0,0:0:0:0:
380,172,146744,2,0,P|336:180|224:148,1,160,12|0,0:0|0:0,0:0:0:0:
156,72,147387,1,0,0:0:0:0:
156,72,147601,6,0,L|68:64,1,80,4|0,0:0|0:0,0:0:0:0:
44,164,148029,2,0,L|132:172,1,80
226,149,148458,5,12,0:0:0:0:
316,96,148672,2,0,P|336:64|352:24,1,80
452,56,149101,1,0,0:0:0:0:
408,152,149315,6,0,P|404:216|444:312,1,160,4|0,0:0|0:0,0:0:0:0:
236,360,150172,2,0,P|240:296|200:200,1,160,12|0,0:0|0:0,0:0:0:0:
120,148,150815,1,4,0:0:0:0:
60,232,151029,5,4,0:0:0:0:
144,292,151244,2,0,P|216:316|304:304,1,160
332,292,151744,1,0,0:0:0:0:
356,268,151815,1,0,0:0:0:0:
376,240,151887,6,0,L|384:192,5,26.6666666666667,12|0|0|0|0|0,0:0|0:0|0:0|0:0|0:0|0:0,0:0:0:0:
356,188,152315,2,0,L|348:140,5,26.6666666666667,8|8|8|0|0|0,0:0|0:0|0:0|0:0|0:0|0:0,0:0:0:0:
364,128,152744,6,0,P|288:112|232:56,1,160,4|0,0:0|0:0,0:0:0:0:
32,120,153601,2,0,L|20:244,2,120,12|0|0,0:0|0:0|0:0,0:0:0:0:
136,108,154458,5,4,0:0:0:0:
136,108,154672,2,0,L|120:272,1,160
136,300,155172,1,0,0:0:0:0:
164,320,155244,1,0,0:0:0:0:
200,324,155315,2,0,P|240:332|280:360,1,80,12|0,0:0|0:0,0:0:0:0:
376,336,155744,1,8,0:0:0:0:
376,336,155851,2,0,L|384:256,1,80,0|4,0:0|0:0,0:0:0:0:
356,212,156172,6,0,P|332:148|348:52,1,160,4|8,0:0|0:0,0:0:0:0:
256,4,156815,1,0,0:0:0:0:
167,58,157029,2,0,P|181:136|156:212,1,160,12|0,0:0|0:0,0:0:0:0:
68,268,157672,1,8,0:0:0:0:
160,316,157887,5,0,0:0:0:0:
204,288,157994,1,0,0:0:0:0:
256,280,158101,1,0,0:0:0:0:
308,292,158208,1,0,0:0:0:0:
352,324,158315,2,0,P|376:336|400:340,1,40,10|8,0:0|0:0,0:0:0:0:
440,336,158529,2,8,P|464:325|483:309,1,40,0|0,0:0|0:0,0:0:0:0:
500,272,158744,5,2,0:0:0:0:
504,220,158851,1,0,0:0:0:0:
480,172,158958,1,8,0:0:0:0:
436,144,159065,1,8,0:0:0:0:
384,140,159172,2,0,L|332:148,1,40,2|0,0:0|0:0,0:0:0:0:
296,168,159387,2,0,L|244:160,1,40
216,128,159601,5,2,0:0:0:0:
216,128,159708,1,0,0:0:0:0:
216,128,159815,1,0,0:0:0:0:
216,128,159922,1,0,0:0:0:0:
216,128,160029,2,0,L|164:136,3,47.9999985351563,8|0|0|0,0:0|0:0|0:0|0:0,0:0:0:0:
116,168,160458,5,0,0:0:0:0:
116,168,160565,1,0,0:0:0:0:
116,168,160672,1,0,0:0:0:0:
116,168,160779,1,0,0:0:0:0:
116,168,160886,2,0,L|64:160,3,47.9999985351563,8|0|0|0,0:0|0:0|0:0|0:0,0:0:0:0:
28,256,161315,5,0,0:0:0:0:
28,256,161422,1,0,0:0:0:0:
28,256,161529,1,0,0:0:0:0:
28,256,161636,1,0,0:0:0:0:
28,256,161743,2,0,L|96:268,3,64,8|0|0|0,0:0|0:0|0:0|0:0,0:0:0:0:
156,320,162172,5,0,0:0:0:0:
156,320,162279,1,0,0:0:0:0:
156,320,162386,1,0,0:0:0:0:
156,320,162493,1,0,0:0:0:0:
156,320,162601,2,0,L|224:308,3,64,8|0|4|0,0:0|0:0|0:0|0:0,0:0:0:0:
260,240,163029,5,0,0:0:0:0:
312,228,163101,1,0,0:0:0:0:
364,244,163172,1,0,0:0:0:0:
396,288,163244,1,0,0:0:0:0:
448,304,163315,1,0,0:0:0:0:
496,280,163387,1,0,0:0:0:0:
512,228,163458,2,0,L|504:172,5,53.3333333333333,8|0|0|0|0|0,0:0|0:0|0:0|0:0|0:0|0:0,0:0:0:0:
472,132,163887,5,8,0:0:0:0:
420,120,163959,1,0,0:0:0:0:
368,136,164030,1,0,0:0:0:0:
336,180,164102,1,0,0:0:0:0:
284,196,164173,1,0,0:0:0:0:
236,172,164245,1,0,0:0:0:0:
220,120,164316,2,0,L|228:64,5,53.3333333333333,8|0|0|0|0|0,0:0|0:0|0:0|0:0|0:0|0:0,0:0:0:0:
196,24,164744,6,0,L|136:32,5,53.3333333333333,8|0|0|0|0|0,0:0|0:0|0:0|0:0|0:0|0:0,0:0:0:0:
104,68,165172,2,0,L|44:76,5,53.3333333333333,8|0|0|0|0|0,0:0|0:0|0:0|0:0|0:0|0:0,0:0:0:0:
8,108,165601,6,0,L|20:216,2,106.666666666667,8|8|8,0:0|0:0|0:0,0:0:0:0:
148,156,166029,2,0,L|136:264,2,106.666666666667,8|8|8,0:0|0:0|0:0,0:0:0:0:
256,52,166458,6,0,P|336:64|416:24,1,167.999994873047,4|0,0:0|0:0,0:0:0:0:
480,52,166887,2,0,L|488:176,1,111.999996582031
448,192,167172,2,0,L|400:180,2,37.3333321940105,0|0|12,0:0|0:0|0:0,0:0:0:0:
500,328,167529,1,0,0:0:0:0:
436,360,167637,1,12,0:0:0:0:
364,372,167744,2,0,P|308:360|256:332,1,111.999996582031,0|12,0:0|0:0,0:0:0:0:
188,208,168172,6,0,P|138:182|83:170,1,111.999996582031,0|12,0:0|0:0,0:0:0:0:
16,300,168601,2,0,P|65:325|120:337,1,111.999996582031,12|0,0:0|0:0,0:0:0:0:
259,334,169029,2,0,L|275:222,1,111.999996582031,12|0,0:0|0:0,0:0:0:0:
308,188,169315,1,0,0:0:0:0:
356,180,169387,1,0,0:0:0:0:
400,196,169458,2,0,P|456:200|508:172,1,111.999996582031,12|12,0:0|0:0,0:0:0:0:
424,52,169887,6,0,B|340:36|344:92|256:76,1,167.999994873047,12|0,0:0|0:0,0:0:0:0:
200,36,170315,2,0,P|144:16|88:24,1,111.999996582031,12|0,0:0|0:0,0:0:0:0:
48,160,170744,2,0,P|120:196|204:176,1,167.999994873047,12|0,0:0|0:0,0:0:0:0:
264,140,171172,2,0,P|316:144|368:176,1,111.999996582031,8|0,0:0|0:0,0:0:0:0:
404,240,171494,1,0,0:0:0:0:
444,180,171601,6,0,L|448:120,1,55.9999982910157,8|0,0:0|0:0,0:0:0:0:
376,36,171815,1,0,0:0:0:0:
376,36,171869,1,0,0:0:0:0:
376,36,171922,2,0,L|380:96,1,55.9999982910157,8|0,0:0|0:0,0:0:0:0:
320,132,172137,1,0,0:0:0:0:
256,96,172244,2,0,P|228:88|200:84,1,55.9999982910157,8|0,0:0|0:0,0:0:0:0:
136,116,172458,6,0,P|108:124|80:128,1,55.9999982910157,8|0,0:0|0:0,0:0:0:0:
64,200,172672,1,0,0:0:0:0:
64,200,172726,1,0,0:0:0:0:
64,200,172779,2,0,P|84:220|102:242,1,55.9999982910157,8|0,0:0|0:0,0:0:0:0:
120,312,172994,1,0,0:0:0:0:
172,260,173101,1,8,0:0:0:0:
172,260,173315,6,0,B|300:257|276:361|396:385|492:313|448:153|335:190,1,447.999986328125,12|12,0:0|0:0,0:0:0:0:
336,190,174815,1,0,0:0:0:0:
224,280,175029,6,0,P|144:308|56:292,2,167.999994873047,12|0|0,0:0|0:0|0:0,0:0:0:0:
336,190,175887,1,12,0:0:0:0:
336,190,176101,2,0,P|401:193|497:313,1,223.999993164063
360,352,176744,6,0,P|256:328|184:128,1,335.999989746094,12|0,0:0|0:0,0:0:0:0:
328,130,177601,2,0,P|300:288|152:352,1,335.999989746094,12|0,0:0|0:0,0:0:0:0:
84,328,178351,1,0,0:0:0:0:
52,264,178458,6,0,L|40:88,2,167.999994873047,12|0|0,0:0|0:0|0:0,0:0:0:0:
184,204,179315,2,0,L|196:28,2,167.999994873047,12|0|0,0:0|0:0|0:0,0:0:0:0:
168,348,180172,6,0,P|248:356|344:320,2,167.999994873047,12|0|0,0:0|0:0|0:0,0:0:0:0:
124,328,180887,1,0,0:0:0:0:
92,292,180958,1,0,0:0:0:0:
76,248,181029,2,0,L|60:24,1,223.999993164063,12|4,0:0|0:0,0:0:0:0:
200,64,181672,1,4,0:0:0:0:
200,64,181887,6,0,P|284:80|360:48,1,167.999994873047,12|0,0:0|0:0,0:0:0:0:
424,76,182315,2,0,L|432:196,1,111.999996582031,12|0,0:0|0:0,0:0:0:0:
344,304,182744,6,0,P|288:300|232:316,1,111.999996582031,12|0,0:0|0:0,0:0:0:0:
192,340,183029,2,0,L|184:380,2,37.3333321940105,0|0|12,0:0|0:0|0:0,0:0:0:0:
216,196,183387,1,0,0:0:0:0:
216,196,183601,6,0,P|160:200|104:184,1,111.999996582031,12|0,0:0|0:0,0:0:0:0:
64,160,183886,2,0,L|56:120,2,37.3333321940105,0|0|12,0:0|0:0|0:0,0:0:0:0:
88,304,184244,1,0,0:0:0:0:
88,304,184458,2,0,P|168:304|240:352,1,167.999994873047,12|0,0:0|0:0,0:0:0:0:
308,328,184887,2,0,L|316:216,1,111.999996582031,12|0,0:0|0:0,0:0:0:0:
204,124,185315,6,0,P|148:116|96:92,1,111.999996582031,12|0,0:0|0:0,0:0:0:0:
44,144,185637,2,0,P|65:196|70:253,1,111.999996582031,12|0,0:0|0:0,0:0:0:0:
140,272,185958,2,0,P|156:244|180:224,1,55.9999982910157,12|0,0:0|0:0,0:0:0:0:
284,172,186172,6,0,L|280:116,2,55.9999982910157,12|0|0,0:0|0:0|0:0,0:0:0:0:
360,260,186494,2,0,L|356:316,2,55.9999982910157,12|0|0,0:0|0:0|0:0,0:0:0:0:
428,152,186815,2,0,L|424:96,1,55.9999982910157,12|0,0:0|0:0,0:0:0:0:
504,280,187029,1,4,0:0:0:0:
504,280,189387,5,0,0:0:0:0:
504,280,189458,1,0,0:0:0:0:
504,280,189529,1,0,0:0:0:0:
504,280,189601,2,0,L|492:244,11,27.9999991455078,10|0|0|0|0|0|0|0|0|0|0|0,0:0|0:0|0:0|0:0|0:0|0:0|0:0|0:0|0:0|0:0|0:0|0:0,0:0:0:0:
512,308,190244,5,8,0:0:0:0:
360,340,190458,5,4,0:0:0:0:
360,340,190565,1,0,0:0:0:0:
360,340,190672,2,0,B|300:336|300:336|264:356|264:356|204:352,1,160,12|12,0:0|0:0,0:0:0:0:
136,312,190994,1,8,0:0:0:0:
204,268,191101,2,0,B|216:232|216:232|208:188,1,80,4|8,0:0|0:0,0:0:0:0:
288,172,191315,5,4,0:0:0:0:
288,172,191422,1,0,0:0:0:0:
288,172,191529,2,0,B|348:168|348:168|384:188|384:188|444:184,1,160,12|12,0:0|0:0,0:0:0:0:
512,144,191851,1,8,0:0:0:0:
444,100,191958,2,0,B|432:64|432:64|440:20,1,80,4|8,0:0|0:0,0:0:0:0:
360,12,192172,6,0,L|340:100,1,80,4|0,0:0|0:0,0:0:0:0:
264,100,192387,1,8,0:0:0:0:
264,100,192440,1,8,0:0:0:0:
264,100,192494,1,0,0:0:0:0:
196,60,192601,2,0,P|160:44|116:36,1,80,8|0,0:0|0:0,0:0:0:0:
136,116,192815,2,0,P|97:123|56:142,1,80
116,200,193029,6,0,L|96:236,2,40,8|8|0,0:0|0:0|0:0,0:0:0:0:
196,180,193244,2,0,P|235:187|276:206,1,80
232,300,193458,6,0,L|212:264,2,40,8|8|0,0:0|0:0|0:0,0:0:0:0:
312,320,193673,2,0,P|351:313|392:294,1,80
444,240,193887,5,0,0:0:0:0:
444,240,193994,1,0,0:0:0:0:
444,240,194101,2,0,B|440:180|440:180|460:140|460:140|456:84,1,160,8|8,0:0|0:0,0:0:0:0:
396,32,194422,1,8,0:0:0:0:
376,108,194529,2,0,B|336:112|336:112|296:100,1,80,0|8,0:0|0:0,0:0:0:0:
224,64,194744,5,0,0:0:0:0:
224,64,194851,1,0,0:0:0:0:
224,64,194958,2,0,B|220:124|220:124|240:164|240:164|236:220,1,160,8|8,0:0|0:0,0:0:0:0:
176,272,195279,1,8,0:0:0:0:
156,196,195386,2,0,B|116:192|116:192|76:204,1,80,0|8,0:0|0:0,0:0:0:0:
16,256,195601,5,4,0:0:0:0:
52,328,195708,1,0,0:0:0:0:
128,352,195815,2,0,P|212:344|284:372,1,160,10|10,0:2|0:2,0:0:0:0:
356,344,196137,1,8,0:0:0:0:
416,292,196244,2,0,L|424:212,1,80,2|8,0:2|0:0,0:0:0:0:
428,132,196458,5,0,0:0:0:0:
392,60,196565,1,0,0:0:0:0:
316,36,196672,2,0,P|232:44|160:16,1,160,8|8,0:0|0:0,0:0:0:0:
88,44,196994,1,8,0:0:0:0:
28,96,197101,2,0,L|20:176,1,80,0|8,0:0|0:0,0:0:0:0:
64,244,197315,6,0,L|72:288,2,40,4|0|0,0:0|0:0|0:0,0:0:0:0:
136,212,197529,2,0,P|168:236|192:268,1,80,12|0,0:0|0:0,0:0:0:0:
256,220,197744,2,0,P|268:258|269:297,1,80,12|8,0:0|0:0,0:0:0:0:
348,300,197958,2,0,P|336:338|314:371,1,80,4|8,0:0|0:0,0:0:0:0:
461,166,198172,6,0,L|453:210,2,40,4|0|0,0:0|0:0|0:0,0:0:0:0:
389,134,198386,2,0,P|357:158|333:190,1,80,12|0,0:0|0:0,0:0:0:0:
269,142,198601,2,0,P|256:180|255:219,1,80,12|8,0:0|0:0,0:0:0:0:
177,222,198815,2,0,P|188:260|210:293,1,80,4|8,0:0|0:0,0:0:0:0:
64,88,199029,6,0,L|72:132,2,40,4|0|0,0:0|0:0|0:0,0:0:0:0:
136,56,199243,2,0,P|168:80|192:112,1,80,12|0,0:0|0:0,0:0:0:0:
256,64,199458,2,0,P|268:102|269:141,1,80,12|8,0:0|0:0,0:0:0:0:
348,144,199672,2,0,P|336:182|314:215,1,80,4|8,0:0|0:0,0:0:0:0:
244,256,199887,5,8,0:0:0:0:
248,276,199940,1,0,0:0:0:0:
252,296,199994,1,0,0:0:0:0:
256,316,200047,1,0,0:0:0:0:
260,336,200101,1,0,0:0:0:0:
184,364,200208,1,0,0:0:0:0:
112,332,200315,1,12,0:0:0:0:
108,312,200368,1,0,0:0:0:0:
104,292,200422,1,0,0:0:0:0:
100,272,200475,1,0,0:0:0:0:
96,252,200529,2,0,L|80:168,1,80,12|0,0:0|0:0,0:0:0:0:
128,116,200744,6,0,P|208:128|288:84,1,167.999994873047,4|4,0:0|0:0,0:0:0:0:
472,196,201387,1,4,0:0:0:0:
380,308,201601,2,0,P|300:296|220:340,1,167.999994873047,4|4,0:0|0:0,0:0:0:0:
80,312,202137,2,0,L|40:304,2,27.9999991455078,0|0|4,0:0|0:0|0:0,0:0:0:0:
80,312,202672,6,0,L|200:332,2,111.999996582031,4|4|0,0:0|0:0|0:0,0:0:0:0:
40,172,203315,5,8,0:0:0:0:
72,108,203422,2,0,L|44:88,2,27.9999991455078
128,60,203637,2,0,L|116:27,2,27.9999991455078
200,52,203851,2,0,L|209:18,2,27.9999991455078,0|0|8,0:0|0:0|0:0,0:0:0:0:
344,44,204172,6,0,P|440:100|468:204,2,223.999993164063,0|4|0,0:0|0:0|0:0,0:0:0:0:
80,156,205458,5,8,0:0:0:0:
76,172,205512,1,0,0:0:0:0:
72,188,205565,1,0,0:0:0:0:
68,204,205619,1,0,0:0:0:0:
64,220,205672,2,0,P|68:244|84:276,1,55.9999982910157,2|0,0:0|0:0,0:0:0:0:
144,308,205887,6,0,L|148:348,2,37.3333321940105,8|0|0,0:0|0:0|0:0,0:0:0:0:
192,320,206101,2,0,L|218:350,2,37.3333321940105
240,304,206315,6,0,L|278:313,2,37.3333321940105,8|0|0,0:0|0:0|0:0,0:0:0:0:
267,262,206529,2,0,L|304:247,2,37.3333321940105
272,212,206744,5,10,0:0:0:0:
372,208,206851,2,0,L|384:176,2,27.9999991455078,0|0|2,0:0|0:0|0:0,0:0:0:0:
436,280,207065,2,0,L|468:276,2,27.9999991455078,0|0|10,0:0|0:0|0:0,0:0:0:0:
436,280,207601,6,0,P|420:308|396:332,1,64,4|0,0:0|0:0,0:0:0:0:
320,360,207815,2,0,P|287:360|254:351,1,64
216,280,208029,2,0,P|200:252|176:228,1,64,8|0,0:0|0:0,0:0:0:0:
100,200,208243,2,0,P|67:199|34:208,1,64
0,284,208458,6,0,P|32:340|88:368,1,128
168,344,208779,1,0,0:0:0:0:
216,280,208887,2,0,L|208:152,1,128,8|0,0:0|0:0,0:0:0:0:
256,84,209208,1,0,0:0:0:0:
324,36,209315,6,0,P|354:28|386:28,1,64
464,57,209529,2,0,P|486:79|502:107,1,64
512,192,209744,2,0,P|503:222|487:250,1,64,8|0,0:0|0:0,0:0:0:0:
423,302,209958,2,0,P|392:309|360:309,1,64
280,284,210172,6,0,P|216:292|168:336,1,128
88,312,210494,1,0,0:0:0:0:
56,236,210601,2,0,L|48:108,1,128,8|0,0:0|0:0,0:0:0:0:
200,44,211029,6,0,L|192:172,1,128,4|0,0:0|0:0,0:0:0:0:
228,248,211351,1,0,0:0:0:0:
300,288,211458,2,0,P|356:304|424:288,1,128,8|0,0:0|0:0,0:0:0:0:
492,244,211779,1,0,0:0:0:0:
420,204,211887,6,0,P|392:184|376:160,1,64
300,196,212101,2,0,P|288:163|289:134,1,64
208,128,212315,2,0,P|217:94|288:32,1,128,8|0,0:0|0:0,0:0:0:0:
160,200,212744,5,0,0:0:0:0:
160,200,212851,1,0,0:0:0:0:
160,200,212958,1,4,0:0:0:0:
160,200,213065,1,0,0:0:0:0:
160,200,213172,2,0,P|126:208|36:178,1,128,8|0,0:0|0:0,0:0:0:0:
12,260,213494,1,0,0:0:0:0:
68,320,213601,5,0,0:0:0:0:
68,320,213708,2,0,L|200:312,1,128,8|0,0:0|0:0,0:0:0:0:
276,300,214029,6,0,P|272:336|260:364,1,64,10|0,0:0|0:0,0:0:0:0:
224,240,214244,2,0,P|194:218|176:194,1,64,4|0,0:0|0:0,0:0:0:0:
300,224,214458,6,0,P|333:209|424:216,1,128,6|0,0:0|0:0,0:0:0:0:
496,256,214779,1,0,0:0:0:0:
492,172,214887,2,0,L|484:44,1,128,8|0,0:0|0:0,0:0:0:0:
320,20,215315,5,0,0:0:0:0:
336,100,215422,1,0,0:0:0:0:
256,116,215529,1,0,0:0:0:0:
240,32,215637,1,0,0:0:0:0:
400,48,215744,6,0,L|412:116,1,64,8|0,0:0|0:0,0:0:0:0:
176,88,215958,2,0,L|164:20,1,64,4|0,0:0|0:0,0:0:0:0:
84,16,216172,6,0,P|88:48|84:80,1,64
32,144,216387,2,0,P|28:175|32:207,1,64
92,264,216601,2,0,P|144:284|172:356,1,128,8|0,0:0|0:0,0:0:0:0:
172,346,216922,1,0,0:0:0:0:
248,308,217029,6,0,P|236:276|216:248,1,64
152,200,217244,2,0,P|119:188|85:185,1,64
132,64,217458,6,0,P|142:93|160:120,1,64,8|0,0:0|0:0,0:0:0:0:
228,172,217673,2,0,P|258:182|289:186,1,64,4|0,0:0|0:0,0:0:0:0:
368,164,217887,6,0,P|420:168|488:216,1,128
496,292,218208,1,0,0:0:0:0:
448,360,218315,2,0,L|384:368,3,64,8|0|0|0,0:0|0:0|0:0|0:0,0:0:0:0:
304,340,218744,6,0,P|292:308|288:276,1,64
352,225,218958,2,0,P|364:193|368:161,1,64,2|0,0:0|0:0,0:0:0:0:
328,88,219172,1,8,0:0:0:0:
328,88,219279,1,0,0:0:0:0:
252,56,219387,2,0,L|188:64,1,64,2|0,0:0|0:0,0:0:0:0:
116,104,219601,6,0,L|52:96,3,64,8|8|0|0,0:0|0:0|0:0|0:0,0:0:0:0:
160,180,220029,2,0,L|96:188,1,64
96,268,220244,2,0,L|32:260,3,64,8|8|0|0,0:0|0:0|0:0|0:0,0:0:0:0:
140,344,220672,2,0,L|76:352,1,64
180,268,220887,5,8,0:0:0:0:
252,308,220994,1,0,0:0:0:0:
332,288,221101,1,12,0:0:0:0:
408,324,221208,1,0,0:0:0:0:
488,304,221315,6,0,P|468:244|464:176,1,128,4|0,0:0|0:0,0:0:0:0:
492,100,221637,1,0,0:0:0:0:
412,116,221744,2,0,P|376:112|348:104,3,64,8|0|0|0,0:0|0:0|0:0|0:0,0:0:0:0:
284,52,222172,6,0,P|264:112|260:180,1,128
288,256,222494,1,0,0:0:0:0:
208,240,222601,2,0,P|172:244|144:252,3,64,8|0|0|0,0:0|0:0|0:0|0:0,0:0:0:0:
72,292,223029,6,0,P|24:256|12:188,1,128
48,116,223351,1,0,0:0:0:0:
124,80,223458,2,0,L|192:88,1,64,8|0,0:0|0:0,0:0:0:0:
252,140,223672,5,2,0:2:0:0:
252,140,223779,2,0,P|264:168|268:204,1,64,2|0,0:2|0:0,0:0:0:0:
376,100,223994,1,2,0:2:0:0:
376,100,224101,2,0,P|345:96|312:81,1,64,2|0,0:2|0:0,0:0:0:0:
348,224,224315,2,0,P|392:184|460:168,1,128,10|2,0:2|0:2,0:0:0:0:
512,232,224637,1,0,0:0:0:0:
456,292,224744,6,0,B|392:312|392:312|328:304,1,128,4|0,0:0|0:0,0:0:0:0:
248,292,225065,1,0,0:0:0:0:
164,280,225172,2,0,L|156:216,3,64,8|0|0|0,0:0|0:0|0:0|0:0,0:0:0:0:
192,140,225601,6,0,B|256:160|256:160|320:152,1,128,0|2,0:0|0:2,0:0:0:0:
400,140,225922,1,2,0:2:0:0:
484,128,226029,2,0,L|492:64,3,64,8|2|2|0,0:0|0:2|0:2|0:0,0:0:0:0:
416,24,226458,6,0,P|356:56|296:60,1,128,10|0,0:0|0:0,0:0:0:0:
312,140,226779,2,0,P|244:131|193:100,1,128,10|0,0:0|0:0,0:0:0:0:
164,180,227101,2,0,P|113:134|89:79,1,128,10|0,0:0|0:0,0:0:0:0:
20,124,227422,6,0,L|16:188,1,64,10|0,0:0|0:0,0:0:0:0:
84,236,227637,1,0,0:0:0:0:
4,336,227744,2,0,L|8:272,1,64,14|0,0:0|0:0,0:0:0:0:
84,236,227958,2,0,L|80:300,1,64,0|6,0:0|0:0,0:0:0:0:
152,340,228172,6,0,B|212:320|280:340,1,128,4|0,0:0|0:0,0:0:0:0:
356,372,228494,1,0,0:0:0:0:
424,324,228601,2,0,L|432:260,3,64,8|0|0|0,0:0|0:0|0:0|0:0,0:0:0:0:
368,208,229029,6,0,B|308:188|240:208,1,128
164,240,229351,1,0,0:0:0:0:
96,192,229458,2,0,L|88:128,1,64,8|0,0:0|0:0,0:0:0:0:
152,76,229672,6,0,P|183:83|217:82,1,64,2|2,0:2|0:2,0:0:0:0:
239,163,229887,2,0,P|268:150|296:130,1,64,0|2,0:0|0:2,0:0:0:0:
346,197,230101,2,0,P|363:169|373:75,1,128,2|8,0:2|0:0,0:0:0:0:
508,176,230529,2,0,L|500:244,1,64,2|2,0:2|0:2,0:0:0:0:
444,300,230744,6,0,P|412:312|388:328,1,64,8|8,0:0|0:0,0:0:0:0:
332,268,230958,2,0,P|312:296|302:323,1,64
220,344,231172,6,0,P|188:332|164:316,1,64
108,376,231386,2,0,P|88:347|78:320,1,64
52,240,231601,6,0,P|144:160|148:32,1,256,0|4,0:0|0:0,0:0:0:0:
460,144,232458,2,0,P|368:224|364:352,1,256,8|4,0:0|0:0,0:0:0:0:
504,288,233101,1,0,0:0:0:0:
384,172,233315,5,4,0:0:0:0:
384,172,233529,1,0,0:0:0:0:
232,240,233744,1,10,0:0:0:0:
232,240,233958,1,0,0:0:0:0:
112,124,234172,6,0,L|104:92,3,32,10|0|0|0,0:0|0:0|0:0|0:0,0:0:0:0:
88,132,234387,2,0,L|60:104,3,32
72,156,234601,5,2,0:0:0:0:
64,176,234654,1,0,0:0:0:0:
56,196,234708,1,0,0:0:0:0:
48,216,234762,1,0,0:0:0:0:
40,236,234815,2,0,L|48:308,1,64,8|0,0:0|0:0,0:0:0:0:
192,344,235029,6,0,L|184:272,1,64,6|2,0:0|0:0,0:0:0:0:
380,124,235458,6,0,L|424:132,3,42.6666666666667,0|0|0|10,0:0|0:0|0:0|0:0,0:0:0:0:
480,288,235887,2,0,L|451:322,3,42.6666666666667,8|8|8|10,0:0|0:0|0:0|0:0,0:0:0:0:
292,284,236315,2,0,L|276:241,3,42.6666666666667,0|0|0|14,0:0|0:0|0:0|0:0,0:0:0:0:
