osu file format v14

[General]
AudioFilename: UNDEAD CORPORATION - Gone With The Blast.mp3
AudioLeadIn: 0
PreviewTime: 70413
Countdown: 0
SampleSet: Normal
StackLeniency: 0.7
Mode: 0
LetterboxInBreaks: 0
WidescreenStoryboard: 0

[Editor]
DistanceSpacing: 1.3
BeatDivisor: 4
GridSize: 4
TimelineZoom: 2.2

[Metadata]
Title:Gone With The Blast
TitleUnicode:Gone With The Blast
Artist:UNDEAD CORPORATION
ArtistUnicode:UNDEAD CORPORATION
Creator:Ekoro
Version:Insane
Source:
Tags:O. D. Akemi 朱美 West Village 窪田道元 original
BeatmapID:897653
BeatmapSetID:326461

[Difficulty]
HPDrainRate:4.5
CircleSize:4
OverallDifficulty:8
ApproachRate:9
SliderMultiplier:1.5
SliderTickRate:1

[Events]
//Background and Video events
0,0,"558861.jpg",0,0
//Break Periods
2,8944,10715
2,50086,56144
2,87801,93858
2,187229,188787
//Storyboard Layer 0 (Background)
//Storyboard Layer 1 (Fail)
//Storyboard Layer 2 (Pass)
//Storyboard Layer 3 (Foreground)
//Storyboard Sound Samples

[TimingPoints]
6815,214.285714285714,4,1,1,70,1,0
7030,222.222222222222,4,1,1,70,1,0
7696,214.285714285714,4,1,1,70,1,0
7887,214.285714285714,4,1,1,70,1,0
32744,-100,4,1,1,80,0,1
36172,-100,4,1,1,80,0,0
43029,-100,4,1,1,80,0,1
46458,-100,4,1,1,80,0,0
49887,-142.857142857143,4,1,1,80,0,0
70458,-142.857142857143,4,1,1,80,0,1
87601,-100,4,1,1,80,0,0
94458,-100,4,1,1,80,0,1
97886,-100,4,1,1,80,0,0
104744,-100,4,1,1,80,0,1
108172,-100,4,1,1,80,0,0
111601,-142.857142857143,4,1,1,80,0,0
116744,-100,4,1,1,80,0,0
118458,-142.857142857143,4,1,1,80,0,0
132172,-142.857142857143,4,1,1,80,0,1
145886,-200,4,1,1,80,0,0
159601,-166.666666666667,4,1,1,80,0,0
161315,-125,4,1,1,80,0,0
163029,-100,4,1,1,80,0,0
166458,-142.857142857143,4,1,1,80,0,0
190458,-100,4,1,1,80,0,0
200744,-142.857142857143,4,1,1,80,0,0
207601,-125,4,1,1,80,0,1
221315,-125,4,1,1,80,0,0

[Colours]
Combo1 : 78,78,92
Combo2 : 180,152,139
Combo3 : 99,53,7

[HitObjects]
92,72,6815,5,0,0:0:0:0:
92,72,6922,1,0,0:0:0:0:
92,72,7030,2,0,L|16:60,2,75,8|8|0,0:0|0:0|0:0,0:0:0:0:
240,92,7474,6,0,P|308:80|380:36,1,150,2|0,0:0|0:0,0:0:0:0:
496,132,7887,2,0,P|472:196|474:281,1,150,2|0,0:0|0:0,0:0:0:0:
332,328,8315,2,8,P|287:275|213:234,1,150,2|0,0:0|0:0,0:0:0:0:
68,216,8744,1,4,0:0:0:0:
68,216,11315,6,0,L|76:368,1,150,8|0,0:0|0:0,0:0:0:0:
148,344,11637,2,0,L|140:192,1,150,8|0,0:0|0:0,0:0:0:0:
84,144,11958,1,8,0:0:0:0:
84,144,12172,5,4,0:0:0:0:
28,92,12279,1,0,0:0:0:0:
100,68,12387,2,0,P|160:72|236:28,2,150,12|12|12,0:0|0:0|0:0,0:0:0:0:
176,196,13029,5,4,0:0:0:0:
232,248,13136,1,0,0:0:0:0:
160,272,13244,2,0,P|100:268|24:312,2,150,12|12|12,0:0|0:0|0:0,0:0:0:0:
216,324,13779,1,0,0:0:0:0:
288,300,13887,6,0,L|368:308,1,75,8|0,0:0|0:0,0:0:0:0:
412,252,14101,2,0,L|492:244,1,75
460,176,14315,2,0,L|380:168,1,75,0|0,0:0|0:0,0:0:0:0:
336,224,14529,2,0,L|256:232,1,75
204,184,14744,5,12,0:0:0:0:
204,184,15601,5,4,0:0:0:0:
128,172,15708,1,0,0:0:0:0:
156,240,15815,2,0,P|148:316|112:380,1,150,8|0,0:0|0:0,0:0:0:0:
40,360,16137,2,0,L|32:200,1,150,8|8,0:0|0:0,0:0:0:0:
60,140,16458,5,0,0:0:0:0:
128,172,16565,1,0,0:0:0:0:
204,184,16672,2,0,P|264:168|328:104,1,150,8|0,0:0|0:0,0:0:0:0:
396,136,16994,2,0,L|400:288,1,150,8|8,0:0|0:0,0:0:0:0:
436,352,17315,5,4,0:0:0:0:
504,320,17422,1,0,0:0:0:0:
472,252,17529,2,0,P|408:244|332:284,1,150,8|0,0:0|0:0,0:0:0:0:
292,344,17851,2,0,P|228:352|152:312,1,150,8|8,0:0|0:0,0:0:0:0:
123,243,18172,5,0,0:0:0:0:
123,243,18279,1,0,0:0:0:0:
148,172,18387,2,0,L|296:196,1,150,8|0,0:0|0:0,0:0:0:0:
288,120,18708,2,0,L|140:96,1,150,8|8,0:0|0:0,0:0:0:0:
80,140,19029,5,4,0:0:0:0:
80,140,19137,1,0,0:0:0:0:
80,140,19244,2,0,P|64:216|32:280,1,150,8|0,0:0|0:0,0:0:0:0:
80,336,19565,2,0,P|153:311|225:307,1,150,8|8,0:0|0:0,0:0:0:0:
252,236,19887,5,0,0:0:0:0:
252,236,19994,1,0,0:0:0:0:
252,236,20101,2,0,P|194:184|154:124,1,150,8|0,0:0|0:0,0:0:0:0:
172,52,20422,2,0,P|245:27|317:23,1,150,8|8,0:0|0:0,0:0:0:0:
384,56,20744,6,0,P|420:68|456:72,1,75
436,144,20958,2,0,P|473:142|509:134,1,75,8|8,0:0|0:0,0:0:0:0:
380,204,21172,6,0,P|416:216|452:220,1,75
432,292,21386,2,0,P|469:290|505:282,1,75
456,368,21601,6,0,P|384:364|312:320,1,150,12|0,0:0|0:0,0:0:0:0:
280,260,21922,2,0,P|208:264|136:308,1,150,12|0,0:0|0:0,0:0:0:0:
116,372,22244,1,12,0:0:0:0:
44,240,22458,5,0,0:0:0:0:
44,240,22565,1,0,0:0:0:0:
44,240,22672,2,0,L|32:88,2,150,8|8|8,0:0|0:0|0:0,0:0:0:0:
192,204,23315,1,0,0:0:0:0:
192,204,23422,1,0,0:0:0:0:
192,204,23529,2,0,L|180:356,2,150,8|8|8,0:0|0:0|0:0,0:0:0:0:
296,96,24172,5,0,0:0:0:0:
296,96,24279,1,0,0:0:0:0:
296,96,24386,2,0,L|448:112,2,150,8|8|8,0:0|0:0|0:0,0:0:0:0:
336,240,25029,1,0,0:0:0:0:
336,240,25136,1,0,0:0:0:0:
336,240,25243,2,0,L|184:256,2,150,8|8|8,0:0|0:0|0:0,0:0:0:0:
452,144,25887,6,0,L|444:68,1,75,4|0,0:0|0:0,0:0:0:0:
376,128,26101,2,0,L|368:52,1,75,8|0,0:0|0:0,0:0:0:0:
300,112,26315,2,0,L|292:36,1,75,8|8,0:0|0:0,0:0:0:0:
224,96,26529,2,0,L|216:20,1,75,0|8,0:0|0:0,0:0:0:0:
252,172,26744,6,0,L|244:248,1,75
176,188,26958,2,0,L|168:264,1,75,8|0,0:0|0:0,0:0:0:0:
100,204,27172,2,0,L|92:280,1,75,8|8,0:0|0:0,0:0:0:0:
24,220,27386,2,0,L|16:296,1,75,0|8,0:0|0:0,0:0:0:0:
52,148,27601,6,0,L|44:72,2,75,8|8|8,0:0|0:0|0:0,0:0:0:0:
152,264,28029,1,8,0:0:0:0:
152,264,28137,2,0,P|224:268|304:240,1,150,8|0,0:0|0:0,0:0:0:0:
348,188,28458,6,0,L|356:344,1,150,12|0,0:0|0:0,0:0:0:0:
428,348,28779,2,0,L|420:192,1,150,12|0,0:0|0:0,0:0:0:0:
396,128,29101,1,12,0:0:0:0:
272,44,29315,6,0,L|36:16,2,225,4|4|4,0:0|0:0|0:0,0:0:0:0:
240,192,30172,2,0,L|476:164,2,225,4|4|4,0:0|0:0|0:0,0:0:0:0:
240,192,31244,6,0,L|272:44,2,150,4|4|4,0:0|0:0|0:0,0:0:0:0:
160,320,31887,6,0,L|4:336,1,150,8|0,0:0|0:0,0:0:0:0:
16,260,32208,2,0,L|172:244,1,150,8|0,0:0|0:0,0:0:0:0:
228,292,32529,1,8,0:0:0:0:
228,292,32744,6,0,P|284:352|348:368,1,150,4|0,0:0|0:0,0:0:0:0:
480,300,33172,2,0,P|503:221|485:158,1,150,8|0,0:0|0:0,0:0:0:0:
356,76,33601,2,0,P|276:94|230:141,1,150,8|0,0:0|0:0,0:0:0:0:
216,216,33922,1,0,0:0:0:0:
160,168,34029,2,0,P|78:158|19:186,1,150,8|0,0:0|0:0,0:0:0:0:
0,260,34351,1,0,0:0:0:0:
0,260,34458,6,0,P|32:335|86:372,1,150,8|0,0:0|0:0,0:0:0:0:
161,347,34779,1,0,0:0:0:0:
161,347,34887,2,0,P|210:281|215:215,1,150,8|0,0:0|0:3,0:3:0:0:
288,192,35208,1,0,0:0:0:0:
288,192,35315,6,2,L|448:212,1,150,2|0,0:0|0:0,0:0:0:0:
484,268,35637,2,0,P|480:304|464:344,1,75
400,376,35851,1,0,0:0:0:0:
340,332,35958,2,0,P|304:320|264:316,1,75,8|0,0:0|0:0,0:0:0:0:
196,340,36172,6,0,L|204:184,1,150,6|0,0:0|0:0,0:0:0:0:
256,136,36494,2,0,P|308:128|400:160,1,150,8|8,0:0|0:0,0:0:0:0:
432,232,36815,1,2,0:0:0:0:
432,232,37029,6,0,L|424:76,1,150,2|0,0:0|0:0,0:0:0:0:
372,28,37351,2,0,P|320:20|228:52,1,150,10|8,0:0|0:0,0:0:0:0:
192,116,37672,1,0,0:0:0:0:
200,268,37887,5,0,0:0:0:0:
260,312,37994,1,8,0:0:0:0:
328,284,38101,2,0,P|396:300|440:364,2,150,2|2|0,0:0|0:0|0:0,0:0:0:0:
176,344,38744,6,0,P|108:328|64:264,1,150,2|8,0:0|0:0,0:0:0:0:
152,144,39172,1,0,0:0:0:0:
152,144,39279,2,0,P|220:160|264:224,1,150,8|8,0:0|0:0,0:0:0:0:
276,296,39601,5,4,0:0:0:0:
340,332,39708,1,0,0:0:0:0:
408,300,39815,2,0,L|424:148,2,150,2|2|2,0:0|0:0|0:0,0:0:0:0:
276,372,40458,6,0,L|120:352,1,150,2|0,0:0|0:0,0:0:0:0:
68,304,40779,1,8,0:0:0:0:
136,276,40887,2,0,L|292:256,1,150,2|0,0:0|0:0,0:0:0:0:
420,188,41315,6,0,P|436:152|444:112,1,75,8|0,0:0|0:0,0:0:0:0:
408,52,41529,2,0,P|372:36|332:28,1,75,2|0,0:0|0:0,0:0:0:0:
272,68,41744,2,0,P|256:104|248:144,1,75,2|0,0:0|0:0,0:0:0:0:
284,204,41958,2,0,P|320:220|360:228,1,75,2|0,0:0|0:0,0:0:0:0:
420,268,42172,6,0,P|380:336|308:360,1,150,2|0,0:0|0:0,0:0:0:0:
244,340,42494,2,0,L|236:260,2,75,0|2|0,0:0|0:0|0:0,0:0:0:0:
172,364,42815,1,8,0:0:0:0:
36,308,43029,6,0,L|24:156,1,150,8|8,0:0|0:0,0:0:0:0:
160,92,43458,2,0,L|172:244,1,150,8|8,0:0|0:0,0:0:0:0:
308,300,43887,2,0,L|296:148,1,150,8|8,0:0|0:0,0:0:0:0:
364,116,44208,1,0,0:0:0:0:
432,84,44316,2,0,L|444:236,1,150,8|8,0:0|0:0,0:0:0:0:
376,268,44637,1,0,0:0:0:0:
308,300,44744,6,0,L|232:308,1,75,8|0,0:0|0:0,0:0:0:0:
168,348,44958,2,0,L|92:356,1,75,8|0,0:0|0:0,0:0:0:0:
68,284,45172,2,0,L|144:276,1,75,8|0,0:0|0:0,0:0:0:0:
208,236,45386,2,0,L|284:228,1,75,8|0,0:0|0:0,0:0:0:0:
356,244,45601,6,0,P|388:256|427:263,3,75,8|0|8|0,0:0|0:0|0:0|0:0,0:0:0:0:
492,220,46029,2,0,L|500:120,2,100,2|2|2,0:0|0:0|0:0,0:0:0:0:
404,168,46458,6,0,L|392:16,1,150
240,12,46887,2,0,L|252:164,1,150,0|8,0:0|0:0,0:0:0:0:
232,232,47208,1,8,0:0:0:0:
172,272,47315,2,0,P|100:280|28:248,1,150,8|0,0:0|0:0,0:0:0:0:
40,100,47744,2,0,P|112:92|184:124,1,150,0|8,0:0|0:0,0:0:0:0:
304,212,48172,6,0,P|371:241|445:234,1,150
496,176,48494,1,0,0:0:0:0:
488,100,48601,1,0,0:0:0:0:
436,48,48708,1,0,0:0:0:0:
360,36,48815,1,0,0:0:0:0:
296,72,48922,1,0,0:0:0:0:
268,140,49029,1,8,0:0:0:0:
452,372,49458,6,0,L|504:380,6,50,2|0|0|0|0|0|4,0:0|0:0|0:0|0:0|0:0|0:0|0:0,0:0:0:0:
296,56,56744,6,0,B|196:68|196:68|140:44,1,157.499995193482,4|0,0:0|0:0,0:0:0:0:
96,24,57172,1,8,0:0:0:0:
20,100,57387,1,0,0:0:0:0:
68,192,57601,2,0,B|168:180|168:180|224:204,1,157.499995193482,4|0,0:0|0:0,0:0:0:0:
268,224,58029,1,8,0:0:0:0:
344,152,58244,1,0,0:0:0:0:
368,256,58458,6,0,L|376:368,1,104.999996795654,4|0,0:0|0:0,0:0:0:0:
328,380,58779,1,0,0:0:0:0:
276,376,58887,1,8,0:0:0:0:
232,348,58994,1,0,0:0:0:0:
208,304,59101,2,0,P|176:300|152:300,1,52.4999983978272
104,312,59315,6,0,P|60:284|32:240,1,104.999996795654,12|0,0:0|0:0,0:0:0:0:
16,188,59637,2,0,P|18:135|42:89,1,104.999996795654,12|0,0:0|0:0,0:0:0:0:
88,64,59958,1,12,0:0:0:0:
192,44,60172,6,0,P|240:100|316:132,1,157.499995193482,4|0,0:0|0:0,0:0:0:0:
368,136,60601,1,8,0:0:0:0:
452,68,60815,1,0,0:0:0:0:
476,172,61029,2,0,P|428:228|352:260,1,157.499995193482,4|0,0:0|0:0,0:0:0:0:
300,264,61458,1,8,0:0:0:0:
220,192,61672,1,0,0:0:0:0:
220,192,61887,6,0,L|212:356,1,157.499995193482,4|0,0:0|0:0,0:0:0:0:
168,376,62315,2,0,P|116:372|44:292,1,157.499995193482,8|0,0:0|0:0,0:0:0:0:
92,272,62744,6,0,P|124:236|140:176,1,104.999996795654,12|0,0:0|0:0,0:0:0:0:
100,148,63065,2,0,P|68:112|52:52,1,104.999996795654,12|0,0:0|0:0,0:0:0:0:
96,28,63387,1,12,0:0:0:0:
200,8,63601,6,0,L|356:28,2,157.499995193482,4|4|4,0:0|0:0|0:0,0:0:0:0:
220,112,64458,2,0,L|64:132,2,157.499995193482,4|4|4,0:0|0:0|0:0,0:0:0:0:
220,112,65529,6,0,L|200:8,2,104.999996795654,4|4|4,0:0|0:0|0:0,0:0:0:0:
304,176,66172,5,8,0:0:0:0:
356,172,66279,1,8,0:0:0:0:
408,168,66387,2,0,P|440:172|464:180,1,52.4999983978272
504,304,66601,5,8,0:0:0:0:
468,308,66672,1,8,0:0:0:0:
432,312,66744,1,8,0:0:0:0:
396,312,66816,2,0,P|364:308|340:300,1,52.4999983978272
264,260,67029,6,0,P|180:272|108:372,1,209.999993591309,0|4,0:0|0:0,0:0:0:0:
28,172,67887,6,0,L|24:60,1,104.999996795654,8|0,0:0|0:0,0:0:0:0:
120,20,68315,2,0,L|116:64,5,34.9999989318848,8|0|2|0|2|0,0:0|0:0|0:0|0:0|0:0|0:0,0:0:0:0:
140,84,68744,6,2,B|248:112|240:40|344:64,1,209.999993591309,2|10,0:0|0:0,0:0:0:0:
432,120,69387,1,0,0:0:0:0:
472,216,69601,2,0,L|476:260,6,34.9999989318848,10|0|0|0|0|0|10,0:0|0:0|0:0|0:0|0:0|0:0|0:0,0:0:0:0:
268,168,70458,6,0,L|260:276,1,104.999996795654,4|0,0:0|0:0,0:0:0:0:
156,288,70887,2,0,L|164:180,1,104.999996795654,8|0,0:0|0:0,0:0:0:0:
212,92,71315,2,0,P|256:72|312:84,1,104.999996795654
348,120,71637,1,0,0:0:0:0:
400,132,71744,1,8,0:0:0:0:
448,112,71851,1,0,0:0:0:0:
480,68,71958,1,0,0:0:0:0:
384,24,72172,6,0,L|272:32,1,104.999996795654
204,104,72601,2,0,L|92:96,1,104.999996795654,8|0,0:0|0:0,0:0:0:0:
36,12,73029,1,0,0:0:0:0:
0,112,73244,1,0,0:0:0:0:
8,164,73351,1,0,0:0:0:0:
16,216,73458,2,0,P|20:268|8:324,1,104.999996795654,8|0,0:0|0:0,0:0:0:0:
112,348,73887,6,0,P|108:296|120:240,1,104.999996795654,4|0,0:0|0:0,0:0:0:0:
152,204,74208,1,0,0:0:0:0:
204,192,74315,2,0,P|208:244|196:300,1,104.999996795654,8|0,0:0|0:0,0:0:0:0:
280,360,74744,2,0,L|396:368,1,104.999996795654
432,344,75065,1,0,0:0:0:0:
480,320,75172,1,8,0:0:0:0:
496,216,75387,1,0,0:0:0:0:
416,148,75601,5,0,0:0:0:0:
364,160,75708,1,0,0:0:0:0:
316,144,75815,1,0,0:0:0:0:
284,104,75922,1,0,0:0:0:0:
272,52,76029,2,0,L|160:40,1,104.999996795654,8|0,0:0|0:0,0:0:0:0:
72,88,76458,5,0,0:0:0:0:
72,88,76565,2,0,P|88:136|92:192,1,104.999996795654,8|0,0:0|0:0,0:0:0:0:
52,228,76887,2,0,P|36:276|32:332,1,104.999996795654,10|4,0:0|0:0,0:0:0:0:
128,372,77315,6,0,P|144:324|148:268,1,104.999996795654,6|0,0:0|0:0,0:0:0:0:
124,168,77744,2,0,P|108:120|104:64,1,104.999996795654,8|0,0:0|0:0,0:0:0:0:
196,16,78172,1,0,0:0:0:0:
280,80,78387,1,0,0:0:0:0:
332,88,78494,1,0,0:0:0:0:
384,96,78601,1,8,0:0:0:0:
436,104,78708,1,0,0:0:0:0:
488,112,78815,1,0,0:0:0:0:
508,216,79029,6,0,L|404:228,1,104.999996795654
356,320,79458,2,0,L|460:332,1,104.999996795654,8|0,0:0|0:0,0:0:0:0:
296,236,79887,1,0,0:0:0:0:
256,332,80101,1,0,0:0:0:0:
256,332,80208,1,0,0:0:0:0:
256,332,80315,2,0,L|152:344,1,104.999996795654,8|0,0:0|0:0,0:0:0:0:
56,296,80744,6,0,P|36:252|28:196,1,104.999996795654,4|0,0:0|0:0,0:0:0:0:
44,148,81065,1,0,0:0:0:0:
84,112,81172,1,8,0:0:0:0:
136,108,81279,1,0,0:0:0:0:
184,132,81387,1,0,0:0:0:0:
224,232,81601,5,0,0:0:0:0:
276,224,81708,1,0,0:0:0:0:
316,188,81815,2,0,L|320:132,1,52.4999983978272,2|0,0:0|0:0,0:0:0:0:
376,84,82029,5,8,0:0:0:0:
428,92,82136,1,0,0:0:0:0:
468,128,82243,2,0,L|472:184,1,52.4999983978272,2|0,0:0|0:0,0:0:0:0:
436,244,82458,6,0,P|432:300|444:356,1,104.999996795654
308,384,82887,2,0,P|312:328|300:272,1,104.999996795654,8|0,0:0|0:0,0:0:0:0:
268,240,83208,1,0,0:0:0:0:
216,228,83315,5,0,0:0:0:0:
168,244,83422,2,0,P|112:260|64:252,1,104.999996795654,8|0,0:0|0:0,0:0:0:0:
24,220,83744,2,0,L|16:112,1,104.999996795654,8|0,0:0|0:0,0:0:0:0:
92,40,84172,5,0,0:0:0:0:
144,48,84279,1,0,0:0:0:0:
196,56,84387,1,0,0:0:0:0:
256,144,84601,1,8,0:0:0:0:
308,136,84708,1,0,0:0:0:0:
360,128,84816,1,0,0:0:0:0:
416,40,85029,5,8,0:0:0:0:
464,60,85137,1,8,0:0:0:0:
488,108,85244,1,0,0:0:0:0:
488,160,85351,1,0,0:0:0:0:
460,204,85458,2,0,P|448:232|444:260,1,52.4999983978272
476,292,85672,2,0,P|488:320|492:348,1,52.4999983978272
448,372,85887,6,0,P|388:376|304:268,1,209.999993591309
432,100,86744,2,0,L|464:104,8,26.2499991989136,8|2|0|2|0|2|0|2|8,0:0|0:0|0:0|0:0|0:0|0:0|0:0|0:0|0:0,0:0:0:0:
224,68,87601,1,4,0:0:0:0:
56,48,94458,6,0,L|44:200,1,150,8|8,0:0|0:0,0:0:0:0:
184,256,94887,2,0,L|196:104,1,150,8|8,0:0|0:0,0:0:0:0:
324,28,95315,2,0,P|360:40|392:64,1,75,8|0,0:0|0:0,0:0:0:0:
428,128,95529,2,0,P|435:165|430:204,1,75,8|0,0:0|0:0,0:0:0:0:
388,264,95744,2,8,P|324:300|248:296,1,150
184,256,96065,1,0,0:0:0:0:
180,332,96172,6,0,L|104:340,1,75,8|0,0:0|0:0,0:0:0:0:
32,324,96387,1,0,0:0:0:0:
32,324,96494,1,0,0:0:0:0:
72,260,96601,2,0,P|76:220|68:184,1,75,8|0,0:0|0:0,0:0:0:0:
24,128,96815,1,0,0:0:0:0:
24,128,96922,1,0,0:0:0:0:
96,116,97029,6,2,P|168:120|236:84,1,150,2|0,0:0|0:0,0:0:0:0:
284,28,97351,2,0,L|364:24,1,75
416,76,97565,1,0,0:0:0:0:
344,100,97672,2,0,P|344:136|352:176,1,75,8|0,0:0|0:0,0:0:0:0:
388,240,97887,6,0,P|316:236|248:272,1,150,6|0,0:0|0:0,0:0:0:0:
208,336,98208,2,0,P|136:340|68:304,1,150,8|8,0:0|0:0,0:0:0:0:
48,232,98529,1,0,0:0:0:0:
48,232,98744,6,0,L|44:80,1,150,2|0,0:0|0:0,0:0:0:0:
116,64,99065,2,0,L|120:216,1,150,10|8,0:0|0:0,0:0:0:0:
184,256,99387,1,0,0:0:0:0:
328,212,99601,5,0,0:0:0:0:
372,152,99708,1,8,0:0:0:0:
296,144,99815,2,0,P|268:92|276:0,2,150,2|0|2,0:0|0:0|0:0,0:0:0:0:
432,208,100458,6,0,P|460:260|452:352,1,150,2|12,0:0|0:0,0:0:0:0:
384,376,100779,1,0,0:0:0:0:
324,328,100887,2,0,L|236:320,1,75
184,360,101101,2,0,L|96:368,1,75,12|0,0:0|0:0,0:0:0:0:
44,332,101315,5,0,0:0:0:0:
44,332,101422,1,8,0:0:0:0:
44,332,101529,2,0,B|20:260|20:260|32:184,2,150,2|2|2,0:0|0:0|0:0,0:0:0:0:
172,252,102172,6,0,B|183:178|183:178|159:106,1,150,2|0,0:0|0:0,0:0:0:0:
88,76,102494,1,8,0:0:0:0:
148,32,102601,2,0,B|200:40|200:40|240:28|240:28|296:36,1,150,2|0,0:0|0:0,0:0:0:0:
396,144,103029,6,0,L|320:156,1,75,8|0,0:0|0:0,0:0:0:0:
264,204,103244,1,2,0:0:0:0:
264,204,103351,1,0,0:0:0:0:
332,232,103458,6,0,L|408:244,1,75,10|0,0:0|0:0,0:0:0:0:
468,292,103673,1,2,0:0:0:0:
468,292,103780,1,0,0:0:0:0:
396,320,103887,6,0,P|320:328|248:352,1,150,10|0,0:0|0:0,0:0:0:0:
180,376,104208,2,0,P|144:372|100:360,1,75,10|0,0:0|0:0,0:0:0:0:
48,316,104422,1,0,0:0:0:0:
28,244,104529,1,8,0:0:0:0:
88,104,104744,6,0,L|244:92,1,150,8|8,0:0|0:0,0:0:0:0:
320,216,105172,2,0,L|476:228,1,150,8|8,0:0|0:0,0:0:0:0:
420,368,105601,2,0,L|312:360,1,75,8|0,0:0|0:0,0:0:0:0:
292,312,105815,2,0,L|184:320,1,75,8|0,0:0|0:0,0:0:0:0:
160,364,106029,2,0,P|84:360|32:308,1,150,8|8,0:0|0:0,0:0:0:0:
20,236,106351,1,0,0:0:0:0:
68,180,106458,6,0,P|76:140|72:104,1,75,8|0,0:0|0:0,0:0:0:0:
24,48,106672,1,8,0:0:0:0:
24,48,106779,1,0,0:0:0:0:
100,36,106887,2,0,L|180:44,1,75,8|0,0:0|0:0,0:0:0:0:
248,76,107101,1,8,0:0:0:0:
248,76,107208,1,0,0:0:0:0:
276,144,107315,6,0,L|284:196,3,50,8|8|8|0,0:0|0:0|0:0|0:0,0:0:0:0:
392,88,107744,2,0,L|400:36,3,50,0|0|0|8,0:0|0:0|0:0|0:0,0:0:0:0:
496,156,108172,6,0,P|480:248|492:304,1,150,6|8,0:0|0:0,0:0:0:0:
444,364,108494,1,0,0:0:0:0:
368,372,108601,1,0,0:0:0:0:
304,332,108708,2,0,P|290:239|262:190,1,150,8|8,0:0|0:0,0:0:0:0:
196,160,109029,5,0,0:0:0:0:
120,164,109137,1,0,0:0:0:0:
56,204,109244,2,0,P|40:280|48:352,1,150,8|0,0:0|0:0,0:0:0:0:
112,384,109565,2,0,P|128:308|120:236,1,150,8|0,0:0|0:0,0:0:0:0:
88,140,109887,6,0,L|96:84,2,50,8|0|0,0:0|0:0|0:0,0:0:0:0:
120,164,110101,2,0,L|196:160,1,75,8|0,0:0|0:0,0:0:0:0:
248,108,110315,1,0,0:0:0:0:
248,108,110422,2,0,L|324:112,2,75,8|0|0,0:0|0:0|0:0,0:0:0:0:
272,180,110744,5,12,0:0:0:0:
272,180,111172,6,0,L|328:192,5,50,2|0|0|0|0|0,0:0|0:0|0:0|0:0|0:0|0:0,0:0:0:0:
360,160,111601,6,0,P|440:204|472:320,1,209.999993591309,12|12,0:0|0:0,0:0:0:0:
384,368,112244,1,0,0:0:0:0:
384,368,112458,2,0,B|304:372|304:372|268:340|268:340|180:344,1,209.999993591309,12|12,0:0|0:0,0:0:0:0:
104,280,113101,2,0,P|140:244|196:228,1,104.999996795654,12|0,0:0|0:0,0:0:0:0:
296,244,113529,6,0,P|345:228|382:192,1,104.999996795654,12|8,0:0|0:0,0:0:0:0:
404,88,113958,1,4,0:0:0:0:
484,156,114172,2,0,L|488:264,1,104.999996795654,12|0,0:0|0:0,0:0:0:0:
436,276,114494,2,0,P|386:291|349:327,1,104.999996795654,12|0,0:0|0:0,0:0:0:0:
328,376,114815,1,12,0:0:0:0:
232,336,115029,6,0,L|244:176,1,157.499995193482,12|0,0:0|0:0,0:0:0:0:
204,144,115458,2,0,P|168:112|152:56,1,104.999996795654,12|0,0:0|0:0,0:0:0:0:
48,72,115887,6,0,L|36:232,1,157.499995193482,12|0,0:0|0:0,0:0:0:0:
76,264,116316,2,0,P|112:296|128:352,1,104.999996795654,12|0,0:0|0:0,0:0:0:0:
232,336,116744,6,0,L|240:228,1,75,8|0,0:0|0:0,0:0:0:0:
296,212,116958,1,0,0:0:0:0:
368,232,117065,2,0,P|408:232|444:208,1,75,8|0,0:0|0:0,0:0:0:0:
388,160,117279,1,0,0:0:0:0:
316,140,117387,2,0,P|276:140|240:164,1,75,8|0,0:0|0:0,0:0:0:0:
220,228,117601,5,8,0:0:0:0:
152,256,117708,1,0,0:0:0:0:
80,232,117815,1,0,0:0:0:0:
12,260,117922,2,0,P|12:300|16:336,1,75,8|0,0:0|0:0,0:0:0:0:
88,364,118137,1,0,0:0:0:0:
156,332,118244,1,8,0:0:0:0:
136,184,118458,6,0,P|128:104|172:40,1,157.499995193482,4|0,0:0|0:0,0:0:0:0:
220,32,118887,2,0,L|336:44,1,104.999996795654,8|0,0:0|0:0,0:0:0:0:
404,112,119315,2,0,P|412:192|368:256,1,157.499995193482,4|0,0:0|0:0,0:0:0:0:
320,264,119744,2,0,L|204:252,1,104.999996795654,8|0,0:0|0:0,0:0:0:0:
112,268,120172,5,4,0:0:0:0:
176,352,120387,1,0,0:0:0:0:
228,336,120494,1,0,0:0:0:0:
280,336,120601,1,8,0:0:0:0:
328,352,120708,1,0,0:0:0:0:
372,380,120815,2,0,P|400:368|424:352,1,52.4999983978272
440,308,121029,6,0,P|448:260|468:204,1,104.999996795654,12|0,0:0|0:0,0:0:0:0:
496,164,121351,2,0,P|488:116|468:60,1,104.999996795654,12|0,0:0|0:0,0:0:0:0:
428,32,121672,1,12,0:0:0:0:
324,16,121887,6,0,L|160:32,1,157.499995193482,4|0,0:0|0:0,0:0:0:0:
116,36,122315,1,8,0:0:0:0:
56,120,122529,1,0,0:0:0:0:
160,132,122744,2,0,L|324:148,1,157.499995193482,4|0,0:0|0:0,0:0:0:0:
368,152,123172,1,8,0:0:0:0:
428,240,123387,2,0,P|432:272|440:296,1,52.4999983978272
480,324,123601,6,0,P|424:320|376:340,1,104.999996795654,8|0,0:0|0:0,0:0:0:0:
336,368,123922,1,0,0:0:0:0:
284,376,124029,2,0,P|252:368|232:356,1,52.4999983978272,8|0,0:0|0:0,0:0:0:0:
204,316,124244,2,0,P|194:284|195:260,1,52.4999983978272
216,216,124458,6,0,P|224:164|212:112,1,104.999996795654,8|0,0:0|0:0,0:0:0:0:
176,76,124779,1,0,0:0:0:0:
124,60,124887,1,8,0:0:0:0:
28,100,125101,1,8,0:0:0:0:
32,152,125208,1,8,0:0:0:0:
36,204,125315,6,0,L|52:364,2,157.499995193482,4|4|4,0:0|0:0|0:0,0:0:0:0:
140,184,126172,2,0,L|156:24,2,157.499995193482,4|4|4,0:0|0:0|0:0,0:0:0:0:
140,184,127244,6,0,L|36:204,2,104.999996795654,4|4|4,0:0|0:0|0:0,0:0:0:0:
244,164,127887,6,0,P|276:188|308:248,1,104.999996795654,8|0,0:0|0:0,0:0:0:0:
324,296,128208,2,0,L|376:304,1,52.4999983978272
424,280,128422,1,0,0:0:0:0:
448,232,128529,1,8,0:0:0:0:
392,144,128744,6,0,P|360:120|328:60,3,104.999996795654,4|0|0|0,0:0|0:0|0:0|0:0,0:0:0:0:
424,0,129601,2,0,P|456:24|488:84,1,104.999996795654
488,184,130029,6,0,L|492:232,5,34.9999989318848,8|2|0|2|0|2,0:0|0:0|0:0|0:0|0:0|0:0,0:0:0:0:
472,248,130458,6,0,P|368:280|304:360,1,209.999993591309,0|4,0:0|0:0,0:0:0:0:
204,328,131101,1,0,0:0:0:0:
148,240,131315,6,0,L|144:192,6,34.9999989318848,10|0|0|0|0|0|10,0:0|0:0|0:0|0:0|0:0|0:0|0:0,0:0:0:0:
336,144,132172,6,0,L|460:156,1,104.999996795654,4|0,0:0|0:0,0:0:0:0:
468,256,132601,2,0,L|344:244,1,104.999996795654,8|0,0:0|0:0,0:0:0:0:
264,216,133029,1,0,0:0:0:0:
292,316,133244,1,0,0:0:0:0:
252,352,133351,1,0,0:0:0:0:
200,364,133458,1,8,0:0:0:0:
148,352,133565,1,0,0:0:0:0:
108,320,133672,2,0,L|100:264,1,52.4999983978272
124,220,133887,6,0,P|160:192|192:140,1,104.999996795654
120,68,134315,2,0,P|84:96|52:148,1,104.999996795654,8|0,0:0|0:0,0:0:0:0:
28,248,134744,1,0,0:0:0:0:
108,320,134958,1,0,0:0:0:0:
160,332,135065,1,0,0:0:0:0:
212,344,135172,2,0,L|220:288,2,52.4999983978272,8|0|0,0:0|0:0|0:0,0:0:0:0:
316,332,135601,6,0,L|332:216,1,104.999996795654,4|0,0:0|0:0,0:0:0:0:
292,196,135922,1,0,0:0:0:0:
292,196,136029,2,0,L|276:80,1,104.999996795654,8|0,0:0|0:0,0:0:0:0:
360,28,136458,5,0,0:0:0:0:
412,40,136565,1,0,0:0:0:0:
448,80,136672,2,0,P|456:104|460:132,1,52.4999983978272
400,180,136887,5,8,0:0:0:0:
348,192,136994,1,0,0:0:0:0:
312,232,137101,2,0,P|304:256|300:284,1,52.4999983978272
344,348,137315,6,0,P|392:356|448:336,1,104.999996795654,0|12,0:0|0:0,0:0:0:0:
488,244,137744,2,0,P|440:236|384:256,1,104.999996795654
344,348,138172,1,0,0:0:0:0:
344,348,138279,2,0,L|232:356,1,104.999996795654,8|0,0:0|0:0,0:0:0:0:
192,332,138601,2,0,P|200:280|184:228,1,104.999996795654,10|4,0:0|0:0,0:0:0:0:
120,148,139029,5,6,0:0:0:0:
72,244,139244,2,0,P|64:296|80:348,2,104.999996795654,0|8|0,0:0|0:0|0:0,0:0:0:0:
120,148,139887,2,0,P|128:96|112:44,1,104.999996795654
64,32,140208,1,0,0:0:0:0:
20,56,140315,1,8,0:0:0:0:
4,108,140422,1,0,0:0:0:0:
24,156,140529,2,0,P|28:180|24:208,1,52.4999983978272
4,256,140744,6,0,L|8:360,1,104.999996795654
112,376,141172,2,0,L|108:272,1,104.999996795654,8|0,0:0|0:0,0:0:0:0:
200,220,141601,2,0,P|252:228|296:264,1,104.999996795654
312,308,141922,1,0,0:0:0:0:
308,360,142029,1,8,0:0:0:0:
412,344,142244,2,0,L|416:288,1,52.4999983978272,4|0,0:0|0:0,0:0:0:0:
392,244,142458,6,0,P|380:192|388:136,1,104.999996795654,4|0,0:0|0:0,0:0:0:0:
444,56,142887,1,8,0:0:0:0:
340,44,143101,1,0,0:0:0:0:
288,48,143208,1,0,0:0:0:0:
236,52,143315,1,0,0:0:0:0:
184,56,143422,1,0,0:0:0:0:
132,60,143529,2,0,P|80:56|32:36,2,104.999996795654,2|0|2,0:0|0:0|0:0,0:0:0:0:
180,156,144172,6,0,L|172:208,3,52.4999983978272,12|8|0|0,0:0|0:0|0:0|0:0,0:0:0:0:
132,244,144601,1,8,0:0:0:0:
32,268,144815,2,0,L|40:320,3,52.4999983978272,8|8|0|0,0:0|0:0|0:0|0:0,0:0:0:0:
80,356,145244,1,0,0:0:0:0:
184,368,145458,1,0,0:0:0:0:
232,344,145565,1,0,0:0:0:0:
280,320,145672,1,0,0:0:0:0:
352,236,145887,6,0,L|360:72,1,150,4|0,0:0|0:0,0:0:0:0:
504,44,146744,2,0,L|496:208,1,150,12|0,0:0|0:0,0:0:0:0:
492,268,147387,1,0,0:0:0:0:
436,316,147601,6,0,P|368:320|300:372,1,150,4|0,0:0|0:0,0:0:0:0:
232,340,148244,1,0,0:0:0:0:
272,276,148458,2,0,P|280:240|276:200,1,75,12|0,0:0|0:0,0:0:0:0:
164,300,148887,2,0,P|156:336|160:376,1,75,0|0,0:0|0:0,0:0:0:0:
204,232,149315,6,0,P|156:220|88:284,1,150,4|0,0:0|0:0,0:0:0:0:
24,148,150172,2,0,P|95:153|139:96,1,150,12|0,0:0|0:0,0:0:0:0:
116,24,150815,1,4,0:0:0:0:
64,80,151029,5,4,0:0:0:0:
139,95,151244,2,0,P|215:103|291:79,1,150
304,64,151744,1,0,0:0:0:0:
328,56,151815,1,0,0:0:0:0:
352,60,151887,6,0,L|392:72,5,25,12|0|0|0|0|0,0:0|0:0|0:0|0:0|0:0|0:0,0:0:0:0:
392,84,152315,2,0,L|400:112,5,25,8|8|8|0|0|0,0:0|0:0|0:0|0:0|0:0|0:0,0:0:0:0:
400,132,152744,6,0,P|392:208|420:288,1,150,4|0,0:0|0:0,0:0:0:0:
280,348,153601,2,0,L|168:360,2,112.5,12|0|0,0:0|0:0|0:0,0:0:0:0:
332,296,154458,5,8,0:0:0:0:
260,276,154672,2,0,P|188:264|128:216,1,150,8|0,0:0|0:0,0:0:0:0:
116,196,155172,1,0,0:0:0:0:
96,184,155244,1,0,0:0:0:0:
72,176,155315,6,0,L|-4:184,2,75,8|0|8,0:0|0:0|0:0,0:0:0:0:
96,148,155851,2,0,P|104:112|100:72,1,75,0|4,0:0|0:0,0:0:0:0:
72,48,156172,6,0,P|156:60|216:28,1,150,4|8,0:0|0:0,0:0:0:0:
272,76,156815,1,0,0:0:0:0:
264,152,157029,2,0,P|180:140|120:172,1,150,12|0,0:0|0:0,0:0:0:0:
64,124,157672,1,8,0:0:0:0:
68,216,157887,5,0,0:0:0:0:
68,216,157994,1,0,0:0:0:0:
68,216,158101,1,0,0:0:0:0:
68,216,158208,1,0,0:0:0:0:
68,216,158315,2,0,L|64:268,1,37.5,10|8,0:0|0:0,0:0:0:0:
116,312,158529,2,0,L|120:364,1,37.5
204,312,158744,5,2,0:0:0:0:
204,312,158851,1,0,0:0:0:0:
204,312,158958,1,8,0:0:0:0:
204,312,159065,1,8,0:0:0:0:
204,312,159172,2,0,L|200:260,1,37.5,2|0,0:0|0:0,0:0:0:0:
252,216,159386,2,0,L|256:164,1,37.5
184,116,159601,6,0,L|132:108,3,44.999998626709,2|0|0|0,0:0|0:0|0:0|0:0,0:0:0:0:
256,104,160029,2,0,L|308:96,3,44.999998626709,8|0|0|0,0:0|0:0|0:0|0:0,0:0:0:0:
192,44,160458,2,0,L|140:36,3,44.999998626709
264,32,160886,2,0,L|316:24,3,44.999998626709,8|0|0|0,0:0|0:0|0:0|0:0,0:0:0:0:
456,88,161315,6,0,L|460:156,3,60
384,180,161744,2,0,L|380:112,3,60,8|0|0|0,0:0|0:0|0:0|0:0,0:0:0:0:
464,224,162172,2,0,L|468:292,3,60
392,316,162601,2,0,L|388:248,3,60,8|0|4|0,0:0|0:0|0:0|0:0,0:0:0:0:
292,208,163029,6,0,L|232:200,5,50
196,220,163458,1,8,0:0:0:0:
144,360,163672,6,0,L|204:368,2,50
104,332,163887,1,8,0:0:0:0:
56,192,164101,6,0,L|-4:200,2,50
96,164,164316,1,8,0:0:0:0:
168,32,164529,6,0,L|228:40,2,50
120,52,164744,5,8,0:0:0:0:
124,100,164815,1,0,0:0:0:0:
128,152,164887,1,0,0:0:0:0:
132,200,164958,1,0,0:0:0:0:
260,280,165172,5,8,0:0:0:0:
264,232,165243,1,0,0:0:0:0:
268,180,165315,1,0,0:0:0:0:
272,132,165386,1,0,0:0:0:0:
392,44,165601,6,0,L|492:56,2,100,8|8|8,0:0|0:0|0:0,0:0:0:0:
324,120,166029,2,0,L|224:132,2,100,8|8|8,0:0|0:0|0:0,0:0:0:0:
428,140,166458,6,0,P|424:204|384:288,1,157.499995193482,4|0,0:0|0:0,0:0:0:0:
256,380,167101,1,0,0:0:0:0:
256,380,167172,1,0,0:0:0:0:
256,380,167244,1,0,0:0:0:0:
256,380,167315,1,12,0:0:0:0:
127,287,167637,2,0,P|91:217|84:140,1,157.499995193482,12|12,0:0|0:0,0:0:0:0:
256,20,168387,5,12,0:0:0:0:
356,48,168601,1,12,0:0:0:0:
284,124,168815,2,0,L|240:132,3,34.9999989318848,0|0|0|12,0:0|0:0|0:0|0:0,0:0:0:0:
160,72,169244,2,0,L|116:64,3,34.9999989318848,0|0|0|12,0:0|0:0|0:0|0:0,0:0:0:0:
28,108,169672,1,12,0:0:0:0:
4,212,169887,6,0,P|24:304|64:352,1,157.499995193482,12|0,0:0|0:0,0:0:0:0:
204,280,170529,1,0,0:0:0:0:
204,280,170744,2,0,P|184:188|144:140,2,157.499995193482,12|0|0,0:0|0:0|0:0,0:0:0:0:
292,336,171601,5,8,0:0:0:0:
364,352,171708,1,0,0:0:0:0:
412,296,171815,1,0,0:0:0:0:
340,280,171922,2,0,L|328:208,1,52.4999983978272,8|0,0:0|0:0,0:0:0:0:
284,172,172137,1,0,0:0:0:0:
356,156,172244,2,0,L|368:84,1,52.4999983978272,8|0,0:0|0:0,0:0:0:0:
316,48,172458,5,8,0:0:0:0:
244,64,172565,1,0,0:0:0:0:
180,32,172672,1,0,0:0:0:0:
108,48,172779,2,0,P|104:76|96:104,1,52.4999983978272,8|0,0:0|0:0,0:0:0:0:
40,144,172994,1,0,0:0:0:0:
28,72,173101,1,8,0:0:0:0:
112,192,173315,6,0,B|176:384|56:416|-24:304|64:232|216:276,1,419.999987182618,12|12,0:0|0:0,0:0:0:0:
215,275,174815,1,0,0:0:0:0:
288,200,175029,6,0,L|280:40,2,157.499995193482,12|0|0,0:0|0:0|0:0,0:0:0:0:
392,228,175887,1,12,0:0:0:0:
315,303,176101,2,0,P|215:295|148:371,1,209.999993591309
44,352,176744,6,0,L|24:28,1,314.999990386963,12|0,0:0|0:0,0:0:0:0:
128,57,177601,2,0,L|148:372,1,314.999990386963,12|0,0:0|0:0,0:0:0:0:
200,364,178351,1,0,0:0:0:0:
252,356,178458,6,0,P|344:356|420:372,2,157.499995193482,12|0|0,0:0|0:0|0:0,0:0:0:0:
168,292,179315,2,0,P|76:292|0:276,2,157.499995193482,12|0|0,0:0|0:0|0:0,0:0:0:0:
264,248,180172,6,0,L|280:84,2,157.499995193482,12|0|0,0:0|0:0|0:0,0:0:0:0:
280,280,180887,1,0,0:0:0:0:
304,304,180958,1,0,0:0:0:0:
336,320,181029,2,0,P|400:324|476:188,1,209.999993591309,12|0,0:0|0:0,0:0:0:0:
452,116,181672,1,4,0:0:0:0:
364,56,181887,6,0,P|304:68|208:44,1,157.499995193482,12|0,0:0|0:0,0:0:0:0:
172,12,182315,2,0,L|68:20,1,104.999996795654,8|0,0:0|0:0,0:0:0:0:
16,112,182744,1,12,0:0:0:0:
112,152,182958,1,0,0:0:0:0:
148,160,183029,1,0,0:0:0:0:
184,168,183101,1,0,0:0:0:0:
220,176,183172,2,0,P|276:180|332:172,1,104.999996795654,12|0,0:0|0:0,0:0:0:0:
404,244,183601,5,12,0:0:0:0:
308,284,183815,1,0,0:0:0:0:
272,292,183886,1,0,0:0:0:0:
236,300,183958,1,0,0:0:0:0:
200,308,184029,2,0,P|144:312|88:304,1,104.999996795654,12|0,0:0|0:0,0:0:0:0:
24,228,184458,2,0,L|16:64,1,157.499995193482,12|0,0:0|0:0,0:0:0:0:
56,36,184887,2,0,P|112:32|168:40,1,104.999996795654,12|0,0:0|0:0,0:0:0:0:
232,116,185315,6,0,P|288:120|344:112,1,104.999996795654,12|0,0:0|0:0,0:0:0:0:
384,88,185637,2,0,L|436:96,1,52.4999983978272,12|0,0:0|0:0,0:0:0:0:
504,136,185851,1,0,0:0:0:0:
468,172,185958,2,0,L|416:180,1,52.4999983978272,12|0,0:0|0:0,0:0:0:0:
368,236,186172,6,0,P|372:264|380:288,2,52.4999983978272,12|0|0,0:0|0:0|0:0,0:0:0:0:
408,360,186494,2,0,P|430:342|447:323,2,52.4999983978272,12|0|0,0:0|0:0|0:0,0:0:0:0:
496,264,186815,2,0,P|469:253|444:248,1,52.4999983978272,12|0,0:0|0:0,0:0:0:0:
296,264,187029,1,4,0:0:0:0:
308,280,189387,5,0,0:0:0:0:
308,280,189458,1,0,0:0:0:0:
308,280,189529,1,0,0:0:0:0:
308,280,189601,2,0,L|280:276,12,26.2499991989136,10|0|0|0|0|0|0|0|0|0|0|0|8,0:0|0:0|0:0|0:0|0:0|0:0|0:0|0:0|0:0|0:0|0:0|0:0|0:0,0:0:0:0:
456,244,190458,5,4,0:0:0:0:
492,176,190565,1,0,0:0:0:0:
460,108,190672,2,0,B|408:96|408:96|368:116|368:116|316:100,2,150,12|12|12,0:0|0:0|0:0,0:0:0:0:
360,220,191315,5,4,0:0:0:0:
324,288,191422,1,0,0:0:0:0:
356,356,191529,2,0,B|408:368|408:368|448:348|448:348|500:364,2,150,12|12|12,0:0|0:0|0:0,0:0:0:0:
220,288,192172,6,0,L|144:296,1,75
84,336,192387,1,8,0:0:0:0:
84,336,192494,1,0,0:0:0:0:
76,260,192601,2,0,P|88:224|92:188,1,75,8|0,0:0|0:0,0:0:0:0:
28,152,192815,2,0,P|16:116|12:80,1,75
76,36,193029,5,8,0:0:0:0:
152,52,193137,1,8,0:0:0:0:
204,104,193244,2,0,L|212:192,1,75
272,224,193458,5,8,0:0:0:0:
348,208,193566,1,8,0:0:0:0:
400,156,193673,2,0,L|408:68,1,75
476,52,193887,5,0,0:0:0:0:
484,128,193994,1,0,0:0:0:0:
464,200,194101,2,0,P|456:272|476:348,2,150,8|8|8,0:0|0:0|0:0,0:0:0:0:
364,312,194744,5,0,0:0:0:0:
356,236,194851,1,0,0:0:0:0:
376,164,194958,2,0,P|384:92|364:16,2,150,8|8|8,0:0|0:0|0:0,0:0:0:0:
232,212,195601,5,4,0:0:0:0:
240,288,195708,1,0,0:0:0:0:
192,348,195815,2,0,L|112:360,1,75,10|0,0:2|0:0,0:0:0:0:
64,304,196029,1,2,0:2:0:0:
56,228,196136,1,8,0:0:0:0:
104,168,196243,2,0,L|184:156,1,75,2|8,0:2|0:0,0:0:0:0:
252,144,196458,6,0,P|312:152|392:112,1,150,0|8,0:0|0:0,0:0:0:0:
456,248,196887,1,0,0:0:0:0:
456,248,196994,2,0,P|396:240|316:280,1,150,8|8,0:0|0:0,0:0:0:0:
280,344,197315,5,12,0:0:0:0:
208,360,197422,1,0,0:0:0:0:
136,344,197529,2,0,P|96:340|60:344,1,75,8|0,0:0|0:0,0:0:0:0:
8,288,197744,2,0,L|4:212,1,75,12|8,0:0|0:0,0:0:0:0:
64,168,197958,2,0,L|68:92,1,75,0|8,0:0|0:0,0:0:0:0:
20,36,198172,5,12,0:0:0:0:
92,20,198279,1,0,0:0:0:0:
164,36,198386,2,0,P|204:40|240:36,1,75,8|0,0:0|0:0,0:0:0:0:
292,92,198601,2,0,L|296:168,1,75,12|8,0:0|0:0,0:0:0:0:
236,212,198815,2,0,L|232:288,1,75,0|8,0:0|0:0,0:0:0:0:
280,344,199029,5,4,0:0:0:0:
356,356,199137,1,0,0:0:0:0:
424,324,199244,1,8,0:0:0:0:
464,260,199351,1,0,0:0:0:0:
472,184,199458,2,0,P|468:168|464:108,1,75,12|8,0:0|0:0,0:0:0:0:
380,16,199672,2,0,P|384:32|388:92,1,75,0|8,0:0|0:0,0:0:0:0:
344,152,199887,5,8,0:0:0:0:
272,164,199994,1,0,0:0:0:0:
208,124,200101,1,0,0:0:0:0:
136,140,200208,1,0,0:0:0:0:
72,100,200315,2,0,L|64:24,1,75,12|0,0:0|0:0,0:0:0:0:
0,120,200529,2,0,L|8:196,1,75,12|0,0:0|0:0,0:0:0:0:
56,260,200744,6,0,L|220:280,2,157.499995193482,4|4|4,0:0|0:0|0:0,0:0:0:0:
108,168,201601,2,0,L|272:148,2,157.499995193482,4|4|4,0:0|0:0|0:0,0:0:0:0:
108,168,202672,6,0,L|56:260,2,104.999996795654,4|4|4,0:0|0:0|0:0,0:0:0:0:
208,140,203315,6,0,P|236:136|260:128,1,52.4999983978272,8|0,0:0|0:0,0:0:0:0:
292,88,203529,2,0,P|316:79|342:76,1,52.4999983978272
388,104,203744,2,0,L|392:156,1,52.4999983978272
436,184,203958,1,8,0:0:0:0:
468,284,204172,6,0,P|392:352|288:336,2,209.999993591309,0|4|0,0:0|0:0|0:0,0:0:0:0:
432,76,205458,5,8,0:0:0:0:
388,48,205565,1,0,0:0:0:0:
336,36,205672,2,0,L|280:40,1,52.4999983978272,2|0,0:0|0:0,0:0:0:0:
228,88,205887,6,0,L|192:84,5,34.9999989318848,8|0|0|0|0|0,0:0|0:0|0:0|0:0|0:0|0:0,0:0:0:0:
164,64,206315,2,0,L|128:68,5,34.9999989318848,8|0|0|0|0|0,0:0|0:0|0:0|0:0|0:0|0:0,0:0:0:0:
100,84,206744,6,2,L|40:76,1,52.4999983978272,10|0,0:0|0:0,0:0:0:0:
148,152,206958,2,0,L|208:144,1,52.4999983978272,2|0,0:0|0:0,0:0:0:0:
76,184,207172,1,10,0:0:0:0:
76,184,207601,6,0,P|56:244|60:300,1,120,4|0,0:0|0:0,0:0:0:0:
104,340,207922,1,0,0:0:0:0:
164,344,208029,2,0,L|284:352,1,120,8|0,0:0|0:0,0:0:0:0:
352,252,208458,2,0,L|472:244,1,120
496,188,208779,1,0,0:0:0:0:
472,132,208887,1,8,0:0:0:0:
420,100,208994,1,0,0:0:0:0:
360,108,209101,2,0,P|328:108|300:100,1,60
252,64,209315,6,0,P|204:44|132:48,1,120
92,88,209637,1,0,0:0:0:0:
88,148,209744,2,0,P|136:168|208:164,1,120,8|0,0:0|0:0,0:0:0:0:
320,144,210172,2,0,P|379:140|434:161,1,120
464,216,210494,1,0,0:0:0:0:
472,276,210601,2,0,L|476:340,2,60,8|0|0,0:0|0:0|0:0,0:0:0:0:
352,256,211029,6,0,L|232:264,1,120,4|0,0:0|0:0,0:0:0:0:
196,312,211351,1,0,0:0:0:0:
164,360,211458,2,0,L|44:368,1,120,8|0,0:0|0:0,0:0:0:0:
16,252,211887,5,0,0:0:0:0:
24,192,211994,1,0,0:0:0:0:
32,132,212101,2,0,L|40:68,1,60
124,32,212315,5,8,0:0:0:0:
132,92,212422,1,0,0:0:0:0:
140,152,212529,2,0,L|148:216,1,60
236,252,212744,6,0,P|292:280|328:328,1,120,0|4,0:0|0:0,0:0:0:0:
432,272,213172,2,0,P|428:209|451:154,1,120,8|0,0:0|0:0,0:0:0:0:
388,56,213601,5,0,0:0:0:0:
332,80,213708,2,0,P|276:84|212:60,1,120,8|0,0:0|0:0,0:0:0:0:
176,20,214029,2,0,P|120:16|56:40,1,120,10|4,0:0|0:0,0:0:0:0:
32,152,214458,5,6,0:0:0:0:
132,220,214672,2,0,P|188:224|252:200,2,120,0|8|0,0:0|0:0|0:0,0:0:0:0:
24,276,215315,1,0,0:0:0:0:
124,344,215529,1,0,0:0:0:0:
184,336,215637,1,0,0:0:0:0:
240,356,215744,1,8,0:0:0:0:
300,348,215851,1,0,0:0:0:0:
356,368,215958,2,0,P|392:372|424:364,1,60,4|0,0:0|0:0,0:0:0:0:
460,328,216172,6,0,L|472:208,1,120
360,164,216601,2,0,L|348:44,1,120,8|0,0:0|0:0,0:0:0:0:
232,20,217029,1,0,0:0:0:0:
156,116,217244,1,0,0:0:0:0:
156,116,217351,1,0,0:0:0:0:
156,116,217458,1,8,0:0:0:0:
276,132,217672,5,4,0:0:0:0:
116,4,217887,2,4,P|64:36|40:88,1,120,0|0,0:0|0:0,0:0:0:0:
80,200,218315,1,8,0:0:0:0:
196,228,218529,1,0,0:0:0:0:
256,224,218637,1,0,0:0:0:0:
312,244,218744,1,0,0:0:0:0:
352,288,218851,1,0,0:0:0:0:
372,344,218958,2,0,L|496:356,2,120,2|0|2,0:0|0:0|0:0,0:0:0:0:
252,352,219601,5,8,0:0:0:0:
192,360,219708,1,8,0:0:0:0:
136,340,219815,1,0,0:0:0:0:
76,348,219922,1,0,0:0:0:0:
20,324,220029,2,0,P|12:296|8:264,1,60
64,208,220244,5,8,0:0:0:0:
124,216,220351,1,8,0:0:0:0:
180,196,220458,1,0,0:0:0:0:
240,204,220565,1,0,0:0:0:0:
296,180,220672,2,0,P|304:152|308:120,1,60
260,56,220887,5,8,0:0:0:0:
200,64,220994,1,0,0:0:0:0:
144,44,221101,1,8,0:0:0:0:
84,52,221208,1,0,0:0:0:0:
28,28,221315,6,0,P|16:92|24:156,1,120,4|0,0:0|0:0,0:0:0:0:
132,192,221744,2,0,P|144:256|136:320,1,120,8|0,0:0|0:0,0:0:0:0:
28,356,222172,1,0,0:0:0:0:
48,236,222387,1,0,0:0:0:0:
48,236,222494,1,0,0:0:0:0:
48,236,222601,2,0,L|172:256,1,120,8|0,0:0|0:0,0:0:0:0:
240,348,223029,6,0,L|364:328,1,120
476,304,223458,1,8,0:0:0:0:
400,212,223672,1,2,0:2:0:0:
340,204,223779,1,2,0:2:0:0:
292,168,223887,1,0,0:0:0:0:
268,112,223994,1,2,0:2:0:0:
268,52,224101,1,2,0:2:0:0:
384,88,224315,1,10,0:2:0:0:
292,168,224529,1,2,0:2:0:0:
176,136,224744,6,0,P|112:132|60:152,1,120,4|0,0:0|0:0,0:0:0:0:
40,268,225172,2,0,P|104:272|156:252,1,120,8|0,0:0|0:0,0:0:0:0:
268,208,225601,1,0,0:0:0:0:
388,224,225815,2,0,L|392:284,1,60,2|2,0:2|0:2,0:0:0:0:
440,320,226029,2,0,L|436:380,2,60,8|2|2,0:0|0:2|0:2,0:0:0:0:
492,212,226458,6,0,L|484:84,1,120,10|0,0:0|0:0,0:0:0:0:
444,48,226779,2,0,P|388:32|328:40,1,120,10|0,0:0|0:0,0:0:0:0:
284,80,227101,6,0,L|276:208,1,120,10|0,0:0|0:0,0:0:0:0:
236,244,227422,2,0,P|180:260|120:252,1,120,10|0,0:0|0:0,0:0:0:0:
76,212,227744,6,0,P|68:192|64:152,1,60,14|0,0:0|0:0,0:0:0:0:
112,120,227958,2,0,P|120:100|124:60,1,60,0|6,0:0|0:0,0:0:0:0:
84,20,228172,5,4,0:0:0:0:
204,36,228387,1,0,0:0:0:0:
204,36,228494,1,0,0:0:0:0:
204,36,228601,2,0,L|332:52,1,120,8|0,0:0|0:0,0:0:0:0:
392,148,229029,5,0,0:0:0:0:
272,164,229244,1,0,0:0:0:0:
272,164,229351,1,0,0:0:0:0:
272,164,229458,2,0,L|144:180,1,120,8|2,0:0|0:2,0:0:0:0:
104,212,229779,1,2,0:2:0:0:
84,268,229887,5,0,0:0:0:0:
112,320,229994,1,2,0:2:0:0:
168,344,230101,2,0,P|240:352|288:376,1,120,2|8,0:2|0:0,0:0:0:0:
400,340,230529,1,2,0:2:0:0:
400,340,230637,1,2,0:2:0:0:
400,340,230744,6,0,L|392:276,3,60,8|8|0|0,0:0|0:0|0:0|0:0,0:0:0:0:
436,236,231172,2,0,L|444:172,3,60
412,124,231601,6,0,B|324:120|324:120|288:72|288:72|196:68,1,240,0|4,0:0|0:0,0:0:0:0:
24,236,232458,2,0,B|112:240|112:240|148:288|148:288|240:292,1,240,8|4,0:0|0:0,0:0:0:0:
360,300,233101,1,0,0:0:0:0:
460,232,233315,6,0,L|472:104,1,120,4|0,0:0|0:0,0:0:0:0:
360,68,233744,2,0,L|348:196,1,120,10|0,0:0|0:0,0:0:0:0:
360,300,234172,5,10,0:0:0:0:
360,300,234279,1,0,0:0:0:0:
360,300,234387,1,0,0:0:0:0:
360,300,234494,1,0,0:0:0:0:
360,300,234601,2,0,L|368:368,2,60,2|0|8,0:0|0:0|0:0,0:0:0:0:
460,232,235029,6,0,L|452:164,1,60,6|2,0:0|0:0,0:0:0:0:
308,64,235458,6,0,L|312:112,3,40,0|0|0|10,0:0|0:0|0:0|0:0,0:0:0:0:
208,164,235887,2,0,L|204:212,3,40,8|8|8|10,0:0|0:0|0:0|0:0,0:0:0:0:
304,268,236315,2,0,L|308:316,3,40,0|0|0|14,0:0|0:0|0:0|0:0,0:0:0:0:
