osu file format v14

[General]
AudioFilename: UNDEAD CORPORATION - Gone With The Blast.mp3
AudioLeadIn: 0
PreviewTime: 70413
Countdown: 0
SampleSet: Normal
StackLeniency: 0.7
Mode: 0
LetterboxInBreaks: 0
WidescreenStoryboard: 0

[Editor]
Bookmarks: 111556,132127,172351
DistanceSpacing: 1
BeatDivisor: 3
GridSize: 4
TimelineZoom: 2.1

[Metadata]
Title:Gone With The Blast
TitleUnicode:Gone With The Blast
Artist:UNDEAD CORPORATION
ArtistUnicode:UNDEAD CORPORATION
Creator:Ekoro
Version:Extra
Source:
Tags:O. D. Akemi 朱美 West Village 窪田道元 original
BeatmapID:727204
BeatmapSetID:326461

[Difficulty]
HPDrainRate:5.5
CircleSize:4.2
OverallDifficulty:9.5
ApproachRate:10
SliderMultiplier:1.6
SliderTickRate:1

[Events]
//Background and Video events
0,0,"558861.jpg",0,0
//Break Periods
2,8944,10865
2,187230,188936
//Storyboard Layer 0 (Background)
//Storyboard Layer 1 (Fail)
//Storyboard Layer 2 (Pass)
//Storyboard Layer 3 (Foreground)
//Storyboard Sound Samples

[TimingPoints]
6815,214.285714285714,4,1,1,70,1,0
7030,222.222222222222,4,1,1,70,1,0
7696,214.285714285714,4,1,1,70,1,0
7887,214.285714285714,4,1,1,70,1,0
32744,-100,4,1,1,70,0,1
36172,-100,4,1,1,70,0,0
43029,-100,4,1,1,70,0,1
46458,-100,4,1,1,70,0,0
49887,-142.857142857143,4,1,1,70,0,0
70458,-142.857142857143,4,1,1,70,0,1
87601,-100,4,1,1,70,0,0
94458,-100,4,1,1,70,0,1
97886,-100,4,1,1,70,0,0
104744,-100,4,1,1,70,0,1
108172,-100,4,1,1,70,0,0
111601,-142.857142857143,4,1,1,70,0,0
116744,-100,4,1,1,70,0,0
118458,-142.857142857143,4,1,1,70,0,0
132172,-142.857142857143,4,1,1,70,0,1
145886,-200,4,1,1,70,0,0
159601,-166.666666666667,4,1,1,70,0,0
161315,-125,4,1,1,70,0,0
163029,-100,4,1,1,70,0,0
166458,-142.857142857143,4,1,1,70,0,0
190458,-100,4,1,1,70,0,0
200744,-142.857142857143,4,1,1,70,0,0
207601,-125,4,1,1,70,0,1
221315,-125,4,1,1,70,0,0

[Colours]
Combo1 : 78,78,92
Combo2 : 180,152,139
Combo3 : 99,53,7

[HitObjects]
200,172,6815,5,0,0:0:0:0:
200,172,6868,1,0,0:0:0:0:
200,172,6922,1,0,0:0:0:0:
200,172,6975,1,0,0:0:0:0:
200,172,7029,1,8,0:0:0:0:
296,156,7141,1,8,0:0:0:0:
260,244,7252,1,0,0:0:0:0:
336,81,7474,6,0,L|350:26,2,53.3333333333333,2|0|0,0:0|0:0|0:0,0:0:0:0:
384,144,7696,1,2,0:0:0:0:
312,317,7887,6,0,L|352:356,2,53.3333333333333,2|0|0,0:0|0:0|0:0,0:0:0:0:
233,326,8101,1,2,0:0:0:0:
119,178,8315,6,0,L|65:193,2,53.3333333333333,2|0|0,0:0|0:0|0:0,0:0:0:0:
150,105,8529,1,2,0:0:0:0:
256,192,8744,5,4,0:0:0:0:
256,192,11315,5,8,0:0:0:0:
256,192,11369,1,0,0:0:0:0:
256,192,11422,1,0,0:0:0:0:
256,192,11476,1,0,0:0:0:0:
256,192,11530,2,0,L|300:200,1,40
360,276,11636,5,8,0:0:0:0:
360,276,11690,1,0,0:0:0:0:
360,276,11743,1,0,0:0:0:0:
360,276,11797,1,0,0:0:0:0:
360,276,11851,2,0,L|316:284,1,40
200,340,11958,5,12,0:0:0:0:
200,340,12172,5,4,0:0:0:0:
124,364,12279,1,0,0:0:0:0:
56,324,12387,2,0,B|40:288|40:288|36:248,1,80,12|0,0:0|0:0,0:0:0:0:
116,264,12601,2,0,B|123:225|123:225|143:190,1,80,12|8,0:0|0:0,0:0:0:0:
200,248,12815,2,0,B|228:220|228:220|264:203,1,80,4|8,0:0|0:0,0:0:0:0:
336,236,13029,5,4,0:0:0:0:
412,260,13136,1,0,0:0:0:0:
480,220,13244,2,0,B|496:184|496:184|500:144,1,80,12|0,0:0|0:0,0:0:0:0:
420,160,13458,2,0,B|412:121|412:121|392:86,1,80,12|8,0:0|0:0,0:0:0:0:
336,144,13672,2,0,B|307:116|307:116|271:99,1,80,4|8,0:0|0:0,0:0:0:0:
200,64,13887,5,8,0:0:0:0:
172,68,13940,1,0,0:0:0:0:
144,72,13994,1,0,0:0:0:0:
116,76,14047,1,0,0:0:0:0:
88,80,14101,2,0,P|80:120|64:160,1,80
40,232,14315,5,0,0:0:0:0:
68,228,14369,1,0,0:0:0:0:
96,232,14422,1,0,0:0:0:0:
120,244,14476,1,0,0:0:0:0:
140,264,14529,1,0,0:0:0:0:
156,288,14583,1,0,0:0:0:0:
168,316,14637,1,0,0:0:0:0:
168,344,14690,1,0,0:0:0:0:
160,372,14744,5,12,0:0:0:0:
160,372,15601,5,4,0:0:0:0:
236,344,15708,1,0,0:0:0:0:
312,364,15815,2,0,P|352:368|392:360,1,80,8|0,0:0|0:0,0:0:0:0:
460,320,16029,1,0,0:0:0:0:
460,320,16137,2,0,L|468:240,1,80,8|0,0:0|0:0,0:0:0:0:
408,188,16351,1,8,0:0:0:0:
332,216,16458,5,0,0:0:0:0:
256,188,16565,1,0,0:0:0:0:
180,208,16672,2,0,P|140:212|100:204,1,80,8|0,0:0|0:0,0:0:0:0:
32,164,16886,1,0,0:0:0:0:
32,164,16994,2,0,L|24:84,1,80,8|0,0:0|0:0,0:0:0:0:
84,32,17208,1,8,0:0:0:0:
164,20,17315,6,0,B|184:52|184:52|192:100,1,80,4|0,0:0|0:0,0:0:0:0:
128,144,17529,2,0,B|108:176|108:176|100:224,1,80,8|0,0:0|0:0,0:0:0:0:
132,292,17744,1,0,0:0:0:0:
208,316,17851,2,0,L|220:236,1,80,8|0,0:0|0:0,0:0:0:0:
64,368,18065,2,0,L|52:288,1,80,8|0,0:0|0:0,0:0:0:0:
16,172,18279,5,0,0:0:0:0:
72,116,18387,2,0,B|84:76|84:76|80:36,1,80,8|0,0:0|0:0,0:0:0:0:
220,8,18601,5,0,0:0:0:0:
164,64,18709,2,0,B|152:104|152:104|156:144,1,80,8|0,0:0|0:0,0:0:0:0:
232,164,18922,2,0,B|244:124|244:124|240:84,1,80,8|4,0:0|0:0,0:0:0:0:
296,28,19137,5,0,0:0:0:0:
360,76,19244,2,0,L|440:64,1,80,8|0,0:0|0:0,0:0:0:0:
480,132,19458,1,0,0:0:0:0:
416,180,19565,2,0,L|336:168,1,80,8|0,0:0|0:0,0:0:0:0:
200,120,19779,2,0,L|280:108,1,80,8|0,0:0|0:0,0:0:0:0:
304,248,19994,5,0,0:0:0:0:
268,320,20101,2,0,P|228:332|188:336,1,80,8|0,0:0|0:0,0:0:0:0:
340,360,20315,5,0,0:0:0:0:
376,288,20422,2,0,P|416:276|456:272,1,80,8|0,0:0|0:0,0:0:0:0:
508,332,20637,1,8,0:0:0:0:
428,196,20744,5,0,0:0:0:0:
404,148,20815,1,0,0:0:0:0:
400,96,20887,1,0,0:0:0:0:
420,48,20958,1,8,0:0:0:0:
472,32,21029,1,8,0:0:0:0:
512,68,21101,1,0,0:0:0:0:
508,120,21172,5,0,0:0:0:0:
464,148,21244,1,0,0:0:0:0:
412,144,21315,1,0,0:0:0:0:
368,112,21387,1,0,0:0:0:0:
316,96,21458,2,0,L|264:104,1,53.3333333333333
188,148,21601,5,12,0:0:0:0:
160,156,21654,1,0,0:0:0:0:
132,156,21708,1,0,0:0:0:0:
104,148,21762,1,0,0:0:0:0:
80,132,21815,2,0,L|40:144,1,40
60,248,21922,5,12,0:0:0:0:
88,240,21975,1,0,0:0:0:0:
116,240,22029,1,0,0:0:0:0:
144,248,22083,1,0,0:0:0:0:
168,264,22136,2,0,L|208:252,1,40
288,268,22244,6,0,L|292:348,1,80,8|0,0:0|0:0,0:0:0:0:
448,316,22458,5,4,0:0:0:0:
448,316,22565,1,0,0:0:0:0:
448,316,22672,2,0,L|452:236,1,80,8|0,0:0|0:0,0:0:0:0:
392,184,22886,1,8,0:0:0:0:
392,184,22994,2,0,L|388:104,1,80,8|0,0:0|0:0,0:0:0:0:
444,48,23208,1,8,0:0:0:0:
304,16,23315,5,0,0:0:0:0:
304,16,23422,1,0,0:0:0:0:
304,16,23529,2,0,L|308:96,1,80,8|0,0:0|0:0,0:0:0:0:
248,148,23743,1,8,0:0:0:0:
248,148,23851,2,0,L|244:228,1,80,8|0,0:0|0:0,0:0:0:0:
300,284,24065,1,8,0:0:0:0:
260,356,24172,5,0,0:0:0:0:
180,364,24279,1,0,0:0:0:0:
100,372,24386,2,0,P|68:356|36:320,1,80,8|0,0:0|0:0,0:0:0:0:
76,164,24601,1,8,0:0:0:0:
156,156,24708,2,0,P|188:172|220:208,1,80,8|0,0:0|0:0,0:0:0:0:
236,280,24922,1,8,0:0:0:0:
252,356,25029,5,0,0:0:0:0:
332,364,25136,1,0,0:0:0:0:
412,372,25243,2,0,P|444:356|476:320,1,80,8|0,0:0|0:0,0:0:0:0:
436,164,25458,1,8,0:0:0:0:
356,156,25565,2,0,P|324:172|292:208,1,80,8|0,0:0|0:0,0:0:0:0:
276,280,25779,1,8,0:0:0:0:
218,160,25887,5,4,0:0:0:0:
194,144,25940,1,0,0:0:0:0:
166,136,25994,1,0,0:0:0:0:
138,136,26047,1,0,0:0:0:0:
110,144,26101,2,0,L|82:172,3,40,8|0|0|0,0:0|0:0|0:0|0:0,0:0:0:0:
158,216,26315,5,8,0:0:0:0:
182,232,26368,1,0,0:0:0:0:
210,240,26422,1,8,0:0:0:0:
238,240,26475,1,0,0:0:0:0:
266,232,26529,2,0,L|294:204,3,40,0|0|8|0,0:0|0:0|0:0|0:0,0:0:0:0:
344,140,26744,5,0,0:0:0:0:
372,136,26797,1,0,0:0:0:0:
400,140,26851,1,0,0:0:0:0:
424,152,26904,1,0,0:0:0:0:
444,168,26958,1,8,0:0:0:0:
460,192,27012,1,0,0:0:0:0:
468,216,27065,1,0,0:0:0:0:
468,244,27119,1,0,0:0:0:0:
464,272,27172,2,0,L|424:280,3,40,8|0|8|0,0:0|0:0|0:0|0:0,0:0:0:0:
404,260,27387,2,0,L|364:252,3,40,0|0|8|0,0:0|0:0|0:0|0:0,0:0:0:0:
348,228,27601,5,8,0:0:0:0:
244,104,27708,1,8,0:0:0:0:
400,140,27815,1,8,0:0:0:0:
252,204,27922,1,0,0:0:0:0:
340,68,28029,5,8,0:0:0:0:
368,60,28083,1,0,0:0:0:0:
396,52,28137,1,8,0:0:0:0:
252,204,28244,5,0,0:0:0:0:
224,196,28298,1,0,0:0:0:0:
196,188,28352,1,8,0:0:0:0:
64,40,28458,5,12,0:0:0:0:
92,32,28512,1,0,0:0:0:0:
120,36,28565,1,0,0:0:0:0:
144,52,28619,1,0,0:0:0:0:
152,80,28672,1,0,0:0:0:0:
144,108,28726,1,0,0:0:0:0:
124,128,28779,1,12,0:0:0:0:
96,136,28833,1,0,0:0:0:0:
72,152,28887,1,0,0:0:0:0:
60,176,28940,1,0,0:0:0:0:
60,204,28994,1,0,0:0:0:0:
72,228,29047,1,0,0:0:0:0:
96,244,29101,2,0,L|136:248,3,40,12|0|0|0,0:0|0:0|0:0|0:0,0:0:0:0:
164,240,29315,6,0,P|160:316|16:360,2,240,4|4|4,0:0|0:0|0:0,0:0:0:0:
32,148,30172,2,0,P|36:72|180:28,1,240,4|4,0:0|0:0,0:0:0:0:
86,158,30708,1,0,0:0:0:0:
59,153,30761,1,0,0:0:0:0:
32,148,30815,1,4,0:0:0:0:
32,148,31244,5,4,0:0:0:0:
188,184,31458,1,4,0:0:0:0:
324,100,31672,1,4,0:0:0:0:
480,144,31887,5,8,0:0:0:0:
472,172,31940,1,8,0:0:0:0:
472,200,31994,1,0,0:0:0:0:
480,228,32047,1,0,0:0:0:0:
496,252,32101,1,0,0:0:0:0:
504,280,32154,1,0,0:0:0:0:
504,308,32208,1,8,0:0:0:0:
496,336,32262,1,0,0:0:0:0:
480,356,32315,2,0,L|440:360,3,40
416,344,32529,2,0,L|376:340,3,40,8|0|0|0,0:0|0:0|0:0|0:0,0:0:0:0:
352,352,32744,6,0,P|312:360|268:356,1,80,4|0,0:0|0:0,0:0:0:0:
204,316,32958,1,0,0:0:0:0:
204,316,33065,1,0,0:0:0:0:
180,240,33172,2,0,L|260:228,1,80,8|0,0:0|0:0,0:0:0:0:
128,300,33387,2,0,L|48:312,1,80
4,244,33601,5,8,0:0:0:0:
24,168,33708,1,0,0:0:0:0:
4,92,33815,1,0,0:0:0:0:
24,16,33922,1,0,0:0:0:0:
140,64,34029,5,8,0:0:0:0:
160,140,34136,1,0,0:0:0:0:
140,216,34244,2,0,L|136:256,3,40,8|8|0|0,0:0|0:0|0:0|0:0,0:0:0:0:
152,280,34458,5,8,0:0:0:0:
160,360,34565,1,0,0:0:0:0:
240,352,34672,1,0,0:0:0:0:
232,272,34779,1,0,0:0:0:0:
396,236,34886,5,8,0:0:0:0:
388,316,34993,1,0,0:0:0:0:
308,308,35100,1,0,0:0:0:0:
316,228,35207,1,0,0:0:0:0:
468,284,35315,5,10,0:0:0:0:
480,260,35369,1,8,0:0:0:0:
488,232,35422,1,8,0:0:0:0:
488,204,35476,1,8,0:0:0:0:
484,176,35529,1,0,0:0:0:0:
472,148,35583,1,0,0:0:0:0:
456,124,35637,1,8,0:0:0:0:
436,104,35690,1,8,0:0:0:0:
412,88,35744,5,0,0:0:0:0:
388,80,35797,1,0,0:0:0:0:
360,76,35851,1,0,0:0:0:0:
332,80,35904,1,0,0:0:0:0:
304,88,35958,2,0,P|268:104|228:112,1,80,12|0,0:0|0:0,0:0:0:0:
112,156,36172,6,0,B|96:120|96:120|100:76,1,80,6|8,0:0|0:0,0:0:0:0:
120,232,36387,2,0,B|83:248|83:248|39:244,1,80,0|8,0:0|0:0,0:0:0:0:
196,220,36601,2,0,B|212:256|212:256|208:300,1,80,0|8,0:0|0:0,0:0:0:0:
188,144,36816,2,0,B|224:128|224:128|268:131,1,80,2|8,0:0|0:0,0:0:0:0:
336,168,37029,6,0,B|396:176|396:176|436:152|436:152|492:160,1,160,2|0,0:0|0:0,0:0:0:0:
456,232,37351,2,0,P|452:272|456:312,1,80,10|0,0:0|0:0,0:0:0:0:
300,244,37565,1,8,0:0:0:0:
376,92,37672,2,0,P|380:52|376:12,1,80,0|8,0:0|0:0,0:0:0:0:
232,32,37887,6,0,L|152:44,1,80,0|8,0:0|0:0,0:0:0:0:
8,88,38101,2,0,L|88:100,1,80,2|8,0:0|0:0,0:0:0:0:
244,120,38315,2,0,L|164:132,1,80,2|8,0:0|0:0,0:0:0:0:
20,176,38529,2,0,L|100:188,1,80,2|8,0:0|0:0,0:0:0:0:
172,220,38744,6,0,P|152:256|144:296,1,80,2|8,0:0|0:0,0:0:0:0:
223,284,38958,2,0,P|227:323|243:360,1,80,0|8,0:0|0:0,0:0:0:0:
304,308,39172,2,0,P|330:339|365:360,1,80,0|8,0:0|0:0,0:0:0:0:
380,280,39386,2,0,P|418:289|458:287,1,80,0|8,0:0|0:0,0:0:0:0:
496,216,39601,6,0,L|492:132,1,80,4|8,0:0|0:0,0:0:0:0:
448,68,39815,1,2,0:0:0:0:
372,48,39922,1,8,0:0:0:0:
300,80,40029,2,0,B|260:88|260:88|220:84,1,80,2|8,0:0|0:0,0:0:0:0:
156,36,40244,2,0,B|116:28|116:28|76:32,1,80,2|8,0:0|0:0,0:0:0:0:
20,88,40458,6,0,B|16:148|16:148|32:180|32:180|28:244,1,160,2|0,0:0|0:0,0:0:0:0:
56,320,40779,1,8,0:0:0:0:
132,348,40887,2,0,B|136:288|136:288|120:256|120:256|124:192,1,160,2|0,0:0|0:0,0:0:0:0:
200,164,41208,1,8,0:0:0:0:
260,216,41315,5,8,0:0:0:0:
288,224,41369,1,8,0:0:0:0:
316,220,41422,1,0,0:0:0:0:
340,208,41476,1,8,0:0:0:0:
360,188,41529,2,0,L|368:108,1,80,2|0,0:0|0:0,0:0:0:0:
448,92,41744,1,2,0:0:0:0:
452,120,41797,1,0,0:0:0:0:
452,148,41851,1,0,0:0:0:0:
448,176,41904,1,0,0:0:0:0:
436,204,41958,1,2,0:0:0:0:
420,228,42012,1,0,0:0:0:0:
416,256,42065,1,0,0:0:0:0:
416,284,42119,1,0,0:0:0:0:
420,312,42172,5,10,0:0:0:0:
392,308,42226,1,0,0:0:0:0:
364,312,42279,1,0,0:0:0:0:
336,324,42333,1,0,0:0:0:0:
316,340,42387,2,0,L|224:348,1,80,0|8,0:0|0:0,0:0:0:0:
196,276,42601,5,2,0:0:0:0:
168,280,42655,1,0,0:0:0:0:
140,276,42708,1,0,0:0:0:0:
112,264,42762,1,0,0:0:0:0:
92,248,42816,2,0,L|0:240,1,80,8|0,0:0|0:0,0:0:0:0:
0,164,43029,5,8,0:0:0:0:
36,92,43137,1,0,0:0:0:0:
112,64,43244,2,0,L|204:72,1,80,8|0,0:0|0:0,0:0:0:0:
256,116,43458,2,0,L|348:108,1,80,8|0,0:0|0:0,0:0:0:0:
396,56,43672,2,0,L|488:64,1,80,8|0,0:0|0:0,0:0:0:0:
488,140,43887,5,8,0:0:0:0:
452,212,43995,1,0,0:0:0:0:
376,240,44102,2,0,L|284:232,1,80,8|0,0:0|0:0,0:0:0:0:
232,188,44316,2,0,L|140:196,1,80,8|0,0:0|0:0,0:0:0:0:
92,248,44530,2,0,L|0:240,1,80,8|0,0:0|0:0,0:0:0:0:
28,320,44744,5,8,0:0:0:0:
52,332,44797,1,0,0:0:0:0:
76,344,44851,1,0,0:0:0:0:
148,312,44958,1,8,0:0:0:0:
172,300,45011,1,0,0:0:0:0:
196,288,45065,1,0,0:0:0:0:
268,320,45172,5,8,0:0:0:0:
292,332,45225,1,0,0:0:0:0:
316,344,45279,1,0,0:0:0:0:
388,312,45386,1,8,0:0:0:0:
412,300,45439,1,0,0:0:0:0:
436,288,45493,1,0,0:0:0:0:
448,208,45601,6,0,L|444:164,3,40,8|0|0|0,0:0|0:0|0:0|0:0,0:0:0:0:
424,148,45815,2,0,L|420:104,3,40,8|0|0|0,0:0|0:0|0:0|0:0,0:0:0:0:
400,88,46029,6,0,L|344:80,2,53.3333333333333,0|2|0,0:0|0:0|0:0,0:0:0:0:
284,132,46244,2,0,L|228:140,2,53.3333333333333,2|0|2,0:0|0:0|0:0,0:0:0:0:
180,76,46458,6,0,L|96:68,1,80
28,100,46672,1,0,0:0:0:0:
92,148,46779,1,0,0:0:0:0:
20,180,46886,2,0,P|20:220|32:260,1,80
136,312,47101,5,8,0:0:0:0:
288,288,47208,1,8,0:0:0:0:
136,312,47315,6,0,L|220:320,1,80,8|0,0:0|0:0,0:0:0:0:
288,288,47529,1,0,0:0:0:0:
224,240,47636,1,0,0:0:0:0:
296,208,47743,2,0,P|296:168|284:128,1,80
452,196,47958,6,0,P|452:236|464:276,1,80,8|0,0:0|0:0,0:0:0:0:
416,340,48172,5,8,0:0:0:0:
388,344,48226,1,0,0:0:0:0:
360,348,48279,1,0,0:0:0:0:
332,352,48333,1,0,0:0:0:0:
304,356,48387,2,0,L|256:364,3,40
248,340,48601,5,8,0:0:0:0:
220,336,48654,1,8,0:0:0:0:
192,332,48708,1,8,0:0:0:0:
164,328,48762,1,8,0:0:0:0:
136,324,48815,2,0,L|88:316,3,40
72,328,49029,5,12,0:0:0:0:
192,32,49458,6,0,L|248:36,2,53.3333333333333,2|0|0,0:0|0:0|0:0,0:0:0:0:
84,80,49672,2,0,L|28:84,2,53.3333333333333
176,152,49887,6,0,P|248:160|328:112,1,167.999994873047,12|0,0:0|0:0,0:0:0:0:
348,44,50315,2,0,L|460:52,1,111.999996582031,12|0,0:0|0:0,0:0:0:0:
476,124,50637,1,0,0:0:0:0:
492,196,50744,2,0,L|380:204,1,111.999996582031,12|0,0:0|0:0,0:0:0:0:
320,244,51065,1,0,0:0:0:0:
292,312,51172,6,0,P|312:332|336:344,1,55.9999982910157,12|0,0:0|0:0,0:0:0:0:
248,256,51387,2,0,P|220:263|198:278,1,55.9999982910157,12|0,0:0|0:0,0:0:0:0:
320,244,51601,6,0,P|328:192|308:136,1,111.999996582031,0|12,0:0|0:0,0:0:0:0:
172,84,52029,2,0,P|122:103|84:148,1,111.999996582031,12|0,0:0|0:0,0:0:0:0:
104,292,52458,6,8,P|145:325|203:336,1,111.999996582031,12|0,0:0|0:0,0:0:0:0:
268,308,52779,1,12,0:0:0:0:
340,300,52887,1,0,0:0:0:0:
408,324,52994,1,0,0:0:0:0:
456,380,53101,1,12,0:0:0:0:
504,244,53315,6,0,L|496:124,1,111.999996582031,12|0,0:0|0:0,0:0:0:0:
448,76,53637,1,0,0:0:0:0:
380,48,53744,2,0,P|324:64|264:60,1,111.999996582031,12|0,0:0|0:0,0:0:0:0:
132,24,54172,6,0,L|140:144,1,111.999996582031,12|0,0:0|0:0,0:0:0:0:
188,192,54494,1,0,0:0:0:0:
256,220,54601,2,0,P|312:204|372:208,1,111.999996582031,12|0,0:0|0:0,0:0:0:0:
428,240,54922,1,0,0:0:0:0:
428,240,54976,1,0,0:0:0:0:
428,240,55029,6,0,P|416:312|340:360,2,167.999994873047,8|8|0,0:0|0:0|0:0,0:0:0:0:
376,188,55779,1,0,0:0:0:0:
376,188,55833,1,0,0:0:0:0:
376,188,55887,2,0,P|388:116|464:68,2,167.999994873047,8|0|8,0:0|0:0|0:0,0:0:0:0:
232,200,56744,6,0,L|120:188,1,111.999996582031,4|0,0:0|0:0,0:0:0:0:
52,208,57065,1,0,0:0:0:0:
16,272,57172,2,0,P|24:324|64:372,1,111.999996582031,12|0,0:0|0:0,0:0:0:0:
187,297,57601,2,0,P|195:245|235:197,1,111.999996582031,4|0,0:0|0:0,0:0:0:0:
300,224,57922,1,0,0:0:0:0:
348,280,58029,1,12,0:0:0:0:
492,252,58244,1,0,0:0:0:0:
396,144,58458,6,0,P|340:128|288:96,1,111.999996582031,4|0,0:0|0:0,0:0:0:0:
240,52,58779,1,0,0:0:0:0:
168,36,58887,1,12,0:0:0:0:
100,60,58994,1,0,0:0:0:0:
52,116,59101,2,0,L|48:172,1,55.9999982910157
80,236,59315,6,0,B|76:292|76:292|44:344,1,111.999996582031,12|0,0:0|0:0,0:0:0:0:
136,372,59637,2,0,B|140:316|140:316|172:264,1,111.999996582031,12|0,0:0|0:0,0:0:0:0:
228,228,59958,1,12,0:0:0:0:
372,216,60172,6,0,B|401:263|401:263|405:319,1,111.999996582031,4|0,0:0|0:0,0:0:0:0:
476,300,60494,1,0,0:0:0:0:
476,300,60601,2,0,L|468:180,1,111.999996582031,12|0,0:0|0:0,0:0:0:0:
428,128,60922,1,0,0:0:0:0:
360,100,61029,2,0,P|304:112|252:100,1,111.999996582031,4|0,0:0|0:0,0:0:0:0:
192,56,61351,1,0,0:0:0:0:
132,16,61458,2,0,P|80:4|16:24,1,111.999996582031,12|0,0:0|0:0,0:0:0:0:
12,164,61887,6,0,P|64:176|128:156,1,111.999996582031,4|0,0:0|0:0,0:0:0:0:
188,136,62208,1,0,0:0:0:0:
260,152,62315,1,12,0:0:0:0:
308,208,62422,1,0,0:0:0:0:
324,280,62529,1,8,0:0:0:0:
376,332,62637,1,0,0:0:0:0:
448,348,62744,6,0,L|456:292,1,55.9999982910157,12|0,0:0|0:0,0:0:0:0:
455,292,62904,1,0,0:0:0:0:
455,292,62958,1,0,0:0:0:0:
392,216,63065,2,0,L|384:160,1,55.9999982910157,12|0,0:0|0:0,0:0:0:0:
384,160,63225,1,0,0:0:0:0:
384,160,63279,1,0,0:0:0:0:
448,84,63387,1,12,0:0:0:0:
320,16,63601,6,0,L|152:28,1,167.999994873047,4|4,0:0|0:0,0:0:0:0:
8,196,64244,1,4,0:0:0:0:
152,208,64458,2,0,L|320:220,1,167.999994873047,4|4,0:0|0:0,0:0:0:0:
436,304,64994,2,0,L|432:336,2,27.9999991455078,0|0|4,0:0|0:0|0:0,0:0:0:0:
436,304,65529,6,0,L|452:172,2,111.999996582031,4|4|0,0:0|0:0|0:0,0:0:0:0:
300,360,66172,5,8,0:0:0:0:
280,344,66226,1,8,0:0:0:0:
256,332,66279,1,0,0:0:0:0:
232,328,66333,1,0,0:0:0:0:
208,328,66387,1,0,0:0:0:0:
184,332,66440,1,0,0:0:0:0:
160,340,66494,2,0,L|140:364,1,27.9999991455078
40,220,66601,5,8,0:0:0:0:
80,248,66673,1,8,0:0:0:0:
128,256,66744,1,0,0:0:0:0:
176,248,66816,1,0,0:0:0:0:
216,224,66887,2,0,L|264:232,1,37.3333321940105
320,276,67029,6,0,P|404:276|468:160,1,223.999993164063,0|4,0:0|0:0,0:0:0:0:
392,40,67672,1,0,0:0:0:0:
248,16,67887,5,8,0:0:0:0:
248,16,67994,1,0,0:0:0:0:
248,16,68101,2,0,L|256:76,1,55.9999982910157
200,120,68315,5,8,0:0:0:0:
152,112,68387,1,0,0:0:0:0:
104,120,68458,1,2,0:0:0:0:
64,144,68529,1,0,0:0:0:0:
32,180,68601,1,2,0:0:0:0:
16,224,68672,1,2,0:0:0:0:
12,272,68744,6,2,P|40:336|184:348,1,223.999993164063,2|14,0:0|0:0,0:0:0:0:
256,224,69387,1,0,0:0:0:0:
388,284,69601,5,2,0:0:0:0:
436,296,69672,1,0,0:0:0:0:
476,268,69744,1,0,0:0:0:0:
484,220,69815,1,0,0:0:0:0:
456,180,69887,1,0,0:0:0:0:
440,136,69958,1,0,0:0:0:0:
452,88,70029,1,10,0:0:0:0:
452,88,70458,6,0,B|464:64|464:64|472:36,1,55.9999982910157,4|0,0:0|0:0,0:0:0:0:
376,124,70672,2,0,B|390:146|390:146|411:167,1,55.9999982910157,8|0,0:0|0:0,0:0:0:0:
384,44,70887,2,0,B|328:48|328:48|272:76,1,111.999996582031,8|0,0:0|0:0,0:0:0:0:
216,112,71208,1,0,0:0:0:0:
216,112,71315,6,0,B|160:108|160:108|104:80,1,111.999996582031
44,48,71637,1,0,0:0:0:0:
48,120,71744,2,0,L|52:176,1,55.9999982910157,8|0,0:0|0:0,0:0:0:0:
96,236,71958,2,0,L|92:292,1,55.9999982910157
32,336,72172,5,0,0:0:0:0:
100,364,72279,1,0,0:0:0:0:
172,348,72387,1,0,0:0:0:0:
224,300,72494,1,0,0:0:0:0:
248,232,72601,2,0,P|296:240|348:276,1,111.999996582031,8|0,0:0|0:0,0:0:0:0:
420,260,72922,1,0,0:0:0:0:
460,200,73029,2,0,P|442:154|448:91,1,111.999996582031
496,40,73351,1,0,0:0:0:0:
424,24,73458,5,8,0:0:0:0:
352,32,73565,1,0,0:0:0:0:
280,40,73672,1,0,0:0:0:0:
208,52,73779,1,0,0:0:0:0:
136,64,73887,6,0,P|60:112|48:132,1,111.999996582031,4|0,0:0|0:0,0:0:0:0:
28,200,74208,1,0,0:0:0:0:
68,260,74315,2,0,L|184:272,1,111.999996582031,8|0,0:0|0:0,0:0:0:0:
288,176,74744,5,0,0:0:0:0:
268,104,74851,1,0,0:0:0:0:
304,40,74958,2,0,L|360:32,1,55.9999982910157
460,80,75172,5,8,0:0:0:0:
480,152,75279,1,0,0:0:0:0:
444,216,75386,2,0,L|388:224,1,55.9999982910157
288,176,75601,6,0,P|232:168|172:164,1,111.999996582031
120,212,75922,1,0,0:0:0:0:
100,284,76029,2,0,P|156:292|216:296,1,111.999996582031,8|0,0:0|0:0,0:0:0:0:
360,292,76458,5,0,0:0:0:0:
432,272,76565,2,0,P|440:304|444:328,1,55.9999982910157,8|0,0:0|0:0,0:0:0:0:
376,216,76779,5,0,0:0:0:0:
304,236,76886,2,0,P|296:204|292:180,1,55.9999982910157,10|0,0:0|0:0,0:0:0:0:
452,196,77101,2,0,P|460:164|464:140,1,55.9999982910157,8|0,0:0|0:0,0:0:0:0:
404,32,77315,6,0,L|288:16,1,111.999996582031,6|0,0:0|0:0,0:0:0:0:
248,76,77636,1,0,0:0:0:0:
204,136,77744,2,0,L|88:152,1,111.999996582031,8|0,0:0|0:0,0:0:0:0:
20,136,78065,1,0,0:0:0:0:
44,208,78172,2,0,P|48:260|36:324,1,111.999996582031
100,360,78494,1,0,0:0:0:0:
168,336,78601,2,0,L|172:280,1,55.9999982910157,8|0,0:0|0:0,0:0:0:0:
236,196,78815,2,0,L|240:252,1,55.9999982910157
304,360,79029,5,0,0:0:0:0:
376,372,79137,1,0,0:0:0:0:
440,340,79244,1,0,0:0:0:0:
476,276,79351,1,0,0:0:0:0:
472,204,79458,2,0,P|464:148|468:92,1,111.999996582031,8|0,0:0|0:0,0:0:0:0:
488,24,79779,1,0,0:0:0:0:
416,40,79887,6,0,L|356:56,1,55.9999982910157
248,96,80101,2,0,L|308:112,1,55.9999982910157
432,120,80315,2,0,L|372:136,1,55.9999982910157,8|0,0:0|0:0,0:0:0:0:
264,176,80529,2,0,L|324:192,1,55.9999982910157
432,224,80744,6,0,L|424:340,1,111.999996582031,4|0,0:0|0:0,0:0:0:0:
360,368,81065,1,0,0:0:0:0:
288,360,81172,1,8,0:0:0:0:
228,320,81279,1,0,0:0:0:0:
200,252,81387,1,0,0:0:0:0:
140,212,81494,1,0,0:0:0:0:
68,208,81601,6,0,L|12:216,1,55.9999982910157
48,280,81815,2,0,L|56:336,1,55.9999982910157,2|0,0:0|0:0,0:0:0:0:
120,300,82029,2,0,L|176:292,1,55.9999982910157,8|0,0:0|0:0,0:0:0:0:
140,228,82243,2,0,L|132:172,1,55.9999982910157,2|0,0:0|0:0,0:0:0:0:
104,104,82458,5,0,0:0:0:0:
176,116,82565,1,0,0:0:0:0:
244,92,82672,1,0,0:0:0:0:
292,36,82779,1,0,0:0:0:0:
360,12,82887,1,8,0:0:0:0:
428,32,82994,1,0,0:0:0:0:
472,92,83101,1,0,0:0:0:0:
472,164,83208,1,0,0:0:0:0:
428,220,83315,5,0,0:0:0:0:
356,232,83422,2,0,P|348:264|344:296,1,55.9999982910157,8|0,0:0|0:0,0:0:0:0:
272,352,83637,5,0,0:0:0:0:
200,340,83744,2,0,P|192:308|188:276,1,55.9999982910157,8|0,0:0|0:0,0:0:0:0:
244,236,83958,2,0,P|252:204|256:172,1,55.9999982910157,8|0,0:0|0:0,0:0:0:0:
204,128,84172,6,0,P|144:116|100:84,1,111.999996582031
84,16,84494,1,0,0:0:0:0:
32,68,84601,2,0,L|40:180,1,111.999996582031,8|0,0:0|0:0,0:0:0:0:
48,252,84922,1,0,0:0:0:0:
56,324,85029,5,8,0:0:0:0:
140,336,85137,1,8,0:0:0:0:
208,288,85244,1,0,0:0:0:0:
232,208,85351,1,0,0:0:0:0:
304,164,85458,1,0,0:0:0:0:
388,180,85566,1,0,0:0:0:0:
440,244,85672,1,0,0:0:0:0:
440,328,85779,1,0,0:0:0:0:
376,384,85887,6,0,B|256:392|280:336|156:348,1,223.999993164063,4|0,0:0|0:0,0:0:0:0:
158,347,86744,2,0,L|144:376,8,27.9999991455078,8|2|0|2|0|2|0|2|8,0:0|0:0|0:0|0:0|0:0|0:0|0:0|0:0|0:0,0:0:0:0:
158,347,87601,5,4,0:0:0:0:
88,308,87708,1,0,0:0:0:0:
48,240,87815,2,0,L|40:160,1,80,8|0,0:0|0:0,0:0:0:0:
156,192,88029,1,0,0:0:0:0:
196,124,88136,2,0,L|204:44,1,80,8|0,0:0|0:0,0:0:0:0:
320,88,88351,2,0,L|312:8,1,80,8|0,0:0|0:0,0:0:0:0:
432,32,88565,5,0,0:0:0:0:
436,112,88672,2,0,P|444:152|460:188,1,80,8|0,0:0|0:0,0:0:0:0:
388,312,88887,5,0,0:0:0:0:
384,232,88994,2,0,P|376:192|360:156,1,80,8|0,0:0|0:0,0:0:0:0:
320,276,89208,2,0,P|289:302|266:334,1,80,8|0,0:0|0:0,0:0:0:0:
388,312,89422,5,0,0:0:0:0:
456,268,89529,2,0,P|472:230|479:191,1,80,8|0,0:0|0:0,0:0:0:0:
360,156,89744,5,0,0:0:0:0:
292,112,89851,2,0,P|275:74|268:35,1,80,8|0,0:0|0:0,0:0:0:0:
192,60,90065,2,0,L|184:144,1,80,8|0,0:0|0:0,0:0:0:0:
144,208,90279,5,0,0:0:0:0:
64,224,90387,2,0,B|28:248|28:248|8:280,1,80,8|0,0:0|0:0,0:0:0:0:
92,368,90601,5,0,0:0:0:0:
172,352,90709,2,0,B|208:328|208:328|228:296,1,80,8|0,0:0|0:0,0:0:0:0:
252,220,90922,2,0,B|271:188|271:188|307:164,1,80,8|4,0:0|0:0,0:0:0:0:
388,148,91137,5,0,0:0:0:0:
456,188,91244,2,0,P|464:224|464:272,1,80,8|0,0:0|0:0,0:0:0:0:
392,228,91458,5,0,0:0:0:0:
452,108,91565,2,0,P|444:72|444:24,1,80,8|0,0:0|0:0,0:0:0:0:
316,112,91779,2,0,P|324:148|324:196,1,80,8|0,0:0|0:0,0:0:0:0:
292,264,91994,5,0,0:0:0:0:
220,300,92101,2,0,L|136:292,1,80,8|0,0:0|0:0,0:0:0:0:
8,184,92315,5,0,0:0:0:0:
80,220,92422,2,0,L|164:212,1,80,8|0,0:0|0:0,0:0:0:0:
220,160,92637,1,8,0:0:0:0:
244,84,92744,5,8,0:0:0:0:
256,60,92797,1,0,0:0:0:0:
280,44,92851,1,8,0:0:0:0:
308,36,92904,1,0,0:0:0:0:
336,40,92958,1,8,0:0:0:0:
360,52,93012,1,0,0:0:0:0:
388,60,93065,1,0,0:0:0:0:
416,60,93119,1,0,0:0:0:0:
444,52,93172,2,0,L|480:72,3,40,8|0|8|0,0:0|0:0|0:0|0:0,0:0:0:0:
496,96,93387,2,0,L|500:136,3,40,0|0|8|0,0:0|0:0|0:0|0:0,0:0:0:0:
488,160,93601,5,12,0:0:0:0:
460,168,93654,1,0,0:0:0:0:
432,176,93708,2,0,L|344:200,1,80
304,136,93922,1,12,0:0:0:0:
276,128,93975,1,0,0:0:0:0:
248,120,94029,2,0,L|160:96,1,80
108,148,94244,2,0,L|20:172,1,80,12|0,0:0|0:0,0:0:0:0:
0,248,94458,5,8,0:0:0:0:
28,324,94565,1,0,0:0:0:0:
96,364,94672,1,8,0:0:0:0:
176,348,94779,1,0,0:0:0:0:
276,212,94886,5,8,0:0:0:0:
304,136,94993,1,0,0:0:0:0:
372,96,95100,1,8,0:0:0:0:
452,112,95207,1,0,0:0:0:0:
512,248,95315,5,8,0:0:0:0:
484,324,95422,1,0,0:0:0:0:
416,364,95529,1,8,0:0:0:0:
336,348,95636,1,0,0:0:0:0:
236,212,95744,5,8,0:0:0:0:
208,136,95851,1,0,0:0:0:0:
140,96,95958,2,0,L|100:100,3,40,8|0|0|0,0:0|0:0|0:0|0:0,0:0:0:0:
84,120,96172,5,8,0:0:0:0:
92,148,96226,1,0,0:0:0:0:
92,176,96279,1,0,0:0:0:0:
84,204,96333,1,0,0:0:0:0:
68,228,96387,2,0,L|28:240,3,40,8|0|0|0,0:0|0:0|0:0|0:0,0:0:0:0:
8,256,96601,5,8,0:0:0:0:
0,284,96655,1,0,0:0:0:0:
0,312,96708,1,0,0:0:0:0:
8,340,96762,1,0,0:0:0:0:
24,364,96816,2,0,L|64:376,3,40,8|8|8|8,0:0|0:0|0:0|0:0,0:0:0:0:
88,360,97029,5,2,0:0:0:0:
104,336,97083,1,0,0:0:0:0:
124,316,97137,1,0,0:0:0:0:
144,300,97190,1,0,0:0:0:0:
168,284,97244,1,0,0:0:0:0:
192,272,97297,1,0,0:0:0:0:
220,264,97351,1,0,0:0:0:0:
248,260,97404,1,0,0:0:0:0:
276,260,97458,5,8,0:0:0:0:
304,264,97512,1,8,0:0:0:0:
332,272,97565,1,0,0:0:0:0:
356,284,97619,1,0,0:0:0:0:
380,300,97672,2,0,P|416:320|452:332,1,80,12|0,0:0|0:0,0:0:0:0:
484,256,97887,6,0,P|424:228|388:140,1,160,6|0,0:0|0:0,0:0:0:0:
404,68,98208,2,0,L|484:76,1,80,8|0,0:0|0:0,0:0:0:0:
328,92,98422,2,0,L|248:100,1,80,8|0,0:0|0:0,0:0:0:0:
168,84,98637,1,8,0:0:0:0:
196,160,98744,6,0,P|124:152|84:80,1,160,2|0,0:0|0:0,0:0:0:0:
8,56,99065,2,0,P|8:100|16:136,1,80,10|0,0:0|0:0,0:0:0:0:
60,200,99279,1,8,0:0:0:0:
168,84,99387,2,0,P|168:40|176:4,1,80,0|8,0:0|0:0,0:0:0:0:
252,32,99601,6,0,P|248:112|264:192,1,160,0|2,0:0|0:0,0:0:0:0:
328,240,99922,1,8,0:0:0:0:
408,256,100029,2,0,B|448:244|448:244|476:216,1,80,0|8,0:0|0:0,0:0:0:0:
356,316,100244,2,8,B|316:328|316:328|288:356,1,80,2|8,0:0|0:0,0:0:0:0:
212,376,100458,5,2,0:0:0:0:
172,308,100565,1,8,0:0:0:0:
100,276,100672,1,4,0:0:0:0:
20,276,100779,1,8,0:0:0:0:
108,354,100887,5,0,0:0:0:0:
172,308,100994,1,8,0:0:0:0:
197,233,101101,1,4,0:0:0:0:
190,154,101208,1,8,0:0:0:0:
140,92,101315,6,0,L|56:84,1,80,0|8,0:0|0:0,0:0:0:0:
32,160,101529,2,0,L|116:168,1,80,2|8,0:0|0:0,0:0:0:0:
298,86,101744,2,0,L|214:78,1,80,2|8,0:0|0:0,0:0:0:0:
190,154,101958,2,0,L|274:162,1,80,2|8,0:0|0:0,0:0:0:0:
348,144,102172,6,0,B|408:100|408:100|424:16,1,160,2|0,0:0|0:0,0:0:0:0:
496,56,102494,1,8,0:0:0:0:
496,56,102601,2,0,L|484:136,1,80,2|8,0:0|0:0,0:0:0:0:
424,188,102815,2,0,L|436:268,1,80,0|8,0:0|0:0,0:0:0:0:
492,324,103029,5,8,0:0:0:0:
448,356,103101,1,0,0:0:0:0:
396,360,103172,1,0,0:0:0:0:
348,336,103244,1,2,0:0:0:0:
316,292,103315,1,0,0:0:0:0:
264,276,103387,1,0,0:0:0:0:
212,288,103458,5,10,0:0:0:0:
192,336,103529,1,0,0:0:0:0:
224,380,103601,1,0,0:0:0:0:
276,380,103672,1,2,0:0:0:0:
304,336,103744,1,0,0:0:0:0:
300,284,103815,1,0,0:0:0:0:
264,244,103887,6,0,B|248:208|248:164,1,80,10|0,0:0|0:0,0:0:0:0:
252,140,104047,1,0,0:0:0:0:
264,116,104101,1,0,0:0:0:0:
448,132,104208,1,8,0:0:0:0:
332,40,104315,2,0,L|280:32,2,53.3333333333333,2|0|0,0:0|0:0|0:0,0:0:0:0:
368,76,104529,2,0,B|352:112|352:156,1,80,12|0,0:0|0:0,0:0:0:0:
476,220,104744,6,0,L|468:300,1,80,12|0,0:0|0:0,0:0:0:0:
400,260,104958,2,0,L|347:320,1,80,8|0,0:0|0:0,0:0:0:0:
308,252,105172,2,0,L|230:271,1,80,8|0,0:0|0:0,0:0:0:0:
244,194,105386,2,0,L|168:165,1,80,8|0,0:0|0:0,0:0:0:0:
40,65,105601,6,0,L|48:145,1,80,8|0,0:0|0:0,0:0:0:0:
116,105,105815,2,0,L|168:165,1,80,8|0,0:0|0:0,0:0:0:0:
208,97,106029,2,0,L|285:116,1,80,8|0,0:0|0:0,0:0:0:0:
272,39,106243,2,0,L|347:10,1,80,8|0,0:0|0:0,0:0:0:0:
424,36,106458,5,8,0:0:0:0:
420,64,106512,1,0,0:0:0:0:
428,92,106565,1,0,0:0:0:0:
448,112,106619,1,0,0:0:0:0:
472,120,106672,2,0,L|480:204,1,80,8|0,0:0|0:0,0:0:0:0:
444,272,106887,1,8,0:0:0:0:
368,300,106994,1,0,0:0:0:0:
296,268,107101,1,8,0:0:0:0:
220,296,107208,1,0,0:0:0:0:
152,256,107315,6,0,L|160:200,2,53.3333333333333,8|8|8,0:0|0:0|0:0,0:0:0:0:
104,280,107529,2,0,P|64:272|24:248,1,80,0|0,0:0|0:0,0:0:0:0:
8,120,107744,6,0,L|0:64,2,53.3333333333333
56,144,107958,2,0,P|96:136|136:112,1,80,8|0,0:0|0:0,0:0:0:0:
184,56,108172,5,6,0:0:0:0:
184,56,108279,1,0,0:0:0:0:
184,56,108387,2,0,B|244:64|244:64|272:92|272:92|332:100,1,160,8|0,0:0|0:0,0:0:0:0:
408,76,108708,2,0,L|488:84,1,80,8|0,0:0|0:0,0:0:0:0:
388,156,108922,1,8,0:0:0:0:
504,220,109029,6,0,L|424:228,1,80
324,300,109244,2,0,L|404:308,1,80,8|0,0:0|0:0,0:0:0:0:
304,224,109458,1,0,0:0:0:0:
248,280,109565,2,0,P|244:320|256:360,1,80,8|0,0:0|0:0,0:0:0:0:
380,240,109779,1,8,0:0:0:0:
224,208,109886,6,0,L|168:216,2,53.3333333333333,8|0|8,0:0|0:0|0:0,0:0:0:0:
252,144,110101,1,0,0:0:0:0:
248,116,110154,1,0,0:0:0:0:
236,92,110208,1,8,0:0:0:0:
216,72,110261,1,8,0:0:0:0:
192,60,110315,2,0,L|152:56,3,40,0|0|8|8,0:0|0:0|0:0|0:0,0:0:0:0:
128,72,110529,2,0,L|88:76,3,40
64,60,110744,5,12,0:0:0:0:
64,60,111172,6,0,L|72:8,2,53.3333333333333,2|0|0,0:0|0:0|0:0,0:0:0:0:
208,104,111386,2,0,L|216:156,2,53.3333333333333,0|0|0,0:0|0:0|0:0,0:0:0:0:
344,72,111601,6,0,P|376:116|428:144,1,111.999996582031,12|0,0:0|0:0,0:0:0:0:
496,160,111922,1,0,0:0:0:0:
496,160,112029,2,0,L|488:276,1,111.999996582031,12|0,0:0|0:0,0:0:0:0:
452,336,112351,1,0,0:0:0:0:
384,364,112458,6,0,P|328:368|272:348,1,111.999996582031,12|0,0:0|0:0,0:0:0:0:
220,304,112779,1,0,0:0:0:0:
288,280,112886,6,0,L|344:272,1,55.9999982910157,12|0,0:0|0:0,0:0:0:0:
204,376,113101,2,0,L|148:368,1,55.9999982910157,12|0,0:0|0:0,0:0:0:0:
312,204,113315,6,0,L|424:192,1,111.999996582031,0|12,0:0|0:0,0:0:0:0:
392,48,113744,2,0,L|280:36,1,111.999996582031,12|0,0:0|0:0,0:0:0:0:
208,48,114065,1,0,0:0:0:0:
152,96,114172,6,0,P|136:136|92:188,1,111.999996582031,12|0,0:0|0:0,0:0:0:0:
20,208,114494,2,0,L|24:272,1,55.9999982910157,12|0,0:0|0:0,0:0:0:0:
64,324,114708,1,0,0:0:0:0:
128,292,114815,2,0,P|156:292|184:296,1,55.9999982910157,12|0,0:0|0:0,0:0:0:0:
244,336,115029,6,0,P|296:356|360:352,1,111.999996582031,12|0,0:0|0:0,0:0:0:0:
420,324,115351,1,0,0:0:0:0:
464,268,115458,2,0,L|472:152,1,111.999996582031,12|0,0:0|0:0,0:0:0:0:
332,200,115886,6,0,P|280:220|216:216,1,111.999996582031,12|0,0:0|0:0,0:0:0:0:
156,188,116208,1,0,0:0:0:0:
112,132,116315,2,0,L|104:16,1,111.999996582031,12|0,0:0|0:0,0:0:0:0:
32,40,116637,1,0,0:0:0:0:
32,40,116690,1,0,0:0:0:0:
32,40,116744,5,8,0:0:0:0:
16,60,116797,1,0,0:0:0:0:
4,84,116851,1,0,0:0:0:0:
0,112,116904,1,0,0:0:0:0:
4,140,116958,1,0,0:0:0:0:
64,208,117065,5,8,0:0:0:0:
68,236,117119,1,0,0:0:0:0:
64,264,117172,1,0,0:0:0:0:
52,288,117226,1,0,0:0:0:0:
36,308,117279,1,0,0:0:0:0:
104,372,117387,2,0,L|148:364,3,40,8|0|0|0,0:0|0:0|0:0|0:0,0:0:0:0:
160,340,117601,5,8,0:0:0:0:
184,324,117654,1,0,0:0:0:0:
212,316,117708,1,0,0:0:0:0:
240,316,117762,1,0,0:0:0:0:
268,324,117815,1,0,0:0:0:0:
292,336,117869,1,0,0:0:0:0:
312,356,117922,1,8,0:0:0:0:
336,368,117976,1,0,0:0:0:0:
364,376,118029,1,0,0:0:0:0:
392,376,118083,1,0,0:0:0:0:
420,368,118137,1,0,0:0:0:0:
444,352,118190,1,0,0:0:0:0:
460,328,118244,2,0,L|468:248,1,80,8|0,0:0|0:0,0:0:0:0:
424,188,118458,6,0,B|384:192|384:192|352:212|352:212|312:216,1,111.999996582031,4|0,0:0|0:0,0:0:0:0:
248,196,118779,1,0,0:0:0:0:
208,136,118887,2,0,B|196:84|196:84|204:24,1,111.999996582031,12|0,0:0|0:0,0:0:0:0:
60,48,119315,2,0,B|72:100|72:100|64:160,1,111.999996582031,4|0,0:0|0:0,0:0:0:0:
20,216,119637,1,0,0:0:0:0:
20,216,119744,2,0,B|12:274|12:274|24:326,1,111.999996582031,12|0,0:0|0:0,0:0:0:0:
160,376,120172,6,0,L|276:368,1,111.999996582031,4|0,0:0|0:0,0:0:0:0:
300,300,120494,1,0,0:0:0:0:
364,264,120601,1,12,0:0:0:0:
436,268,120708,1,0,0:0:0:0:
488,316,120815,2,0,L|484:372,1,55.9999982910157
508,248,121029,6,0,L|504:192,2,55.9999982910157,12|0|0,0:0|0:0|0:0,0:0:0:0:
404,200,121351,2,0,L|408:144,2,55.9999982910157,12|0|0,0:0|0:0|0:0,0:0:0:0:
296,228,121672,2,0,P|268:236|240:240,1,55.9999982910157,12|0,0:0|0:0,0:0:0:0:
172,212,121887,6,0,P|128:192|60:184,1,111.999996582031,4|0,0:0|0:0,0:0:0:0:
8,228,122208,1,0,0:0:0:0:
8,228,122315,2,0,L|16:344,1,111.999996582031,12|0,0:0|0:0,0:0:0:0:
160,368,122744,2,0,B|248:380|240:332|324:344,1,167.999994873047,4|0,0:0|0:0,0:0:0:0:
392,368,123172,2,0,P|440:372|496:336,1,111.999996582031,12|0,0:0|0:0,0:0:0:0:
448,200,123601,5,8,0:0:0:0:
428,180,123654,1,8,0:0:0:0:
404,168,123708,1,8,0:0:0:0:
376,164,123761,1,8,0:0:0:0:
348,168,123815,1,0,0:0:0:0:
324,180,123869,1,0,0:0:0:0:
304,200,123922,2,0,L|300:228,1,27.9999991455078
260,324,124029,5,0,0:0:0:0:
240,344,124082,1,0,0:0:0:0:
216,356,124136,1,0,0:0:0:0:
188,360,124189,1,0,0:0:0:0:
160,356,124243,1,8,0:0:0:0:
136,344,124297,1,0,0:0:0:0:
116,324,124350,2,0,L|112:296,1,27.9999991455078,0|8,0:0|0:0,0:0:0:0:
148,200,124458,5,8,0:0:0:0:
151,171,124511,1,0,0:0:0:0:
146,143,124565,1,0,0:0:0:0:
133,117,124619,1,0,0:0:0:0:
113,96,124672,1,0,0:0:0:0:
90,80,124726,1,0,0:0:0:0:
61,77,124779,1,0,0:0:0:0:
33,82,124833,1,0,0:0:0:0:
8,96,124887,2,0,L|4:152,1,55.9999982910157,8|0,0:0|0:0,0:0:0:0:
56,200,125101,2,0,L|60:256,1,55.9999982910157,8|8,0:0|0:0,0:0:0:0:
20,316,125315,6,0,P|76:356|184:352,1,167.999994873047,4|4,0:0|0:0,0:0:0:0:
304,180,125958,1,4,0:0:0:0:
304,180,126172,2,0,P|360:140|468:144,1,167.999994873047,4|4,0:0|0:0,0:0:0:0:
508,276,126708,2,0,L|504:304,2,27.9999991455078,0|0|4,0:0|0:0|0:0,0:0:0:0:
508,276,127244,5,4,0:0:0:0:
372,324,127458,1,4,0:0:0:0:
244,256,127672,1,0,0:0:0:0:
104,304,127887,5,8,0:0:0:0:
92,284,127940,1,0,0:0:0:0:
84,260,127994,1,0,0:0:0:0:
84,236,128047,1,0,0:0:0:0:
88,212,128101,1,0,0:0:0:0:
92,188,128154,1,0,0:0:0:0:
92,164,128207,1,0,0:0:0:0:
84,140,128261,1,0,0:0:0:0:
72,120,128314,5,0,0:0:0:0:
104,52,128422,1,0,0:0:0:0:
104,52,128476,1,0,0:0:0:0:
104,52,128529,2,0,L|160:44,1,55.9999982910157,8|0,0:0|0:0,0:0:0:0:
232,36,128744,6,0,L|344:44,1,111.999996582031,4|0,0:0|0:0,0:0:0:0:
472,112,129172,1,0,0:0:0:0:
472,112,129387,1,0,0:0:0:0:
344,184,129601,2,0,L|232:192,1,111.999996582031
104,256,130029,6,0,L|68:248,2,37.3333321940105,8|2|0,0:0|0:0|0:0,0:0:0:0:
112,304,130244,2,0,L|76:324,2,37.3333321940105,2|0|2,0:0|0:0|0:0,0:0:0:0:
152,332,130458,6,0,B|268:356|256:288|372:312,1,223.999993164063,0|4,0:0|0:0,0:0:0:0:
504,372,131101,1,0,0:0:0:0:
476,228,131315,5,2,0:0:0:0:
436,200,131387,1,0,0:0:0:0:
388,192,131458,1,0,0:0:0:0:
340,204,131529,1,0,0:0:0:0:
292,216,131601,1,0,0:0:0:0:
244,208,131672,1,0,0:0:0:0:
204,180,131744,1,10,0:0:0:0:
204,180,132172,6,0,P|196:156|192:124,1,55.9999982910157,4|0,0:0|0:0,0:0:0:0:
200,52,132387,2,0,P|174:52|143:46,1,55.9999982910157
80,16,132601,2,0,P|72:40|56:68,1,55.9999982910157,8|0,0:0|0:0,0:0:0:0:
7,121,132816,2,0,P|27:135|49:159,1,55.9999982910157
92,216,133029,6,0,P|96:272|80:328,1,111.999996582031
140,368,133351,1,0,0:0:0:0:
212,360,133458,1,8,0:0:0:0:
260,308,133565,1,0,0:0:0:0:
268,236,133672,2,0,L|264:180,1,55.9999982910157
212,128,133887,6,0,P|180:120|156:108,1,55.9999982910157
288,108,134101,2,0,P|296:75|308:51,1,55.9999982910157
304,180,134315,2,0,P|336:188|360:200,1,55.9999982910157,8|0,0:0|0:0,0:0:0:0:
228,200,134529,2,0,P|220:232|208:256,1,55.9999982910157
160,304,134744,6,0,L|48:296,1,111.999996582031
0,248,135065,1,0,0:0:0:0:
68,224,135172,1,8,0:0:0:0:
100,160,135279,1,0,0:0:0:0:
88,88,135387,2,0,L|68:36,1,55.9999982910157
156,112,135601,6,0,P|208:124|268:116,1,111.999996582031,4|0,0:0|0:0,0:0:0:0:
324,72,135922,1,0,0:0:0:0:
380,24,136029,2,0,P|435:16|489:28,1,111.999996582031,8|0,0:0|0:0,0:0:0:0:
504,100,136351,1,0,0:0:0:0:
452,152,136458,5,0,0:0:0:0:
384,172,136565,1,0,0:0:0:0:
340,232,136672,1,0,0:0:0:0:
336,304,136779,1,0,0:0:0:0:
372,368,136887,6,0,L|432:360,1,55.9999982910157,8|0,0:0|0:0,0:0:0:0:
276,264,137101,2,0,L|216:256,1,55.9999982910157
60,360,137315,6,0,L|120:352,1,55.9999982910157
12,208,137529,1,12,0:0:0:0:
12,208,137636,1,0,0:0:0:0:
36,284,137744,2,0,L|96:276,3,55.9999982910157,8|0|0|0,0:0|0:0|0:0|0:0,0:0:0:0:
224,300,138172,6,0,L|164:292,1,55.9999982910157
248,224,138387,2,0,L|188:216,1,55.9999982910157
56,204,138601,6,0,L|116:196,1,55.9999982910157,10|0,0:0|0:0,0:0:0:0:
32,128,138816,2,0,L|92:120,1,55.9999982910157,4|0,0:0|0:0,0:0:0:0:
144,80,139029,6,0,P|192:52|248:36,1,111.999996582031,6|0,0:0|0:0,0:0:0:0:
300,88,139351,1,0,0:0:0:0:
356,136,139458,2,0,P|409:120|457:92,1,111.999996582031,8|0,0:0|0:0,0:0:0:0:
512,140,139779,1,0,0:0:0:0:
472,200,139887,6,0,P|468:228|472:256,1,55.9999982910157
504,320,140101,1,0,0:0:0:0:
452,372,140208,1,0,0:0:0:0:
340,356,140315,6,0,P|344:328|340:300,1,55.9999982910157,8|0,0:0|0:0,0:0:0:0:
308,236,140529,1,0,0:0:0:0:
360,184,140636,1,0,0:0:0:0:
332,116,140744,6,0,P|276:120|224:104,1,111.999996582031
176,48,141065,1,0,0:0:0:0:
176,48,141172,2,0,L|64:56,1,111.999996582031,8|0,0:0|0:0,0:0:0:0:
8,100,141494,1,0,0:0:0:0:
76,124,141601,5,0,0:0:0:0:
112,188,141708,1,0,0:0:0:0:
108,260,141815,1,0,0:0:0:0:
68,320,141922,1,0,0:0:0:0:
46,219,142029,5,8,0:0:0:0:
112,188,142136,1,0,0:0:0:0:
184,198,142243,1,4,0:0:0:0:
240,244,142350,1,0,0:0:0:0:
272,312,142458,6,0,P|324:348|376:352,1,111.999996582031,4|0,0:0|0:0,0:0:0:0:
436,320,142779,1,0,0:0:0:0:
468,256,142887,2,0,L|472:136,1,111.999996582031,8|0,0:0|0:0,0:0:0:0:
444,76,143208,1,0,0:0:0:0:
380,40,143315,6,0,B|356:56|356:56|336:80,1,55.9999982910157
320,148,143529,2,0,B|302:168|302:168|278:184,1,55.9999982910157,2|0,0:0|0:0,0:0:0:0:
208,196,143744,2,0,P|184:144|176:88,1,111.999996582031,8|10,0:0|0:0,0:0:0:0:
136,28,144065,1,0,0:0:0:0:
64,16,144172,5,12,0:0:0:0:
12,80,144279,1,8,0:0:0:0:
24,164,144386,1,0,0:0:0:0:
88,220,144494,1,0,0:0:0:0:
172,220,144601,1,8,0:0:0:0:
232,164,144708,1,0,0:0:0:0:
248,80,144815,1,8,0:0:0:0:
308,24,144922,1,8,0:0:0:0:
392,24,145029,5,0,0:0:0:0:
456,80,145137,1,0,0:0:0:0:
468,164,145244,1,0,0:0:0:0:
416,228,145351,1,0,0:0:0:0:
332,244,145458,2,0,L|324:184,1,55.9999982910157
504,248,145672,2,0,L|496:308,1,55.9999982910157
384,368,145887,6,0,P|304:372|240:328,1,160,4|0,0:0|0:0,0:0:0:0:
356,156,146744,2,0,P|434:160|499:116,1,160,12|0,0:0|0:0,0:0:0:0:
448,28,147386,1,0,0:0:0:0:
348,56,147601,6,0,P|304:52|268:36,1,80,4|0,0:0|0:0,0:0:0:0:
204,116,148029,2,0,P|170:87|149:53,1,80,4|0,0:0|0:0,0:0:0:0:
56,12,148458,5,12,0:0:0:0:
12,104,148672,2,0,L|16:184,1,80
64,276,149101,1,0,0:0:0:0:
152,328,149315,6,0,P|236:340|308:304,1,160,4|0,0:0|0:0,0:0:0:0:
376,116,150172,2,0,P|292:104|220:140,1,160,8|0,0:0|0:0,0:0:0:0:
172,224,150815,1,4,0:0:0:0:
72,200,151029,6,0,P|32:216|0:244,1,80,4|0,0:0|0:0,0:0:0:0:
4,344,151458,2,0,P|37:370|78:384,1,80,0|0,0:0|0:0,0:0:0:0:
108,376,151744,1,0,0:0:0:0:
132,352,151815,1,0,0:0:0:0:
144,320,151887,6,0,L|148:276,2,26.6666666666667,12|0|0,0:0|0:0|0:0,0:0:0:0:
216,292,152101,2,0,L|244:258,2,26.6666666666667
296,304,152315,6,0,L|338:292,2,26.6666666666667,8|8|8,0:0|0:0|0:0,0:0:0:0:
360,356,152529,2,0,L|401:371,2,26.6666666666667
456,336,152744,6,0,L|468:176,1,160,4|0,0:0|0:0,0:0:0:0:
276,100,153601,2,0,L|268:224,1,120,12|0,0:0|0:0,0:0:0:0:
192,356,154244,1,0,0:0:0:0:
88,348,154458,5,4,0:0:0:0:
12,280,154672,2,0,B|8:228|8:228|44:184|44:184|40:132,1,160
24,100,155172,2,0,L|0:84,2,26.6666666666667,0|0|8,0:0|0:0|0:0,0:0:0:0:
124,132,155529,1,0,0:0:0:0:
208,72,155744,1,8,0:0:0:0:
244,32,155851,2,0,P|284:24|328:32,1,80,0|4,0:0|0:0,0:0:0:0:
360,68,156172,6,0,P|384:128|472:168,1,160,4|8,0:0|0:0,0:0:0:0:
484,272,156815,1,0,0:0:0:0:
388,308,157029,2,0,P|364:248|276:208,1,160,12|0,0:0|0:0,0:0:0:0:
184,240,157672,1,8,0:0:0:0:
128,328,157887,5,0,0:0:0:0:
76,340,157994,1,0,0:0:0:0:
32,312,158101,1,0,0:0:0:0:
20,260,158208,1,0,0:0:0:0:
44,216,158315,2,0,P|48:192|48:172,1,40,10|8,0:0|0:0,0:0:0:0:
20,132,158529,2,0,P|16:108|16:88,1,40
40,48,158744,5,10,0:0:0:0:
84,24,158851,1,0,0:0:0:0:
136,28,158958,1,8,0:0:0:0:
176,60,159065,1,8,0:0:0:0:
192,108,159172,1,2,0:0:0:0:
204,160,159279,1,0,0:0:0:0:
244,192,159386,1,0,0:0:0:0:
296,196,159493,1,0,0:0:0:0:
340,172,159601,6,0,L|332:120,3,47.9999985351563,2|0|0|0,0:0|0:0|0:0|0:0,0:0:0:0:
412,196,160029,2,0,L|453:163,3,47.9999985351563,8|0|0|0,0:0|0:0|0:0|0:0,0:0:0:0:
424,272,160458,2,0,L|473:291,3,47.9999985351563
367,322,160886,2,0,L|375:374,3,47.9999985351563,8|0|0|0,0:0|0:0|0:0|0:0,0:0:0:0:
296,296,161315,6,0,P|272:316|244:332,1,64
160,344,161529,2,0,P|130:333|102:316,1,64
60,244,161744,2,0,P|54:213|54:180,1,64,8|0,0:0|0:0,0:0:0:0:
86,102,161958,2,0,P|110:82|138:66,1,64
220,56,162172,6,0,P|249:66|277:83,3,64,0|0|0|0,0:3|0:3|0:3|0:3,0:3:0:0:
348,36,162601,2,0,P|365:61|379:90,3,64,8|0|4|0,0:0|0:0|0:0|0:0,0:0:0:0:
480,68,163029,5,0,0:0:0:0:
488,120,163101,1,0,0:0:0:0:
472,172,163172,1,0,0:0:0:0:
428,200,163244,1,0,0:0:0:0:
376,208,163315,1,0,0:0:0:0:
332,240,163387,1,0,0:0:0:0:
312,288,163458,5,8,0:0:0:0:
328,340,163529,1,0,0:0:0:0:
380,356,163601,1,0,0:0:0:0:
428,336,163672,1,0,0:0:0:0:
444,284,163744,1,0,0:0:0:0:
420,236,163815,1,0,0:0:0:0:
368,220,163887,5,8,0:0:0:0:
316,228,163958,1,0,0:0:0:0:
272,260,164029,1,0,0:0:0:0:
248,308,164101,1,0,0:0:0:0:
200,332,164172,1,0,0:0:0:0:
148,324,164244,1,0,0:0:0:0:
112,284,164315,5,8,0:0:0:0:
104,232,164387,1,0,0:0:0:0:
132,188,164458,1,0,0:0:0:0:
144,136,164529,1,0,0:0:0:0:
132,84,164601,2,0,L|80:56,1,53.3333333333333
24,136,164744,6,0,L|28:192,5,53.3333333333333,8|8|0|0|0|0,0:0|0:0|0:0|0:0|0:0|0:0,0:0:0:0:
108,236,165172,2,0,L|104:292,5,53.3333333333333,8|8|0|0|0|0,0:0|0:0|0:0|0:0|0:0|0:0,0:0:0:0:
32,324,165601,5,8,0:0:0:0:
196,284,165744,1,8,0:0:0:0:
76,164,165887,1,8,0:0:0:0:
124,350,166029,5,8,0:0:0:0:
171,188,166172,1,8,0:0:0:0:
7,232,166315,1,8,0:0:0:0:
124,350,166458,6,0,P|188:360|284:320,1,167.999994873047,4|0,0:0|0:0,0:0:0:0:
328,264,166887,2,0,L|444:276,1,111.999996582031
476,244,167172,1,0,0:0:0:0:
480,196,167244,1,0,0:0:0:0:
452,156,167315,2,0,P|388:112|360:24,1,167.999994873047,12|12,0:0|0:0,0:0:0:0:
288,8,167744,6,0,P|284:32|288:68,1,55.9999982910157
312,132,167958,2,0,P|322:153|346:181,1,55.9999982910157,12|0,0:0|0:0,0:0:0:0:
316,244,168172,6,0,L|196:256,1,111.999996582031,0|12,0:0|0:0,0:0:0:0:
80,332,168601,1,12,0:0:0:0:
100,188,168815,1,0,0:0:0:0:
104,140,168887,1,0,0:0:0:0:
88,96,168958,1,0,0:0:0:0:
56,60,169029,1,12,0:0:0:0:
192,8,169244,1,0,0:0:0:0:
188,56,169316,1,0,0:0:0:0:
204,100,169387,1,0,0:0:0:0:
236,136,169458,2,0,L|292:140,1,55.9999982910157,12|0,0:0|0:0,0:0:0:0:
344,188,169672,2,0,L|400:184,1,55.9999982910157,12|0,0:0|0:0,0:0:0:0:
456,136,169887,6,0,P|480:184|492:240,1,111.999996582031,12|0,0:0|0:0,0:0:0:0:
464,308,170208,1,0,0:0:0:0:
404,348,170315,2,0,L|292:356,1,111.999996582031,12|0,0:0|0:0,0:0:0:0:
199,240,170744,6,0,P|223:192|235:136,1,111.999996582031,12|0,0:0|0:0,0:0:0:0:
207,68,171065,1,0,0:0:0:0:
147,28,171172,2,0,L|35:20,1,111.999996582031,12|0,0:0|0:0,0:0:0:0:
4,88,171494,1,0,0:0:0:0:
28,156,171601,5,8,0:0:0:0:
96,184,171708,1,0,0:0:0:0:
164,160,171815,1,0,0:0:0:0:
164,160,171869,1,0,0:0:0:0:
164,160,171922,2,0,P|192:144|220:140,1,55.9999982910157,8|0,0:0|0:0,0:0:0:0:
288,152,172136,1,0,0:0:0:0:
304,160,172190,1,0,0:0:0:0:
320,168,172244,1,8,0:0:0:0:
388,148,172351,1,0,0:0:0:0:
404,140,172405,1,0,0:0:0:0:
420,132,172459,5,8,0:0:0:0:
488,156,172565,1,0,0:0:0:0:
512,224,172672,1,0,0:0:0:0:
512,224,172726,1,0,0:0:0:0:
512,224,172779,2,0,L|508:280,1,55.9999982910157,8|0,0:0|0:0,0:0:0:0:
476,348,172994,1,0,0:0:0:0:
456,356,173047,1,0,0:0:0:0:
436,364,173101,1,8,0:0:0:0:
300,368,173315,6,0,B|272:260|272:260|168:208|168:208|124:288|20:272|8:180,1,447.999986328125,12|12,0:0|0:0,0:0:0:0:
8,183,174815,1,0,0:0:0:0:
96,68,175029,6,0,B|168:28|168:28|260:16,2,167.999994873047,12|0|0,0:0|0:0|0:0,0:0:0:0:
8,183,175887,1,12,0:0:0:0:
152,196,176101,2,0,L|384:212,1,223.999993164063
456,332,176744,6,0,P|308:364|180:244,1,335.999989746094,12|0,0:0|0:0,0:0:0:0:
330,247,177601,2,0,P|215:360|56:332,1,335.999989746094,12|0,0:0|0:0,0:0:0:0:
32,304,178297,1,0,0:0:0:0:
28,268,178351,1,0,0:0:0:0:
44,236,178404,1,0,0:0:0:0:
76,216,178458,6,0,B|92:132|92:132|48:52,2,167.999994873047,12|0|0,0:0|0:0|0:0,0:0:0:0:
220,192,179315,2,0,B|204:276|204:276|248:356,2,167.999994873047,12|0|0,0:0|0:0|0:0,0:0:0:0:
316,80,180172,6,0,B|380:84|380:84|412:108|412:108|476:112,2,167.999994873047,12|0|0,0:0|0:0|0:0,0:0:0:0:
272,104,180887,1,0,0:0:0:0:
224,108,180958,1,0,0:0:0:0:
180,88,181029,2,0,P|88:88|20:196,1,223.999993164063,12|0,0:0|0:0,0:0:0:0:
68,328,181672,1,4,0:0:0:0:
208,364,181887,6,0,L|320:356,1,111.999996582031,12|0,0:0|0:0,0:0:0:0:
384,324,182208,1,0,0:0:0:0:
420,260,182315,2,0,P|416:204|428:148,1,111.999996582031,12|0,0:0|0:0,0:0:0:0:
328,40,182744,6,0,L|216:48,1,111.999996582031,12|0,0:0|0:0,0:0:0:0:
168,40,183029,1,0,0:0:0:0:
120,36,183101,1,0,0:0:0:0:
72,32,183172,1,12,0:0:0:0:
40,176,183387,1,0,0:0:0:0:
184,188,183601,6,0,L|296:196,1,111.999996582031,12|0,0:0|0:0,0:0:0:0:
344,188,183886,1,0,0:0:0:0:
392,184,183958,1,0,0:0:0:0:
440,180,184029,1,12,0:0:0:0:
472,324,184244,1,0,0:0:0:0:
328,340,184458,2,0,P|240:336|160:364,1,167.999994873047,12|0,0:0|0:0,0:0:0:0:
92,344,184887,2,0,L|80:228,1,111.999996582031,12|0,0:0|0:0,0:0:0:0:
168,116,185315,6,0,L|176:60,2,55.9999982910157,12|0|0,0:0|0:0|0:0,0:0:0:0:
228,160,185637,2,0,L|272:194,2,55.9999982910157,12|0|0,0:0|0:0|0:0,2:0:0:0:
160,188,185958,2,0,L|107:209,1,55.9999982910157,12|0,0:0|0:0,2:0:0:0:
236,88,186172,6,0,P|264:84|296:84,1,55.9999982910157,12|0,0:0|0:0,0:0:0:0:
356,116,186387,1,0,0:0:0:0:
212,236,186494,6,0,P|201:262|185:289,1,55.9999982910157,12|0,0:0|0:0,0:0:0:0:
127,325,186709,1,0,0:0:0:0:
100,144,186815,6,0,P|82:121|66:94,1,55.9999982910157,12|0,0:0|0:0,0:0:0:0:
65,25,187030,1,4,0:0:0:0:
65,25,189386,6,0,L|104:12,2,37.3333321940105
17,77,189601,5,2,0:0:0:0:
13,87,189654,1,0,0:0:0:0:
17,97,189708,1,0,0:0:0:0:
24,106,189762,1,0,0:0:0:0:
34,110,189815,1,0,0:0:0:0:
46,108,189869,1,0,0:0:0:0:
55,102,189922,1,0,0:0:0:0:
60,92,189976,1,0,0:0:0:0:
59,81,190029,1,0,0:0:0:0:
55,71,190083,1,0,0:0:0:0:
46,65,190137,1,0,0:0:0:0:
35,64,190190,1,0,0:0:0:0:
24,67,190244,1,8,0:0:0:0:
8,196,190458,5,4,0:0:0:0:
8,196,190565,1,0,0:0:0:0:
8,196,190672,2,0,P|48:200|88:192,1,80,12|0,0:0|0:0,0:0:0:0:
140,136,190886,1,4,0:0:0:0:
220,156,190994,2,0,L|224:236,1,80,8|4,0:0|0:0,0:0:0:0:
192,308,191208,1,8,0:0:0:0:
272,300,191315,5,4,0:0:0:0:
272,300,191422,1,0,0:0:0:0:
272,300,191529,2,0,P|312:296|352:304,1,80,12|0,0:0|0:0,0:0:0:0:
404,360,191743,1,4,0:0:0:0:
484,340,191851,2,0,L|488:260,1,80,8|4,0:0|0:0,0:0:0:0:
456,188,192065,1,8,0:0:0:0:
384,156,192172,6,0,P|344:163|305:159,1,80,4|0,0:0|0:0,0:0:0:0:
84,40,192386,1,8,0:0:0:0:
108,28,192439,1,0,0:0:0:0:
136,24,192493,1,0,0:0:0:0:
164,24,192547,1,0,0:0:0:0:
192,32,192600,2,0,P|218:62|234:98,1,80,8|0,0:0|0:0,0:0:0:0:
180,260,192815,2,0,P|192:222|216:189,1,80
324,68,193029,5,8,0:0:0:0:
352,64,193083,1,8,0:0:0:0:
380,60,193136,1,8,0:0:0:0:
408,56,193190,1,8,0:0:0:0:
436,52,193244,2,0,L|448:132,1,80
328,205,193457,5,8,0:0:0:0:
300,201,193511,1,8,0:0:0:0:
272,197,193564,1,8,0:0:0:0:
244,193,193618,1,8,0:0:0:0:
216,189,193672,2,0,L|204:269,1,80
316,360,193886,5,0,0:0:0:0:
396,370,193994,1,0,0:0:0:0:
460,324,194101,2,0,L|468:240,1,80,8|0,0:0|0:0,0:0:0:0:
416,184,194315,1,8,0:0:0:0:
336,176,194422,2,0,P|300:160|268:136,1,80,8|0,0:0|0:0,0:0:0:0:
220,72,194636,1,8,0:0:0:0:
144,48,194744,5,0,0:0:0:0:
68,68,194851,1,0,0:0:0:0:
20,132,194958,2,0,L|16:216,1,80,8|0,0:0|0:0,0:0:0:0:
92,240,195172,1,8,0:0:0:0:
140,304,195279,2,0,L|144:388,1,80,8|0,0:0|0:0,0:0:0:0:
60,312,195494,1,8,0:0:0:0:
172,232,195601,5,4,0:0:0:0:
244,264,195708,1,0,0:0:0:0:
324,248,195815,1,10,0:2:0:0:
396,280,195922,1,0,0:0:0:0:
472,140,196029,5,10,0:2:0:0:
400,108,196136,1,8,0:0:0:0:
320,124,196243,1,2,0:2:0:0:
248,92,196350,1,8,0:0:0:0:
280,16,196458,6,0,L|360:24,1,80
216,168,196672,2,0,L|136:160,1,80,8|0,0:0|0:0,0:0:0:0:
80,32,196886,1,8,0:0:0:0:
156,4,196994,2,0,P|159:45|146:81,1,80,8|0,0:0|0:0,0:0:0:0:
72,112,197208,1,8,0:0:0:0:
40,288,197315,5,4,0:0:0:0:
68,292,197369,1,0,0:0:0:0:
96,288,197422,1,0,0:0:0:0:
124,276,197476,1,0,0:0:0:0:
144,260,197529,1,12,0:0:0:0:
172,252,197583,1,0,0:0:0:0:
200,248,197637,1,0,0:0:0:0:
228,252,197690,1,0,0:0:0:0:
252,264,197744,2,0,L|260:304,3,40,12|0|8|0,0:0|0:0|0:0|0:0,0:0:0:0:
272,328,197958,2,0,L|308:352,3,40,4|0|8|0,0:0|0:0|0:0|0:0,0:0:0:0:
332,360,198172,5,4,0:0:0:0:
360,364,198226,1,0,0:0:0:0:
388,360,198279,1,0,0:0:0:0:
416,348,198333,1,0,0:0:0:0:
436,332,198386,1,12,0:0:0:0:
452,308,198440,1,0,0:0:0:0:
460,280,198494,1,0,0:0:0:0:
464,252,198547,1,0,0:0:0:0:
460,224,198601,2,0,L|452:184,3,40,12|0|8|0,0:0|0:0|0:0|0:0,0:0:0:0:
432,164,198815,2,0,L|440:124,3,40,4|0|8|0,0:0|0:0|0:0|0:0,0:0:0:0:
460,104,199029,5,4,0:0:0:0:
452,76,199083,1,0,0:0:0:0:
436,52,199136,1,0,0:0:0:0:
412,36,199190,1,0,0:0:0:0:
384,28,199244,1,12,0:0:0:0:
356,28,199297,1,0,0:0:0:0:
328,32,199351,1,0,0:0:0:0:
304,44,199404,1,0,0:0:0:0:
284,64,199458,1,12,0:0:0:0:
272,88,199511,1,0,0:0:0:0:
252,108,199565,1,8,0:0:0:0:
228,120,199619,1,0,0:0:0:0:
200,124,199672,2,0,P|156:120|120:100,1,80,4|8,0:0|0:0,0:0:0:0:
8,200,199886,5,8,0:0:0:0:
36,192,199940,1,0,0:0:0:0:
64,192,199994,1,0,0:0:0:0:
92,200,200047,1,0,0:0:0:0:
116,216,200101,1,0,0:0:0:0:
136,236,200154,1,0,0:0:0:0:
152,260,200208,1,0,0:0:0:0:
160,288,200261,1,0,0:0:0:0:
164,316,200315,6,0,L|160:356,3,40,12|0|0|0,0:0|0:0|0:0|0:0,0:0:0:0:
188,368,200529,2,0,P|232:364|268:344,1,80,12|0,0:0|0:0,0:0:0:0:
308,288,200744,6,0,L|480:304,1,167.999994873047,4|4,0:0|0:0,0:0:0:0:
400,100,201386,1,4,0:0:0:0:
400,100,201601,2,0,L|228:116,1,167.999994873047,4|4,0:0|0:0,0:0:0:0:
92,76,202137,2,0,L|48:64,2,27.9999991455078,0|0|4,0:0|0:0|0:0,0:0:0:0:
92,76,202672,6,0,L|208:64,2,111.999996582031,4|4|4,0:0|0:0|0:0,0:0:0:0:
36,212,203315,5,8,0:0:0:0:
60,280,203422,2,0,L|28:292,2,27.9999991455078
116,328,203637,2,0,L|96:356,2,27.9999991455078
188,340,203851,2,0,L|188:374,2,27.9999991455078,0|0|8,0:0|0:0|0:0,0:0:0:0:
332,332,204172,6,0,P|392:272|412:136,2,223.999993164063,0|4|0,0:0|0:0|0:0,0:0:0:0:
136,116,205458,5,8,0:0:0:0:
136,116,205512,1,0,0:0:0:0:
136,116,205565,1,0,0:0:0:0:
136,116,205619,1,0,0:0:0:0:
136,116,205672,2,0,L|76:112,1,55.9999982910157,2|0,0:0|0:0,0:0:0:0:
28,164,205887,6,0,L|-4:196,2,37.3333321940105,8|0|0,0:0|0:0|0:0,0:0:0:0:
60,200,206101,2,0,L|52:244,2,37.3333321940105
104,216,206315,6,0,L|123:257,2,37.3333321940105,8|0|0,0:0|0:0|0:0,0:0:0:0:
148,196,206529,2,0,L|187:218,2,37.3333321940105
176,156,206744,5,2,0:0:0:0:
304,188,206851,2,0,L|312:152,2,27.9999991455078,0|0|2,0:0|0:0|0:0,0:0:0:0:
432,220,207065,2,0,L|440:256,2,27.9999991455078,0|0|10,0:0|0:0|0:0,0:0:0:0:
432,220,207601,6,0,P|456:200|488:188,1,64,4|0,0:0|0:0,0:0:0:0:
488,104,207815,2,0,P|458:93|432:71,1,64
364,116,208029,2,0,P|369:146|332:236,1,128,8|0,0:0|0:0,0:0:0:0:
256,268,208351,1,0,0:0:0:0:
172,260,208458,6,0,L|44:248,1,128
0,320,208779,1,0,0:0:0:0:
72,364,208887,1,8,0:0:0:0:
152,336,208994,1,0,0:0:0:0:
224,380,209101,2,0,P|256:376|288:360,1,64
332,296,209315,6,0,L|396:308,1,64
384,224,209529,2,0,L|320:212,1,64
364,140,209744,2,0,P|420:148|488:128,1,128,8|0,0:0|0:0,0:0:0:0:
508,48,210065,1,0,0:0:0:0:
432,12,210172,2,0,L|304:24,1,128
236,72,210494,1,0,0:0:0:0:
172,124,210601,6,0,L|108:116,1,64,8|0,0:0|0:0,0:0:0:0:
220,192,210815,2,0,L|284:184,1,64
156,244,211029,6,0,P|100:268|28:272,1,128,4|0,0:0|0:0,0:0:0:0:
12,352,211351,1,0,0:0:0:0:
92,368,211458,2,0,P|148:344|220:340,1,128,8|0,0:0|0:0,0:0:0:0:
292,368,211779,1,0,0:0:0:0:
292,368,211887,6,0,P|324:372|356:372,1,64
432,336,212101,2,0,P|436:303|436:272,1,64
404,196,212315,2,0,P|372:192|340:192,1,64,8|0,0:0|0:0,0:0:0:0:
264,228,212529,2,0,P|260:260|260:292,1,64
292,368,212744,6,0,L|224:372,1,64
180,280,212958,2,0,L|129:319,1,64,4|0,0:0|0:0,0:0:0:0:
40,268,213172,2,0,L|20:333,3,64,8|0|0|0,0:0|0:0|0:0|0:0,0:0:0:0:
112,224,213601,5,0,0:0:0:0:
140,144,213708,1,8,0:0:0:0:
116,64,213815,1,0,0:0:0:0:
56,8,213922,1,0,0:0:0:0:
58,124,214029,5,10,0:0:0:0:
140,144,214136,1,0,0:0:0:0:
217,114,214243,1,4,0:0:0:0:
268,49,214350,1,0,0:0:0:0:
348,20,214458,6,0,L|412:28,1,64,6|0,0:0|0:0,0:0:0:0:
508,112,214672,2,0,L|444:104,1,64
332,156,214887,2,0,L|396:164,1,64,8|0,0:0|0:0,0:0:0:0:
492,248,215101,2,0,L|428:240,1,64
316,292,215315,6,0,P|292:316|276:344,1,64
184,272,215529,1,0,0:0:0:0:
184,272,215636,1,0,0:0:0:0:
184,272,215744,6,0,P|178:305|181:337,1,64,8|0,0:0|0:0,0:0:0:0:
60,312,215958,2,0,P|73:340|93:365,1,64,4|0,0:0|0:0,0:0:0:0:
140,124,216172,5,0,0:0:0:0:
60,96,216279,1,0,0:0:0:0:
12,164,216387,1,0,0:0:0:0:
60,232,216494,1,0,0:0:0:0:
140,204,216601,2,0,P|204:192|264:204,1,128,8|0,0:0|0:0,0:0:0:0:
328,260,216922,1,0,0:0:0:0:
328,260,217029,6,0,P|392:272|452:260,1,128
508,196,217351,1,0,0:0:0:0:
500,112,217458,6,0,L|492:44,1,64,8|0,0:0|0:0,0:0:0:0:
360,12,217672,2,0,L|368:80,1,64,4|0,0:0|0:0,0:0:0:0:
288,184,217887,6,0,P|232:188|164:160,1,128
116,96,218208,1,0,0:0:0:0:
200,88,218315,2,0,L|264:96,1,64,8|0,0:0|0:0,0:0:0:0:
84,172,218529,2,0,L|20:180,1,64
188,260,218744,6,0,P|192:292|188:324,1,64
24,356,218958,2,0,P|20:324|24:292,1,64,2|0,0:0|0:0,0:0:0:0:
268,268,219172,2,0,P|272:300|268:332,1,64,8|0,0:0|0:0,0:0:0:0:
104,364,219386,2,0,P|100:332|104:300,1,64,2|0,0:0|0:0,0:0:0:0:
316,140,219601,5,8,0:0:0:0:
408,117,219708,1,8,0:0:0:0:
489,169,219815,1,0,0:0:0:0:
510,263,219923,1,0,0:0:0:0:
459,344,220030,1,0,0:0:0:0:
365,366,220136,1,0,0:0:0:0:
284,313,220243,1,8,0:0:0:0:
263,221,220350,1,8,0:0:0:0:
231,48,220458,5,0,0:0:0:0:
139,25,220565,1,0,0:0:0:0:
58,77,220672,1,0,0:0:0:0:
37,171,220780,1,0,0:0:0:0:
88,252,220887,1,8,0:0:0:0:
182,274,220993,1,0,0:0:0:0:
263,221,221100,1,12,0:0:0:0:
284,129,221207,1,0,0:0:0:0:
284,129,221315,6,0,L|412:144,1,128,4|0,0:0|0:0,0:0:0:0:
484,188,221637,1,0,0:0:0:0:
508,268,221744,2,0,P|508:300|500:332,1,64,8|0,0:0|0:0,0:0:0:0:
428,292,221958,2,0,P|409:318|384:339,1,64
344,268,222172,6,0,P|313:278|216:264,1,128
156,212,222494,1,0,0:0:0:0:
236,184,222601,2,0,L|300:192,1,64,8|0,0:0|0:0,0:0:0:0:
140,296,222815,2,0,L|76:304,1,64
0,120,223029,6,0,L|128:132,1,128
208,104,223351,1,0,0:0:0:0:
288,76,223458,2,0,L|356:72,1,64,8|0,0:0|0:0,0:0:0:0:
484,188,223672,5,2,0:2:0:0:
484,188,223779,2,0,P|496:216|500:252,1,64,2|0,0:2|0:0,0:0:0:0:
416,240,223994,1,2,0:2:0:0:
416,240,224101,2,0,P|410:269|393:301,1,64,2|0,0:2|0:0,0:0:0:0:
332,240,224315,2,0,P|310:260|278:276,1,64,10|0,0:2|0:0,0:0:0:0:
260,196,224529,2,0,P|230:200|195:194,1,64,2|0,0:2|0:0,0:0:0:0:
228,116,224744,6,0,P|176:88|140:28,1,128,4|0,0:0|0:0,0:0:0:0:
60,56,225065,1,0,0:0:0:0:
20,128,225172,2,0,L|24:192,1,64,8|0,0:0|0:0,0:0:0:0:
68,260,225386,2,0,L|64:324,1,64
192,360,225601,6,0,L|188:296,1,64
144,228,225815,1,2,0:2:0:0:
144,228,225922,2,0,L|148:164,1,64,2|8,0:2|0:0,0:0:0:0:
204,100,226136,1,2,0:2:0:0:
204,100,226243,2,0,L|200:36,1,64,2|0,0:2|0:0,0:0:0:0:
368,12,226458,6,0,L|432:20,1,64,10|0,0:0|0:0,0:0:0:0:
504,128,226672,1,0,0:0:0:0:
448,188,226779,2,0,L|384:196,1,64,10|0,0:0|0:0,0:0:0:0:
312,300,226994,1,0,0:0:0:0:
368,360,227101,2,0,L|432:368,1,64,10|0,0:0|0:0,0:0:0:0:
304,216,227315,5,0,0:0:0:0:
236,264,227422,2,0,P|232:296|236:332,1,64,10|0,0:0|0:0,0:0:0:0:
380,248,227636,1,0,0:0:0:0:
228,184,227744,6,0,L|160:192,1,64,14|0,0:0|0:0,0:0:0:0:
32,328,227958,2,0,L|100:336,1,64,0|6,0:0|0:0,0:0:0:0:
304,216,228172,6,0,P|308:160|264:108,1,128,4|0,0:0|0:0,0:0:0:0:
180,88,228494,1,0,0:0:0:0:
236,28,228601,2,0,L|300:24,1,64,8|0,0:0|0:0,0:0:0:0:
360,80,228815,2,0,L|424:84,1,64
480,144,229029,6,0,L|468:272,1,128
412,336,229351,1,0,0:0:0:0:
332,360,229458,2,0,P|300:356|268:344,1,64,8|0,0:0|0:0,0:0:0:0:
182,205,229672,5,2,0:2:0:0:
241,147,229779,1,2,0:2:0:0:
315,184,229887,1,0,0:0:0:0:
302,266,229994,1,2,0:2:0:0:
220,280,230101,2,0,P|160:304|112:356,1,128,2|8,0:2|0:0,0:0:0:0:
20,212,230529,2,0,L|16:144,1,64,2|2,0:2|0:2,0:0:0:0:
84,80,230744,5,8,0:0:0:0:
177,96,230851,1,8,0:0:0:0:
245,29,230958,1,0,0:0:0:0:
340,20,231066,1,0,0:0:0:0:
419,75,231173,1,0,0:0:0:0:
443,168,231280,1,0,0:0:0:0:
404,256,231387,1,0,0:0:0:0:
316,296,231494,1,0,0:0:0:0:
223,271,231601,6,0,P|142:254|24:368,1,256,0|4,0:0|0:0,0:0:0:0:
487,364,232458,2,0,P|412:266|289:271,1,256,8|4,0:0|0:0,0:0:0:0:
152,368,233101,1,0,0:0:0:0:
12,276,233315,6,0,L|0:144,1,128,4|0,0:0|0:0,0:0:0:0:
136,52,233744,2,0,L|147:179,1,128,10|0,0:0|0:0,0:0:0:0:
289,270,234172,5,10,0:0:0:0:
316,279,234225,1,0,0:0:0:0:
344,281,234279,1,0,0:0:0:0:
373,276,234332,1,0,0:0:0:0:
399,265,234386,1,0,0:0:0:0:
422,248,234439,1,0,0:0:0:0:
440,225,234493,1,0,0:0:0:0:
453,200,234546,1,0,0:0:0:0:
458,171,234601,6,0,L|464:112,3,32,2|0|0|0,0:0|0:0|0:0|0:0,0:0:0:0:
448,112,234815,2,0,L|380:104,1,64,8|0,0:0|0:0,0:0:0:0:
199,44,235029,6,0,L|131:52,1,64,2|6,0:0|0:0,0:0:0:0:
20,272,235458,6,0,L|16:316,2,42.6666666666667
28,196,235672,1,10,0:0:0:0:
202,86,235886,6,8,L|198:42,2,42.6666666666667
210,162,236100,1,10,0:0:0:0:
378,274,236315,6,0,L|374:318,2,42.6666666666667
386,198,236529,1,14,0:0:0:0:
