osu file format v14

[General]
AudioFilename: UNDEAD CORPORATION - Gone With The Blast.mp3
AudioLeadIn: 0
PreviewTime: 70413
Countdown: 0
SampleSet: Normal
StackLeniency: 0.7
Mode: 0
LetterboxInBreaks: 0
WidescreenStoryboard: 0

[Editor]
Bookmarks: 111556,132127
DistanceSpacing: 1
BeatDivisor: 4
GridSize: 4
TimelineZoom: 2.899999

[Metadata]
Title:Gone With The Blast
TitleUnicode:Gone With The Blast
Artist:UNDEAD CORPORATION
ArtistUnicode:UNDEAD CORPORATION
Creator:Ekoro
Version:Arcanum Barrier
Source:
Tags:O. D. Akemi 朱美 West Village 窪田道元 original
BeatmapID:724929
BeatmapSetID:326461

[Difficulty]
HPDrainRate:6
CircleSize:4.5
OverallDifficulty:10
ApproachRate:10
SliderMultiplier:1.8
SliderTickRate:1

[Events]
//Background and Video events
0,0,"558861.jpg",0,0
//Break Periods
2,8944,10865
2,187229,188936
//Storyboard Layer 0 (Background)
//Storyboard Layer 1 (Fail)
//Storyboard Layer 2 (Pass)
//Storyboard Layer 3 (Foreground)
//Storyboard Sound Samples

[TimingPoints]
6815,214.285714285714,4,1,1,70,1,0
7030,222.222222222222,4,1,1,70,1,0
7696,214.285714285714,4,1,1,70,1,0
7887,214.285714285714,4,1,1,70,1,0
32744,-100,4,1,1,70,0,1
36172,-100,4,1,1,70,0,0
43029,-100,4,1,1,70,0,1
46458,-100,4,1,1,70,0,0
49887,-142.857142857143,4,1,1,70,0,0
70458,-142.857142857143,4,1,1,70,0,1
87601,-100,4,1,1,70,0,0
94458,-100,4,1,1,70,0,1
97886,-100,4,1,1,70,0,0
104744,-100,4,1,1,70,0,1
108172,-100,4,1,1,70,0,0
111601,-142.857142857143,4,1,1,70,0,0
116744,-100,4,1,1,70,0,0
118458,-142.857142857143,4,1,1,70,0,0
132172,-142.857142857143,4,1,1,70,0,1
145886,-200,4,1,1,70,0,0
159601,-166.666666666667,4,1,1,70,0,0
161315,-125,4,1,1,70,0,0
163029,-100,4,1,1,70,0,0
166458,-142.857142857143,4,1,1,70,0,0
190458,-100,4,1,1,70,0,0
200744,-142.857142857143,4,1,1,70,0,0
207601,-125,4,1,1,70,0,1
221315,-125,4,1,1,70,0,0

[Colours]
Combo1 : 78,78,92
Combo2 : 180,152,139
Combo3 : 99,53,7

[HitObjects]
172,168,6815,5,0,0:0:0:0:
172,168,6869,1,0,0:0:0:0:
172,168,6922,1,0,0:0:0:0:
172,168,6976,1,0,0:0:0:0:
172,168,7030,5,8,0:0:0:0:
318,131,7141,1,8,0:0:0:0:
277,276,7252,1,0,0:0:0:0:
196,80,7474,6,0,L|202:19,2,60,2|0|0,0:0|0:0|0:0,0:0:0:0:
108,100,7696,1,2,0:0:0:0:
382,196,7887,6,0,L|432:232,2,60,2|0|0,0:0|0:0|0:0,0:0:0:0:
409,109,8101,1,2,0:0:0:0:
189,299,8315,6,0,L|133:324,2,60,2|0|0,0:0|0:0|0:0,0:0:0:0:
250,366,8529,1,2,0:0:0:0:
256,192,8744,5,4,0:0:0:0:
264,252,11315,5,8,0:0:0:0:
264,252,11369,1,0,0:0:0:0:
264,252,11422,1,0,0:0:0:0:
264,252,11476,1,0,0:0:0:0:
264,252,11530,2,0,L|272:308,1,45
404,356,11637,5,8,0:0:0:0:
404,356,11691,1,0,0:0:0:0:
404,356,11744,1,0,0:0:0:0:
404,356,11798,1,0,0:0:0:0:
404,356,11852,2,0,L|448:321,1,45
424,184,11958,5,8,0:0:0:0:
424,184,12172,5,4,0:0:0:0:
344,144,12279,1,0,0:0:0:0:
420,92,12387,2,0,B|464:104|464:104|500:132,1,90,12|0,0:0|0:0,0:0:0:0:
348,236,12601,2,0,B|315:268|315:268|273:285,1,90,12|8,0:0|0:0,0:0:0:0:
264,104,12815,2,0,B|252:59|252:59|259:14,1,90,4|8,0:0|0:0,0:0:0:0:
428,276,13029,5,0,0:0:0:0:
364,340,13137,1,0,0:0:0:0:
276,364,13244,2,0,L|184:356,1,90,12|0,0:0|0:0,0:0:0:0:
16,312,13458,2,0,L|108:304,1,90,12|8,0:0|0:0,0:0:0:0:
284,268,13672,2,0,L|192:260,1,90,4|8,0:0|0:0,0:0:0:0:
8,216,13887,5,8,0:0:0:0:
52,228,13940,1,0,0:0:0:0:
96,220,13994,1,0,0:0:0:0:
132,196,14047,1,0,0:0:0:0:
156,156,14101,1,0,0:0:0:0:
192,132,14154,1,0,0:0:0:0:
236,124,14208,1,0,0:0:0:0:
280,136,14261,1,0,0:0:0:0:
312,168,14315,5,0,0:0:0:0:
332,208,14369,1,0,0:0:0:0:
372,224,14422,1,0,0:0:0:0:
416,220,14476,1,0,0:0:0:0:
452,196,14529,1,0,0:0:0:0:
460,152,14583,1,0,0:0:0:0:
444,112,14637,1,0,0:0:0:0:
444,68,14690,1,0,0:0:0:0:
464,28,14744,5,12,0:0:0:0:
464,28,15601,5,4,0:0:0:0:
376,12,15708,1,0,0:0:0:0:
300,64,15815,2,0,L|296:156,1,90,8|0,0:0|0:0,0:0:0:0:
304,244,16029,1,0,0:0:0:0:
380,192,16136,2,0,L|383:102,1,90,8|0,0:0|0:0,0:0:0:0:
216,28,16351,2,0,L|212:117,1,90,8|0,0:0|0:0,0:0:0:0:
172,196,16565,5,0,0:0:0:0:
88,232,16672,2,0,P|44:216|8:192,1,90,8|0,0:0|0:0,0:0:0:0:
172,196,16887,1,0,0:0:0:0:
245,250,16994,2,0,P|253:296|250:339,1,90,8|0,0:0|0:0,0:0:0:0:
182,105,17208,2,0,P|217:74|256:55,1,90,8|4,0:0|0:0,0:0:0:0:
344,40,17422,5,0,0:0:0:0:
396,112,17529,2,0,L|400:208,1,90,8|0,0:0|0:0,0:0:0:0:
360,284,17744,1,0,0:0:0:0:
488,196,17851,2,0,L|484:106,1,90,8|0,0:0|0:0,0:0:0:0:
308,120,18065,2,0,L|312:216,1,90,8|0,0:0|0:0,0:0:0:0:
196,332,18279,5,0,0:0:0:0:
124,276,18387,2,0,P|80:276|36:288,1,90,8|0,0:0|0:0,0:0:0:0:
116,368,18601,1,0,0:0:0:0:
204,238,18708,2,0,L|208:148,1,90,8|0,0:0|0:0,0:0:0:0:
208,148,18922,1,8,0:0:0:0:
7,11,19029,6,0,P|19:55|45:91,1,90,4|0,0:0|0:0,0:0:0:0:
120,141,19243,2,0,P|164:153|208:148,1,90,8|0,0:0|0:0,0:0:0:0:
128,52,19458,1,0,0:0:0:0:
40,180,19565,2,0,P|77:210|116:223,1,90,8|0,0:0|0:0,0:0:0:0:
288,92,19779,1,8,0:0:0:0:
368,144,19887,6,0,P|354:190|330:223,1,90
255,274,20101,2,0,P|208:286|168:281,1,90,8|0,0:0|0:0,0:0:0:0:
248,184,20316,1,0,0:0:0:0:
336,312,20423,2,0,P|299:342|260:355,1,90,8|0,0:0|0:0,0:0:0:0:
76,276,20637,1,8,0:0:0:0:
4,340,20744,5,0,0:0:0:0:
60,364,20815,1,0,0:0:0:0:
120,356,20887,1,0,0:0:0:0:
164,316,20958,1,8,0:0:0:0:
220,292,21029,1,8,0:0:0:0:
280,300,21101,1,0,0:0:0:0:
324,340,21172,5,0,0:0:0:0:
384,356,21244,1,0,0:0:0:0:
440,332,21315,1,0,0:0:0:0:
464,276,21387,1,0,0:0:0:0:
448,220,21458,2,0,L|384:212,1,60
296,168,21601,5,12,0:0:0:0:
252,156,21654,1,0,0:0:0:0:
208,164,21708,1,0,0:0:0:0:
172,192,21762,1,0,0:0:0:0:
152,232,21815,2,0,L|148:280,1,45
0,140,21922,5,12,0:0:0:0:
44,152,21975,1,0,0:0:0:0:
88,144,22029,1,0,0:0:0:0:
124,116,22083,1,0,0:0:0:0:
144,76,22136,2,0,L|148:28,1,45
252,16,22244,6,0,P|296:36|336:44,1,90,12|0,0:0|0:0,0:0:0:0:
480,12,22458,5,4,0:0:0:0:
480,12,22565,1,0,0:0:0:0:
480,12,22672,2,0,L|484:108,1,90,8|0,0:0|0:0,0:0:0:0:
492,276,22886,1,8,0:0:0:0:
404,256,22994,1,8,0:0:0:0:
424,168,23101,1,0,0:0:0:0:
512,188,23208,1,8,0:0:0:0:
432,344,23315,5,0,0:0:0:0:
432,344,23422,1,0,0:0:0:0:
432,344,23529,2,0,L|336:348,1,90,8|0,0:0|0:0,0:0:0:0:
168,356,23743,1,8,0:0:0:0:
188,268,23851,1,8,0:0:0:0:
276,288,23958,1,0,0:0:0:0:
256,376,24065,1,8,0:0:0:0:
100,296,24172,5,0,0:0:0:0:
100,296,24279,1,0,0:0:0:0:
64,212,24386,2,0,L|56:116,1,90,8|0,0:0|0:0,0:0:0:0:
156,224,24601,5,8,0:0:0:0:
8,288,24708,1,8,0:0:0:0:
156,224,24815,1,0,0:0:0:0:
8,288,24922,1,8,0:0:0:0:
248,212,25029,5,0,0:0:0:0:
248,212,25136,1,0,0:0:0:0:
284,128,25243,2,0,L|292:32,1,90,8|0,0:0|0:0,0:0:0:0:
192,140,25458,5,8,0:0:0:0:
340,204,25565,1,8,0:0:0:0:
192,140,25672,1,0,0:0:0:0:
340,204,25779,1,8,0:0:0:0:
448,80,25886,5,4,0:0:0:0:
406,57,25940,1,0,0:0:0:0:
361,57,25994,1,0,0:0:0:0:
320,78,26047,1,0,0:0:0:0:
294,117,26101,1,8,0:0:0:0:
264,151,26155,1,0,0:0:0:0:
222,165,26208,1,0,0:0:0:0:
178,154,26262,1,0,0:0:0:0:
148,121,26315,5,8,0:0:0:0:
140,77,26369,1,0,0:0:0:0:
157,35,26423,1,8,0:0:0:0:
194,9,26476,1,0,0:0:0:0:
239,9,26530,1,0,0:0:0:0:
279,31,26583,1,0,0:0:0:0:
298,71,26637,1,8,0:0:0:0:
294,117,26690,1,0,0:0:0:0:
265,152,26744,5,0,0:0:0:0:
224,172,26797,1,0,0:0:0:0:
200,212,26851,1,0,0:0:0:0:
204,256,26904,1,0,0:0:0:0:
232,292,26958,1,8,0:0:0:0:
276,304,27011,1,0,0:0:0:0:
320,288,27065,1,0,0:0:0:0:
344,248,27119,1,0,0:0:0:0:
352,204,27172,5,8,0:0:0:0:
376,164,27226,1,0,0:0:0:0:
420,148,27280,1,8,0:0:0:0:
464,160,27333,1,0,0:0:0:0:
492,196,27386,2,0,L|496:240,1,45,8|0,0:0|0:0,0:0:0:0:
440,296,27494,2,0,L|436:340,1,45,8|0,0:0|0:0,0:0:0:0:
324,368,27601,6,0,L|280:356,1,45,8|0,0:0|0:0,0:0:0:0:
196,384,27708,2,0,L|166:348,1,45,8|0,0:0|0:0,0:0:0:0:
81,323,27815,2,0,L|77:277,1,45,8|0,0:0|0:0,0:0:0:0:
180,228,27922,1,0,0:0:0:0:
180,228,27976,1,0,0:0:0:0:
180,228,28029,6,0,L|224:216,1,45,8|0,0:0|0:0,0:0:0:0:
308,244,28136,2,0,L|337:208,1,45,8|0,0:0|0:0,0:0:0:0:
423,183,28243,2,0,L|426:137,1,45
482,67,28351,2,0,L|459:27,1,45,8|0,0:0|0:0,0:0:0:0:
256,16,28458,5,12,0:0:0:0:
211,15,28511,1,0,0:0:0:0:
170,35,28565,1,0,0:0:0:0:
144,72,28618,1,0,0:0:0:0:
143,117,28672,1,0,0:0:0:0:
170,152,28725,1,0,0:0:0:0:
212,168,28778,5,12,0:0:0:0:
256,172,28832,1,0,0:0:0:0:
292,200,28885,1,0,0:0:0:0:
308,244,28939,1,0,0:0:0:0:
296,288,28993,1,0,0:0:0:0:
296,332,29046,1,0,0:0:0:0:
324,368,29100,5,12,0:0:0:0:
368,380,29153,1,0,0:0:0:0:
412,372,29207,1,0,0:0:0:0:
444,340,29261,1,0,0:0:0:0:
452,296,29315,6,0,B|460:192|460:192|420:152|420:152|428:40,2,270,4|4|0,0:0|0:0|0:0,0:0:0:0:
60,88,30172,2,0,B|52:192|52:192|92:232|92:232|84:344,1,270,4|4,0:0|0:0,0:0:0:0:
140,132,30708,1,0,0:0:0:0:
100,112,30761,1,0,0:0:0:0:
60,88,30815,1,4,0:0:0:0:
60,88,31244,5,4,0:0:0:0:
256,192,31458,1,4,0:0:0:0:
452,296,31672,1,4,0:0:0:0:
492,140,31887,5,12,0:0:0:0:
452,164,31940,1,0,0:0:0:0:
408,168,31994,1,0,0:0:0:0:
364,152,32047,1,0,0:0:0:0:
336,116,32101,1,0,0:0:0:0:
332,72,32154,1,0,0:0:0:0:
352,32,32208,1,8,0:0:0:0:
396,20,32262,1,0,0:0:0:0:
436,36,32315,5,0,0:0:0:0:
448,80,32369,1,0,0:0:0:0:
436,124,32422,1,0,0:0:0:0:
404,156,32476,1,0,0:0:0:0:
364,172,32529,1,8,0:0:0:0:
332,204,32583,1,0,0:0:0:0:
320,248,32636,1,0,0:0:0:0:
332,292,32690,1,0,0:0:0:0:
362,328,32744,6,0,L|454:336,1,90,4|0,0:0|0:0,0:0:0:0:
230,255,32958,2,0,L|322:247,1,90
144,360,33172,2,0,L|236:368,1,90,8|0,0:0|0:0,0:0:0:0:
12,284,33386,2,0,L|104:276,1,90
228,120,33601,6,0,P|232:76|228:28,1,90,8|0,0:0|0:0,0:0:0:0:
32,72,33815,2,0,P|28:116|32:164,1,90
324,144,34029,2,0,P|328:100|324:52,1,90,8|0,0:0|0:0,0:0:0:0:
128,96,34244,1,8,0:0:0:0:
128,96,34297,1,8,0:0:0:0:
128,96,34351,1,0,0:0:0:0:
128,96,34404,1,0,0:0:0:0:
128,96,34458,5,8,0:0:0:0:
72,248,34565,1,0,0:0:0:0:
32,72,34672,5,0,0:0:0:0:
76,272,34779,1,0,0:0:0:0:
140,64,34887,5,8,0:0:0:0:
80,296,34994,1,0,0:0:0:0:
20,40,35101,5,0,0:0:0:0:
84,320,35208,1,0,0:0:0:0:
152,32,35315,5,10,0:0:0:0:
204,16,35369,1,8,0:0:0:0:
256,32,35422,1,8,0:0:0:0:
288,76,35476,1,8,0:0:0:0:
292,128,35529,1,0,0:0:0:0:
268,176,35583,1,0,0:0:0:0:
272,228,35636,1,8,0:0:0:0:
304,272,35690,1,8,0:0:0:0:
356,288,35743,5,0,0:0:0:0:
408,272,35797,1,0,0:0:0:0:
440,228,35851,1,0,0:0:0:0:
440,176,35904,1,0,0:0:0:0:
412,128,35958,2,0,L|504:144,1,90,12|0,0:0|0:0,0:0:0:0:
355,200,36172,6,0,L|263:216,1,90,6|8,0:0|0:0,0:0:0:0:
88,152,36387,1,0,0:0:0:0:
80,64,36494,1,8,0:0:0:0:
160,24,36601,1,0,0:0:0:0:
220,92,36708,1,8,0:0:0:0:
176,172,36815,2,0,B|168:216|168:216|180:260,1,90,2|8,0:0|0:0,0:0:0:0:
360,284,37029,5,2,0:0:0:0:
416,212,37137,1,8,0:0:0:0:
328,200,37244,1,0,0:0:0:0:
448,296,37351,5,10,0:0:0:0:
384,128,37458,1,0,0:0:0:0:
272,272,37565,1,8,0:0:0:0:
472,140,37672,5,0,0:0:0:0:
240,188,37779,1,8,0:0:0:0:
392,368,37887,6,0,B|432:384|432:384|484:380,1,90,0|8,0:0|0:0,0:0:0:0:
384,128,38101,2,0,B|344:112|344:112|292:116,1,90,2|8,0:0|0:0,0:0:0:0:
216,344,38315,2,0,B|256:360|256:360|308:356,1,90,2|8,0:0|0:0,0:0:0:0:
208,104,38529,2,0,B|168:88|168:88|116:92,1,90,2|8,0:0|0:0,0:0:0:0:
24,216,38744,5,2,0:0:0:0:
108,252,38851,1,8,0:0:0:0:
34,306,38958,1,0,0:0:0:0:
98,162,39065,1,8,0:0:0:0:
264,276,39172,5,0,0:0:0:0:
180,312,39279,1,8,0:0:0:0:
254,366,39386,1,0,0:0:0:0:
190,222,39493,1,8,0:0:0:0:
190,222,39547,1,0,0:0:0:0:
190,222,39601,5,4,0:0:0:0:
98,342,39708,1,0,0:0:0:0:
254,366,39815,2,0,P|300:356|336:328,1,90,2|8,0:0|0:0,0:0:0:0:
199,135,40029,2,0,P|184:179|190:225,1,90,2|8,0:0|0:0,0:0:0:0:
426,202,40244,2,0,P|394:167|352:149,1,90,2|8,0:0|0:0,0:0:0:0:
348,240,40458,5,2,0:0:0:0:
504,168,40565,1,8,0:0:0:0:
363,68,40672,2,0,L|271:80,1,90,0|8,0:0|0:0,0:0:0:0:
156,256,40887,5,2,0:0:0:0:
0,184,40994,1,8,0:0:0:0:
156,256,41101,1,0,0:0:0:0:
112,248,41154,1,0,0:0:0:0:
72,268,41208,1,8,0:0:0:0:
56,312,41262,1,0,0:0:0:0:
76,352,41315,5,8,0:0:0:0:
120,368,41369,1,8,0:0:0:0:
164,364,41422,1,0,0:0:0:0:
204,340,41476,1,8,0:0:0:0:
232,304,41529,1,2,0:0:0:0:
272,280,41583,1,0,0:0:0:0:
316,276,41636,1,0,0:0:0:0:
360,292,41690,1,0,0:0:0:0:
392,324,41744,6,0,L|440:332,1,45,2|0,0:0|0:0,0:0:0:0:
504,244,41851,2,0,L|456:252,1,45
374,167,41958,2,0,L|422:175,1,45,2|0,0:0|0:0,0:0:0:0:
486,87,42065,2,0,L|438:95,1,45
320,48,42172,5,10,0:0:0:0:
276,32,42226,1,0,0:0:0:0:
232,32,42279,1,0,0:0:0:0:
192,48,42333,1,0,0:0:0:0:
164,84,42387,1,0,0:0:0:0:
124,104,42440,1,0,0:0:0:0:
80,104,42494,1,8,0:0:0:0:
40,84,42547,1,0,0:0:0:0:
28,40,42601,5,2,0:0:0:0:
60,8,42654,1,0,0:0:0:0:
104,12,42708,1,0,0:0:0:0:
136,44,42762,1,0,0:0:0:0:
144,88,42815,1,12,0:0:0:0:
124,128,42869,1,0,0:0:0:0:
84,152,42922,1,0,0:0:0:0:
56,188,42976,1,0,0:0:0:0:
48,232,43029,6,0,L|52:324,1,90,12|0,0:0|0:0,0:0:0:0:
256,368,43244,2,0,L|252:276,1,90,8|0,0:0|0:0,0:0:0:0:
144,224,43458,2,0,L|148:316,1,90,8|0,0:0|0:0,0:0:0:0:
352,360,43673,2,0,L|348:268,1,90,8|0,0:0|0:0,0:0:0:0:
192,48,43887,6,0,P|148:56|100:56,1,90,8|0,0:0|0:0,0:0:0:0:
272,112,44101,2,0,P|240:143|201:171,1,90,8|0,0:0|0:0,0:0:0:0:
374,118,44315,2,0,P|365:161|349:207,1,90,8|0,0:0|0:0,0:0:0:0:
460,64,44529,1,0,0:0:0:0:
460,64,44583,1,0,0:0:0:0:
460,64,44637,1,0,0:0:0:0:
460,64,44690,1,0,0:0:0:0:
460,64,44744,5,8,0:0:0:0:
487,97,44797,1,0,0:0:0:0:
491,141,44851,1,0,0:0:0:0:
471,181,44904,1,0,0:0:0:0:
431,197,44958,1,8,0:0:0:0:
404,230,45011,1,0,0:0:0:0:
400,274,45065,1,0,0:0:0:0:
420,314,45118,1,0,0:0:0:0:
460,332,45172,6,0,L|504:328,3,45,8|0|0|0,0:0|0:0|0:0|0:0,0:0:0:0:
360,384,45387,2,0,L|316:380,3,45,8|0|0|0,0:0|0:0|0:0|0:0,0:0:0:0:
180,264,45601,5,8,0:0:0:0:
184,211,45654,1,0,0:0:0:0:
222,172,45708,1,0,0:0:0:0:
276,168,45761,1,0,0:0:0:0:
321,199,45815,1,8,0:0:0:0:
335,251,45869,1,0,0:0:0:0:
312,300,45923,1,0,0:0:0:0:
263,323,45977,1,0,0:0:0:0:
211,309,46029,6,0,L|152:300,2,60,8|2|0,0:0|0:0|0:0,0:0:0:0:
116,372,46244,2,0,L|57:381,2,60,2|0|2,0:0|0:0|0:0,0:0:0:0:
16,312,46458,6,0,L|8:220,1,90
84,64,46672,2,0,L|76:153,1,90
112,340,46887,2,0,L|104:248,1,90
180,92,47101,5,8,0:0:0:0:
256,244,47208,1,8,0:0:0:0:
180,92,47315,6,0,P|224:72|256:40,1,90,8|0,0:0|0:0,0:0:0:0:
336,144,47529,2,0,P|360:102|368:57,1,90
493,97,47744,2,0,P|489:48|470:7,1,90
428,152,47958,6,0,P|431:200|450:241,1,90,8|0,0:0|0:0,0:0:0:0:
512,344,48172,5,8,0:0:0:0:
476,320,48225,1,0,0:0:0:0:
432,312,48279,1,0,0:0:0:0:
388,324,48332,1,0,0:0:0:0:
352,348,48386,1,0,0:0:0:0:
308,356,48440,1,0,0:0:0:0:
268,340,48493,1,0,0:0:0:0:
240,304,48547,1,0,0:0:0:0:
240,260,48601,6,0,L|244:216,1,45,8|8,0:0|0:0,0:0:0:0:
338,245,48708,2,0,L|323:203,1,45,8|8,0:0|0:0,0:0:0:0:
423,191,48815,2,0,L|391:159,1,45
477,107,48922,2,0,L|435:91,1,45
490,8,49029,5,12,0:0:0:0:
168,12,49458,6,0,L|108:0,2,60,2|0|0,0:0|0:0|0:0,0:0:0:0:
104,88,49672,2,0,L|44:100,2,60
200,108,49887,6,0,P|272:112|328:96,1,125.999996154785,12|0,0:0|0:0,0:0:0:0:
400,124,50208,1,0,0:0:0:0:
444,192,50315,2,0,L|452:324,1,125.999996154785,12|0,0:0|0:0,0:0:0:0:
288,348,50744,6,0,P|216:344|160:360,1,125.999996154785,12|0,0:0|0:0,0:0:0:0:
88,332,51065,1,0,0:0:0:0:
44,264,51172,2,0,L|40:200,1,62.9999980773926,12|0,0:0|0:0,0:0:0:0:
116,100,51387,2,0,L|112:164,1,62.9999980773926,12|0,0:0|0:0,0:0:0:0:
180,208,51601,5,0,0:0:0:0:
256,176,51708,1,0,0:0:0:0:
292,104,51815,2,0,L|420:92,1,125.999996154785,12|12,0:0|0:0,0:0:0:0:
484,244,52244,5,0,0:0:0:0:
408,276,52351,1,0,0:0:0:0:
372,348,52458,2,0,L|244:360,1,125.999996154785,12|0,0:0|0:0,0:0:0:0:
172,328,52779,1,12,0:0:0:0:
96,296,52887,2,0,P|60:308|36:320,1,62.9999980773926
164,248,53101,2,0,P|171:210|173:184,1,62.9999980773926,12|0,0:0|0:0,0:0:0:0:
60,36,53315,6,0,P|52:100|28:156,1,125.999996154785,12|0,0:0|0:0,0:0:0:0:
88,212,53637,1,0,0:0:0:0:
88,212,53744,2,0,L|216:224,1,125.999996154785,12|0,0:0|0:0,0:0:0:0:
324,344,54172,6,0,L|452:332,1,125.999996154785,12|0,0:0|0:0,0:0:0:0:
476,252,54494,1,0,0:0:0:0:
448,176,54601,1,8,0:0:0:0:
372,140,54708,1,0,0:0:0:0:
292,164,54815,1,0,0:0:0:0:
244,232,54922,1,0,0:0:0:0:
244,232,54976,1,0,0:0:0:0:
244,232,55029,6,0,P|152:236|68:188,2,188.999994232178,8|8|0,0:0|0:0|0:0,0:0:0:0:
301,294,55779,1,0,0:0:0:0:
301,294,55833,1,0,0:0:0:0:
301,294,55886,2,0,P|393:298|477:250,2,188.999994232178,8|8|0,0:0|0:0|0:0,0:0:0:0:
208,156,56744,6,0,B|76:140,1,125.999996154785,4|0,0:0|0:0,0:0:0:0:
20,88,57065,1,0,0:0:0:0:
96,52,57172,2,0,B|228:68,1,125.999996154785,12|0,0:0|0:0,0:0:0:0:
300,212,57601,2,0,B|432:196,1,125.999996154785,4|0,0:0|0:0,0:0:0:0:
488,144,57922,1,0,0:0:0:0:
412,108,58029,2,0,B|280:124,1,125.999996154785,12|0,0:0|0:0,0:0:0:0:
208,268,58458,6,0,B|76:252,1,125.999996154785,4|0,0:0|0:0,0:0:0:0:
28,312,58779,1,0,0:0:0:0:
92,364,58887,1,12,0:0:0:0:
172,372,58994,1,0,0:0:0:0:
248,340,59101,1,0,0:0:0:0:
292,272,59208,1,0,0:0:0:0:
304,192,59315,6,0,L|368:200,1,62.9999980773926,12|0,0:0|0:0,0:0:0:0:
480,60,59529,1,0,0:0:0:0:
404,28,59637,2,0,L|340:36,1,62.9999980773926,12|0,0:0|0:0,0:0:0:0:
240,248,59851,1,0,0:0:0:0:
316,280,59959,2,0,L|380:272,1,62.9999980773926,12|0,0:0|0:0,0:0:0:0:
224,164,60172,6,0,L|96:152,1,125.999996154785,4|0,0:0|0:0,0:0:0:0:
36,208,60494,1,0,0:0:0:0:
114,236,60601,2,0,L|242:248,1,125.999996154785,12|0,0:0|0:0,0:0:0:0:
319,108,61029,2,0,L|447:96,1,125.999996154785,4|0,0:0|0:0,0:0:0:0:
507,152,61351,1,0,0:0:0:0:
429,180,61458,2,0,L|301:192,1,125.999996154785,12|0,0:0|0:0,0:0:0:0:
56,332,61887,5,4,0:0:0:0:
24,256,61994,1,0,0:0:0:0:
48,180,62101,1,0,0:0:0:0:
12,104,62208,1,0,0:0:0:0:
32,24,62315,2,0,L|100:32,1,62.9999980773926,12|0,0:0|0:0,0:0:0:0:
208,104,62529,2,0,L|140:112,1,62.9999980773926,12|0,0:0|0:0,0:0:0:0:
48,180,62744,5,12,0:0:0:0:
224,232,62851,1,0,0:0:0:0:
224,232,62904,1,0,0:0:0:0:
224,232,62958,1,0,0:0:0:0:
24,256,63065,5,12,0:0:0:0:
248,156,63172,1,0,0:0:0:0:
248,156,63226,1,0,0:0:0:0:
248,156,63279,1,0,0:0:0:0:
56,332,63387,5,12,0:0:0:0:
216,80,63494,1,12,0:0:0:0:
216,80,63547,1,0,0:0:0:0:
216,80,63601,6,0,L|24:60,1,188.999994232178,4|4,0:0|0:0,0:0:0:0:
104,296,64244,1,4,0:0:0:0:
268,276,64458,2,0,L|460:256,1,188.999994232178,4|4,0:0|0:0,0:0:0:0:
476,92,64994,2,0,L|480:56,2,31.4999990386963,0|0|4,0:0|0:0|0:0,0:0:0:0:
476,92,65529,5,4,0:0:0:0:
312,68,65744,1,4,0:0:0:0:
148,48,65958,1,4,0:0:0:0:
20,152,66172,5,8,0:0:0:0:
60,136,66226,1,8,0:0:0:0:
104,144,66279,1,8,0:0:0:0:
136,176,66333,1,8,0:0:0:0:
148,220,66386,1,0,0:0:0:0:
140,256,66440,1,0,0:0:0:0:
116,292,66494,2,0,L|80:300,1,31.4999990386963
168,368,66601,5,8,0:0:0:0:
220,376,66672,1,8,0:0:0:0:
268,348,66744,1,8,0:0:0:0:
320,340,66815,1,0,0:0:0:0:
372,360,66886,2,0,P|392:368|416:368,1,41.9999987182618
480,299,67029,6,0,B|488:220|488:220|440:144|440:144|448:60,1,251.999992309571,0|4,0:0|0:0,0:0:0:0:
288,32,67672,1,0,0:0:0:0:
128,4,67886,5,8,0:0:0:0:
48,24,67994,1,0,0:0:0:0:
104,84,68101,2,0,P|104:116|96:148,1,62.9999980773926
24,248,68315,5,8,0:0:0:0:
34,300,68386,1,0,0:0:0:0:
67,346,68458,1,2,0:0:0:0:
113,375,68529,1,0,0:0:0:0:
169,381,68601,1,2,0:0:0:0:
223,367,68672,1,2,0:0:0:0:
264,328,68744,6,2,L|272:68,1,251.999992309571,0|14,0:0|0:0,0:0:0:0:
424,16,69387,1,0,0:0:0:0:
512,156,69601,5,10,0:0:0:0:
464,180,69672,1,0,0:0:0:0:
408,184,69744,1,0,0:0:0:0:
356,172,69815,1,0,0:0:0:0:
308,144,69887,1,0,0:0:0:0:
272,104,69958,1,0,0:0:0:0:
252,52,70029,1,10,0:0:0:0:
252,52,70458,6,0,L|188:44,1,62.9999980773926,4|0,0:0|0:0,0:0:0:0:
136,108,70672,2,0,L|73:100,1,62.9999980773926
24,164,70886,1,8,0:0:0:0:
88,216,70994,1,0,0:0:0:0:
132,284,71101,1,0,0:0:0:0:
148,360,71208,1,0,0:0:0:0:
208,304,71315,6,0,L|212:172,1,125.999996154785
268,120,71637,1,0,0:0:0:0:
348,96,71744,1,8,0:0:0:0:
428,116,71851,1,0,0:0:0:0:
484,176,71958,1,0,0:0:0:0:
504,256,72065,1,0,0:0:0:0:
484,336,72172,6,0,L|420:344,1,62.9999980773926
300,260,72386,2,0,L|364:268,1,62.9999980773926
484,176,72601,1,8,0:0:0:0:
404,200,72708,1,8,0:0:0:0:
324,180,72815,1,0,0:0:0:0:
268,120,72922,1,0,0:0:0:0:
248,40,73029,6,0,L|316:32,1,62.9999980773926
244,200,73244,2,0,L|180:192,1,62.9999980773926
32,64,73458,5,8,0:0:0:0:
88,4,73565,1,0,0:0:0:0:
160,44,73672,1,0,0:0:0:0:
144,124,73779,1,0,0:0:0:0:
64,140,73887,6,0,B|32:192|32:192|40:264,1,125.999996154785,4|0,0:0|0:0,0:0:0:0:
76,328,74208,1,0,0:0:0:0:
152,364,74315,2,0,L|216:360,1,62.9999980773926,8|0,0:0|0:0,0:0:0:0:
176,220,74529,2,0,L|112:216,1,62.9999980773926
240,280,74744,5,0,0:0:0:0:
240,280,74851,1,0,0:0:0:0:
260,200,74958,2,0,P|264:168|260:136,1,62.9999980773926
324,260,75172,2,0,P|349:279|379:292,1,62.9999980773926,8|0,0:0|0:0,0:0:0:0:
240,280,75387,2,0,P|210:292|184:312,1,62.9999980773926
352,368,75601,6,0,P|384:372|416:364,1,62.9999980773926
444,188,75815,1,0,0:0:0:0:
368,224,75922,1,0,0:0:0:0:
432,276,76029,2,0,P|464:280|496:272,1,62.9999980773926,8|0,0:0|0:0,0:0:0:0:
372,140,76244,2,0,P|340:136|308:144,1,62.9999980773926
253,338,76458,5,0,0:0:0:0:
334,331,76565,1,8,0:0:0:0:
354,252,76673,1,0,0:0:0:0:
284,208,76780,1,0,0:0:0:0:
221,260,76887,5,2,0:0:0:0:
416,308,76994,1,0,0:0:0:0:
221,260,77101,2,0,L|156:268,1,62.9999980773926,4|0,0:0|0:0,0:0:0:0:
40,200,77315,6,0,P|104:196|160:172,1,125.999996154785,6|0,0:0|0:0,0:0:0:0:
216,108,77637,1,0,0:0:0:0:
296,88,77744,1,8,0:0:0:0:
372,120,77851,1,0,0:0:0:0:
412,192,77958,1,0,0:0:0:0:
400,272,78065,1,0,0:0:0:0:
340,328,78172,6,0,L|272:332,1,62.9999980773926
424,352,78387,1,0,0:0:0:0:
424,352,78494,1,0,0:0:0:0:
316,248,78601,2,0,P|312:216|316:184,1,62.9999980773926,8|0,0:0|0:0,0:0:0:0:
500,136,78815,2,0,P|504:168|500:200,1,62.9999980773926
340,328,79029,6,0,L|272:324,1,62.9999980773926
108,300,79244,1,0,0:0:0:0:
160,236,79351,1,0,0:0:0:0:
192,312,79458,2,0,P|192:348|184:376,1,62.9999980773926,8|0,0:0|0:0,0:0:0:0:
76,224,79672,2,0,P|76:188|84:160,1,62.9999980773926
308,120,79887,5,0,0:0:0:0:
388,136,79994,1,0,0:0:0:0:
404,56,80101,1,0,0:0:0:0:
324,40,80208,1,0,0:0:0:0:
244,172,80315,5,8,0:0:0:0:
164,188,80422,1,0,0:0:0:0:
148,108,80529,1,0,0:0:0:0:
228,92,80636,1,0,0:0:0:0:
324,200,80744,6,0,B|332:244|332:244|320:280|320:280|328:328,1,125.999996154785,4|0,0:0|0:0,0:0:0:0:
327,322,81065,1,0,0:0:0:0:
400,288,81172,2,0,B|412:256|412:256|408:228,1,62.9999980773926,8|0,0:0|0:0,0:0:0:0:
248,240,81387,2,0,B|236:272|236:272|240:300,1,62.9999980773926
396,372,81601,5,0,0:0:0:0:
396,372,81708,1,0,0:0:0:0:
492,248,81815,2,0,L|496:184,1,62.9999980773926,2|0,0:0|0:0,0:0:0:0:
453,15,82029,2,0,L|395:43,1,62.9999980773926,8|0,0:0|0:0,0:0:0:0:
271,165,82244,2,0,L|324:200,1,62.9999980773926,2|0,0:0|0:0,0:0:0:0:
404,144,82458,5,0,0:0:0:0:
336,96,82565,1,0,0:0:0:0:
256,72,82672,1,0,0:0:0:0:
176,96,82779,1,0,0:0:0:0:
108,144,82887,2,0,L|104:208,1,62.9999980773926,8|0,0:0|0:0,0:0:0:0:
208,280,83101,2,0,L|204:216,1,62.9999980773926
148,332,83315,5,0,0:0:0:0:
224,360,83422,2,0,P|256:364|292:352,1,62.9999980773926,8|0,0:0|0:0,0:0:0:0:
271,165,83637,1,0,0:0:0:0:
195,137,83744,2,0,P|163:133|127:145,1,62.9999980773926,8|0,0:0|0:0,0:0:0:0:
312,236,83958,2,0,P|344:240|380:228,1,62.9999980773926
464,96,84172,5,0,0:0:0:0:
440,20,84279,1,0,0:0:0:0:
380,76,84387,1,0,0:0:0:0:
404,156,84494,1,0,0:0:0:0:
211,105,84601,5,8,0:0:0:0:
235,29,84708,1,0,0:0:0:0:
295,85,84816,1,0,0:0:0:0:
271,165,84923,1,0,0:0:0:0:
211,105,85029,5,8,0:0:0:0:
380,76,85137,1,8,0:0:0:0:
235,29,85244,1,0,0:0:0:0:
404,156,85351,1,0,0:0:0:0:
184,112,85458,5,0,0:0:0:0:
407,69,85565,1,0,0:0:0:0:
208,22,85672,1,0,0:0:0:0:
431,163,85779,1,0,0:0:0:0:
336,328,85887,6,0,B|212:352|212:260|93:290,1,251.999992309571,4|0,0:0|0:0,0:0:0:0:
93,290,86744,5,8,0:0:0:0:
93,290,86797,1,2,0:0:0:0:
93,290,86851,1,0,0:0:0:0:
93,290,86904,1,2,0:0:0:0:
93,290,86958,1,0,0:0:0:0:
93,290,87012,1,2,0:0:0:0:
93,290,87065,1,0,0:0:0:0:
93,290,87119,1,2,0:0:0:0:
93,290,87172,1,8,0:0:0:0:
372,64,87601,5,4,0:0:0:0:
460,88,87708,1,0,0:0:0:0:
396,152,87815,2,0,B|345:153|345:153|310:132,1,90,8|0,0:0|0:0,0:0:0:0:
436,0,88029,1,0,0:0:0:0:
484,176,88137,2,0,L|480:272,1,90,8|0,0:0|0:0,0:0:0:0:
476,356,88351,1,8,0:0:0:0:
388,376,88458,5,0,0:0:0:0:
312,324,88565,1,0,0:0:0:0:
228,352,88672,2,0,P|183:355|139:347,1,90,8|0,0:0|0:0,0:0:0:0:
60,300,88887,1,0,0:0:0:0:
20,220,88994,2,0,L|12:124,2,90,8|0|8,0:0|0:0|0:0,0:0:0:0:
96,176,89315,5,0,0:0:0:0:
96,176,89422,1,0,0:0:0:0:
136,256,89529,2,0,P|180:259|224:251,1,90,8|0,0:0|0:0,0:0:0:0:
316,104,89744,1,0,0:0:0:0:
276,24,89851,2,0,P|231:20|187:28,1,90,8|0,0:0|0:0,0:0:0:0:
292,188,90065,1,8,0:0:0:0:
448,68,90172,5,0,0:0:0:0:
448,68,90279,1,0,0:0:0:0:
448,68,90387,2,0,P|408:46|365:34,1,90,8|0,0:0|0:0,0:0:0:0:
228,128,90601,1,0,0:0:0:0:
292,188,90708,2,0,P|331:209|374:221,1,90,8|0,0:0|0:0,0:0:0:0:
460,196,90922,1,8,0:0:0:0:
512,268,91029,5,4,0:0:0:0:
456,340,91137,1,0,0:0:0:0:
372,312,91244,2,0,P|328:323|289:345,1,90,8|0,0:0|0:0,0:0:0:0:
236,256,91458,1,0,0:0:0:0:
236,256,91565,2,0,P|206:290|187:330,1,90,8|0,0:0|0:0,0:0:0:0:
92,288,91780,1,8,0:0:0:0:
92,288,91887,6,0,P|87:332|95:376,1,90
236,256,92101,2,0,P|240:211|232:167,1,90,8|0,0:0|0:0,0:0:0:0:
148,200,92315,1,0,0:0:0:0:
180,344,92422,2,0,P|224:348|268:340,1,90,8|0,0:0|0:0,0:0:0:0:
340,284,92637,1,8,0:0:0:0:
423,151,92744,5,8,0:0:0:0:
387,127,92797,1,0,0:0:0:0:
343,119,92851,1,8,0:0:0:0:
299,131,92904,1,0,0:0:0:0:
263,159,92958,1,8,0:0:0:0:
243,199,93012,1,0,0:0:0:0:
207,227,93066,1,0,0:0:0:0:
163,239,93119,1,0,0:0:0:0:
119,231,93173,5,8,0:0:0:0:
83,207,93226,1,0,0:0:0:0:
71,163,93279,1,8,0:0:0:0:
87,119,93333,1,0,0:0:0:0:
127,95,93387,1,0,0:0:0:0:
171,99,93440,1,0,0:0:0:0:
207,127,93494,1,8,0:0:0:0:
219,171,93547,1,0,0:0:0:0:
207,215,93601,5,12,0:0:0:0:
207,259,93654,1,0,0:0:0:0:
227,299,93708,1,0,0:0:0:0:
267,323,93762,1,0,0:0:0:0:
311,327,93815,2,0,L|359:311,1,45
430,205,93922,5,12,0:0:0:0:
430,161,93975,1,0,0:0:0:0:
410,121,94029,1,0,0:0:0:0:
370,97,94083,1,0,0:0:0:0:
326,93,94136,2,0,L|278:109,1,45
120,264,94244,6,0,L|112:356,1,90,12|0,0:0|0:0,0:0:0:0:
32,232,94458,6,0,P|60:192|96:176,1,90,8|0,0:0|0:0,0:0:0:0:
292,243,94672,2,0,P|264:283|228:299,1,90,8|0,0:0|0:0,0:0:0:0:
242,169,94887,6,0,P|287:152|326:159,1,90,8|0,0:0|0:0,0:0:0:0:
448,327,95101,2,0,P|402:343|363:336,1,90,8|0,0:0|0:0,0:0:0:0:
364,32,95315,5,8,0:0:0:0:
452,20,95422,1,0,0:0:0:0:
352,124,95529,5,8,0:0:0:0:
264,112,95636,1,0,0:0:0:0:
160,32,95744,5,8,0:0:0:0:
248,20,95851,1,0,0:0:0:0:
148,124,95958,6,0,L|104:116,1,45,8|0,0:0|0:0,0:0:0:0:
68,192,96065,2,0,L|24:200,1,45
4,284,96172,5,12,0:0:0:0:
36,316,96226,1,0,0:0:0:0:
80,324,96279,1,0,0:0:0:0:
124,308,96333,1,0,0:0:0:0:
156,276,96387,1,8,0:0:0:0:
200,260,96441,1,0,0:0:0:0:
244,268,96494,1,0,0:0:0:0:
276,300,96548,1,0,0:0:0:0:
284,344,96601,5,8,0:0:0:0:
252,376,96654,1,0,0:0:0:0:
208,368,96708,1,0,0:0:0:0:
188,328,96762,1,0,0:0:0:0:
196,284,96815,1,8,0:0:0:0:
232,256,96869,1,8,0:0:0:0:
248,216,96922,1,8,0:0:0:0:
236,172,96976,1,8,0:0:0:0:
204,144,97029,5,2,0:0:0:0:
164,180,97083,1,0,0:0:0:0:
112,188,97137,1,0,0:0:0:0:
64,168,97190,1,0,0:0:0:0:
40,120,97244,1,0,0:0:0:0:
48,68,97297,1,0,0:0:0:0:
92,36,97351,1,0,0:0:0:0:
144,28,97404,1,0,0:0:0:0:
196,48,97458,5,8,0:0:0:0:
240,80,97512,1,8,0:0:0:0:
292,84,97565,1,0,0:0:0:0:
340,60,97619,1,0,0:0:0:0:
376,20,97672,2,0,P|420:32|460:56,1,90,12|0,0:0|0:0,0:0:0:0:
492,140,97887,6,0,L|500:232,1,90,6|8,0:0|0:0,0:0:0:0:
404,368,98101,2,0,L|412:276,1,90,0|8,0:0|0:0,0:0:0:0:
352,104,98315,2,0,L|360:196,1,90,0|8,0:0|0:0,0:0:0:0:
264,332,98529,2,0,L|272:240,1,90,0|8,0:0|0:0,0:0:0:0:
192,56,98744,5,2,0:0:0:0:
112,96,98851,1,8,0:0:0:0:
188,144,98958,1,0,0:0:0:0:
116,8,99065,6,0,L|24:20,1,90,10|0,0:0|0:0,0:0:0:0:
108,184,99279,1,8,0:0:0:0:
268,104,99387,2,0,L|303:18,1,90,0|8,0:0|0:0,0:0:0:0:
448,76,99601,6,0,P|444:120|452:164,1,90,0|8,0:0|0:0,0:0:0:0:
496,244,99815,1,2,0:0:0:0:
496,244,99922,1,8,0:0:0:0:
344,300,100029,6,0,P|348:256|340:212,1,90,0|8,0:0|0:0,0:0:0:0:
296,132,100243,1,2,0:0:0:0:
296,132,100350,1,8,0:0:0:0:
108,128,100458,5,2,0:0:0:0:
40,184,100565,1,8,0:0:0:0:
100,252,100672,1,4,0:0:0:0:
168,192,100779,1,8,0:0:0:0:
260,44,100887,5,0,0:0:0:0:
328,100,100994,1,8,0:0:0:0:
268,168,101101,1,4,0:0:0:0:
200,108,101208,1,8,0:0:0:0:
348,16,101315,5,4,0:0:0:0:
348,16,101422,1,8,0:0:0:0:
396,156,101529,2,0,P|400:200|392:244,1,90,2|8,0:0|0:0,0:0:0:0:
416,72,101744,2,0,P|452:46|494:31,1,90,2|8,0:0|0:0,0:0:0:0:
328,100,101958,2,0,P|287:81|253:52,1,90,2|8,0:0|0:0,0:0:0:0:
484,128,102172,5,2,0:0:0:0:
484,128,102279,1,8,0:0:0:0:
308,184,102386,2,0,L|208:168,1,90,0|8,0:0|0:0,0:0:0:0:
40,268,102601,5,2,0:0:0:0:
40,268,102708,1,8,0:0:0:0:
216,324,102815,2,0,L|316:308,1,90,0|8,0:0|0:0,0:0:0:0:
480,364,103029,5,8,0:0:0:0:
440,316,103101,1,0,0:0:0:0:
432,256,103172,1,0,0:0:0:0:
456,200,103244,1,2,0:0:0:0:
480,148,103315,1,0,0:0:0:0:
472,88,103386,1,0,0:0:0:0:
432,40,103458,5,10,0:0:0:0:
296,28,103565,1,0,0:0:0:0:
256,47,103618,1,0,0:0:0:0:
235,86,103672,1,0,0:0:0:0:
240,130,103725,1,0,0:0:0:0:
270,163,103779,1,0,0:0:0:0:
313,173,103832,1,0,0:0:0:0:
354,157,103886,5,2,0:0:0:0:
432,40,103994,1,0,0:0:0:0:
296,28,104101,1,0,0:0:0:0:
296,28,104154,1,0,0:0:0:0:
296,28,104208,1,8,0:0:0:0:
354,157,104315,6,0,L|388:104,2,60,2|0|0,0:0|0:0|0:0,0:0:0:0:
248,252,104529,2,0,P|204:264|156:260,1,90,12|0,0:0|0:0,0:0:0:0:
48,196,104744,5,12,0:0:0:0:
60,108,104851,1,0,0:0:0:0:
148,120,104958,1,8,0:0:0:0:
136,208,105065,1,0,0:0:0:0:
24,208,105172,5,8,0:0:0:0:
172,108,105279,1,0,0:0:0:0:
24,208,105386,1,8,0:0:0:0:
172,108,105493,1,0,0:0:0:0:
48,84,105601,5,8,0:0:0:0:
148,232,105708,1,0,0:0:0:0:
48,84,105815,1,8,0:0:0:0:
148,232,105922,1,0,0:0:0:0:
0,220,106029,5,8,0:0:0:0:
196,96,106136,1,0,0:0:0:0:
0,220,106244,1,8,0:0:0:0:
196,96,106351,1,0,0:0:0:0:
36,60,106458,5,8,0:0:0:0:
68,31,106512,1,0,0:0:0:0:
112,19,106565,1,0,0:0:0:0:
156,27,106619,1,0,0:0:0:0:
192,51,106672,1,8,0:0:0:0:
228,79,106726,1,0,0:0:0:0:
272,87,106780,1,0,0:0:0:0:
316,75,106833,1,0,0:0:0:0:
347,45,106887,2,0,L|352:-1,3,45,8|0|0|0,0:0|0:0|0:0|0:0,0:0:0:0:
424,31,107101,2,0,P|432:79|444:119,1,90,8|0,0:0|0:0,0:0:0:0:
488,196,107315,5,8,0:0:0:0:
504,252,107387,1,8,0:0:0:0:
480,308,107458,1,8,0:0:0:0:
496,364,107529,2,0,L|404:376,1,90
296,252,107744,5,0,0:0:0:0:
312,196,107816,1,0,0:0:0:0:
288,140,107887,1,0,0:0:0:0:
304,84,107958,2,0,L|212:72,1,90,8|0,0:0|0:0,0:0:0:0:
53,109,108172,6,0,P|49:157|57:197,1,90,6|0,0:0|0:0,0:0:0:0:
152,308,108386,5,8,0:0:0:0:
200,170,108494,1,0,0:0:0:0:
57,197,108601,1,0,0:0:0:0:
152,308,108709,1,8,0:0:0:0:
200,170,108815,1,0,0:0:0:0:
57,197,108923,1,8,0:0:0:0:
240,264,109029,5,0,0:0:0:0:
118,115,109136,1,0,0:0:0:0:
51,295,109244,5,8,0:0:0:0:
233,361,109351,1,0,0:0:0:0:
200,170,109458,1,0,0:0:0:0:
51,295,109565,1,8,0:0:0:0:
233,361,109672,1,0,0:0:0:0:
200,170,109779,1,8,0:0:0:0:
51,295,109886,6,0,L|44:356,2,60,8|0|8,0:0|0:0|0:0,0:0:0:0:
120,256,110101,1,0,0:0:0:0:
164,244,110154,1,0,0:0:0:0:
208,248,110208,1,8,0:0:0:0:
248,268,110261,1,8,0:0:0:0:
276,304,110315,1,0,0:0:0:0:
304,340,110369,1,0,0:0:0:0:
344,360,110422,1,8,0:0:0:0:
388,364,110476,1,8,0:0:0:0:
432,352,110529,1,0,0:0:0:0:
464,320,110583,1,0,0:0:0:0:
476,276,110636,1,0,0:0:0:0:
472,232,110690,1,0,0:0:0:0:
448,192,110744,5,12,0:0:0:0:
128,28,111172,6,0,L|68:36,2,60,2|0|2,0:0|0:0|0:0,0:0:0:0:
324,74,111386,2,0,L|384:82,2,60
104,112,111601,6,0,P|72:196|88:296,1,188.999994232178,12|0,0:0|0:0,0:0:0:0:
156,336,112029,2,0,L|288:348,1,125.999996154785,8|0,0:0|0:0,0:0:0:0:
439,291,112458,2,0,P|471:207|455:107,1,188.999994232178,12|0,0:0|0:0,0:0:0:0:
387,67,112887,6,0,L|323:75,1,62.9999980773926,12|0,0:0|0:0,0:0:0:0:
224,144,113101,2,0,L|288:152,1,62.9999980773926,12|0,0:0|0:0,0:0:0:0:
484,176,113315,6,0,P|452:228|440:296,1,125.999996154785,0|12,0:0|0:0,0:0:0:0:
280,332,113744,2,0,P|250:278|198:233,1,125.999996154785,12|0,0:0|0:0,0:0:0:0:
265,87,114172,6,0,P|326:88|390:65,1,125.999996154785,12|0,0:0|0:0,0:0:0:0:
448,8,114494,1,12,0:0:0:0:
468,88,114601,2,0,L|472:152,1,62.9999980773926
316,232,114815,2,0,L|320:168,1,62.9999980773926,12|0,0:0|0:0,0:0:0:0:
356,312,115029,6,0,B|260:328|272:276|172:292,1,188.999994232178,12|0,0:0|0:0,0:0:0:0:
92,320,115458,1,12,0:0:0:0:
8,180,115672,1,0,0:0:0:0:
176,168,115887,6,0,P|192:107|189:44,1,125.999996154785,12|0,0:0|0:0,0:0:0:0:
108,28,116208,1,0,0:0:0:0:
48,84,116315,1,12,0:0:0:0:
44,164,116422,1,0,0:0:0:0:
88,232,116529,1,0,0:0:0:0:
168,252,116636,2,0,L|204:248,1,31.4999990386963
272,180,116744,5,8,0:0:0:0:
272,180,116797,1,8,0:0:0:0:
272,180,116851,2,0,L|276:128,1,45
352,168,116958,2,0,L|384:128,1,45
428,200,117065,5,8,0:0:0:0:
428,200,117118,1,8,0:0:0:0:
428,200,117172,2,8,L|472:188,1,45
466,271,117279,2,8,L|508:288,1,45,0|0,0:0|0:0,0:0:0:0:
464,352,117387,5,8,0:0:0:0:
424,356,117440,1,8,0:0:0:0:
384,360,117494,1,0,0:0:0:0:
344,364,117547,1,0,0:0:0:0:
304,368,117601,5,8,0:0:0:0:
312,320,117654,1,8,0:0:0:0:
292,276,117708,1,0,0:0:0:0:
252,252,117762,1,0,0:0:0:0:
204,252,117815,1,0,0:0:0:0:
160,272,117869,1,0,0:0:0:0:
116,292,117923,1,0,0:0:0:0:
68,292,117976,1,8,0:0:0:0:
28,268,118030,1,0,0:0:0:0:
8,224,118084,1,0,0:0:0:0:
16,176,118137,1,0,0:0:0:0:
52,148,118190,1,0,0:0:0:0:
100,144,118244,2,0,P|140:160|188:164,1,90,8|0,0:0|0:0,0:0:0:0:
264,136,118458,6,0,P|304:80|356:56,1,125.999996154785,4|0,0:0|0:0,0:0:0:0:
436,56,118779,1,0,0:0:0:0:
496,112,118887,2,0,L|500:244,1,125.999996154785,12|0,0:0|0:0,0:0:0:0:
388,356,119315,2,0,L|260:344,1,125.999996154785,4|0,0:0|0:0,0:0:0:0:
192,300,119637,1,0,0:0:0:0:
260,256,119744,2,0,L|388:244,1,125.999996154785,12|0,0:0|0:0,0:0:0:0:
380,80,120172,6,0,P|320:56|252:52,1,125.999996154785,4|0,0:0|0:0,0:0:0:0:
179,69,120494,1,0,0:0:0:0:
179,69,120601,2,0,L|176:132,1,62.9999980773926,12|0,0:0|0:0,0:0:0:0:
100,100,120815,2,0,L|96:36,1,62.9999980773926
20,64,121029,6,0,P|24:128|20:192,1,125.999996154785,12|0,0:0|0:0,0:0:0:0:
0,272,121351,1,12,0:0:0:0:
80,248,121458,1,0,0:0:0:0:
160,264,121565,1,0,0:0:0:0:
224,312,121672,2,0,L|228:376,1,62.9999980773926,12|0,0:0|0:0,0:0:0:0:
300,336,121887,6,0,P|356:324|424:328,1,125.999996154785,4|0,0:0|0:0,0:0:0:0:
492,284,122208,1,0,0:0:0:0:
476,204,122315,2,0,P|420:216|352:212,1,125.999996154785,12|0,0:0|0:0,0:0:0:0:
196,260,122744,2,0,P|140:248|72:252,1,125.999996154785,4|0,0:0|0:0,0:0:0:0:
4,208,123065,1,0,0:0:0:0:
20,128,123172,2,0,P|52:136|84:136,1,62.9999980773926,12|0,0:0|0:0,0:0:0:0:
192,92,123386,2,0,L|196:48,2,41.9999987182618
244,144,123601,5,8,0:0:0:0:
284,152,123654,1,8,0:0:0:0:
324,144,123708,1,8,0:0:0:0:
356,120,123761,1,8,0:0:0:0:
368,80,123815,1,0,0:0:0:0:
400,56,123869,1,0,0:0:0:0:
440,44,123922,2,0,L|476:48,1,31.4999990386963
508,120,124029,5,0,0:0:0:0:
508,160,124083,1,0,0:0:0:0:
492,196,124136,1,0,0:0:0:0:
456,216,124190,1,0,0:0:0:0:
416,220,124244,2,0,L|380:216,1,31.4999990386963,8|0,0:0|0:0,0:0:0:0:
464,300,124351,2,0,L|500:296,1,31.4999990386963
396,356,124458,5,8,0:0:0:0:
352,364,124511,1,0,0:0:0:0:
304,352,124565,1,0,0:0:0:0:
268,320,124619,1,0,0:0:0:0:
248,276,124672,1,0,0:0:0:0:
212,244,124726,1,0,0:0:0:0:
164,232,124780,1,0,0:0:0:0:
120,240,124833,1,0,0:0:0:0:
88,276,124887,2,0,L|96:340,1,62.9999980773926,8|0,0:0|0:0,0:0:0:0:
352,272,125101,2,0,L|360:208,1,62.9999980773926,8|8,0:0|0:0,0:0:0:0:
176,88,125315,6,0,P|96:92|8:28,2,188.999994232178,4|4|4,0:0|0:0|0:0,0:0:0:0:
332,32,126172,2,0,P|412:28|500:92,1,188.999994232178,4|4,0:0|0:0,0:0:0:0:
368,188,126708,2,0,L|328:180,2,31.4999990386963,0|0|4,0:0|0:0|0:0,0:0:0:0:
368,188,127244,6,0,L|356:60,2,125.999996154785,4|4|4,0:0|0:0|0:0,0:0:0:0:
500,284,127887,5,8,0:0:0:0:
460,288,127940,1,0,0:0:0:0:
428,312,127994,1,0,0:0:0:0:
416,352,128047,1,0,0:0:0:0:
380,376,128101,1,0,0:0:0:0:
340,380,128154,1,0,0:0:0:0:
300,364,128208,1,0,0:0:0:0:
280,328,128262,1,0,0:0:0:0:
280,288,128315,5,0,0:0:0:0:
332,228,128422,1,0,0:0:0:0:
332,228,128476,1,0,0:0:0:0:
332,228,128529,2,0,L|396:236,1,62.9999980773926,8|0,0:0|0:0,0:0:0:0:
444,168,128744,6,0,P|464:116|468:44,1,125.999996154785,12|0,0:0|0:0,0:0:0:0:
308,16,129172,2,0,P|288:68|284:140,1,125.999996154785
344,292,129601,2,0,L|212:304,1,125.999996154785
56,268,130029,6,0,L|12:256,2,41.9999987182618,8|2|0,0:0|0:0|0:0,0:0:0:0:
84,220,130244,2,0,L|128:208,2,41.9999987182618,2|0|2,0:0|0:0|0:0,0:0:0:0:
68,168,130458,6,0,P|148:52|260:44,1,251.999992309571,0|4,0:0|0:0,0:0:0:0:
408,104,131101,1,0,0:0:0:0:
456,260,131315,5,10,0:0:0:0:
428,308,131387,1,0,0:0:0:0:
380,332,131458,1,0,0:0:0:0:
324,328,131529,1,0,0:0:0:0:
276,300,131601,1,0,0:0:0:0:
224,296,131672,1,0,0:0:0:0:
172,316,131744,1,10,0:0:0:0:
172,316,132172,6,0,P|148:344|128:360,1,62.9999980773926,4|0,0:0|0:0,0:0:0:0:
48,340,132387,2,0,P|35:305|31:279,1,62.9999980773926
88,220,132601,2,0,P|124:226|148:236,1,62.9999980773926,8|0,0:0|0:0,0:0:0:0:
224,264,132815,2,0,P|260:257|284:247,1,62.9999980773926
344,192,133029,6,0,P|380:199|404:209,1,62.9999980773926
464,264,133244,1,0,0:0:0:0:
464,264,133351,1,0,0:0:0:0:
480,184,133458,2,0,P|480:148|472:120,1,62.9999980773926,8|0,0:0|0:0,0:0:0:0:
388,292,133672,2,0,P|388:328|396:356,1,62.9999980773926
400,156,133886,6,0,P|379:126|356:108,1,62.9999980773926
312,176,134101,2,0,P|278:163|249:161,1,62.9999980773926
192,216,134315,2,0,P|171:245|148:263,1,62.9999980773926,8|0,0:0|0:0,0:0:0:0:
104,196,134530,2,0,P|70:208|41:210,1,62.9999980773926
16,124,134744,5,0,0:0:0:0:
60,56,134851,1,0,0:0:0:0:
136,24,134958,1,0,0:0:0:0:
216,32,135065,1,0,0:0:0:0:
296,176,135172,5,8,0:0:0:0:
376,184,135279,1,0,0:0:0:0:
452,152,135386,1,0,0:0:0:0:
496,84,135493,1,0,0:0:0:0:
384,40,135601,6,0,P|380:76|384:104,1,62.9999980773926,4|0,0:0|0:0,0:0:0:0:
444,232,135815,1,0,0:0:0:0:
444,232,135922,1,0,0:0:0:0:
444,232,136029,2,0,P|469:258|493:273,1,62.9999980773926,8|0,0:0|0:0,0:0:0:0:
388,372,136244,2,0,L|324:364,1,62.9999980773926
196,268,136458,5,0,0:0:0:0:
116,284,136565,1,0,0:0:0:0:
196,268,136672,2,0,L|260:276,1,62.9999980773926
376,184,136886,5,8,0:0:0:0:
456,200,136993,1,0,0:0:0:0:
376,184,137100,2,0,L|312:192,1,62.9999980773926
256,128,137315,6,0,P|280:104|296:76,1,62.9999980773926
324,4,137529,2,0,P|354:19|385:25,1,62.9999980773926,4|0,0:0|0:0,0:0:0:0:
464,32,137744,2,0,P|458:65|462:97,1,62.9999980773926,8|0,0:0|0:0,0:0:0:0:
481,172,137958,2,0,P|447:177|418:190,1,62.9999980773926
360,244,138172,5,0,0:0:0:0:
288,208,138279,1,8,0:0:0:0:
208,232,138387,1,0,0:0:0:0:
136,196,138494,1,0,0:0:0:0:
32,296,138601,5,10,0:0:0:0:
136,344,138708,1,0,0:0:0:0:
244,304,138815,1,4,0:0:0:0:
348,352,138922,1,0,0:0:0:0:
456,312,139029,6,0,L|464:244,1,62.9999980773926,6|0,0:0|0:0,0:0:0:0:
412,184,139244,2,0,L|404:116,1,62.9999980773926
308,32,139458,6,0,L|316:100,1,62.9999980773926,8|0,0:0|0:0,0:0:0:0:
264,160,139673,2,0,L|256:228,1,62.9999980773926
168,344,139887,5,0,0:0:0:0:
86,354,139994,1,0,0:0:0:0:
21,304,140101,1,0,0:0:0:0:
11,223,140208,1,0,0:0:0:0:
60,158,140315,1,8,0:0:0:0:
142,147,140422,1,0,0:0:0:0:
207,197,140529,1,0,0:0:0:0:
217,279,140637,1,0,0:0:0:0:
252,352,140744,6,0,L|316:360,1,62.9999980773926
464,308,140958,2,0,L|401:315,1,62.9999980773926
256,268,141172,2,0,L|320:276,1,62.9999980773926,8|0,0:0|0:0,0:0:0:0:
468,224,141386,2,0,L|405:231,1,62.9999980773926
260,184,141601,6,0,L|324:192,1,62.9999980773926
417,68,141815,1,0,0:0:0:0:
344,100,141922,1,0,0:0:0:0:
409,148,142029,5,8,0:0:0:0:
493,32,142136,1,0,0:0:0:0:
349,20,142244,2,0,P|317:32|292:48,1,62.9999980773926,4|0,0:0|0:0,0:0:0:0:
208,136,142458,6,0,P|191:165|182:194,1,62.9999980773926,4|0,0:0|0:0,0:0:0:0:
174,315,142672,1,0,0:0:0:0:
252,338,142779,1,0,0:0:0:0:
324,300,142886,1,8,0:0:0:0:
402,323,142994,1,0,0:0:0:0:
472,280,143101,2,0,L|476:212,1,62.9999980773926
417,68,143315,5,0,0:0:0:0:
348,20,143422,1,0,0:0:0:0:
340,100,143529,2,0,L|344:168,1,62.9999980773926,2|0,0:0|0:0,0:0:0:0:
96,92,143744,5,12,0:0:0:0:
165,44,143851,1,0,0:0:0:0:
173,124,143958,2,0,L|169:192,1,62.9999980773926,14|0,0:0|0:0,0:0:0:0:
32,228,144172,5,12,0:0:0:0:
68,320,144279,1,8,0:0:0:0:
164,348,144387,1,0,0:0:0:0:
252,296,144494,1,0,0:0:0:0:
276,200,144601,1,8,0:0:0:0:
364,148,144708,1,0,0:0:0:0:
460,176,144816,1,8,0:0:0:0:
496,268,144923,1,8,0:0:0:0:
456,360,145029,5,0,0:0:0:0:
332,340,145137,1,0,0:0:0:0:
260,236,145244,1,0,0:0:0:0:
296,120,145351,1,0,0:0:0:0:
412,68,145458,1,0,0:0:0:0:
496,164,145565,1,0,0:0:0:0:
432,272,145672,1,0,0:0:0:0:
308,244,145779,1,0,0:0:0:0:
296,120,145887,6,0,P|252:68|140:48,1,180,4|0,0:0|0:0,0:0:0:0:
48,260,146744,2,0,P|92:312|204:332,1,180,12|0,0:0|0:0,0:0:0:0:
300,276,147387,1,0,0:0:0:0:
300,276,147601,6,0,L|400:284,1,90,4|0,0:0|0:0,0:0:0:0:
440,176,148029,2,0,L|340:168,1,90
236,196,148458,5,12,0:0:0:0:
152,112,148672,1,0,0:0:0:0:
208,8,148887,1,0,0:0:0:0:
324,32,149101,1,0,0:0:0:0:
336,148,149315,6,0,P|356:224|420:300,1,180,4|0,0:0|0:0,0:0:0:0:
200,380,150172,2,0,P|180:304|116:228,1,180,12|0,0:0|0:0,0:0:0:0:
4,188,150815,1,4,0:0:0:0:
40,76,151029,5,4,0:0:0:0:
152,112,151244,2,0,P|232:120|324:80,1,180
352,56,151744,1,0,0:0:0:0:
388,44,151815,1,0,0:0:0:0:
428,52,151887,6,0,L|456:60,2,30,12|0|0,0:0|0:0|0:0,0:0:0:0:
408,124,152101,2,0,L|380:132,2,30
448,188,152315,6,0,L|476:196,2,30,8|8|8,0:0|0:0|0:0,0:0:0:0:
428,260,152529,2,0,L|400:268,2,30
468,324,152744,6,0,B|387:362|376:307|288:351,1,180,4|0,0:0|0:0,0:0:0:0:
60,364,153601,2,0,P|20:316|12:244,2,135,12|0|0,0:0|0:0|0:0,0:0:0:0:
176,336,154458,5,8,0:0:0:0:
232,232,154672,2,0,P|324:216|408:264,1,180,8|0,0:0|0:0,0:0:0:0:
436,244,155172,1,0,0:0:0:0:
464,216,155244,1,0,0:0:0:0:
472,176,155315,2,0,L|468:84,1,90,8|0,0:0|0:0,0:0:0:0:
356,56,155744,1,8,0:0:0:0:
356,56,155851,2,0,P|308:60|260:48,1,90,0|4,0:0|0:0,0:0:0:0:
224,12,156172,6,0,P|168:12|88:108,1,180,4|8,0:0|0:0,0:0:0:0:
84,216,156815,1,0,0:0:0:0:
184,280,157029,2,0,P|240:280|320:184,1,180,4|8,0:0|0:0,0:0:0:0:
324,76,157672,1,0,0:0:0:0:
420,8,157887,5,0,0:0:0:0:
476,28,157994,1,0,0:0:0:0:
508,76,158101,1,0,0:0:0:0:
512,136,158208,1,0,0:0:0:0:
484,188,158315,2,0,L|428:196,1,45,10|8,0:0|0:0,0:0:0:0:
364,148,158529,2,0,L|308:140,1,45
244,188,158744,5,2,0:0:0:0:
212,236,158851,1,0,0:0:0:0:
156,256,158958,1,8,0:0:0:0:
100,248,159065,1,8,0:0:0:0:
52,212,159172,1,2,0:0:0:0:
32,156,159279,1,0,0:0:0:0:
40,96,159387,1,0,0:0:0:0:
72,48,159494,1,0,0:0:0:0:
128,28,159601,5,2,0:0:0:0:
184,68,159708,1,0,0:0:0:0:
252,72,159815,1,0,0:0:0:0:
312,36,159922,1,0,0:0:0:0:
380,28,160029,1,8,0:0:0:0:
436,68,160137,1,0,0:0:0:0:
448,136,160244,1,0,0:0:0:0:
408,192,160351,1,0,0:0:0:0:
340,204,160458,5,0,0:0:0:0:
276,176,160565,1,0,0:0:0:0:
204,180,160672,1,0,0:0:0:0:
148,220,160779,1,0,0:0:0:0:
140,292,160887,1,8,0:0:0:0:
184,348,160994,1,0,0:0:0:0:
252,364,161101,1,0,0:0:0:0:
320,344,161208,1,0,0:0:0:0:
360,284,161315,5,0,0:0:0:0:
424,216,161422,1,0,0:0:0:0:
508,260,161529,1,0,0:0:0:0:
492,352,161637,1,0,0:0:0:0:
400,364,161744,1,8,0:0:0:0:
360,284,161851,1,0,0:0:0:0:
380,192,161958,1,0,0:0:0:0:
344,104,162065,1,0,0:0:0:0:
256,68,162172,5,0,0:0:0:0:
168,104,162279,1,0,0:0:0:0:
132,192,162386,1,0,0:0:0:0:
152,284,162493,1,0,0:0:0:0:
112,364,162600,1,8,0:0:0:0:
20,352,162707,1,0,0:0:0:0:
4,260,162815,1,4,0:0:0:0:
88,216,162922,1,0,0:0:0:0:
152,284,163029,5,0,0:0:0:0:
204,312,163101,1,0,0:0:0:0:
264,316,163172,1,0,0:0:0:0:
316,284,163244,1,0,0:0:0:0:
348,236,163315,1,0,0:0:0:0:
404,216,163387,1,0,0:0:0:0:
460,232,163458,5,8,0:0:0:0:
484,288,163529,1,0,0:0:0:0:
464,344,163601,1,0,0:0:0:0:
412,372,163672,1,0,0:0:0:0:
356,356,163744,1,0,0:0:0:0:
324,304,163815,1,0,0:0:0:0:
324,244,163887,5,8,0:0:0:0:
348,188,163958,1,0,0:0:0:0:
404,168,164029,1,0,0:0:0:0:
432,116,164101,1,0,0:0:0:0:
424,56,164172,1,0,0:0:0:0:
372,24,164244,1,0,0:0:0:0:
312,32,164315,5,8,0:0:0:0:
268,72,164387,1,0,0:0:0:0:
256,132,164458,1,0,0:0:0:0:
212,172,164529,1,0,0:0:0:0:
152,180,164601,2,0,L|88:168,1,60
16,76,164744,5,8,0:0:0:0:
56,32,164815,1,8,0:0:0:0:
116,16,164887,1,0,0:0:0:0:
172,32,164958,1,0,0:0:0:0:
208,80,165029,2,0,L|216:144,1,60
296,72,165172,5,8,0:0:0:0:
336,116,165243,1,8,0:0:0:0:
396,132,165315,1,0,0:0:0:0:
452,116,165386,1,0,0:0:0:0:
488,68,165457,2,0,L|496:4,1,60
392,32,165601,5,8,0:0:0:0:
184,196,165744,1,8,0:0:0:0:
430,294,165887,1,8,0:0:0:0:
240,53,166029,5,8,0:0:0:0:
278,316,166172,1,8,0:0:0:0:
486,152,166315,1,8,0:0:0:0:
240,53,166458,6,0,P|150:69|58:41,1,188.999994232178,4|0,0:0|0:0,0:0:0:0:
0,100,166887,2,0,L|12:232,1,125.999996154785
48,264,167172,1,0,0:0:0:0:
104,272,167244,1,0,0:0:0:0:
152,248,167315,6,0,P|220:244|308:324,1,188.999994232178,12|12,0:0|0:0,0:0:0:0:
376,368,167744,6,0,L|444:364,1,62.9999980773926
388,216,167958,2,0,L|320:212,1,62.9999980773926,12|0,0:0|0:0,0:0:0:0:
448,284,168172,6,0,P|476:232|464:168,1,125.999996154785,0|12,0:0|0:0,0:0:0:0:
304,140,168601,2,0,P|276:88|288:24,1,125.999996154785,12|4,0:0|0:0,0:0:0:0:
340,12,168887,1,0,0:0:0:0:
388,32,168958,1,0,0:0:0:0:
412,80,169029,1,12,0:0:0:0:
344,228,169243,1,0,0:0:0:0:
291,240,169315,1,0,0:0:0:0:
243,220,169386,1,0,0:0:0:0:
219,172,169458,2,0,L|216:104,1,62.9999980773926,12|0,0:0|0:0,0:0:0:0:
144,204,169672,2,0,L|141:272,1,62.9999980773926,12|0,0:0|0:0,0:0:0:0:
76,156,169887,6,0,P|44:108|32:40,1,125.999996154785,12|0,0:0|0:0,0:0:0:0:
108,12,170208,1,0,0:0:0:0:
168,68,170315,2,0,P|229:79|290:65,1,125.999996154785,12|0,0:0|0:0,0:0:0:0:
352,12,170637,1,0,0:0:0:0:
428,44,170744,6,0,P|417:105|383:158,1,125.999996154785,12|0,0:0|0:0,0:0:0:0:
232,216,171172,2,0,L|224:280,1,62.9999980773926,12|0,0:0|0:0,0:0:0:0:
264,348,171387,1,0,0:0:0:0:
312,324,171458,1,0,0:0:0:0:
368,328,171529,1,0,0:0:0:0:
416,356,171601,6,0,P|448:364|484:360,1,62.9999980773926,8|0,0:0|0:0,0:0:0:0:
380,232,171815,1,0,0:0:0:0:
380,232,171869,1,0,0:0:0:0:
380,232,171922,2,0,P|357:255|342:288,1,62.9999980773926,8|0,0:0|0:0,0:0:0:0:
506,263,172136,1,0,0:0:0:0:
506,263,172190,1,0,0:0:0:0:
506,263,172244,6,0,P|496:231|475:202,1,62.9999980773926,8|0,0:0|0:0,0:0:0:0:
452,176,172404,1,0,0:0:0:0:
416,156,172458,6,0,P|384:148|348:151,1,62.9999980773926,8|8,0:0|0:0,0:0:0:0:
284,192,172672,1,0,0:0:0:0:
284,192,172726,1,0,0:0:0:0:
284,192,172779,2,0,P|252:200|216:196,1,62.9999980773926,8|8,0:0|0:0,0:0:0:0:
148,160,172994,1,0,0:0:0:0:
108,164,173047,1,0,0:0:0:0:
68,168,173101,1,8,0:0:0:0:
16,344,173315,6,0,B|108:416|268:392|236:288|396:264|488:336,1,503.999984619141,12|12,0:0|0:0,0:0:0:0:
488,336,174815,1,0,0:0:0:0:
508,176,175029,6,0,L|320:188,2,188.999994232178,12|0|0,0:0|0:0|0:0,0:0:0:0:
428,32,175887,1,12,0:0:0:0:
428,32,176101,2,0,L|172:48,1,251.999992309571
52,156,176744,6,0,P|224:184|336:368,1,377.999988464356,12|0,0:0|0:0,0:0:0:0:
178,343,177601,2,0,P|279:189|460:156,1,377.999988464356,12|0,0:0|0:0,0:0:0:0:
492,180,178297,1,0,0:0:0:0:
500,220,178351,1,0,0:0:0:0:
480,256,178404,1,0,0:0:0:0:
444,272,178458,6,0,P|348:276|296:356,1,188.999994232178,12|0,0:0|0:0,0:0:0:0:
64,268,179101,1,0,0:0:0:0:
64,268,179315,2,0,L|56:76,1,188.999994232178,12|0,0:0|0:0,0:0:0:0:
292,12,179958,1,0,0:0:0:0:
376,152,180172,6,0,P|280:176|196:144,2,188.999994232178,12|0|0,0:0|0:0|0:0,0:0:0:0:
428,136,180887,1,0,0:0:0:0:
476,160,180958,1,0,0:0:0:0:
496,212,181029,2,0,P|480:288|332:360,1,251.999992309571,12|0,0:0|0:0,0:0:0:0:
172,328,181672,1,4,0:0:0:0:
72,196,181887,6,0,L|64:68,1,125.999996154785,12|0,0:0|0:0,0:0:0:0:
132,24,182208,1,0,0:0:0:0:
204,60,182315,2,0,P|264:80|328:76,1,125.999996154785,8|0,0:0|0:0,0:0:0:0:
484,32,182744,2,0,L|488:168,1,125.999996154785,12|0,0:0|0:0,0:0:0:0:
464,208,183029,1,0,0:0:0:0:
416,232,183101,1,0,0:0:0:0:
364,220,183172,2,0,P|308:244|268:300,1,125.999996154785,12|0,0:0|0:0,0:0:0:0:
112,344,183601,6,0,L|108:208,1,125.999996154785,12|0,0:0|0:0,0:0:0:0:
132,168,183886,1,0,0:0:0:0:
180,144,183958,1,0,0:0:0:0:
232,156,184029,2,0,P|288:132|328:76,1,125.999996154785,12|0,0:0|0:0,0:0:0:0:
476,16,184458,2,0,L|484:204,1,188.999994232178,12|0,0:0|0:0,0:0:0:0:
424,264,184887,2,0,P|368:288|328:344,1,125.999996154785,12|0,0:0|0:0,0:0:0:0:
168,364,185315,6,0,P|140:352|112:328,1,62.9999980773926,12|0,0:0|0:0,0:0:0:0:
84,256,185529,1,0,0:0:0:0:
300,224,185636,6,0,P|303:254|296:290,1,62.9999980773926,12|0,0:0|0:0,0:0:0:0:
248,350,185850,1,0,0:0:0:0:
112,179,185958,6,0,P|136:160|171:148,1,62.9999980773926,12|0,0:0|0:0,0:0:0:0:
300,224,186172,5,12,0:0:0:0:
444,270,186279,1,0,0:0:0:0:
411,120,186387,1,0,0:0:0:0:
358,288,186494,5,12,0:0:0:0:
471,186,186602,1,0,0:0:0:0:
326,140,186708,1,0,0:0:0:0:
418,354,186815,5,12,0:0:0:0:
497,102,186922,1,0,0:0:0:0:
239,158,187029,1,4,0:0:0:0:
464,84,189386,6,0,L|418:97,2,41.9999987182618
475,124,189601,5,2,0:0:0:0:
467,164,189654,1,0,0:0:0:0:
441,195,189708,1,0,0:0:0:0:
403,211,189762,1,0,0:0:0:0:
362,208,189815,1,0,0:0:0:0:
327,185,189869,1,0,0:0:0:0:
307,150,189923,1,0,0:0:0:0:
306,109,189976,1,0,0:0:0:0:
324,72,190030,1,0,0:0:0:0:
356,48,190083,1,0,0:0:0:0:
397,41,190137,1,0,0:0:0:0:
436,54,190190,1,0,0:0:0:0:
464,84,190244,1,8,0:0:0:0:
420,276,190458,5,4,0:0:0:0:
332,292,190565,1,0,0:0:0:0:
388,364,190672,2,0,L|480:372,1,90,12|0,0:0|0:0,0:0:0:0:
363,207,190886,5,4,0:0:0:0:
244,272,190994,2,0,P|248:316|268:356,1,90,8|4,0:0|0:0,0:0:0:0:
420,276,191208,1,8,0:0:0:0:
272,188,191315,6,0,L|180:196,1,90,4|0,0:0|0:0,0:0:0:0:
48,372,191529,2,0,L|140:380,1,90,12|0,0:0|0:0,0:0:0:0:
128,128,191744,5,4,0:0:0:0:
93,208,191851,2,0,P|100:252|133:295,1,90,8|4,0:0|0:0,0:0:0:0:
208,324,192065,1,8,0:0:0:0:
363,207,192172,6,0,L|372:116,1,90
272,32,192386,1,8,0:0:0:0:
228,16,192440,1,0,0:0:0:0:
184,20,192494,1,0,0:0:0:0:
144,40,192547,1,0,0:0:0:0:
120,80,192601,2,0,L|129:171,1,90,8|0,0:0|0:0,0:0:0:0:
371,117,192815,2,0,L|362:26,1,90
307,203,193029,5,8,0:0:0:0:
351,219,193083,1,8,0:0:0:0:
395,215,193137,1,8,0:0:0:0:
435,195,193190,1,8,0:0:0:0:
459,155,193244,2,0,L|450:64,1,90
192,256,193458,5,8,0:0:0:0:
148,272,193512,1,8,0:0:0:0:
104,268,193566,1,8,0:0:0:0:
64,248,193619,1,8,0:0:0:0:
40,208,193673,2,0,L|49:117,1,90
186,77,193886,5,0,0:0:0:0:
270,113,193994,1,0,0:0:0:0:
196,167,194101,2,0,P|152:159|112:131,1,90,8|0,0:0|0:0,0:0:0:0:
260,23,194315,5,8,0:0:0:0:
354,150,194422,1,8,0:0:0:0:
196,167,194529,1,0,0:0:0:0:
196,167,194636,1,8,0:0:0:0:
344,60,194744,6,0,L|436:68,1,90
456,228,194958,2,0,L|364:236,1,90,8|0,0:0|0:0,0:0:0:0:
196,167,195172,5,8,0:0:0:0:
354,150,195279,1,8,0:0:0:0:
290,295,195387,1,0,0:0:0:0:
290,295,195494,1,8,0:0:0:0:
108,179,195601,5,4,0:0:0:0:
96,91,195708,1,0,0:0:0:0:
184,79,195815,1,10,0:2:0:0:
196,167,195922,1,0,0:0:0:0:
28,148,196029,5,10,0:2:0:0:
127,11,196136,1,8,0:0:0:0:
264,110,196244,1,2,0:2:0:0:
165,247,196351,1,8,0:0:0:0:
28,148,196458,6,0,L|20:56,1,90
271,20,196672,2,0,L|263:112,1,90,8|0,0:0|0:0,0:0:0:0:
165,247,196886,1,8,0:0:0:0:
97,304,196994,1,8,0:0:0:0:
40,236,197101,1,0,0:0:0:0:
108,179,197208,1,8,0:0:0:0:
268,224,197315,5,4,0:0:0:0:
308,242,197369,1,0,0:0:0:0:
334,279,197422,1,0,0:0:0:0:
338,325,197476,1,0,0:0:0:0:
364,362,197529,1,12,0:0:0:0:
405,381,197583,1,0,0:0:0:0:
448,380,197636,1,0,0:0:0:0:
484,352,197690,1,0,0:0:0:0:
492,308,197744,5,12,0:0:0:0:
476,268,197797,1,0,0:0:0:0:
436,244,197851,1,8,0:0:0:0:
396,220,197904,1,0,0:0:0:0:
380,180,197957,1,4,0:0:0:0:
388,136,198011,1,0,0:0:0:0:
424,108,198065,1,8,0:0:0:0:
468,104,198118,1,4,0:0:0:0:
508,124,198172,5,4,0:0:0:0:
500,168,198226,1,0,0:0:0:0:
468,196,198279,1,0,0:0:0:0:
424,196,198333,1,0,0:0:0:0:
388,168,198386,1,12,0:0:0:0:
376,124,198440,1,0,0:0:0:0:
388,80,198494,1,0,0:0:0:0:
376,36,198548,1,0,0:0:0:0:
340,8,198601,5,12,0:0:0:0:
296,8,198655,1,0,0:0:0:0:
264,36,198708,1,8,0:0:0:0:
256,80,198762,1,0,0:0:0:0:
268,124,198815,1,4,0:0:0:0:
260,168,198869,1,0,0:0:0:0:
228,196,198922,1,8,0:0:0:0:
184,196,198976,1,0,0:0:0:0:
148,168,199029,5,4,0:0:0:0:
104,160,199083,1,0,0:0:0:0:
60,172,199136,1,0,0:0:0:0:
32,208,199190,1,0,0:0:0:0:
24,252,199244,1,12,0:0:0:0:
36,296,199297,1,0,0:0:0:0:
68,328,199351,1,0,0:0:0:0:
112,340,199404,1,0,0:0:0:0:
156,332,199458,1,12,0:0:0:0:
188,304,199511,1,0,0:0:0:0:
232,292,199565,1,8,0:0:0:0:
276,296,199619,1,0,0:0:0:0:
316,316,199672,2,0,P|344:344|392:364,1,90,4|8,0:0|0:0,0:0:0:0:
432,212,199886,6,0,L|436:168,1,45,8|0,0:0|0:0,0:0:0:0:
349,152,199994,2,0,L|327:113,1,45
246,150,200101,2,0,L|206:131,1,45
160,207,200209,2,0,L|116:214,1,45
72,313,200315,6,0,L|115:320,1,45,12|0,0:0|0:0,0:0:0:0:
232,292,200422,2,0,L|275:284,1,45
392,313,200529,2,0,P|436:321|484:313,1,90,12|0,0:0|0:0,0:0:0:0:
440,104,200744,6,0,L|244:76,1,188.999994232178,4|4,0:0|0:0,0:0:0:0:
32,184,201387,1,4,0:0:0:0:
32,184,201601,2,0,L|228:156,1,188.999994232178,4|4,0:0|0:0,0:0:0:0:
364,236,202137,2,0,L|400:244,2,31.4999990386963,0|0|4,0:0|0:0|0:0,0:0:0:0:
364,236,202672,6,0,L|376:108,2,125.999996154785,4|4|4,0:0|0:0|0:0,0:0:0:0:
288,384,203315,5,8,0:0:0:0:
216,344,203422,2,0,L|212:304,2,31.4999990386963
136,352,203637,2,0,L|132:384,2,31.4999990386963
60,320,203851,2,0,L|56:288,2,31.4999990386963,0|0|8,0:0|0:0|0:0,0:0:0:0:
176,204,204172,6,0,B|304:172|296:244|424:216,2,251.999992309571,0|4|0,0:0|0:0|0:0,0:0:0:0:
20,72,205458,5,8,0:0:0:0:
20,72,205512,1,0,0:0:0:0:
20,72,205565,1,0,0:0:0:0:
20,72,205619,1,0,0:0:0:0:
20,72,205672,1,2,0:0:0:0:
20,72,205726,1,0,0:0:0:0:
20,72,205779,1,0,0:0:0:0:
20,72,205833,1,0,0:0:0:0:
20,72,205887,6,0,L|16:120,2,41.9999987182618,8|0|0,0:0|0:0|0:0,0:0:0:0:
92,128,206101,2,0,L|116:169,2,41.9999987182618
184,136,206315,6,0,L|227:156,2,41.9999987182618,8|0|0,0:0|0:0|0:0,0:0:0:0:
261,87,206529,2,0,L|308:78,2,41.9999987182618
312,8,206744,5,10,0:0:0:0:
488,71,206851,1,0,0:0:0:0:
488,71,206904,1,0,0:0:0:0:
488,71,206958,1,2,0:0:0:0:
344,192,207065,1,0,0:0:0:0:
344,192,207118,1,0,0:0:0:0:
344,192,207172,1,10,0:0:0:0:
344,192,207601,6,0,L|424:208,1,72,4|0,0:0|0:0,0:0:0:0:
452,344,207815,2,0,L|372:360,1,72
184,200,208029,2,0,L|264:216,1,72,8|0,0:0|0:0,0:0:0:0:
292,352,208243,2,0,L|212:368,1,72
100,332,208458,6,0,L|92:260,1,72
180,108,208672,1,0,0:0:0:0:
262,150,208779,1,0,0:0:0:0:
184,200,208886,5,8,0:0:0:0:
258,57,208994,1,0,0:0:0:0:
344,192,209101,2,0,L|336:264,1,72
102,158,209315,6,0,L|94:86,1,72
347,28,209529,2,0,L|339:100,1,72
8,148,209744,2,0,L|0:76,1,72,8|0,0:0|0:0,0:0:0:0:
253,18,209958,2,0,L|245:90,1,72
124,240,210172,6,0,P|88:240|52:228,1,72
72,8,210386,2,0,P|108:8|144:20,1,72
200,184,210601,5,8,0:0:0:0:
212,276,210708,1,0,0:0:0:0:
124,240,210815,1,0,0:0:0:0:
124,240,210922,1,0,0:0:0:0:
288,220,211029,6,0,L|360:232,1,72,4|0,0:0|0:0,0:0:0:0:
476,88,211244,1,0,0:0:0:0:
416,16,211351,1,0,0:0:0:0:
330,52,211458,1,8,0:0:0:0:
339,144,211565,1,0,0:0:0:0:
428,168,211672,2,0,L|500:180,1,72
512,324,211886,5,0,0:0:0:0:
428,368,211994,1,0,0:0:0:0:
336,372,212101,2,0,P|304:356|276:328,1,72
260,156,212315,5,8,0:0:0:0:
176,112,212423,1,0,0:0:0:0:
84,108,212530,2,0,P|52:124|24:152,1,72
156,340,212744,6,0,L|232:348,1,72
0,315,212958,2,0,L|72:308,1,72,4|0,0:0|0:0,0:0:0:0:
168,256,213172,2,0,L|244:264,1,72,8|0,0:0|0:0,0:0:0:0:
84,224,213386,2,0,L|8:232,1,72
20,120,213601,5,0,0:0:0:0:
112,140,213708,1,8,0:0:0:0:
204,116,213815,1,0,0:0:0:0:
268,48,213922,1,0,0:0:0:0:
356,20,214029,5,10,0:0:0:0:
476,72,214137,1,0,0:0:0:0:
500,200,214244,2,0,L|496:272,1,72,4|0,0:0|0:0,0:0:0:0:
400,360,214458,6,0,P|364:352|328:348,1,72,6|0,0:0|0:0,0:0:0:0:
296,260,214672,2,0,P|261:274|230:291,1,72
160,232,214887,2,0,P|140:263|124:295,1,72,8|0,0:0|0:0,0:0:0:0:
30,295,215101,2,0,P|31:331|37:367,1,72
76,208,215315,6,0,P|74:171|68:135,1,72
24,52,215529,1,0,0:0:0:0:
108,12,215637,1,0,0:0:0:0:
156,92,215744,6,0,P|157:128|163:164,1,72,8|0,0:0|0:0,0:0:0:0:
260,284,215958,2,0,P|291:300|325:313,1,72,4|0,0:0|0:0,0:0:0:0:
476,296,216172,5,0,0:0:0:0:
484,204,216279,1,0,0:0:0:0:
492,112,216387,2,0,L|500:24,1,72
380,60,216601,5,8,0:0:0:0:
388,152,216708,1,0,0:0:0:0:
396,244,216816,2,0,L|404:332,1,72
240,368,217029,6,0,P|204:356|168:352,1,72
128,196,217244,2,0,P|135:233|150:266,1,72
36,380,217458,6,0,P|64:354|85:325,1,72,8|0,0:0|0:0,0:0:0:0:
156,104,217672,2,0,P|148:66|133:33,1,72,4|0,0:0|0:0,0:0:0:0:
220,176,217887,5,4,0:0:0:0:
308,204,217994,1,0,0:0:0:0:
396,176,218101,2,0,P|424:156|448:128,1,72
464,296,218315,5,8,0:0:0:0:
376,268,218422,1,0,0:0:0:0:
288,296,218529,2,0,P|260:316|236:344,1,72
144,368,218744,5,0,0:0:0:0:
56,332,218851,1,0,0:0:0:0:
12,248,218958,1,2,0:0:0:0:
8,156,219065,1,0,0:0:0:0:
48,72,219172,6,0,L|120:84,1,72,8|0,0:0|0:0,0:0:0:0:
172,164,219387,2,0,L|244:152,1,72,2|0,0:0|0:0,0:0:0:0:
420,120,219601,5,8,0:0:0:0:
308,216,219708,1,8,0:0:0:0:
452,204,219815,1,0,0:0:0:0:
328,128,219922,1,0,0:0:0:0:
384,260,220029,5,0,0:0:0:0:
508,136,220137,1,0,0:0:0:0:
243,152,220244,1,8,0:0:0:0:
468,292,220351,1,0,0:0:0:0:
364,48,220458,5,0,0:0:0:0:
308,308,220565,1,0,0:0:0:0:
508,136,220672,1,0,0:0:0:0:
243,152,220779,1,0,0:0:0:0:
468,292,220887,6,0,L|476:216,1,72,8|0,0:0|0:0,0:0:0:0:
328,128,221101,2,0,L|320:52,1,72,12|0,0:0|0:0,0:0:0:0:
160,112,221315,5,4,0:0:0:0:
168,204,221422,1,0,0:0:0:0:
84,164,221529,1,0,0:0:0:0:
84,164,221637,1,0,0:0:0:0:
243,152,221744,6,0,L|312:188,1,72,8|0,0:0|0:0,0:0:0:0:
92,256,221958,2,0,L|26:297,1,72
76,72,222172,6,0,L|68:0,3,72
250,80,222601,2,0,L|242:152,3,72,8|0|0|0,0:0|0:0|0:0|0:0,0:0:0:0:
400,28,223029,5,0,0:0:0:0:
372,120,223137,1,0,0:0:0:0:
412,204,223244,1,0,0:0:0:0:
500,236,223351,1,0,0:0:0:0:
428,296,223458,2,0,L|356:300,1,72,8|0,0:0|0:0,0:0:0:0:
272,264,223672,5,2,0:2:0:0:
272,264,223779,2,0,P|280:228|280:192,1,72,2|0,0:2|0:0,0:0:0:0:
200,320,223994,1,2,0:2:0:0:
200,320,224101,2,0,P|227:344|258:362,1,72,2|0,0:2|0:0,0:0:0:0:
188,232,224315,6,0,P|152:243|121:261,1,72,10|0,0:2|0:0,0:0:0:0:
40,212,224529,2,0,P|17:241|2:273,1,72,2|0,0:2|0:0,0:0:0:0:
64,128,224744,6,0,P|50:93|30:64,3,72,4|0|0|0,0:0|0:0|0:0|0:0,0:0:0:0:
128,188,225172,2,0,P|164:193|199:190,3,72,8|0|0|0,0:0|0:0|0:0|0:0,0:0:0:0:
276,136,225601,6,0,L|264:60,1,72
356,92,225815,1,2,0:2:0:0:
356,92,225922,2,0,L|389:22,1,72,2|8,0:2|0:0,0:0:0:0:
448,100,226137,1,2,0:2:0:0:
448,100,226244,2,0,L|515:62,1,72,2|0,0:2|0:0,0:0:0:0:
412,256,226458,5,10,0:0:0:0:
320,276,226565,1,0,0:0:0:0:
380,347,226672,1,0,0:0:0:0:
352,188,226779,5,10,0:0:0:0:
288,364,226887,1,0,0:0:0:0:
472,330,226994,1,0,0:0:0:0:
260,204,227101,5,10,0:0:0:0:
380,347,227209,1,0,0:0:0:0:
442,171,227316,5,0,0:0:0:0:
442,171,227422,2,0,L|448:99,1,72,10|0,0:0|0:0,0:0:0:0:
244,48,227637,1,0,0:0:0:0:
129,258,227744,6,0,L|135:330,1,72,14|0,0:0|0:0,0:0:0:0:
344,112,227958,2,0,L|350:41,1,72,0|6,0:0|0:0,0:0:0:0:
152,79,228172,5,0,0:0:0:0:
57,90,228280,1,0,0:0:0:0:
68,184,228387,1,0,0:0:0:0:
161,172,228494,1,0,0:0:0:0:
90,4,228601,6,0,P|51:-2|16:7,1,72,8|0,0:0|0:0,0:0:0:0:
129,258,228815,2,0,P|167:264|202:254,1,72
304,107,229029,5,0,0:0:0:0:
399,118,229137,1,0,0:0:0:0:
388,212,229244,1,0,0:0:0:0:
295,200,229351,1,0,0:0:0:0:
366,32,229458,6,0,P|404:25|439:35,1,72,8|0,0:0|0:0,0:0:0:0:
388,212,229672,5,2,0:2:0:0:
329,284,229779,1,2,0:2:0:0:
379,364,229887,1,0,0:0:0:0:
468,340,229994,1,2,0:2:0:0:
477,247,230101,2,0,L|462:171,1,72,2|0,0:2|0:0,0:0:0:0:
315,153,230315,2,0,L|259:98,1,72,8|0,0:0|0:0,0:0:0:0:
148,197,230529,2,0,L|71:184,1,72,2|2,0:2|0:2,0:0:0:0:
4,317,230744,5,8,0:0:0:0:
183,347,230851,1,8,0:0:0:0:
208,170,230958,1,0,0:0:0:0:
30,139,231065,1,0,0:0:0:0:
96,309,231172,5,0,0:0:0:0:
170,253,231279,1,0,0:0:0:0:
117,177,231386,1,0,0:0:0:0:
43,233,231493,1,0,0:0:0:0:
183,347,231601,6,0,L|479:315,1,288,0|4,0:0|0:0,0:0:0:0:
329,37,232458,2,0,L|33:69,1,288,8|4,0:0|0:0,0:0:0:0:
4,252,233101,1,0,0:0:0:0:
184,200,233315,6,0,L|327:184,1,144,4|0,0:0|0:0,0:0:0:0:
508,132,233744,1,10,0:0:0:0:
508,132,233958,1,0,0:0:0:0:
368,372,234172,5,10,0:0:0:0:
332,344,234226,1,0,0:0:0:0:
284,332,234279,1,0,0:0:0:0:
240,336,234333,1,0,0:0:0:0:
200,360,234387,1,0,0:0:0:0:
156,368,234440,1,0,0:0:0:0:
108,360,234494,1,0,0:0:0:0:
76,332,234547,1,0,0:0:0:0:
56,288,234601,6,0,L|16:280,1,36,2|0,0:0|0:0,0:0:0:0:
96,224,234708,2,0,L|136:216,1,36
52,160,234815,2,0,P|48:128|56:88,1,72,12|0,0:0|0:0,0:0:0:0:
184,32,235029,5,6,0:0:0:0:
392,56,235137,1,2,0:0:0:0:
472,324,235458,6,0,L|468:372,2,48
480,228,235672,1,10,0:0:0:0:
284,304,235887,6,0,L|280:352,2,48,8|8|8,0:0|0:0|0:0,0:0:0:0:
296,144,236101,1,10,0:0:0:0:
96,284,236315,6,0,L|92:332,2,48
112,60,236529,1,14,0:0:0:0:
