osu file format v14

[General]
AudioFilename: audio.mp3
AudioLeadIn: 0
PreviewTime: 176046
Countdown: 0
SampleSet: Soft
StackLeniency: 0.2
Mode: 0
LetterboxInBreaks: 0
EpilepsyWarning: 1
WidescreenStoryboard: 1

[Editor]
Bookmarks: 26318
DistanceSpacing: 1.2
BeatDivisor: 4
GridSize: 8
TimelineZoom: 2.3

[Metadata]
Title:Frozen
TitleUnicode:Frozen
Artist:UNDEAD CORPORATION
ArtistUnicode:UNDEAD CORPORATION
Creator:Daycore
Version:Everything Will Freeze
Source:東方紅魔郷 ~ the Embodiment of Scarlet Devil.
Tags:osu! 東方Project Touhou Project おてんば恋娘 O Tenba Koi Musume Tomboyish Girl in Love Cirno チルノ Stage 2 Boss TOHO Complete Box - SILVER 極鉄 Gokutetsu Extreme Metal パインツリー pinetree 平野幸村 Yukimura Hirano yuki Shiren Comiket 79 c79 english metal rock Aphestra allein MashaSG ZUN Team Shanghai Alice melodic death melodeath featured artist fa hantrik shmiklak marvollo m_a_r_v_o_l_l_o namki
BeatmapID:2654458
BeatmapSetID:1268344

[Difficulty]
HPDrainRate:4
CircleSize:4
OverallDifficulty:10
ApproachRate:9.8
SliderMultiplier:1.7
SliderTickRate:1

[Events]
//Background and Video events
0,0,"mgbg.jpg",0,0
//Break Periods
2,74518,82551
2,130018,132203
2,134382,137096
//Storyboard Layer 0 (Background)
//Storyboard Layer 1 (Fail)
//Storyboard Layer 2 (Pass)
//Storyboard Layer 3 (Foreground)
Sprite,Foreground,Centre,"sb\etc\l.png",64,396 C,0,56864,,222,9,76 F,2,56864,57264,1,0 S,2,56864,57264,1.5,0.3 P,0,56864,57264,A
Sprite,Foreground,Centre,"sb\etc\l.png",378,440 C,0,57137,,222,9,76 F,2,57137,57537,1,0 S,2,57137,57537,1.5,0.3 P,0,57137,57537,A
Sprite,Foreground,Centre,"sb\etc\l.png",418,121 C,0,57409,,5,28,186 F,2,57409,57809,1,0 S,2,57409,57809,1.5,0.3 P,0,57409,57809,A
Sprite,Foreground,Centre,"sb\etc\l.png",260,395 C,0,57546,,5,28,186 F,2,57546,57946,1,0 S,2,57546,57946,1.5,0.3 P,0,57546,57946,A
Sprite,Foreground,Centre,"sb\etc\l.png",290,168 C,0,57682,,9,98,198 F,2,57682,58082,1,0 S,2,57682,58082,1.5,0.3 P,0,57682,58082,A
Sprite,Foreground,Centre,"sb\etc\l.png",378,440 C,0,57818,,9,98,198 F,2,57818,58218,1,0 S,2,57818,58218,1.5,0.3 P,0,57818,58218,A
Sprite,Foreground,Centre,"sb\etc\l.png",572,254 C,0,57955,,112,219,211 F,2,57955,58355,1,0 S,2,57955,58355,1.5,0.3 P,0,57955,58355,A
Sprite,Foreground,Centre,"sb\etc\l.png",208,78 C,0,58364,,112,219,211 F,2,58364,58764,1,0 S,2,58364,58764,1.5,0.3 P,0,58364,58764,A
Sprite,Foreground,Centre,"sb\etc\l.png",399,344 C,0,58637,,222,9,76 F,2,58637,59037,1,0 S,2,58637,59037,1.5,0.3 P,0,58637,59037,A
Sprite,Foreground,Centre,"sb\etc\l.png",290,168 C,0,58773,,222,9,76 F,2,58773,59173,1,0 S,2,58773,59173,1.5,0.3 P,0,58773,59173,A
Sprite,Foreground,Centre,"sb\etc\l.png",260,395 C,0,58909,,222,9,76 F,2,58909,59309,1,0 S,2,58909,59309,1.5,0.3 P,0,58909,59309,A
Sprite,Foreground,Centre,"sb\etc\l.png",418,121 C,0,59046,,5,28,186 F,2,59046,59446,1,0 S,2,59046,59446,1.5,0.3 P,0,59046,59446,A
Sprite,Foreground,Centre,"sb\etc\l.png",458,256 C,0,59318,,5,28,186 F,2,59318,59718,1,0 S,2,59318,59718,1.5,0.3 P,0,59318,59718,A
Sprite,Foreground,Centre,"sb\etc\l.png",418,121 C,0,59591,,9,98,198 F,2,59591,59991,1,0 S,2,59591,59991,1.5,0.3 P,0,59591,59991,A
Sprite,Foreground,Centre,"sb\etc\l.png",260,395 C,0,59727,,9,98,198 F,2,59727,60127,1,0 S,2,59727,60127,1.5,0.3 P,0,59727,60127,A
Sprite,Foreground,Centre,"sb\etc\l.png",290,168 C,0,59864,,112,219,211 F,2,59864,60264,1,0 S,2,59864,60264,1.5,0.3 P,0,59864,60264,A
Sprite,Foreground,Centre,"sb\etc\l.png",399,344 C,0,60000,,112,219,211 F,2,60000,60400,1,0 S,2,60000,60400,1.5,0.3 P,0,60000,60400,A
Sprite,Foreground,Centre,"sb\etc\l.png",137,440 C,0,60137,,222,9,76 F,2,60137,60537,1,0 S,2,60137,60537,1.5,0.3 P,0,60137,60537,A
Sprite,Foreground,Centre,"sb\etc\l.png",371,258 C,0,60546,,222,9,76 F,2,60546,60946,1,0 S,2,60546,60946,1.5,0.3 P,0,60546,60946,A
Sprite,Foreground,Centre,"sb\etc\l.png",278,101 C,0,60818,,222,9,76 F,2,60818,61218,1,0 S,2,60818,61218,1.5,0.3 P,0,60818,61218,A
Sprite,Foreground,Centre,"sb\etc\l.png",316,319 C,0,60955,,5,28,186 F,2,60955,61355,1,0 S,2,60955,61355,1.5,0.3 P,0,60955,61355,A
Sprite,Foreground,Centre,"sb\etc\l.png",312,337 C,0,61023,,5,28,186 F,2,61023,61423,1,0 S,2,61023,61423,1.5,0.3 P,0,61023,61423,A
Sprite,Foreground,Centre,"sb\etc\l.png",309,355 C,0,61091,,5,28,186 F,2,61091,61491,1,0 S,2,61091,61491,1.5,0.3 P,0,61091,61491,A
Sprite,Foreground,Centre,"sb\etc\l.png",306,373 C,0,61159,,5,28,186 F,2,61159,61559,1,0 S,2,61159,61559,1.5,0.3 P,0,61159,61559,A
Sprite,Foreground,Centre,"sb\etc\l.png",303,391 C,0,61227,,9,98,198 F,2,61227,61627,1,0 S,2,61227,61627,1.5,0.3 P,0,61227,61627,A
Sprite,Foreground,Centre,"sb\etc\l.png",571,323 C,0,61500,,9,98,198 F,2,61500,61900,1,0 S,2,61500,61900,1.5,0.3 P,0,61500,61900,A
Sprite,Foreground,Centre,"sb\etc\l.png",278,101 C,0,61773,,112,219,211 F,2,61773,62173,1,0 S,2,61773,62173,1.5,0.3 P,0,61773,62173,A
Sprite,Foreground,Centre,"sb\etc\l.png",176,356 C,0,61909,,112,219,211 F,2,61909,62309,1,0 S,2,61909,62309,1.5,0.3 P,0,61909,62309,A
Sprite,Foreground,Centre,"sb\etc\l.png",137,56 C,0,62046,,222,9,76 F,2,62046,62446,1,0 S,2,62046,62446,1.5,0.3 P,0,62046,62446,A
Sprite,Foreground,Centre,"sb\etc\l.png",303,391 C,0,62182,,222,9,76 F,2,62182,62582,1,0 S,2,62182,62582,1.5,0.3 P,0,62182,62582,A
Sprite,Foreground,Centre,"sb\etc\l.png",555,96 C,0,62318,,5,28,186 F,2,62318,62718,1,0 S,2,62318,62718,1.5,0.3 P,0,62318,62718,A
Sprite,Foreground,Centre,"sb\etc\l.png",293,240 C,0,62455,,5,28,186 F,2,62455,62855,1,0 S,2,62455,62855,1.5,0.3 P,0,62455,62855,A
Sprite,Foreground,Centre,"sb\etc\l.png",571,323 C,0,62591,,5,28,186 F,2,62591,62991,1,0 S,2,62591,62991,1.5,0.3 P,0,62591,62991,A
Sprite,Foreground,Centre,"sb\etc\l.png",278,101 C,0,62727,,9,98,198 F,2,62727,63127,1,0 S,2,62727,63127,1.5,0.3 P,0,62727,63127,A
Sprite,Foreground,Centre,"sb\etc\l.png",303,391 C,0,62864,,9,98,198 F,2,62864,63264,1,0 S,2,62864,63264,1.5,0.3 P,0,62864,63264,A
Sprite,Foreground,Centre,"sb\etc\l.png",424,168 C,0,63000,,9,98,198 F,2,63000,63400,1,0 S,2,63000,63400,1.5,0.3 P,0,63000,63400,A
Sprite,Foreground,Centre,"sb\etc\l.png",179,322 C,0,63137,,112,219,211 F,2,63137,63537,1,0 S,2,63137,63537,1.5,0.3 P,0,63137,63537,A
Sprite,Foreground,Centre,"sb\etc\l.png",394,440 C,0,63273,,112,219,211 F,2,63273,63673,1,0 S,2,63273,63673,1.5,0.3 P,0,63273,63673,A
Sprite,Foreground,Centre,"sb\etc\l.png",278,101 C,0,63409,,222,9,76 F,2,63409,63809,1,0 S,2,63409,63809,1.5,0.3 P,0,63409,63809,A
Sprite,Foreground,Centre,"sb\etc\l.png",258,105 C,0,63478,,222,9,76 F,2,63478,63878,1,0 S,2,63478,63878,1.5,0.3 P,0,63478,63878,A
Sprite,Foreground,Centre,"sb\etc\l.png",238,108 C,0,63546,,222,9,76 F,2,63546,63946,1,0 S,2,63546,63946,1.5,0.3 P,0,63546,63946,A
Sprite,Foreground,Centre,"sb\etc\l.png",218,112 C,0,63614,,222,9,76 F,2,63614,64014,1,0 S,2,63614,64014,1.5,0.3 P,0,63614,64014,A
Sprite,Foreground,Centre,"sb\etc\l.png",198,115 C,0,63682,,222,9,76 F,2,63682,64082,1,0 S,2,63682,64082,1.5,0.3 P,0,63682,64082,A
Sprite,Foreground,Centre,"sb\etc\l.png",178,119 C,0,63750,,222,9,76 F,2,63750,64150,1,0 S,2,63750,64150,1.5,0.3 P,0,63750,64150,A
Sprite,Foreground,Centre,"sb\etc\l.png",158,123 C,0,63818,,222,9,76 F,2,63818,64218,1,0 S,2,63818,64218,1.5,0.3 P,0,63818,64218,A
Sprite,Foreground,Centre,"sb\etc\l.png",156,224 C,0,63955,,5,28,186 F,2,63955,64355,1,0 S,2,63955,64355,1.5,0.3 P,0,63955,64355,A
Sprite,Foreground,Centre,"sb\etc\l.png",162,225 C,0,64023,,5,28,186 F,2,64023,64423,1,0 S,2,64023,64423,1.5,0.3 P,0,64023,64423,A
Sprite,Foreground,Centre,"sb\etc\l.png",169,226 C,0,64091,,5,28,186 F,2,64091,64491,1,0 S,2,64091,64491,1.5,0.3 P,0,64091,64491,A
Sprite,Foreground,Centre,"sb\etc\l.png",176,227 C,0,64159,,5,28,186 F,2,64159,64559,1,0 S,2,64159,64559,1.5,0.3 P,0,64159,64559,A
Sprite,Foreground,Centre,"sb\etc\l.png",182,228 C,0,64227,,5,28,186 F,2,64227,64627,1,0 S,2,64227,64627,1.5,0.3 P,0,64227,64627,A
Sprite,Foreground,Centre,"sb\etc\l.png",189,229 C,0,64295,,5,28,186 F,2,64295,64695,1,0 S,2,64295,64695,1.5,0.3 P,0,64295,64695,A
Sprite,Foreground,Centre,"sb\etc\l.png",195,230 C,0,64364,,5,28,186 F,2,64364,64764,1,0 S,2,64364,64764,1.5,0.3 P,0,64364,64764,A
Sprite,Foreground,Centre,"sb\etc\l.png",402,68 C,0,64500,,9,98,198 F,2,64500,64900,1,0 S,2,64500,64900,1.5,0.3 P,0,64500,64900,A
Sprite,Foreground,Centre,"sb\etc\l.png",345,110 C,0,64568,,9,98,198 F,2,64568,64968,1,0 S,2,64568,64968,1.5,0.3 P,0,64568,64968,A
Sprite,Foreground,Centre,"sb\etc\l.png",318,175 C,0,64636,,9,98,198 F,2,64636,65036,1,0 S,2,64636,65036,1.5,0.3 P,0,64636,65036,A
Sprite,Foreground,Centre,"sb\etc\l.png",329,245 C,0,64704,,9,98,198 F,2,64704,65104,1,0 S,2,64704,65104,1.5,0.3 P,0,64704,65104,A
Sprite,Foreground,Centre,"sb\etc\l.png",373,299 C,0,64772,,9,98,198 F,2,64772,65172,1,0 S,2,64772,65172,1.5,0.3 P,0,64772,65172,A
Sprite,Foreground,Centre,"sb\etc\l.png",440,323 C,0,64840,,9,98,198 F,2,64840,65240,1,0 S,2,64840,65240,1.5,0.3 P,0,64840,65240,A
Sprite,Foreground,Centre,"sb\etc\l.png",509,309 C,0,64909,,112,219,211 F,2,64909,65309,1,0 S,2,64909,65309,1.5,0.3 P,0,64909,65309,A
Sprite,Foreground,Centre,"sb\etc\l.png",401,67 C,0,65046,,112,219,211 F,2,65046,65446,1,0 S,2,65046,65446,1.5,0.3 P,0,65046,65446,A
Sprite,Foreground,Centre,"sb\etc\l.png",359,374 C,0,65182,,112,219,211 F,2,65182,65582,1,0 S,2,65182,65582,1.5,0.3 P,0,65182,65582,A
Sprite,Foreground,Centre,"sb\etc\l.png",248,143 C,0,65319,,112,219,211 F,2,65319,65719,1,0 S,2,65319,65719,1.5,0.3 P,0,65319,65719,A
Sprite,Foreground,Centre,"sb\etc\l.png",162,373 C,0,65455,,112,219,211 F,2,65455,65855,1,0 S,2,65455,65855,1.5,0.3 P,0,65455,65855,A
Sprite,Foreground,Centre,"sb\etc\l.png",162,373 C,0,65523,,112,219,211 F,2,65523,65923,1,0 S,2,65523,65923,1.5,0.3 P,0,65523,65923,A
Sprite,Foreground,Centre,"sb\etc\l.png",162,373 C,0,65591,,222,9,76 F,2,65591,65991,1,0 S,2,65591,65991,1.5,0.3 P,0,65591,65991,A
Sprite,Foreground,Centre,"sb\etc\l.png",509,309 C,0,65864,,222,9,76 F,2,65864,66264,1,0 S,2,65864,66264,1.5,0.3 P,0,65864,66264,A
Sprite,Foreground,Centre,"sb\etc\l.png",262,219 C,0,66137,,5,28,186 F,2,66137,66537,1,0 S,2,66137,66537,1.5,0.3 P,0,66137,66537,A
Sprite,Foreground,Centre,"sb\etc\l.png",530,64 C,0,66274,,5,28,186 F,2,66274,66674,1,0 S,2,66274,66674,1.5,0.3 P,0,66274,66674,A
Sprite,Foreground,Centre,"sb\etc\l.png",308,93 C,0,66410,,9,98,198 F,2,66410,66810,1,0 S,2,66410,66810,1.5,0.3 P,0,66410,66810,A
Sprite,Foreground,Centre,"sb\etc\l.png",574,179 C,0,66546,,9,98,198 F,2,66546,66946,1,0 S,2,66546,66946,1.5,0.3 P,0,66546,66946,A
Sprite,Foreground,Centre,"sb\etc\l.png",358,373 C,0,66682,,112,219,211 F,2,66682,67082,1,0 S,2,66682,67082,1.5,0.3 P,0,66682,67082,A
Sprite,Foreground,Centre,"sb\etc\l.png",153,173 C,0,67091,,112,219,211 F,2,67091,67491,1,0 S,2,67091,67491,1.5,0.3 P,0,67091,67491,A
Sprite,Foreground,Centre,"sb\etc\l.png",450,141 C,0,67364,,222,9,76 F,2,67364,67764,1,0 S,2,67364,67764,1.5,0.3 P,0,67364,67764,A
Sprite,Foreground,Centre,"sb\etc\l.png",358,373 C,0,67500,,222,9,76 F,2,67500,67900,1,0 S,2,67500,67900,1.5,0.3 P,0,67500,67900,A
Sprite,Foreground,Centre,"sb\etc\l.png",308,93 C,0,67637,,222,9,76 F,2,67637,68037,1,0 S,2,67637,68037,1.5,0.3 P,0,67637,68037,A
Sprite,Foreground,Centre,"sb\etc\l.png",555,362 C,0,67773,,5,28,186 F,2,67773,68173,1,0 S,2,67773,68173,1.5,0.3 P,0,67773,68173,A
Sprite,Foreground,Centre,"sb\etc\l.png",264,290 C,0,68046,,5,28,186 F,2,68046,68446,1,0 S,2,68046,68446,1.5,0.3 P,0,68046,68446,A
Sprite,Foreground,Centre,"sb\etc\l.png",382,251 C,0,68318,,9,98,198 F,2,68318,68718,1,0 S,2,68318,68718,1.5,0.3 P,0,68318,68718,A
Sprite,Foreground,Centre,"sb\etc\l.png",102,122 C,0,68455,,9,98,198 F,2,68455,68855,1,0 S,2,68455,68855,1.5,0.3 P,0,68455,68855,A
Sprite,Foreground,Centre,"sb\etc\l.png",176,306 C,0,68591,,112,219,211 F,2,68591,68991,1,0 S,2,68591,68991,1.5,0.3 P,0,68591,68991,A
Sprite,Foreground,Centre,"sb\etc\l.png",308,93 C,0,68727,,112,219,211 F,2,68727,69127,1,0 S,2,68727,69127,1.5,0.3 P,0,68727,69127,A
Sprite,Foreground,Centre,"sb\etc\l.png",465,440 C,0,68864,,222,9,76 F,2,68864,69264,1,0 S,2,68864,69264,1.5,0.3 P,0,68864,69264,A
Sprite,Foreground,Centre,"sb\etc\l.png",298,338 C,0,69273,,222,9,76 F,2,69273,69673,1,0 S,2,69273,69673,1.5,0.3 P,0,69273,69673,A
Sprite,Foreground,Centre,"sb\etc\l.png",537,205 C,0,69546,,222,9,76 F,2,69546,69946,1,0 S,2,69546,69946,1.5,0.3 P,0,69546,69946,A
Sprite,Foreground,Centre,"sb\etc\l.png",308,93 C,0,69682,,5,28,186 F,2,69682,70082,1,0 S,2,69682,70082,1.5,0.3 P,0,69682,70082,A
Sprite,Foreground,Centre,"sb\etc\l.png",305,111 C,0,69751,,5,28,186 F,2,69751,70151,1,0 S,2,69751,70151,1.5,0.3 P,0,69751,70151,A
Sprite,Foreground,Centre,"sb\etc\l.png",302,129 C,0,69819,,5,28,186 F,2,69819,70219,1,0 S,2,69819,70219,1.5,0.3 P,0,69819,70219,A
Sprite,Foreground,Centre,"sb\etc\l.png",299,147 C,0,69887,,5,28,186 F,2,69887,70287,1,0 S,2,69887,70287,1.5,0.3 P,0,69887,70287,A
Sprite,Foreground,Centre,"sb\etc\l.png",295,165 C,0,69955,,9,98,198 F,2,69955,70355,1,0 S,2,69955,70355,1.5,0.3 P,0,69955,70355,A
Sprite,Foreground,Centre,"sb\etc\l.png",358,372 C,0,70091,,9,98,198 F,2,70091,70491,1,0 S,2,70091,70491,1.5,0.3 P,0,70091,70491,A
Sprite,Foreground,Centre,"sb\etc\l.png",389,143 C,0,70227,,112,219,211 F,2,70227,70627,1,0 S,2,70227,70627,1.5,0.3 P,0,70227,70627,A
Sprite,Foreground,Centre,"sb\etc\l.png",264,394 C,0,70364,,112,219,211 F,2,70364,70764,1,0 S,2,70364,70764,1.5,0.3 P,0,70364,70764,A
Sprite,Foreground,Centre,"sb\etc\l.png",229,95 C,0,70500,,222,9,76 F,2,70500,70900,1,0 S,2,70500,70900,1.5,0.3 P,0,70500,70900,A
Sprite,Foreground,Centre,"sb\etc\l.png",358,372 C,0,70637,,222,9,76 F,2,70637,71037,1,0 S,2,70637,71037,1.5,0.3 P,0,70637,71037,A
Sprite,Foreground,Centre,"sb\etc\l.png",417,56 C,0,70773,,5,28,186 F,2,70773,71173,1,0 S,2,70773,71173,1.5,0.3 P,0,70773,71173,A
Sprite,Foreground,Centre,"sb\etc\l.png",292,302 C,0,70909,,5,28,186 F,2,70909,71309,1,0 S,2,70909,71309,1.5,0.3 P,0,70909,71309,A
Sprite,Foreground,Centre,"sb\etc\l.png",135,73 C,0,71046,,9,98,198 F,2,71046,71446,1,0 S,2,71046,71446,1.5,0.3 P,0,71046,71446,A
Sprite,Foreground,Centre,"sb\etc\l.png",455,213 C,0,71182,,9,98,198 F,2,71182,71582,1,0 S,2,71182,71582,1.5,0.3 P,0,71182,71582,A
Sprite,Foreground,Centre,"sb\etc\l.png",163,166 C,0,71318,,112,219,211 F,2,71318,71718,1,0 S,2,71318,71718,1.5,0.3 P,0,71318,71718,A
Sprite,Foreground,Centre,"sb\etc\l.png",417,56 C,0,71454,,112,219,211 F,2,71454,71854,1,0 S,2,71454,71854,1.5,0.3 P,0,71454,71854,A
Sprite,Foreground,Centre,"sb\etc\l.png",292,302 C,0,71591,,222,9,76 F,2,71591,71991,1,0 S,2,71591,71991,1.5,0.3 P,0,71591,71991,A
Sprite,Foreground,Centre,"sb\etc\l.png",229,95 C,0,71727,,222,9,76 F,2,71727,72127,1,0 S,2,71727,72127,1.5,0.3 P,0,71727,72127,A
Sprite,Foreground,Centre,"sb\etc\l.png",264,394 C,0,71864,,5,28,186 F,2,71864,72264,1,0 S,2,71864,72264,1.5,0.3 P,0,71864,72264,A
Sprite,Foreground,Centre,"sb\etc\l.png",389,143 C,0,72000,,5,28,186 F,2,72000,72400,1,0 S,2,72000,72400,1.5,0.3 P,0,72000,72400,A
Sprite,Foreground,Centre,"sb\etc\l.png",542,351 C,0,72137,,9,98,198 F,2,72137,72537,1,0 S,2,72137,72537,1.5,0.3 P,0,72137,72537,A
Sprite,Foreground,Centre,"sb\etc\l.png",495,302 C,0,72205,,9,98,198 F,2,72205,72605,1,0 S,2,72205,72605,1.5,0.3 P,0,72205,72605,A
Sprite,Foreground,Centre,"sb\etc\l.png",429,282 C,0,72273,,9,98,198 F,2,72273,72673,1,0 S,2,72273,72673,1.5,0.3 P,0,72273,72673,A
Sprite,Foreground,Centre,"sb\etc\l.png",363,299 C,0,72341,,9,98,198 F,2,72341,72741,1,0 S,2,72341,72741,1.5,0.3 P,0,72341,72741,A
Sprite,Foreground,Centre,"sb\etc\l.png",313,346 C,0,72409,,9,98,198 F,2,72409,72809,1,0 S,2,72409,72809,1.5,0.3 P,0,72409,72809,A
Sprite,Foreground,Centre,"sb\etc\l.png",264,394 C,0,72477,,9,98,198 F,2,72477,72877,1,0 S,2,72477,72877,1.5,0.3 P,0,72477,72877,A
Sprite,Foreground,Centre,"sb\etc\l.png",198,410 C,0,72545,,9,98,198 F,2,72545,72945,1,0 S,2,72545,72945,1.5,0.3 P,0,72545,72945,A
Sprite,Foreground,Centre,"sb\etc\l.png",131,391 C,0,72613,,9,98,198 F,2,72613,73013,1,0 S,2,72613,73013,1.5,0.3 P,0,72613,73013,A
Sprite,Foreground,Centre,"sb\etc\l.png",84,342 C,0,72682,,112,219,211 F,2,72682,73082,1,0 S,2,72682,73082,1.5,0.3 P,0,72682,73082,A
Sprite,Foreground,Centre,"sb\etc\l.png",133,294 C,0,72750,,112,219,211 F,2,72750,73150,1,0 S,2,72750,73150,1.5,0.3 P,0,72750,73150,A
Sprite,Foreground,Centre,"sb\etc\l.png",199,278 C,0,72818,,112,219,211 F,2,72818,73218,1,0 S,2,72818,73218,1.5,0.3 P,0,72818,73218,A
Sprite,Foreground,Centre,"sb\etc\l.png",266,297 C,0,72886,,112,219,211 F,2,72886,73286,1,0 S,2,72886,73286,1.5,0.3 P,0,72886,73286,A
Sprite,Foreground,Centre,"sb\etc\l.png",313,346 C,0,72955,,222,9,76 F,2,72955,73355,1,0 S,2,72955,73355,1.5,0.3 P,0,72955,73355,A
Sprite,Foreground,Centre,"sb\etc\l.png",311,361 C,0,73023,,222,9,76 F,2,73023,73423,1,0 S,2,73023,73423,1.5,0.3 P,0,73023,73423,A
Sprite,Foreground,Centre,"sb\etc\l.png",308,377 C,0,73091,,222,9,76 F,2,73091,73491,1,0 S,2,73091,73491,1.5,0.3 P,0,73091,73491,A
Sprite,Foreground,Centre,"sb\etc\l.png",305,393 C,0,73159,,222,9,76 F,2,73159,73559,1,0 S,2,73159,73559,1.5,0.3 P,0,73159,73559,A
Sprite,Foreground,Centre,"sb\etc\l.png",302,409 C,0,73227,,5,28,186 F,2,73227,73627,1,0 S,2,73227,73627,1.5,0.3 P,0,73227,73627,A
Sprite,Foreground,Centre,"sb\etc\l.png",186,196 C,0,73364,,5,28,186 F,2,73364,73764,1,0 S,2,73364,73764,1.5,0.3 P,0,73364,73764,A
Sprite,Foreground,Centre,"sb\etc\l.png",399,80 C,0,73500,,5,28,186 F,2,73500,73900,1,0 S,2,73500,73900,1.5,0.3 P,0,73500,73900,A
Sprite,Foreground,Centre,"sb\etc\l.png",515,293 C,0,73637,,5,28,186 F,2,73637,74037,1,0 S,2,73637,74037,1.5,0.3 P,0,73637,74037,A
Sprite,Foreground,Centre,"sb\etc\l.png",302,409 C,0,73773,,9,98,198 F,2,73773,74173,1,0 S,2,73773,74173,1.5,0.3 P,0,73773,74173,A
Sprite,Foreground,Centre,"sb\etc\l.png",302,409 C,0,73841,,9,98,198 F,2,73841,74241,1,0 S,2,73841,74241,1.5,0.3 P,0,73841,74241,A
Sprite,Foreground,Centre,"sb\etc\l.png",302,409 C,0,73909,,9,98,198 F,2,73909,74309,1,0 S,2,73909,74309,1.5,0.3 P,0,73909,74309,A
Sprite,Foreground,Centre,"sb\etc\l.png",185,319 C,0,74046,,9,98,198 F,2,74046,74446,1,0 S,2,74046,74446,1.5,0.3 P,0,74046,74446,A
Sprite,Foreground,Centre,"sb\etc\l.png",85,427 C,0,74182,,9,98,198 F,2,74182,74582,1,0 S,2,74182,74582,1.5,0.3 P,0,74182,74582,A
Sprite,Foreground,Centre,"sb\etc\l.png",85,427 C,0,74250,,9,98,198 F,2,74250,74650,1,0 S,2,74250,74650,1.5,0.3 P,0,74250,74650,A
Sprite,Foreground,Centre,"sb\etc\ring.png",382,117 C,0,172500,,222,9,76 F,2,172500,172700,1,0 S,2,172500,172700,1.2,0.24 P,0,172500,172700,A
Sprite,Foreground,Centre,"sb\etc\ring.png",569,314 C,0,173591,,5,28,186 F,2,173591,173791,1,0 S,2,173591,173791,1.2,0.24 P,0,173591,173791,A
Sprite,Foreground,Centre,"sb\etc\ring.png",289,413 C,0,174137,,5,28,186 F,2,174137,174337,1,0 S,2,174137,174337,1.2,0.24 P,0,174137,174337,A
Sprite,Foreground,Centre,"sb\etc\ring.png",289,413 C,0,174273,,5,28,186 F,2,174273,174473,1,0 S,2,174273,174473,1.2,0.24 P,0,174273,174473,A
Sprite,Foreground,Centre,"sb\etc\ring.png",186,335 C,0,174409,,5,28,186 F,2,174409,174609,1,0 S,2,174409,174609,1.2,0.24 P,0,174409,174609,A
Sprite,Foreground,Centre,"sb\etc\ring.png",106,385 C,0,174682,,5,28,186 F,2,174682,174882,1,0 S,2,174682,174882,1.2,0.24 P,0,174682,174882,A
Sprite,Foreground,Centre,"sb\etc\ring.png",64,120 C,0,174955,,9,98,198 F,2,174955,175155,1,0 S,2,174955,175155,1.2,0.24 P,0,174955,175155,A
Sprite,Foreground,Centre,"sb\etc\ring.png",96,109 C,0,175023,,9,98,198 F,2,175023,175223,1,0 S,2,175023,175223,1.2,0.24 P,0,175023,175223,A
Sprite,Foreground,Centre,"sb\etc\ring.png",130,110 C,0,175091,,9,98,198 F,2,175091,175291,1,0 S,2,175091,175291,1.2,0.24 P,0,175091,175291,A
Sprite,Foreground,Centre,"sb\etc\ring.png",162,120 C,0,175159,,9,98,198 F,2,175159,175359,1,0 S,2,175159,175359,1.2,0.24 P,0,175159,175359,A
Sprite,Foreground,Centre,"sb\etc\ring.png",189,140 C,0,175227,,9,98,198 F,2,175227,175427,1,0 S,2,175227,175427,1.2,0.24 P,0,175227,175427,A
Sprite,Foreground,Centre,"sb\etc\ring.png",289,86 C,0,175500,,112,219,211 F,2,175500,175700,1,0 S,2,175500,175700,1.2,0.24 P,0,175500,175700,A
Sprite,Foreground,Centre,"sb\etc\ring.png",316,106 C,0,175569,,112,219,211 F,2,175569,175769,1,0 S,2,175569,175769,1.2,0.24 P,0,175569,175769,A
Sprite,Foreground,Centre,"sb\etc\ring.png",348,116 C,0,175637,,112,219,211 F,2,175637,175837,1,0 S,2,175637,175837,1.2,0.24 P,0,175637,175837,A
Sprite,Foreground,Centre,"sb\etc\ring.png",382,117 C,0,175705,,112,219,211 F,2,175705,175905,1,0 S,2,175705,175905,1.2,0.24 P,0,175705,175905,A
Sprite,Foreground,Centre,"sb\etc\ring.png",414,106 C,0,175773,,222,9,76 F,2,175773,175973,1,0 S,2,175773,175973,1.2,0.24 P,0,175773,175973,A
Sprite,Foreground,Centre,"sb\etc\ring.png",415,99 C,0,175841,,222,9,76 F,2,175841,176041,1,0 S,2,175841,176041,1.2,0.24 P,0,175841,176041,A
Sprite,Foreground,Centre,"sb\etc\ring.png",416,92 C,0,175909,,222,9,76 F,2,175909,176109,1,0 S,2,175909,176109,1.2,0.24 P,0,175909,176109,A
Sprite,Foreground,Centre,"sb\etc\ring.png",417,85 C,0,175977,,222,9,76 F,2,175977,176177,1,0 S,2,175977,176177,1.2,0.24 P,0,175977,176177,A
Sprite,Foreground,Centre,"sb\etc\ring.png",418,79 C,0,176046,,222,9,76 F,2,176046,176246,1,0 S,2,176046,176246,1.2,0.24 P,0,176046,176246,A
Sprite,Foreground,Centre,"sb\etc\ring.png",521,208 C,0,176182,,222,9,76 F,2,176182,176382,1,0 S,2,176182,176382,1.2,0.24 P,0,176182,176382,A
Sprite,Foreground,Centre,"sb\etc\ring.png",521,208 C,0,176250,,222,9,76 F,2,176250,176450,1,0 S,2,176250,176450,1.2,0.24 P,0,176250,176450,A
Sprite,Foreground,Centre,"sb\etc\ring.png",521,208 C,0,176318,,222,9,76 F,2,176318,176518,1,0 S,2,176318,176518,1.2,0.24 P,0,176318,176518,A
Sprite,Foreground,Centre,"sb\etc\ring.png",372,313 C,0,176455,,222,9,76 F,2,176455,176655,1,0 S,2,176455,176655,1.2,0.24 P,0,176455,176655,A
Sprite,Foreground,Centre,"sb\etc\ring.png",372,313 C,0,176523,,222,9,76 F,2,176523,176723,1,0 S,2,176523,176723,1.2,0.24 P,0,176523,176723,A
Sprite,Foreground,Centre,"sb\etc\ring.png",372,313 C,0,176591,,222,9,76 F,2,176591,176791,1,0 S,2,176591,176791,1.2,0.24 P,0,176591,176791,A
Sprite,Foreground,Centre,"sb\etc\l.png",0,0 C,0,128864,,5,28,186 M,0,128864,128898,542,366,537.0247,338.8268 F,2,128864,129200,1,0 S,2,128864,129200,1,0.2 P,0,128864,129200,A M,0,128898,128932,537.0247,338.8268,532.0492,311.6535 M,0,128932,128966,532.0492,311.6535,537.0247,338.8268 M,0,128966,129000,537.0247,338.8268,542,366
Sprite,Foreground,Centre,"sb\etc\l.png",0,0 C,0,129137,,5,28,186 M,0,129137,129171,460,261,464.6608,233.771 F,2,129137,129473,1,0 S,2,129137,129473,1,0.2 P,0,129137,129473,A M,0,129171,129205,464.6608,233.771,469.3216,206.542 M,0,129205,129239,469.3216,206.542,473.9825,179.313 M,0,129239,129273,473.9825,179.313,478.6432,152.0841
Sprite,Foreground,Centre,"sb\etc\l.png",304,341 C,0,129409,,9,98,198 F,2,129409,129609,1,0 S,2,129409,129609,1,0.2 P,0,129409,129609,A
Sprite,Foreground,Centre,"sb\etc\l.png",304,341 C,0,129477,,9,98,198 F,2,129477,129677,1,0 S,2,129477,129677,1,0.2 P,0,129477,129677,A
Sprite,Foreground,Centre,"sb\etc\l.png",304,341 C,0,129546,,9,98,198 F,2,129546,129746,1,0 S,2,129546,129746,1,0.2 P,0,129546,129746,A
Sprite,Foreground,Centre,"sb\etc\l.png",245,102 C,0,129682,,9,98,198 F,2,129682,129882,1,0 S,2,129682,129882,1,0.2 P,0,129682,129882,A
Sprite,Foreground,Centre,"sb\etc\l.png",245,102 C,0,129750,,9,98,198 F,2,129750,129950,1,0 S,2,129750,129950,1,0.2 P,0,129750,129950,A
Sprite,Foreground,Centre,"sb\etc\l.png",245,102 C,0,129818,,9,98,198 F,2,129818,130018,1,0 S,2,129818,130018,1,0.2 P,0,129818,130018,A
Sprite,Foreground,Centre,"sb\etc\l.png",82,396 C,0,132682,,112,219,211 F,2,132682,132882,1,0 S,2,132682,132882,1,0.2 P,0,132682,132882,A
Sprite,Foreground,Centre,"sb\etc\l.png",97,393 C,0,132750,,112,219,211 F,2,132750,132950,1,0 S,2,132750,132950,1,0.2 P,0,132750,132950,A
Sprite,Foreground,Centre,"sb\etc\l.png",112,390 C,0,132818,,112,219,211 F,2,132818,133018,1,0 S,2,132818,133018,1,0.2 P,0,132818,133018,A
Sprite,Foreground,Centre,"sb\etc\l.png",127,388 C,0,132886,,112,219,211 F,2,132886,133086,1,0 S,2,132886,133086,1,0.2 P,0,132886,133086,A
Sprite,Foreground,Centre,"sb\etc\l.png",142,385 C,0,132954,,112,219,211 F,2,132954,133154,1,0 S,2,132954,133154,1,0.2 P,0,132954,133154,A
Sprite,Foreground,Centre,"sb\etc\l.png",157,382 C,0,133022,,112,219,211 F,2,133022,133222,1,0 S,2,133022,133222,1,0.2 P,0,133022,133222,A
Sprite,Foreground,Centre,"sb\etc\l.png",172,380 C,0,133091,,112,219,211 F,2,133091,133291,1,0 S,2,133091,133291,1,0.2 P,0,133091,133291,A
Sprite,Foreground,Centre,"sb\etc\l.png",187,377 C,0,133159,,112,219,211 F,2,133159,133359,1,0 S,2,133159,133359,1,0.2 P,0,133159,133359,A
Sprite,Foreground,Centre,"sb\etc\l.png",0,0 C,0,133227,,222,9,76 M,0,133227,133261,202,374,222.9127,370.2289 F,2,133227,133495,1,0 S,2,133227,133495,1,0.2 P,0,133227,133495,A M,0,133261,133295,222.9127,370.2289,243.8254,366.4577
Sprite,Foreground,Centre,"sb\etc\l.png",378,292 C,0,133364,,222,9,76 F,2,133364,133564,1,0 S,2,133364,133564,1,0.2 P,0,133364,133564,A
Sprite,Foreground,Centre,"sb\etc\l.png",313,430 C,0,133500,,222,9,76 F,2,133500,133700,1,0 S,2,133500,133700,1,0.2 P,0,133500,133700,A
Sprite,Foreground,Centre,"sb\etc\l.png",282,279 C,0,133637,,222,9,76 F,2,133637,133837,1,0 S,2,133637,133837,1,0.2 P,0,133637,133837,A
Sprite,Foreground,Centre,"sb\etc\l.png",398,387 C,0,133773,,222,9,76 F,2,133773,133973,1,0 S,2,133773,133973,1,0.2 P,0,133773,133973,A
Sprite,Foreground,Centre,"sb\etc\l.png",398,387 C,0,133841,,222,9,76 F,2,133841,134041,1,0 S,2,133841,134041,1,0.2 P,0,133841,134041,A
Sprite,Foreground,Centre,"sb\etc\l.png",398,387 C,0,133909,,222,9,76 F,2,133909,134109,1,0 S,2,133909,134109,1,0.2 P,0,133909,134109,A
Sprite,Foreground,Centre,"sb\etc\l.png",243,366 C,0,134046,,222,9,76 F,2,134046,134246,1,0 S,2,134046,134246,1,0.2 P,0,134046,134246,A
Sprite,Foreground,Centre,"sb\etc\l.png",243,366 C,0,134114,,222,9,76 F,2,134114,134314,1,0 S,2,134114,134314,1,0.2 P,0,134114,134314,A
Sprite,Foreground,Centre,"sb\etc\l.png",243,366 C,0,134182,,222,9,76 F,2,134182,134382,1,0 S,2,134182,134382,1,0.2 P,0,134182,134382,A
Sprite,Foreground,Centre,"sb\etc\l.png",461,122 C,0,137591,,5,28,186 F,2,137591,137791,1,0 S,2,137591,137791,1,0.2 P,0,137591,137791,A
Sprite,Foreground,Centre,"sb\etc\l.png",461,122 C,0,137659,,5,28,186 F,2,137659,137859,1,0 S,2,137659,137859,1,0.2 P,0,137659,137859,A
Sprite,Foreground,Centre,"sb\etc\l.png",461,122 C,0,137727,,5,28,186 F,2,137727,137927,1,0 S,2,137727,137927,1,0.2 P,0,137727,137927,A
Sprite,Foreground,Centre,"sb\etc\l.png",481,217 C,0,137864,,5,28,186 F,2,137864,138064,1,0 S,2,137864,138064,1,0.2 P,0,137864,138064,A
Sprite,Foreground,Centre,"sb\etc\l.png",396,260 C,0,138000,,5,28,186 F,2,138000,138200,1,0 S,2,138000,138200,1,0.2 P,0,138000,138200,A
Sprite,Foreground,Centre,"sb\etc\l.png",326,196 C,0,138137,,5,28,186 F,2,138137,138337,1,0 S,2,138137,138337,1,0.2 P,0,138137,138337,A
Sprite,Foreground,Centre,"sb\etc\l.png",326,196 C,0,138205,,5,28,186 F,2,138205,138405,1,0 S,2,138205,138405,1,0.2 P,0,138205,138405,A
Sprite,Foreground,Centre,"sb\etc\l.png",326,196 C,0,138273,,5,28,186 F,2,138273,138473,1,0 S,2,138273,138473,1,0.2 P,0,138273,138473,A
Sprite,Foreground,Centre,"sb\etc\l.png",365,109 C,0,138409,,5,28,186 F,2,138409,138609,1,0 S,2,138409,138609,1,0.2 P,0,138409,138609,A
Sprite,Foreground,Centre,"sb\etc\l.png",365,109 C,0,138477,,5,28,186 F,2,138477,138677,1,0 S,2,138477,138677,1,0.2 P,0,138477,138677,A
Sprite,Foreground,Centre,"sb\etc\l.png",365,109 C,0,138546,,5,28,186 F,2,138546,138746,1,0 S,2,138546,138746,1,0.2 P,0,138546,138746,A
Sprite,Foreground,Centre,"sb\etc\l.png",362,103 C,0,139773,,9,98,198 F,2,139773,139973,1,0 S,2,139773,139973,1,0.2 P,0,139773,139973,A
Sprite,Foreground,Centre,"sb\etc\l.png",362,103 C,0,139842,,9,98,198 F,2,139842,140042,1,0 S,2,139842,140042,1,0.2 P,0,139842,140042,A
Sprite,Foreground,Centre,"sb\etc\l.png",362,103 C,0,139910,,9,98,198 F,2,139910,140110,1,0 S,2,139910,140110,1,0.2 P,0,139910,140110,A
Sprite,Foreground,Centre,"sb\etc\l.png",319,199 C,0,140046,,9,98,198 F,2,140046,140246,1,0 S,2,140046,140246,1,0.2 P,0,140046,140246,A
Sprite,Foreground,Centre,"sb\etc\l.png",396,270 C,0,140182,,9,98,198 F,2,140182,140382,1,0 S,2,140182,140382,1,0.2 P,0,140182,140382,A
Sprite,Foreground,Centre,"sb\etc\l.png",489,222 C,0,140318,,9,98,198 F,2,140318,140518,1,0 S,2,140318,140518,1,0.2 P,0,140318,140518,A
Sprite,Foreground,Centre,"sb\etc\l.png",489,222 C,0,140387,,9,98,198 F,2,140387,140587,1,0 S,2,140387,140587,1,0.2 P,0,140387,140587,A
Sprite,Foreground,Centre,"sb\etc\l.png",489,222 C,0,140455,,9,98,198 F,2,140455,140655,1,0 S,2,140455,140655,1,0.2 P,0,140455,140655,A
Sprite,Foreground,Centre,"sb\etc\l.png",467,118 C,0,140592,,9,98,198 F,2,140592,140792,1,0 S,2,140592,140792,1,0.2 P,0,140592,140792,A
Sprite,Foreground,Centre,"sb\etc\l.png",467,118 C,0,140660,,9,98,198 F,2,140660,140860,1,0 S,2,140660,140860,1,0.2 P,0,140660,140860,A
Sprite,Foreground,Centre,"sb\etc\l.png",467,118 C,0,140728,,9,98,198 F,2,140728,140928,1,0 S,2,140728,140928,1,0.2 P,0,140728,140928,A
Sprite,Foreground,Centre,"sb\etc\l.png",471,113 C,0,141955,,112,219,211 F,2,141955,142155,1,0 S,2,141955,142155,1,0.2 P,0,141955,142155,A
Sprite,Foreground,Centre,"sb\etc\l.png",471,113 C,0,142023,,112,219,211 F,2,142023,142223,1,0 S,2,142023,142223,1,0.2 P,0,142023,142223,A
Sprite,Foreground,Centre,"sb\etc\l.png",471,113 C,0,142091,,112,219,211 F,2,142091,142291,1,0 S,2,142091,142291,1,0.2 P,0,142091,142291,A
Sprite,Foreground,Centre,"sb\etc\l.png",496,228 C,0,142228,,112,219,211 F,2,142228,142428,1,0 S,2,142228,142428,1,0.2 P,0,142228,142428,A
Sprite,Foreground,Centre,"sb\etc\l.png",393,280 C,0,142364,,112,219,211 F,2,142364,142564,1,0 S,2,142364,142564,1,0.2 P,0,142364,142564,A
Sprite,Foreground,Centre,"sb\etc\l.png",308,203 C,0,142500,,112,219,211 F,2,142500,142700,1,0 S,2,142500,142700,1,0.2 P,0,142500,142700,A
Sprite,Foreground,Centre,"sb\etc\l.png",308,203 C,0,142568,,112,219,211 F,2,142568,142768,1,0 S,2,142568,142768,1,0.2 P,0,142568,142768,A
Sprite,Foreground,Centre,"sb\etc\l.png",308,203 C,0,142637,,112,219,211 F,2,142637,142837,1,0 S,2,142637,142837,1,0.2 P,0,142637,142837,A
Sprite,Foreground,Centre,"sb\etc\l.png",355,97 C,0,142773,,112,219,211 F,2,142773,142973,1,0 S,2,142773,142973,1,0.2 P,0,142773,142973,A
Sprite,Foreground,Centre,"sb\etc\l.png",355,97 C,0,142841,,112,219,211 F,2,142841,143041,1,0 S,2,142841,143041,1,0.2 P,0,142841,143041,A
Sprite,Foreground,Centre,"sb\etc\l.png",355,97 C,0,142910,,112,219,211 F,2,142910,143110,1,0 S,2,142910,143110,1,0.2 P,0,142910,143110,A
Sprite,Foreground,Centre,"sb\etc\l.png",480,109 C,0,143046,,222,9,76 F,2,143046,143246,1,0 S,2,143046,143246,1,0.2 P,0,143046,143246,A
Sprite,Foreground,Centre,"sb\etc\l.png",506,235 C,0,143182,,222,9,76 F,2,143182,143382,1,0 S,2,143182,143382,1,0.2 P,0,143182,143382,A
Sprite,Foreground,Centre,"sb\etc\l.png",506,235 C,0,143250,,222,9,76 F,2,143250,143450,1,0 S,2,143250,143450,1,0.2 P,0,143250,143450,A
Sprite,Foreground,Centre,"sb\etc\l.png",506,235 C,0,143319,,222,9,76 F,2,143319,143519,1,0 S,2,143319,143519,1,0.2 P,0,143319,143519,A
Sprite,Foreground,Centre,"sb\etc\l.png",393,292 C,0,143455,,222,9,76 F,2,143455,143655,1,0 S,2,143455,143655,1,0.2 P,0,143455,143655,A
Sprite,Foreground,Centre,"sb\etc\l.png",352,91 C,0,143591,,222,9,76 F,2,143591,143791,1,0 S,2,143591,143791,1,0.2 P,0,143591,143791,A
Sprite,Foreground,Centre,"sb\etc\l.png",506,235 C,0,143727,,222,9,76 F,2,143727,143927,1,0 S,2,143727,143927,1,0.2 P,0,143727,143927,A
Sprite,Foreground,Centre,"sb\etc\l.png",300,207 C,0,143864,,222,9,76 F,2,143864,144064,1,0 S,2,143864,144064,1,0.2 P,0,143864,144064,A
Sprite,Foreground,Centre,"sb\etc\l.png",480,109 C,0,144000,,222,9,76 F,2,144000,144200,1,0 S,2,144000,144200,1,0.2 P,0,144000,144200,A
Sprite,Foreground,Centre,"sb\etc\l.png",394,323 C,0,144137,,5,28,186 F,2,144137,144337,1,0 S,2,144137,144337,1,0.2 P,0,144137,144337,A
Sprite,Foreground,Centre,"sb\etc\l.png",394,323 C,0,144205,,5,28,186 F,2,144205,144405,1,0 S,2,144205,144405,1,0.2 P,0,144205,144405,A
Sprite,Foreground,Centre,"sb\etc\l.png",394,323 C,0,144273,,5,28,186 F,2,144273,144473,1,0 S,2,144273,144473,1,0.2 P,0,144273,144473,A
Sprite,Foreground,Centre,"sb\etc\l.png",500,97 C,0,144410,,5,28,186 F,2,144410,144610,1,0 S,2,144410,144610,1,0.2 P,0,144410,144610,A
Sprite,Foreground,Centre,"sb\etc\l.png",279,218 C,0,144546,,5,28,186 F,2,144546,144746,1,0 S,2,144546,144746,1,0.2 P,0,144546,144746,A
Sprite,Foreground,Centre,"sb\etc\l.png",533,252 C,0,144682,,5,28,186 F,2,144682,144882,1,0 S,2,144682,144882,1,0.2 P,0,144682,144882,A
Sprite,Foreground,Centre,"sb\etc\l.png",533,252 C,0,144750,,5,28,186 F,2,144750,144950,1,0 S,2,144750,144950,1,0.2 P,0,144750,144950,A
Sprite,Foreground,Centre,"sb\etc\l.png",533,252 C,0,144818,,5,28,186 F,2,144818,145018,1,0 S,2,144818,145018,1,0.2 P,0,144818,145018,A
Sprite,Foreground,Centre,"sb\etc\l.png",343,76 C,0,144955,,5,28,186 F,2,144955,145155,1,0 S,2,144955,145155,1,0.2 P,0,144955,145155,A
Sprite,Foreground,Centre,"sb\etc\l.png",343,76 C,0,145023,,5,28,186 F,2,145023,145223,1,0 S,2,145023,145223,1,0.2 P,0,145023,145223,A
Sprite,Foreground,Centre,"sb\etc\l.png",343,76 C,0,145091,,5,28,186 F,2,145091,145291,1,0 S,2,145091,145291,1,0.2 P,0,145091,145291,A
Sprite,Foreground,Centre,"sb\etc\l.png",438,206 C,0,145227,,9,98,198 F,2,145227,145427,1,0 S,2,145227,145427,1,0.2 P,0,145227,145427,A
Sprite,Foreground,Centre,"sb\etc\l.png",438,206 C,0,145296,,9,98,198 F,2,145296,145496,1,0 S,2,145296,145496,1,0.2 P,0,145296,145496,A
Sprite,Foreground,Centre,"sb\etc\l.png",0,0 C,0,145364,,9,98,198 M,0,145364,145398,438,206,408.7365,200.6419 F,2,145364,145632,1,0 S,2,145364,145632,1,0.2 P,0,145364,145632,A M,0,145398,145432,408.7365,200.6419,379.473,195.2838
Sprite,Foreground,Centre,"sb\etc\l.png",513,90 C,0,145500,,9,98,198 F,2,145500,145700,1,0 S,2,145500,145700,1,0.2 P,0,145500,145700,A
Sprite,Foreground,Centre,"sb\etc\l.png",394,342 C,0,145637,,9,98,198 F,2,145637,145837,1,0 S,2,145637,145837,1,0.2 P,0,145637,145837,A
Sprite,Foreground,Centre,"sb\etc\l.png",337,66 C,0,145773,,9,98,198 F,2,145773,145973,1,0 S,2,145773,145973,1,0.2 P,0,145773,145973,A
Sprite,Foreground,Centre,"sb\etc\l.png",337,66 C,0,145841,,9,98,198 F,2,145841,146041,1,0 S,2,145841,146041,1,0.2 P,0,145841,146041,A
Sprite,Foreground,Centre,"sb\etc\l.png",337,66 C,0,145909,,9,98,198 F,2,145909,146109,1,0 S,2,145909,146109,1,0.2 P,0,145909,146109,A
Sprite,Foreground,Centre,"sb\etc\l.png",549,263 C,0,146046,,9,98,198 F,2,146046,146246,1,0 S,2,146046,146246,1,0.2 P,0,146046,146246,A
Sprite,Foreground,Centre,"sb\etc\l.png",549,263 C,0,146115,,9,98,198 F,2,146115,146315,1,0 S,2,146115,146315,1,0.2 P,0,146115,146315,A
Sprite,Foreground,Centre,"sb\etc\l.png",0,0 C,0,146183,,9,98,198 M,0,146183,146217,549,263,519.666,267.9579 F,2,146183,146451,1,0 S,2,146183,146451,1,0.2 P,0,146183,146451,A M,0,146217,146251,519.666,267.9579,490.332,272.9157
Sprite,Foreground,Centre,"sb\etc\l.png",235,316 C,0,146318,,112,219,211 F,2,146318,146518,1,0 S,2,146318,146518,1,0.2 P,0,146318,146518,A
Sprite,Foreground,Centre,"sb\etc\l.png",259,298 C,0,146386,,112,219,211 F,2,146386,146586,1,0 S,2,146386,146586,1,0.2 P,0,146386,146586,A
Sprite,Foreground,Centre,"sb\etc\l.png",287,289 C,0,146454,,112,219,211 F,2,146454,146654,1,0 S,2,146454,146654,1,0.2 P,0,146454,146654,A
Sprite,Foreground,Centre,"sb\etc\l.png",316,288 C,0,146522,,112,219,211 F,2,146522,146722,1,0 S,2,146522,146722,1,0.2 P,0,146522,146722,A
Sprite,Foreground,Centre,"sb\etc\l.png",0,0 C,0,146591,,112,219,211 M,0,146591,146625,345,296,373.6073,313.8921 F,2,146591,146859,1,0 S,2,146591,146859,1,0.2 P,0,146591,146859,A M,0,146625,146659,373.6073,313.8921,393.3187,341.2727
Sprite,Foreground,Centre,"sb\etc\l.png",219,440 C,0,146727,,222,9,76 F,2,146727,146927,1,0 S,2,146727,146927,1,0.2 P,0,146727,146927,A
Sprite,Foreground,Centre,"sb\etc\l.png",152,408 C,0,146795,,222,9,76 F,2,146795,146995,1,0 S,2,146795,146995,1,0.2 P,0,146795,146995,A
Sprite,Foreground,Centre,"sb\etc\l.png",115,344 C,0,146863,,222,9,76 F,2,146863,147063,1,0 S,2,146863,147063,1,0.2 P,0,146863,147063,A
Sprite,Foreground,Centre,"sb\etc\l.png",120,271 C,0,146931,,222,9,76 F,2,146931,147131,1,0 S,2,146931,147131,1,0.2 P,0,146931,147131,A
Sprite,Foreground,Centre,"sb\etc\l.png",0,0 C,0,147000,,222,9,76 M,0,147000,147034,166,213,178.7362,174.9307 F,2,147000,147336,1,0 S,2,147000,147336,1,0.2 P,0,147000,147336,A M,0,147034,147068,178.7362,174.9307,178.563,134.8337 M,0,147068,147102,178.563,134.8337,165.2604,97.0071 M,0,147102,147136,165.2604,97.0071,140.4635,65.44063
Sprite,Foreground,Centre,"sb\etc\l.png",263,194 C,0,147205,,222,9,76 F,2,147205,147405,1,0 S,2,147205,147405,1,0.2 P,0,147205,147405,A
Sprite,Foreground,Centre,"sb\etc\l.png",0,0 C,0,147273,,222,9,76 M,0,147273,147307,263,194,299.8584,195.1361 F,2,147273,147541,1,0 S,2,147273,147541,1,0.2 P,0,147273,147541,A M,0,147307,147341,299.8584,195.1361,334.3269,182.0171
Sprite,Foreground,Centre,"sb\etc\l.png",424,56 C,0,147409,,5,28,186 F,2,147409,147609,1,0 S,2,147409,147609,1,0.2 P,0,147409,147609,A
Sprite,Foreground,Centre,"sb\etc\l.png",424,56 C,0,147477,,5,28,186 F,2,147477,147677,1,0 S,2,147477,147677,1,0.2 P,0,147477,147677,A
Sprite,Foreground,Centre,"sb\etc\l.png",0,0 C,0,147546,,5,28,186 M,0,147546,147580,424,56,417.1981,92.56015 F,2,147546,147814,1,0 S,2,147546,147814,1,0.2 P,0,147546,147814,A M,0,147580,147614,417.1981,92.56015,410.3962,129.1203
Sprite,Foreground,Centre,"sb\etc\l.png",476,278 C,0,147682,,5,28,186 F,2,147682,147882,1,0 S,2,147682,147882,1,0.2 P,0,147682,147882,A
Sprite,Foreground,Centre,"sb\etc\l.png",476,278 C,0,147750,,5,28,186 F,2,147750,147950,1,0 S,2,147750,147950,1,0.2 P,0,147750,147950,A
Sprite,Foreground,Centre,"sb\etc\l.png",0,0 C,0,147819,,5,28,186 M,0,147819,147853,476,278,469.2737,241.4259 F,2,147819,148087,1,0 S,2,147819,148087,1,0.2 P,0,147819,148087,A M,0,147853,147887,469.2737,241.4259,462.5475,204.8517
Sprite,Foreground,Centre,"sb\etc\l.png",0,0 C,0,147955,,5,28,186 M,0,147955,147989,271,320,307.1924,311.4546 F,2,147955,148291,1,0 S,2,147955,148291,1,0.2 P,0,147955,148291,A M,0,147989,148023,307.1924,311.4546,343.3322,303.2143 M,0,148023,148057,343.3322,303.2143,374.5807,323.3746 M,0,148057,148091,374.5807,323.3746,405,343
Sprite,Foreground,Centre,"sb\etc\l.png",544,112 C,0,148227,,9,98,198 F,2,148227,148427,1,0 S,2,148227,148427,1,0.2 P,0,148227,148427,A
Sprite,Foreground,Centre,"sb\etc\l.png",550,148 C,0,148295,,9,98,198 F,2,148295,148495,1,0 S,2,148295,148495,1,0.2 P,0,148295,148495,A
Sprite,Foreground,Centre,"sb\etc\l.png",557,185 C,0,148363,,9,98,198 F,2,148363,148563,1,0 S,2,148363,148563,1,0.2 P,0,148363,148563,A
Sprite,Foreground,Centre,"sb\etc\l.png",564,221 C,0,148431,,9,98,198 F,2,148431,148631,1,0 S,2,148431,148631,1,0.2 P,0,148431,148631,A
Sprite,Foreground,Centre,"sb\etc\l.png",0,0 C,0,148500,,9,98,198 M,0,148500,148534,570,258,570.6027,294.8968 F,2,148500,148836,1,0 S,2,148500,148836,1,0.2 P,0,148500,148836,A M,0,148534,148568,570.6027,294.8968,557.378,329.2868 M,0,148568,148602,557.378,329.2868,532.3702,356.3546 M,0,148602,148636,532.3702,356.3546,498.842,371.673
Sprite,Foreground,Centre,"sb\etc\l.png",0,0 C,0,148773,,112,219,211 M,0,148773,148807,127,138,133.3296,101.3551 F,2,148773,149041,1,0 S,2,148773,149041,1,0.2 P,0,148773,149041,A M,0,148807,148841,133.3296,101.3551,139.6591,64.71026
Sprite,Foreground,Centre,"sb\etc\l.png",0,0 C,0,148909,,112,219,211 M,0,148909,148943,243,232,234.3194,181.7442 F,2,148909,149177,1,0 S,2,148909,149177,1,0.2 P,0,148909,149177,A M,0,148943,148977,234.3194,181.7442,225.6389,131.4883
Sprite,Foreground,Centre,"sb\etc\l.png",77,313 C,0,149046,,222,9,76 F,2,149046,149246,1,0 S,2,149046,149246,1,0.2 P,0,149046,149246,A
Sprite,Foreground,Centre,"sb\etc\l.png",114,292 C,0,149114,,222,9,76 F,2,149114,149314,1,0 S,2,149114,149314,1,0.2 P,0,149114,149314,A
Sprite,Foreground,Centre,"sb\etc\l.png",156,290 C,0,149182,,222,9,76 F,2,149182,149382,1,0 S,2,149182,149382,1,0.2 P,0,149182,149382,A
Sprite,Foreground,Centre,"sb\etc\l.png",195,307 C,0,149250,,222,9,76 F,2,149250,149450,1,0 S,2,149250,149450,1,0.2 P,0,149250,149450,A
Sprite,Foreground,Centre,"sb\etc\l.png",223,338 C,0,149318,,222,9,76 F,2,149318,149518,1,0 S,2,149318,149518,1,0.2 P,0,149318,149518,A
Sprite,Foreground,Centre,"sb\etc\l.png",245,362 C,0,149386,,222,9,76 F,2,149386,149586,1,0 S,2,149386,149586,1,0.2 P,0,149386,149586,A
Sprite,Foreground,Centre,"sb\etc\l.png",276,376 C,0,149454,,222,9,76 F,2,149454,149654,1,0 S,2,149454,149654,1,0.2 P,0,149454,149654,A
Sprite,Foreground,Centre,"sb\etc\l.png",310,374 C,0,149522,,222,9,76 F,2,149522,149722,1,0 S,2,149522,149722,1,0.2 P,0,149522,149722,A
Sprite,Foreground,Centre,"sb\etc\l.png",339,358 C,0,149591,,5,28,186 F,2,149591,149791,1,0 S,2,149591,149791,1,0.2 P,0,149591,149791,A
Sprite,Foreground,Centre,"sb\etc\l.png",341,343 C,0,149659,,5,28,186 F,2,149659,149859,1,0 S,2,149659,149859,1,0.2 P,0,149659,149859,A
Sprite,Foreground,Centre,"sb\etc\l.png",344,329 C,0,149727,,5,28,186 F,2,149727,149927,1,0 S,2,149727,149927,1,0.2 P,0,149727,149927,A
Sprite,Foreground,Centre,"sb\etc\l.png",346,315 C,0,149795,,5,28,186 F,2,149795,149995,1,0 S,2,149795,149995,1,0.2 P,0,149795,149995,A
Sprite,Foreground,Centre,"sb\etc\l.png",0,0 C,0,149864,,9,98,198 M,0,149864,149898,349,301,355.0203,265.3802 F,2,149864,150132,1,0 S,2,149864,150132,1,0.2 P,0,149864,150132,A M,0,149898,149932,355.0203,265.3802,361,230
Sprite,Foreground,Centre,"sb\etc\l.png",0,0 C,0,150000,,9,98,198 M,0,150000,150034,462,322,469.0453,361.7556 F,2,150000,150268,1,0 S,2,150000,150268,1,0.2 P,0,150000,150268,A M,0,150034,150068,469.0453,361.7556,476,401
Sprite,Foreground,Centre,"sb\etc\l.png",0,0 C,0,150137,,9,98,198 M,0,150137,150171,576,193,538.5046,185.8705 F,2,150137,150541,1,0 S,2,150137,150541,1,0.2 P,0,150137,150541,A M,0,150171,150205,538.5046,185.8705,500.8696,190.9028 M,0,150205,150239,500.8696,190.9028,468.0786,210.3031 M,0,150239,150273,468.0786,210.3031,436.1011,231.1192 M,0,150273,150307,436.1011,231.1192,398.7771,237.562 M,0,150307,150341,398.7771,237.562,362,230
Sprite,Foreground,Centre,"sb\etc\l.png",234,178 C,0,150409,,9,98,198 F,2,150409,150609,1,0 S,2,150409,150609,1,0.2 P,0,150409,150609,A
Sprite,Foreground,Centre,"sb\etc\l.png",229,154 C,0,150477,,9,98,198 F,2,150477,150677,1,0 S,2,150477,150677,1,0.2 P,0,150477,150677,A
Sprite,Foreground,Centre,"sb\etc\l.png",225,131 C,0,150545,,9,98,198 F,2,150545,150745,1,0 S,2,150545,150745,1,0.2 P,0,150545,150745,A
Sprite,Foreground,Centre,"sb\etc\l.png",221,107 C,0,150613,,9,98,198 F,2,150613,150813,1,0 S,2,150613,150813,1,0.2 P,0,150613,150813,A
Sprite,Foreground,Centre,"sb\etc\l.png",0,0 C,0,150682,,112,219,211 M,0,150682,150716,217,84,183.5051,66.43302 F,2,150682,151086,1,0 S,2,150682,151086,1,0.2 P,0,150682,151086,A M,0,150716,150750,183.5051,66.43302,145.7423,65.13538 M,0,150750,150784,145.7423,65.13538,183.5051,66.43302 M,0,150784,150818,183.5051,66.43302,217,84 M,0,150818,150852,217,84,183.5051,66.43302 M,0,150852,150886,183.5051,66.43302,145.7423,65.13538
Sprite,Foreground,Centre,"sb\etc\l.png",0,0 C,0,150955,,112,219,211 M,0,150955,150989,138,164,112.3222,188.9098 F,2,150955,151359,1,0 S,2,150955,151359,1,0.2 P,0,150955,151359,A M,0,150989,151023,112.3222,188.9098,98.90002,222.0901 M,0,151023,151057,98.90002,222.0901,112.3222,188.9098 M,0,151057,151091,112.3222,188.9098,138,164 M,0,151091,151125,138,164,112.3222,188.9098 M,0,151125,151159,112.3222,188.9098,98.90002,222.0901
Sprite,Foreground,Centre,"sb\etc\l.png",0,0 C,0,151227,,112,219,211 M,0,151227,151261,189,261,203.1417,291.563 F,2,151227,151631,1,0 S,2,151227,151631,1,0.2 P,0,151227,151631,A M,0,151261,151295,203.1417,291.563,227.8907,314.2655 M,0,151295,151329,227.8907,314.2655,203.1417,291.563 M,0,151329,151363,203.1417,291.563,189,261 M,0,151363,151397,189,261,203.1417,291.563 M,0,151397,151431,203.1417,291.563,227.8907,314.2655
Sprite,Foreground,Centre,"sb\etc\l.png",0,0 C,0,151500,,112,219,211 M,0,151500,151534,298,243,329.3315,238.8524 F,2,151500,151904,1,0 S,2,151500,151904,1,0.2 P,0,151500,151904,A M,0,151534,151568,329.3315,238.8524,357.2721,224.0598 M,0,151568,151602,357.2721,224.0598,329.3315,238.8524 M,0,151602,151636,329.3315,238.8524,298,243 M,0,151636,151670,298,243,329.3315,238.8524 M,0,151670,151704,329.3315,238.8524,357.2721,224.0598
Sprite,Foreground,Centre,"sb\etc\l.png",494,56 C,0,151773,,222,9,76 F,2,151773,151973,1,0 S,2,151773,151973,1,0.2 P,0,151773,151973,A
Sprite,Foreground,Centre,"sb\etc\l.png",488,86 C,0,151841,,222,9,76 F,2,151841,152041,1,0 S,2,151841,152041,1,0.2 P,0,151841,152041,A
Sprite,Foreground,Centre,"sb\etc\l.png",483,116 C,0,151909,,222,9,76 F,2,151909,152109,1,0 S,2,151909,152109,1,0.2 P,0,151909,152109,A
Sprite,Foreground,Centre,"sb\etc\l.png",478,146 C,0,151977,,222,9,76 F,2,151977,152177,1,0 S,2,151977,152177,1,0.2 P,0,151977,152177,A
Sprite,Foreground,Centre,"sb\etc\l.png",458,168 C,0,152046,,222,9,76 F,2,152046,152246,1,0 S,2,152046,152246,1,0.2 P,0,152046,152246,A
Sprite,Foreground,Centre,"sb\etc\l.png",462,193 C,0,152114,,222,9,76 F,2,152114,152314,1,0 S,2,152114,152314,1,0.2 P,0,152114,152314,A
Sprite,Foreground,Centre,"sb\etc\l.png",466,218 C,0,152182,,222,9,76 F,2,152182,152382,1,0 S,2,152182,152382,1,0.2 P,0,152182,152382,A
Sprite,Foreground,Centre,"sb\etc\l.png",471,243 C,0,152250,,222,9,76 F,2,152250,152450,1,0 S,2,152250,152450,1,0.2 P,0,152250,152450,A
Sprite,Foreground,Centre,"sb\etc\l.png",489,257 C,0,152318,,222,9,76 F,2,152318,152518,1,0 S,2,152318,152518,1,0.2 P,0,152318,152518,A
Sprite,Foreground,Centre,"sb\etc\l.png",486,277 C,0,152386,,222,9,76 F,2,152386,152586,1,0 S,2,152386,152586,1,0.2 P,0,152386,152586,A
Sprite,Foreground,Centre,"sb\etc\l.png",482,298 C,0,152454,,222,9,76 F,2,152454,152654,1,0 S,2,152454,152654,1,0.2 P,0,152454,152654,A
Sprite,Foreground,Centre,"sb\etc\l.png",478,318 C,0,152522,,222,9,76 F,2,152522,152722,1,0 S,2,152522,152722,1,0.2 P,0,152522,152722,A
Sprite,Foreground,Centre,"sb\etc\l.png",463,331 C,0,152591,,222,9,76 F,2,152591,152791,1,0 S,2,152591,152791,1,0.2 P,0,152591,152791,A
Sprite,Foreground,Centre,"sb\etc\l.png",465,347 C,0,152659,,222,9,76 F,2,152659,152859,1,0 S,2,152659,152859,1,0.2 P,0,152659,152859,A
Sprite,Foreground,Centre,"sb\etc\l.png",468,363 C,0,152727,,222,9,76 F,2,152727,152927,1,0 S,2,152727,152927,1,0.2 P,0,152727,152927,A
Sprite,Foreground,Centre,"sb\etc\l.png",471,379 C,0,152795,,222,9,76 F,2,152795,152995,1,0 S,2,152795,152995,1,0.2 P,0,152795,152995,A
Sprite,Foreground,Centre,"sb\etc\l.png",0,0 C,0,152864,,5,28,186 M,0,152864,152898,474,396,448.917,391.4073 F,2,152864,153132,1,0 S,2,152864,153132,1,0.2 P,0,152864,153132,A M,0,152898,152932,448.917,391.4073,423.834,386.8147
Sprite,Foreground,Centre,"sb\etc\l.png",346,315 C,0,153000,,5,28,186 F,2,153000,153200,1,0 S,2,153000,153200,1,0.2 P,0,153000,153200,A
Sprite,Foreground,Centre,"sb\etc\l.png",346,315 C,0,153068,,5,28,186 F,2,153068,153268,1,0 S,2,153068,153268,1,0.2 P,0,153068,153268,A
Sprite,Foreground,Centre,"sb\etc\l.png",0,0 C,0,153137,,5,28,186 M,0,153137,153171,346,315,322.9305,318.7664 F,2,153137,153405,1,0 S,2,153137,153405,1,0.2 P,0,153137,153405,A M,0,153171,153205,322.9305,318.7664,299.8609,322.5329
Sprite,Foreground,Centre,"sb\etc\l.png",0,0 C,0,153273,,9,98,198 M,0,153273,153307,213,386,183.754,380.5473 F,2,153273,153541,1,0 S,2,153273,153541,1,0.2 P,0,153273,153541,A M,0,153307,153341,183.754,380.5473,154.5079,375.0947
Sprite,Foreground,Centre,"sb\etc\l.png",0,0 C,0,153409,,9,98,198 M,0,153409,153443,96,292,125.229,286.4566 F,2,153409,153677,1,0 S,2,153409,153677,1,0.2 P,0,153409,153677,A M,0,153443,153477,125.229,286.4566,154,281
Sprite,Foreground,Centre,"sb\etc\l.png",0,0 C,0,153546,,9,98,198 M,0,153546,153580,220,401,190.754,395.5473 F,2,153546,153814,1,0 S,2,153546,153814,1,0.2 P,0,153546,153814,A M,0,153580,153614,190.754,395.5473,161.5079,390.0947
Sprite,Foreground,Centre,"sb\etc\l.png",84,280 C,0,153682,,9,98,198 F,2,153682,153882,1,0 S,2,153682,153882,1,0.2 P,0,153682,153882,A
Sprite,Foreground,Centre,"sb\etc\l.png",113,274 C,0,153750,,9,98,198 F,2,153750,153950,1,0 S,2,153750,153950,1,0.2 P,0,153750,153950,A
Sprite,Foreground,Centre,"sb\etc\l.png",142,269 C,0,153818,,9,98,198 F,2,153818,154018,1,0 S,2,153818,154018,1,0.2 P,0,153818,154018,A
Sprite,Foreground,Centre,"sb\etc\l.png",171,264 C,0,153886,,9,98,198 F,2,153886,154086,1,0 S,2,153886,154086,1,0.2 P,0,153886,154086,A
Sprite,Foreground,Centre,"sb\etc\l.png",0,0 C,0,153955,,112,219,211 M,0,153955,153989,201,259,230.2481,253.5585 F,2,153955,154336,1,0 S,2,153955,154336,1,0.2 P,0,153955,154336,A M,0,153989,154023,230.2481,253.5585,259.4962,248.117 M,0,154023,154057,259.4962,248.117,269.2456,246.3031 M,0,154057,154091,269.2456,246.3031,239.9975,251.7447 M,0,154091,154125,239.9975,251.7447,210.7494,257.1862 M,0,154125,154136,210.7494,257.1862,201,259
Sprite,Foreground,Centre,"sb\etc\l.png",0,0 C,0,154227,,112,219,211 M,0,154227,154261,315,127,344.3452,131.8909 F,2,154227,154608,1,0 S,2,154227,154608,1,0.2 P,0,154227,154608,A M,0,154261,154295,344.3452,131.8909,373.6904,136.7817 M,0,154295,154329,373.6904,136.7817,383.4722,138.412 M,0,154329,154363,383.4722,138.412,354.127,133.5211 M,0,154363,154397,354.127,133.5211,324.7817,128.6303 M,0,154397,154408,324.7817,128.6303,315,127
Sprite,Foreground,Centre,"sb\etc\l.png",451,273 C,0,154500,,222,9,76 F,2,154500,154700,1,0 S,2,154500,154700,1,0.2 P,0,154500,154700,A
Sprite,Foreground,Centre,"sb\etc\l.png",466,270 C,0,154568,,222,9,76 F,2,154568,154768,1,0 S,2,154568,154768,1,0.2 P,0,154568,154768,A
Sprite,Foreground,Centre,"sb\etc\l.png",482,267 C,0,154636,,222,9,76 F,2,154636,154836,1,0 S,2,154636,154836,1,0.2 P,0,154636,154836,A
Sprite,Foreground,Centre,"sb\etc\l.png",498,264 C,0,154704,,222,9,76 F,2,154704,154904,1,0 S,2,154704,154904,1,0.2 P,0,154704,154904,A
Sprite,Foreground,Centre,"sb\etc\l.png",514,261 C,0,154772,,222,9,76 F,2,154772,154972,1,0 S,2,154772,154972,1,0.2 P,0,154772,154972,A
Sprite,Foreground,Centre,"sb\etc\l.png",529,259 C,0,154840,,222,9,76 F,2,154840,155040,1,0 S,2,154840,155040,1,0.2 P,0,154840,155040,A
Sprite,Foreground,Centre,"sb\etc\l.png",544,256 C,0,154910,,222,9,76 F,2,154910,155110,1,0 S,2,154910,155110,1,0.2 P,0,154910,155110,A
Sprite,Foreground,Centre,"sb\etc\l.png",560,253 C,0,154978,,222,9,76 F,2,154978,155178,1,0 S,2,154978,155178,1,0.2 P,0,154978,155178,A
Sprite,Foreground,Centre,"sb\etc\l.png",0,0 C,0,155046,,5,28,186 M,0,155046,155080,576,250,562.7893,239.3361 F,2,155046,155518,1,0 S,2,155046,155518,1,0.2 P,0,155046,155518,A M,0,155080,155114,562.7893,239.3361,548.1651,230.7269 M,0,155114,155148,548.1651,230.7269,532.4432,224.3562 M,0,155148,155182,532.4432,224.3562,515.963,220.3595 M,0,155182,155216,515.963,220.3595,499.0795,218.8216 M,0,155216,155250,499.0795,218.8216,482.1565,219.7745 M,0,155250,155284,482.1565,219.7745,465.5584,223.1967 M,0,155284,155318,465.5584,223.1967,449.5346,228.7778
Sprite,Foreground,Centre,"sb\etc\l.png",371,286 C,0,155455,,5,28,186 F,2,155455,155655,1,0 S,2,155455,155655,1,0.2 P,0,155455,155655,A
Sprite,Foreground,Centre,"sb\etc\l.png",0,0 C,0,155591,,5,28,186 M,0,155591,155625,314,206,322.3221,191.1763 F,2,155591,156200,1,0 S,2,155591,156200,1,0.2 P,0,155591,156200,A M,0,155625,155659,322.3221,191.1763,330.6442,176.3526 M,0,155659,155693,330.6442,176.3526,338.9663,161.5288 M,0,155693,155727,338.9663,161.5288,346.4626,151.5908 M,0,155727,155761,346.4626,151.5908,349.4511,168.3261 M,0,155761,155795,349.4511,168.3261,352.4395,185.0614 M,0,155795,155829,352.4395,185.0614,355.428,201.7966 M,0,155829,155863,355.428,201.7966,358.4164,218.5319 M,0,155863,155897,358.4164,218.5319,361.4048,235.2672 M,0,155897,155931,361.4048,235.2672,364.3933,252.0024 M,0,155931,155966,364.3933,252.0024,367.3817,268.7377 M,0,155966,156000,367.3817,268.7377,370.3702,285.473
Sprite,Foreground,Centre,"sb\etc\l.png",0,0 C,0,156137,,9,98,198 M,0,156137,156171,164,320,177.3221,330.5342 F,2,156137,156609,1,0 S,2,156137,156609,1,0.2 P,0,156137,156609,A M,0,156171,156205,177.3221,330.5342,192.0452,338.9983 M,0,156205,156239,192.0452,338.9983,207.8502,345.209 M,0,156239,156273,207.8502,345.209,224.3948,349.0322 M,0,156273,156307,224.3948,349.0322,241.3202,350.3853 M,0,156307,156341,241.3202,350.3853,258.2599,349.2393 M,0,156341,156375,258.2599,349.2393,274.847,345.6193 M,0,156375,156409,274.847,345.6193,290,340
Sprite,Foreground,Centre,"sb\etc\l.png",370,285 C,0,156546,,9,98,198 F,2,156546,156746,1,0 S,2,156546,156746,1,0.2 P,0,156546,156746,A
Sprite,Foreground,Centre,"sb\etc\l.png",0,0 C,0,156682,,9,98,198 M,0,156682,156716,426,364,417.6779,378.8237 F,2,156682,157291,1,0 S,2,156682,157291,1,0.2 P,0,156682,157291,A M,0,156716,156750,417.6779,378.8237,409.3558,393.6475 M,0,156750,156784,409.3558,393.6475,401.0337,408.4712 M,0,156784,156818,401.0337,408.4712,393.5374,418.4092 M,0,156818,156852,393.5374,418.4092,390.5489,401.6739 M,0,156852,156886,390.5489,401.6739,387.5605,384.9386 M,0,156886,156920,387.5605,384.9386,384.572,368.2034 M,0,156920,156954,384.572,368.2034,381.5836,351.4681 M,0,156954,156988,381.5836,351.4681,378.5952,334.7328 M,0,156988,157022,378.5952,334.7328,375.6067,317.9976 M,0,157022,157057,375.6067,317.9976,372.6183,301.2623 M,0,157057,157091,372.6183,301.2623,369.6298,284.527
Sprite,Foreground,Centre,"sb\etc\l.png",0,0 C,0,157227,,112,219,211 M,0,157227,157261,257,153,253.2183,173.9108 F,2,157227,157563,1,0 S,2,157227,157563,1,0.2 P,0,157227,157563,A M,0,157261,157295,253.2183,173.9108,249.4365,194.8216 M,0,157295,157329,249.4365,194.8216,245.6548,215.7324 M,0,157329,157363,245.6548,215.7324,241.873,236.6431
Sprite,Foreground,Centre,"sb\etc\l.png",290,340 C,0,157500,,112,219,211 F,2,157500,157700,1,0 S,2,157500,157700,1,0.2 P,0,157500,157700,A
Sprite,Foreground,Centre,"sb\etc\l.png",0,0 C,0,157637,,112,219,211 M,0,157637,157671,402,97,405.5657,117.9487 F,2,157637,157973,1,0 S,2,157637,157973,1,0.2 P,0,157637,157973,A M,0,157671,157705,405.5657,117.9487,409.1315,138.8974 M,0,157705,157739,409.1315,138.8974,412.6972,159.8461 M,0,157739,157773,412.6972,159.8461,416.2629,180.7948
Sprite,Foreground,Centre,"sb\etc\l.png",369,284 C,0,157910,,112,219,211 F,2,157910,158110,1,0 S,2,157910,158110,1,0.2 P,0,157910,158110,A
Sprite,Foreground,Centre,"sb\etc\l.png",0,0 C,0,158046,,112,219,211 M,0,158046,158080,168,59,164.2183,79.91078 F,2,158046,158382,1,0 S,2,158046,158382,1,0.2 P,0,158046,158382,A M,0,158080,158114,164.2183,79.91078,160.4365,100.8216 M,0,158114,158148,160.4365,100.8216,156.6548,121.7324 M,0,158148,158182,156.6548,121.7324,152.873,142.6431
Sprite,Foreground,Centre,"sb\etc\l.png",0,0 C,0,158318,,222,9,76 M,0,158318,158352,181,420,176.5259,394.8956 F,2,158318,158654,1,0 S,2,158318,158654,1,0.2 P,0,158318,158654,A M,0,158352,158386,176.5259,394.8956,172.0519,369.7911 M,0,158386,158420,172.0519,369.7911,167.5778,344.6867 M,0,158420,158454,167.5778,344.6867,163.1038,319.5822
Sprite,Foreground,Centre,"sb\etc\l.png",0,0 C,0,158591,,222,9,76 M,0,158591,158625,386,183,381.4826,208.0967 F,2,158591,158927,1,0 S,2,158591,158927,1,0.2 P,0,158591,158927,A M,0,158625,158659,381.4826,208.0967,376.9652,233.1934 M,0,158659,158693,376.9652,233.1934,372.4478,258.29 M,0,158693,158727,372.4478,258.29,368,283
Sprite,Foreground,Centre,"sb\etc\l.png",0,0 C,0,158864,,222,9,76 M,0,158864,158898,103,254,124.9536,241.0274 F,2,158864,159200,1,0 S,2,158864,159200,1,0.2 P,0,158864,159200,A M,0,158898,158932,124.9536,241.0274,146.9073,228.0548 M,0,158932,158966,146.9073,228.0548,171.9178,232.8858 M,0,158966,159000,171.9178,232.8858,196.9413,237.7924
Sprite,Foreground,Centre,"sb\etc\l.png",0,0 C,0,159136,,222,9,76 M,0,159136,159170,427,347,404.9204,359.7571 F,2,159136,159472,1,0 S,2,159136,159472,1,0.2 P,0,159136,159472,A M,0,159170,159204,404.9204,359.7571,382.8409,372.5142 M,0,159204,159238,382.8409,372.5142,357.8747,368.5688 M,0,159238,159272,357.8747,368.5688,333,364
Sprite,Foreground,Centre,"sb\etc\l.png",0,0 C,0,159409,,5,28,186 M,0,159409,159443,527,114,531.2966,139.1354 F,2,159409,160018,1,0 S,2,159409,160018,1,0.2 P,0,159409,160018,A M,0,159443,159477,531.2966,139.1354,535.5933,164.2708 M,0,159477,159511,535.5933,164.2708,539.89,189.4062 M,0,159511,159545,539.89,189.4062,544.1866,214.5416 M,0,159545,159579,544.1866,214.5416,543.1769,238.9294 M,0,159579,159613,543.1769,238.9294,532.1023,261.899 M,0,159613,159647,532.1023,261.899,521.0276,284.8686 M,0,159647,159681,521.0276,284.8686,523.979,309.789 M,0,159681,159715,523.979,309.789,528.3651,334.909 M,0,159715,159749,528.3651,334.909,532.7511,360.029 M,0,159749,159784,532.7511,360.029,537.1371,385.1489 M,0,159784,159818,537.1371,385.1489,541.5231,410.2689
Sprite,Foreground,Centre,"sb\etc\l.png",0,0 C,0,159955,,5,28,186 M,0,159955,159989,333,363,316.4827,343.8314 F,2,159955,160564,1,0 S,2,159955,160564,1,0.2 P,0,159955,160564,A M,0,159989,160023,316.4827,343.8314,308.4327,319.8912 M,0,160023,160057,308.4327,319.8912,310.009,294.7204 M,0,160057,160091,310.009,294.7204,320.9552,272.0316 M,0,160091,160125,320.9552,272.0316,339.6402,255.1654 M,0,160125,160159,339.6402,255.1654,363.2983,246.6031 M,0,160159,160193,363.2983,246.6031,388.5141,247.2232 M,0,160193,160227,388.5141,247.2232,411.4568,257.8185 M,0,160227,160261,411.4568,257.8185,428.6783,276.2582 M,0,160261,160295,428.6783,276.2582,437.6567,299.804 M,0,160295,160330,437.6567,299.804,437.0854,324.9742 M,0,160330,160364,437.0854,324.9742,427.4257,348.3112
Sprite,Foreground,Centre,"sb\etc\l.png",239,378 C,0,160500,,9,98,198 F,2,160500,160700,1,0 S,2,160500,160700,1,0.2 P,0,160500,160700,A
Sprite,Foreground,Centre,"sb\etc\l.png",239,378 C,0,160637,,9,98,198 F,2,160637,160837,1,0 S,2,160637,160837,1,0.2 P,0,160637,160837,A
Sprite,Foreground,Centre,"sb\etc\l.png",191,239 C,0,160773,,9,98,198 F,2,160773,160973,1,0 S,2,160773,160973,1,0.2 P,0,160773,160973,A
Sprite,Foreground,Centre,"sb\etc\l.png",191,239 C,0,160909,,9,98,198 F,2,160909,161109,1,0 S,2,160909,161109,1,0.2 P,0,160909,161109,A
Sprite,Foreground,Centre,"sb\etc\l.png",0,0 C,0,161046,,112,219,211 M,0,161046,161080,75,379,94.57056,370.7202 F,2,161046,161518,1,0 S,2,161046,161518,1,0.2 P,0,161046,161518,A M,0,161080,161114,94.57056,370.7202,114.1411,362.4403 M,0,161114,161148,114.1411,362.4403,134.1642,358.3357 M,0,161148,161182,134.1642,358.3357,155.0542,362.2304 M,0,161182,161216,155.0542,362.2304,175.9442,366.1252 M,0,161216,161250,175.9442,366.1252,196.8343,370.02 M,0,161250,161284,196.8343,370.02,217.7243,373.9147 M,0,161284,161318,217.7243,373.9147,238.6143,377.8094
Sprite,Foreground,Centre,"sb\etc\l.png",527,114 C,0,161591,,222,9,76 F,2,161591,161791,1,0 S,2,161591,161791,1,0.2 P,0,161591,161791,A
Sprite,Foreground,Centre,"sb\etc\l.png",506,117 C,0,161659,,222,9,76 F,2,161659,161859,1,0 S,2,161659,161859,1,0.2 P,0,161659,161859,A
Sprite,Foreground,Centre,"sb\etc\l.png",485,121 C,0,161727,,222,9,76 F,2,161727,161927,1,0 S,2,161727,161927,1,0.2 P,0,161727,161927,A
Sprite,Foreground,Centre,"sb\etc\l.png",464,125 C,0,161795,,222,9,76 F,2,161795,161995,1,0 S,2,161795,161995,1,0.2 P,0,161795,161995,A
Sprite,Foreground,Centre,"sb\etc\l.png",443,129 C,0,161863,,222,9,76 F,2,161863,162063,1,0 S,2,161863,162063,1,0.2 P,0,161863,162063,A
Sprite,Foreground,Centre,"sb\etc\l.png",422,133 C,0,161931,,222,9,76 F,2,161931,162131,1,0 S,2,161931,162131,1,0.2 P,0,161931,162131,A
Sprite,Foreground,Centre,"sb\etc\l.png",409,150 C,0,162000,,5,28,186 F,2,162000,162200,1,0 S,2,162000,162200,1,0.2 P,0,162000,162200,A
Sprite,Foreground,Centre,"sb\etc\l.png",388,146 C,0,162068,,5,28,186 F,2,162068,162268,1,0 S,2,162068,162268,1,0.2 P,0,162068,162268,A
Sprite,Foreground,Centre,"sb\etc\l.png",367,142 C,0,162136,,5,28,186 F,2,162136,162336,1,0 S,2,162136,162336,1,0.2 P,0,162136,162336,A
Sprite,Foreground,Centre,"sb\etc\l.png",346,138 C,0,162204,,5,28,186 F,2,162204,162404,1,0 S,2,162204,162404,1,0.2 P,0,162204,162404,A
Sprite,Foreground,Centre,"sb\etc\l.png",325,134 C,0,162272,,5,28,186 F,2,162272,162472,1,0 S,2,162272,162472,1,0.2 P,0,162272,162472,A
Sprite,Foreground,Centre,"sb\etc\l.png",304,131 C,0,162340,,5,28,186 F,2,162340,162540,1,0 S,2,162340,162540,1,0.2 P,0,162340,162540,A
Sprite,Foreground,Centre,"sb\etc\l.png",291,114 C,0,162409,,9,98,198 F,2,162409,162609,1,0 S,2,162409,162609,1,0.2 P,0,162409,162609,A
Sprite,Foreground,Centre,"sb\etc\l.png",270,118 C,0,162477,,9,98,198 F,2,162477,162677,1,0 S,2,162477,162677,1,0.2 P,0,162477,162677,A
Sprite,Foreground,Centre,"sb\etc\l.png",249,122 C,0,162545,,9,98,198 F,2,162545,162745,1,0 S,2,162545,162745,1,0.2 P,0,162545,162745,A
Sprite,Foreground,Centre,"sb\etc\l.png",228,126 C,0,162613,,9,98,198 F,2,162613,162813,1,0 S,2,162613,162813,1,0.2 P,0,162613,162813,A
Sprite,Foreground,Centre,"sb\etc\l.png",0,0 C,0,162682,,112,219,211 M,0,162682,162716,207,129,186.0667,132.655 F,2,162682,162950,1,0 S,2,162682,162950,1,0.2 P,0,162682,162950,A M,0,162716,162750,186.0667,132.655,165.1334,136.31
Sprite,Foreground,Centre,"sb\etc\l.png",0,0 C,0,162818,,112,219,211 M,0,162818,162852,268,214,288.9232,217.7122 F,2,162818,163086,1,0 S,2,162818,163086,1,0.2 P,0,162818,163086,A M,0,162852,162886,288.9232,217.7122,309.8465,221.4244
Sprite,Foreground,Centre,"sb\etc\l.png",0,0 C,0,162955,,112,219,211 M,0,162955,162989,196,121,175.0667,124.655 F,2,162955,163223,1,0 S,2,162955,163223,1,0.2 P,0,162955,163223,A M,0,162989,163023,175.0667,124.655,154.1334,128.31
Sprite,Foreground,Centre,"sb\etc\l.png",0,0 C,0,163091,,112,219,211 M,0,163091,163125,275,225,295.8747,228.9761 F,2,163091,163359,1,0 S,2,163091,163359,1,0.2 P,0,163091,163359,A M,0,163125,163159,295.8747,228.9761,316.7494,232.9523
Sprite,Foreground,Centre,"sb\etc\l.png",104,249 C,0,163227,,222,9,76 F,2,163227,163427,1,0 S,2,163227,163427,1,0.2 P,0,163227,163427,A
Sprite,Foreground,Centre,"sb\etc\l.png",122,271 C,0,163295,,222,9,76 F,2,163295,163495,1,0 S,2,163295,163495,1,0.2 P,0,163295,163495,A
Sprite,Foreground,Centre,"sb\etc\l.png",133,299 C,0,163363,,222,9,76 F,2,163363,163563,1,0 S,2,163363,163563,1,0.2 P,0,163363,163563,A
Sprite,Foreground,Centre,"sb\etc\l.png",135,328 C,0,163431,,222,9,76 F,2,163431,163631,1,0 S,2,163431,163631,1,0.2 P,0,163431,163631,A
Sprite,Foreground,Centre,"sb\etc\l.png",0,0 C,0,163500,,222,9,76 M,0,163500,163534,127,357,106.0667,360.655 F,2,163500,163904,1,0 S,2,163500,163904,1,0.2 P,0,163500,163904,A M,0,163534,163568,106.0667,360.655,85.13339,364.3101 M,0,163568,163602,85.13339,364.3101,106.0667,360.655 M,0,163602,163636,106.0667,360.655,127,357 M,0,163636,163670,127,357,106.0667,360.655 M,0,163670,163704,106.0667,360.655,85.13339,364.3101
Sprite,Foreground,Centre,"sb\etc\l.png",264,428 C,0,163773,,5,28,186 F,2,163773,163973,1,0 S,2,163773,163973,1,0.2 P,0,163773,163973,A
Sprite,Foreground,Centre,"sb\etc\l.png",235,406 C,0,163841,,5,28,186 F,2,163841,164041,1,0 S,2,163841,164041,1,0.2 P,0,163841,164041,A
Sprite,Foreground,Centre,"sb\etc\l.png",217,376 C,0,163909,,5,28,186 F,2,163909,164109,1,0 S,2,163909,164109,1,0.2 P,0,163909,164109,A
Sprite,Foreground,Centre,"sb\etc\l.png",211,341 C,0,163977,,5,28,186 F,2,163977,164177,1,0 S,2,163977,164177,1,0.2 P,0,163977,164177,A
Sprite,Foreground,Centre,"sb\etc\l.png",219,307 C,0,164045,,5,28,186 F,2,164045,164245,1,0 S,2,164045,164245,1,0.2 P,0,164045,164245,A
Sprite,Foreground,Centre,"sb\etc\l.png",240,278 C,0,164113,,5,28,186 F,2,164113,164313,1,0 S,2,164113,164313,1,0.2 P,0,164113,164313,A
Sprite,Foreground,Centre,"sb\etc\l.png",270,259 C,0,164182,,5,28,186 F,2,164182,164382,1,0 S,2,164182,164382,1,0.2 P,0,164182,164382,A
Sprite,Foreground,Centre,"sb\etc\l.png",305,253 C,0,164250,,5,28,186 F,2,164250,164450,1,0 S,2,164250,164450,1,0.2 P,0,164250,164450,A
Sprite,Foreground,Centre,"sb\etc\l.png",340,261 C,0,164318,,5,28,186 F,2,164318,164518,1,0 S,2,164318,164518,1,0.2 P,0,164318,164518,A
Sprite,Foreground,Centre,"sb\etc\l.png",369,282 C,0,164386,,5,28,186 F,2,164386,164586,1,0 S,2,164386,164586,1,0.2 P,0,164386,164586,A
Sprite,Foreground,Centre,"sb\etc\l.png",388,312 C,0,164454,,5,28,186 F,2,164454,164654,1,0 S,2,164454,164654,1,0.2 P,0,164454,164654,A
Sprite,Foreground,Centre,"sb\etc\l.png",394,347 C,0,164523,,5,28,186 F,2,164523,164723,1,0 S,2,164523,164723,1,0.2 P,0,164523,164723,A
Sprite,Foreground,Centre,"sb\etc\l.png",400,381 C,0,164592,,5,28,186 F,2,164592,164792,1,0 S,2,164592,164792,1,0.2 P,0,164592,164792,A
Sprite,Foreground,Centre,"sb\etc\l.png",419,411 C,0,164660,,5,28,186 F,2,164660,164860,1,0 S,2,164660,164860,1,0.2 P,0,164660,164860,A
Sprite,Foreground,Centre,"sb\etc\l.png",448,432 C,0,164728,,5,28,186 F,2,164728,164928,1,0 S,2,164728,164928,1,0.2 P,0,164728,164928,A
Sprite,Foreground,Centre,"sb\etc\l.png",482,440 C,0,164796,,5,28,186 F,2,164796,164996,1,0 S,2,164796,164996,1,0.2 P,0,164796,164996,A
Sprite,Foreground,Centre,"sb\etc\l.png",517,434 C,0,164864,,5,28,186 F,2,164864,165064,1,0 S,2,164864,165064,1,0.2 P,0,164864,165064,A
Sprite,Foreground,Centre,"sb\etc\l.png",547,415 C,0,164932,,5,28,186 F,2,164932,165132,1,0 S,2,164932,165132,1,0.2 P,0,164932,165132,A
Sprite,Foreground,Centre,"sb\etc\l.png",567,386 C,0,165000,,5,28,186 F,2,165000,165200,1,0 S,2,165000,165200,1,0.2 P,0,165000,165200,A
Sprite,Foreground,Centre,"sb\etc\l.png",575,351 C,0,165068,,5,28,186 F,2,165068,165268,1,0 S,2,165068,165268,1,0.2 P,0,165068,165268,A
Sprite,Foreground,Centre,"sb\etc\l.png",570,316 C,0,165136,,5,28,186 F,2,165136,165336,1,0 S,2,165136,165336,1,0.2 P,0,165136,165336,A
Sprite,Foreground,Centre,"sb\etc\l.png",551,286 C,0,165204,,5,28,186 F,2,165204,165404,1,0 S,2,165204,165404,1,0.2 P,0,165204,165404,A
Sprite,Foreground,Centre,"sb\etc\l.png",523,265 C,0,165272,,5,28,186 F,2,165272,165472,1,0 S,2,165272,165472,1,0.2 P,0,165272,165472,A
Sprite,Foreground,Centre,"sb\etc\l.png",488,256 C,0,165341,,5,28,186 F,2,165341,165541,1,0 S,2,165341,165541,1,0.2 P,0,165341,165541,A
Sprite,Foreground,Centre,"sb\etc\l.png",453,261 C,0,165409,,5,28,186 F,2,165409,165609,1,0 S,2,165409,165609,1,0.2 P,0,165409,165609,A
Sprite,Foreground,Centre,"sb\etc\l.png",417,266 C,0,165477,,5,28,186 F,2,165477,165677,1,0 S,2,165477,165677,1,0.2 P,0,165477,165677,A
Sprite,Foreground,Centre,"sb\etc\l.png",383,257 C,0,165545,,5,28,186 F,2,165545,165745,1,0 S,2,165545,165745,1,0.2 P,0,165545,165745,A
Sprite,Foreground,Centre,"sb\etc\l.png",354,236 C,0,165613,,5,28,186 F,2,165613,165813,1,0 S,2,165613,165813,1,0.2 P,0,165613,165813,A
Sprite,Foreground,Centre,"sb\etc\l.png",336,206 C,0,165681,,5,28,186 F,2,165681,165881,1,0 S,2,165681,165881,1,0.2 P,0,165681,165881,A
Sprite,Foreground,Centre,"sb\etc\l.png",331,171 C,0,165749,,5,28,186 F,2,165749,165949,1,0 S,2,165749,165949,1,0.2 P,0,165749,165949,A
Sprite,Foreground,Centre,"sb\etc\l.png",339,136 C,0,165818,,5,28,186 F,2,165818,166018,1,0 S,2,165818,166018,1,0.2 P,0,165818,166018,A
Sprite,Foreground,Centre,"sb\etc\l.png",360,107 C,0,165886,,5,28,186 F,2,165886,166086,1,0 S,2,165886,166086,1,0.2 P,0,165886,166086,A
Sprite,Foreground,Centre,"sb\etc\l.png",391,89 C,0,165955,,9,98,198 F,2,165955,166155,1,0 S,2,165955,166155,1,0.2 P,0,165955,166155,A
Sprite,Foreground,Centre,"sb\etc\l.png",420,117 C,0,166023,,9,98,198 F,2,166023,166223,1,0 S,2,166023,166223,1,0.2 P,0,166023,166223,A
Sprite,Foreground,Centre,"sb\etc\l.png",438,154 C,0,166091,,9,98,198 F,2,166091,166291,1,0 S,2,166091,166291,1,0.2 P,0,166091,166291,A
Sprite,Foreground,Centre,"sb\etc\l.png",443,194 C,0,166159,,9,98,198 F,2,166159,166359,1,0 S,2,166159,166359,1,0.2 P,0,166159,166359,A
Sprite,Foreground,Centre,"sb\etc\l.png",435,234 C,0,166227,,9,98,198 F,2,166227,166427,1,0 S,2,166227,166427,1,0.2 P,0,166227,166427,A
Sprite,Foreground,Centre,"sb\etc\l.png",414,268 C,0,166295,,9,98,198 F,2,166295,166495,1,0 S,2,166295,166495,1,0.2 P,0,166295,166495,A
Sprite,Foreground,Centre,"sb\etc\l.png",383,294 C,0,166364,,9,98,198 F,2,166364,166564,1,0 S,2,166364,166564,1,0.2 P,0,166364,166564,A
Sprite,Foreground,Centre,"sb\etc\l.png",345,309 C,0,166432,,9,98,198 F,2,166432,166632,1,0 S,2,166432,166632,1,0.2 P,0,166432,166632,A
Sprite,Foreground,Centre,"sb\etc\l.png",305,310 C,0,166500,,9,98,198 F,2,166500,166700,1,0 S,2,166500,166700,1,0.2 P,0,166500,166700,A
Sprite,Foreground,Centre,"sb\etc\l.png",266,297 C,0,166568,,9,98,198 F,2,166568,166768,1,0 S,2,166568,166768,1,0.2 P,0,166568,166768,A
Sprite,Foreground,Centre,"sb\etc\l.png",233,273 C,0,166636,,9,98,198 F,2,166636,166836,1,0 S,2,166636,166836,1,0.2 P,0,166636,166836,A
Sprite,Foreground,Centre,"sb\etc\l.png",211,239 C,0,166705,,9,98,198 F,2,166705,166905,1,0 S,2,166705,166905,1,0.2 P,0,166705,166905,A
Sprite,Foreground,Centre,"sb\etc\l.png",201,200 C,0,166773,,9,98,198 F,2,166773,166973,1,0 S,2,166773,166973,1,0.2 P,0,166773,166973,A
Sprite,Foreground,Centre,"sb\etc\l.png",204,159 C,0,166841,,9,98,198 F,2,166841,167041,1,0 S,2,166841,167041,1,0.2 P,0,166841,167041,A
Sprite,Foreground,Centre,"sb\etc\l.png",221,122 C,0,166909,,9,98,198 F,2,166909,167109,1,0 S,2,166909,167109,1,0.2 P,0,166909,167109,A
Sprite,Foreground,Centre,"sb\etc\l.png",248,93 C,0,166977,,9,98,198 F,2,166977,167177,1,0 S,2,166977,167177,1,0.2 P,0,166977,167177,A
Sprite,Foreground,Centre,"sb\etc\l.png",0,0 C,0,167046,,112,219,211 M,0,167046,167080,284,74,313.3066,79.11703 F,2,167046,167450,1,0 S,2,167046,167450,1,0.2 P,0,167046,167450,A M,0,167080,167114,313.3066,79.11703,342.6133,84.23406 M,0,167114,167148,342.6133,84.23406,313.3066,79.11703 M,0,167148,167182,313.3066,79.11703,284,74 M,0,167182,167216,284,74,313.3066,79.11703 M,0,167216,167250,313.3066,79.11703,342.6133,84.23406
Sprite,Foreground,Centre,"sb\etc\l.png",0,0 C,0,167318,,112,219,211 M,0,167318,167352,204,159,174.6799,164.0394 F,2,167318,167722,1,0 S,2,167318,167722,1,0.2 P,0,167318,167722,A M,0,167352,167386,174.6799,164.0394,145.3598,169.0788 M,0,167386,167420,145.3598,169.0788,174.6799,164.0394 M,0,167420,167454,174.6799,164.0394,204,159 M,0,167454,167488,204,159,174.6799,164.0394 M,0,167488,167522,174.6799,164.0394,145.3598,169.0788
Sprite,Foreground,Centre,"sb\etc\l.png",0,0 C,0,167591,,112,219,211 M,0,167591,167625,322,189,351.3066,194.117 F,2,167591,167995,1,0 S,2,167591,167995,1,0.2 P,0,167591,167995,A M,0,167625,167659,351.3066,194.117,380.6133,199.2341 M,0,167659,167693,380.6133,199.2341,351.3066,194.117 M,0,167693,167727,351.3066,194.117,322,189 M,0,167727,167761,322,189,351.3066,194.117 M,0,167761,167795,351.3066,194.117,380.6133,199.2341
Sprite,Foreground,Centre,"sb\etc\l.png",0,0 C,0,167864,,112,219,211 M,0,167864,167898,233,273,203.6799,278.0394 F,2,167864,168268,1,0 S,2,167864,168268,1,0.2 P,0,167864,168268,A M,0,167898,167932,203.6799,278.0394,174.3598,283.0788 M,0,167932,167966,174.3598,283.0788,203.6799,278.0394 M,0,167966,168000,203.6799,278.0394,233,273 M,0,168000,168034,233,273,203.6799,278.0394 M,0,168034,168068,203.6799,278.0394,174.3598,283.0788
Sprite,Foreground,Centre,"sb\etc\l.png",351,303 C,0,168137,,222,9,76 F,2,168137,168337,1,0 S,2,168137,168337,1,0.2 P,0,168137,168337,A
Sprite,Foreground,Centre,"sb\etc\l.png",342,337 C,0,168205,,222,9,76 F,2,168205,168405,1,0 S,2,168205,168405,1,0.2 P,0,168205,168405,A
Sprite,Foreground,Centre,"sb\etc\l.png",347,372 C,0,168273,,222,9,76 F,2,168273,168473,1,0 S,2,168273,168473,1,0.2 P,0,168273,168473,A
Sprite,Foreground,Centre,"sb\etc\l.png",365,403 C,0,168341,,222,9,76 F,2,168341,168541,1,0 S,2,168341,168541,1,0.2 P,0,168341,168541,A
Sprite,Foreground,Centre,"sb\etc\l.png",392,426 C,0,168409,,222,9,76 F,2,168409,168609,1,0 S,2,168409,168609,1,0.2 P,0,168409,168609,A
Sprite,Foreground,Centre,"sb\etc\l.png",426,437 C,0,168477,,222,9,76 F,2,168477,168677,1,0 S,2,168477,168677,1,0.2 P,0,168477,168677,A
Sprite,Foreground,Centre,"sb\etc\l.png",461,435 C,0,168546,,222,9,76 F,2,168546,168746,1,0 S,2,168546,168746,1,0.2 P,0,168546,168746,A
Sprite,Foreground,Centre,"sb\etc\l.png",494,420 C,0,168614,,222,9,76 F,2,168614,168814,1,0 S,2,168614,168814,1,0.2 P,0,168614,168814,A
Sprite,Foreground,Centre,"sb\etc\l.png",518,394 C,0,168682,,222,9,76 F,2,168682,168882,1,0 S,2,168682,168882,1,0.2 P,0,168682,168882,A
Sprite,Foreground,Centre,"sb\etc\l.png",532,362 C,0,168750,,222,9,76 F,2,168750,168950,1,0 S,2,168750,168950,1,0.2 P,0,168750,168950,A
Sprite,Foreground,Centre,"sb\etc\l.png",533,326 C,0,168818,,222,9,76 F,2,168818,169018,1,0 S,2,168818,169018,1,0.2 P,0,168818,169018,A
Sprite,Foreground,Centre,"sb\etc\l.png",521,293 C,0,168887,,222,9,76 F,2,168887,169087,1,0 S,2,168887,169087,1,0.2 P,0,168887,169087,A
Sprite,Foreground,Centre,"sb\etc\l.png",497,266 C,0,168955,,222,9,76 F,2,168955,169155,1,0 S,2,168955,169155,1,0.2 P,0,168955,169155,A
Sprite,Foreground,Centre,"sb\etc\l.png",466,250 C,0,169023,,222,9,76 F,2,169023,169223,1,0 S,2,169023,169223,1,0.2 P,0,169023,169223,A
Sprite,Foreground,Centre,"sb\etc\l.png",431,246 C,0,169091,,222,9,76 F,2,169091,169291,1,0 S,2,169091,169291,1,0.2 P,0,169091,169291,A
Sprite,Foreground,Centre,"sb\etc\l.png",395,242 C,0,169159,,222,9,76 F,2,169159,169359,1,0 S,2,169159,169359,1,0.2 P,0,169159,169359,A
Sprite,Foreground,Centre,"sb\etc\l.png",364,225 C,0,169227,,222,9,76 F,2,169227,169427,1,0 S,2,169227,169427,1,0.2 P,0,169227,169427,A
Sprite,Foreground,Centre,"sb\etc\l.png",340,199 C,0,169295,,222,9,76 F,2,169295,169495,1,0 S,2,169295,169495,1,0.2 P,0,169295,169495,A
Sprite,Foreground,Centre,"sb\etc\l.png",328,165 C,0,169364,,222,9,76 F,2,169364,169564,1,0 S,2,169364,169564,1,0.2 P,0,169364,169564,A
Sprite,Foreground,Centre,"sb\etc\l.png",329,130 C,0,169432,,222,9,76 F,2,169432,169632,1,0 S,2,169432,169632,1,0.2 P,0,169432,169632,A
Sprite,Foreground,Centre,"sb\etc\l.png",343,97 C,0,169500,,222,9,76 F,2,169500,169700,1,0 S,2,169500,169700,1,0.2 P,0,169500,169700,A
Sprite,Foreground,Centre,"sb\etc\l.png",368,71 C,0,169568,,222,9,76 F,2,169568,169768,1,0 S,2,169568,169768,1,0.2 P,0,169568,169768,A
Sprite,Foreground,Centre,"sb\etc\l.png",400,57 C,0,169636,,222,9,76 F,2,169636,169836,1,0 S,2,169636,169836,1,0.2 P,0,169636,169836,A
Sprite,Foreground,Centre,"sb\etc\l.png",435,56 C,0,169705,,222,9,76 F,2,169705,169905,1,0 S,2,169705,169905,1,0.2 P,0,169705,169905,A
Sprite,Foreground,Centre,"sb\etc\l.png",469,66 C,0,169773,,222,9,76 F,2,169773,169973,1,0 S,2,169773,169973,1,0.2 P,0,169773,169973,A
Sprite,Foreground,Centre,"sb\etc\l.png",497,88 C,0,169841,,222,9,76 F,2,169841,170041,1,0 S,2,169841,170041,1,0.2 P,0,169841,170041,A
Sprite,Foreground,Centre,"sb\etc\l.png",514,119 C,0,169909,,222,9,76 F,2,169909,170109,1,0 S,2,169909,170109,1,0.2 P,0,169909,170109,A
Sprite,Foreground,Centre,"sb\etc\l.png",519,154 C,0,169977,,222,9,76 F,2,169977,170177,1,0 S,2,169977,170177,1,0.2 P,0,169977,170177,A
Sprite,Foreground,Centre,"sb\etc\l.png",511,189 C,0,170046,,222,9,76 F,2,170046,170246,1,0 S,2,170046,170246,1,0.2 P,0,170046,170246,A
Sprite,Foreground,Centre,"sb\etc\l.png",507,224 C,0,170114,,222,9,76 F,2,170114,170314,1,0 S,2,170114,170314,1,0.2 P,0,170114,170314,A
Sprite,Foreground,Centre,"sb\etc\l.png",516,258 C,0,170182,,222,9,76 F,2,170182,170382,1,0 S,2,170182,170382,1,0.2 P,0,170182,170382,A
Sprite,Foreground,Centre,"sb\etc\l.png",535,288 C,0,170250,,222,9,76 F,2,170250,170450,1,0 S,2,170250,170450,1,0.2 P,0,170250,170450,A
Sprite,Foreground,Centre,"sb\etc\l.png",564,309 C,0,170318,,5,28,186 F,2,170318,170518,1,0 S,2,170318,170518,1,0.2 P,0,170318,170518,A
Sprite,Foreground,Centre,"sb\etc\l.png",531,279 C,0,170386,,5,28,186 F,2,170386,170586,1,0 S,2,170386,170586,1,0.2 P,0,170386,170586,A
Sprite,Foreground,Centre,"sb\etc\l.png",495,262 C,0,170455,,5,28,186 F,2,170455,170655,1,0 S,2,170455,170655,1,0.2 P,0,170455,170655,A
Sprite,Foreground,Centre,"sb\etc\l.png",455,257 C,0,170523,,5,28,186 F,2,170523,170723,1,0 S,2,170523,170723,1,0.2 P,0,170523,170723,A
Sprite,Foreground,Centre,"sb\etc\l.png",415,263 C,0,170591,,5,28,186 F,2,170591,170791,1,0 S,2,170591,170791,1,0.2 P,0,170591,170791,A
Sprite,Foreground,Centre,"sb\etc\l.png",379,282 C,0,170659,,5,28,186 F,2,170659,170859,1,0 S,2,170659,170859,1,0.2 P,0,170659,170859,A
Sprite,Foreground,Centre,"sb\etc\l.png",350,311 C,0,170727,,5,28,186 F,2,170727,170927,1,0 S,2,170727,170927,1,0.2 P,0,170727,170927,A
Sprite,Foreground,Centre,"sb\etc\l.png",334,348 C,0,170796,,5,28,186 F,2,170796,170996,1,0 S,2,170796,170996,1,0.2 P,0,170796,170996,A
Sprite,Foreground,Centre,"sb\etc\l.png",317,384 C,0,170864,,5,28,186 F,2,170864,171064,1,0 S,2,170864,171064,1,0.2 P,0,170864,171064,A
Sprite,Foreground,Centre,"sb\etc\l.png",289,413 C,0,170932,,5,28,186 F,2,170932,171132,1,0 S,2,170932,171132,1,0.2 P,0,170932,171132,A
Sprite,Foreground,Centre,"sb\etc\l.png",252,432 C,0,171000,,5,28,186 F,2,171000,171200,1,0 S,2,171000,171200,1,0.2 P,0,171000,171200,A
Sprite,Foreground,Centre,"sb\etc\l.png",211,438 C,0,171068,,5,28,186 F,2,171068,171268,1,0 S,2,171068,171268,1,0.2 P,0,171068,171268,A
Sprite,Foreground,Centre,"sb\etc\l.png",171,432 C,0,171136,,5,28,186 F,2,171136,171336,1,0 S,2,171136,171336,1,0.2 P,0,171136,171336,A
Sprite,Foreground,Centre,"sb\etc\l.png",135,414 C,0,171204,,5,28,186 F,2,171204,171404,1,0 S,2,171204,171404,1,0.2 P,0,171204,171404,A
Sprite,Foreground,Centre,"sb\etc\l.png",106,385 C,0,171272,,5,28,186 F,2,171272,171472,1,0 S,2,171272,171472,1,0.2 P,0,171272,171472,A
Sprite,Foreground,Centre,"sb\etc\l.png",87,349 C,0,171340,,5,28,186 F,2,171340,171540,1,0 S,2,171340,171540,1,0.2 P,0,171340,171540,A
Sprite,Foreground,Centre,"sb\etc\l.png",0,0 C,0,171409,,9,98,198 M,0,171409,171443,81,309,85.8306,279.6448 F,2,171409,171699,1,0 S,2,171409,171699,1,0.2 P,0,171409,171699,A M,0,171443,171477,85.8306,279.6448,90.66121,250.2896 M,0,171477,171499,90.66121,250.2896,93.88161,230.7195
Sprite,Foreground,Centre,"sb\etc\l.png",0,0 C,0,171591,,9,98,198 M,0,171591,171625,121,106,143.8239,125.0823 F,2,171591,171881,1,0 S,2,171591,171881,1,0.2 P,0,171591,171881,A M,0,171625,171659,143.8239,125.0823,166.6478,144.1645 M,0,171659,171681,166.6478,144.1645,181.8637,156.886
Sprite,Foreground,Centre,"sb\etc\l.png",0,0 C,0,171773,,9,98,198 M,0,171773,171807,277,242,248.8911,251.7444 F,2,171773,172063,1,0 S,2,171773,172063,1,0.2 P,0,171773,172063,A M,0,171807,171841,248.8911,251.7444,220.7822,261.4888 M,0,171841,171863,220.7822,261.4888,202.043,267.9851
Sprite,Foreground,Centre,"sb\etc\l.png",0,0 C,0,171955,,112,219,211 M,0,171955,171989,64,317,68.8306,287.6448 F,2,171955,172245,1,0 S,2,171955,172245,1,0.2 P,0,171955,172245,A M,0,171989,172023,68.8306,287.6448,73.66121,258.2896 M,0,172023,172045,73.66121,258.2896,76.88161,238.7195
Sprite,Foreground,Centre,"sb\etc\l.png",0,0 C,0,172137,,112,219,211 M,0,172137,172171,122,87,145.0084,105.8594 F,2,172137,172427,1,0 S,2,172137,172427,1,0.2 P,0,172137,172427,A M,0,172171,172205,145.0084,105.8594,168.0168,124.7187 M,0,172205,172227,168.0168,124.7187,183,137
Sprite,Foreground,Centre,"sb\etc\l.png",0,0 C,0,172318,,112,219,211 M,0,172318,172352,292,252,264.129,262.4052 F,2,172318,172608,1,0 S,2,172318,172608,1,0.2 P,0,172318,172608,A M,0,172352,172386,264.129,262.4052,236.2579,272.8104 M,0,172386,172408,236.2579,272.8104,217.6772,279.7472
Sprite,Foreground,Centre,"sb\etc\ring.png",103,70 C,0,110864,,9,98,198 F,2,110864,111064,1,0 S,2,110864,111064,1.2,0.24 P,0,110864,111064,A
Sprite,Foreground,Centre,"sb\etc\ring.png",218,184 C,0,111000,,9,98,198 F,2,111000,111200,1,0 S,2,111000,111200,1.2,0.24 P,0,111000,111200,A
Sprite,Foreground,Centre,"sb\etc\ring.png",93,56 C,0,111137,,9,98,198 F,2,111137,111337,1,0 S,2,111137,111337,1.2,0.24 P,0,111137,111337,A
Sprite,Foreground,Centre,"sb\etc\ring.png",232,193 C,0,111273,,9,98,198 F,2,111273,111473,1,0 S,2,111273,111473,1.2,0.24 P,0,111273,111473,A
Sprite,Foreground,Centre,"sb\etc\ring.png",493,283 C,0,52500,,112,219,211 F,2,52500,52700,1,0 S,2,52500,52700,1.2,0.24 P,0,52500,52700,A
Sprite,Foreground,Centre,"sb\etc\ring.png",242,328 C,0,53591,,222,9,76 F,2,53591,53791,1,0 S,2,53591,53791,1.2,0.24 P,0,53591,53791,A
Sprite,Foreground,Centre,"sb\etc\ring.png",460,184 C,0,54137,,222,9,76 F,2,54137,54337,1,0 S,2,54137,54337,1.2,0.24 P,0,54137,54337,A
Sprite,Foreground,Centre,"sb\etc\ring.png",460,184 C,0,54273,,222,9,76 F,2,54273,54473,1,0 S,2,54273,54473,1.2,0.24 P,0,54273,54473,A
Sprite,Foreground,Centre,"sb\etc\ring.png",335,68 C,0,54409,,222,9,76 F,2,54409,54609,1,0 S,2,54409,54609,1.2,0.24 P,0,54409,54609,A
Sprite,Foreground,Centre,"sb\etc\ring.png",298,248 C,0,54682,,222,9,76 F,2,54682,54882,1,0 S,2,54682,54882,1.2,0.24 P,0,54682,54882,A
Sprite,Foreground,Centre,"sb\etc\ring.png",64,123 C,0,54955,,5,28,186 F,2,54955,55155,1,0 S,2,54955,55155,1.2,0.24 P,0,54955,55155,A
Sprite,Foreground,Centre,"sb\etc\ring.png",97,128 C,0,55023,,5,28,186 F,2,55023,55223,1,0 S,2,55023,55223,1.2,0.24 P,0,55023,55223,A
Sprite,Foreground,Centre,"sb\etc\ring.png",130,134 C,0,55091,,5,28,186 F,2,55091,55291,1,0 S,2,55091,55291,1.2,0.24 P,0,55091,55291,A
Sprite,Foreground,Centre,"sb\etc\ring.png",164,140 C,0,55159,,5,28,186 F,2,55159,55359,1,0 S,2,55159,55359,1.2,0.24 P,0,55159,55359,A
Sprite,Foreground,Centre,"sb\etc\ring.png",197,146 C,0,55227,,5,28,186 F,2,55227,55427,1,0 S,2,55227,55427,1.2,0.24 P,0,55227,55427,A
Sprite,Foreground,Centre,"sb\etc\ring.png",298,248 C,0,55500,,9,98,198 F,2,55500,55700,1,0 S,2,55500,55700,1.2,0.24 P,0,55500,55700,A
Sprite,Foreground,Centre,"sb\etc\ring.png",331,243 C,0,55568,,9,98,198 F,2,55568,55768,1,0 S,2,55568,55768,1.2,0.24 P,0,55568,55768,A
Sprite,Foreground,Centre,"sb\etc\ring.png",364,237 C,0,55636,,9,98,198 F,2,55636,55836,1,0 S,2,55636,55836,1.2,0.24 P,0,55636,55836,A
Sprite,Foreground,Centre,"sb\etc\ring.png",398,231 C,0,55704,,9,98,198 F,2,55704,55904,1,0 S,2,55704,55904,1.2,0.24 P,0,55704,55904,A
Sprite,Foreground,Centre,"sb\etc\ring.png",431,225 C,0,55772,,112,219,211 F,2,55772,55972,1,0 S,2,55772,55972,1.2,0.24 P,0,55772,55972,A
Sprite,Foreground,Centre,"sb\etc\ring.png",432,218 C,0,55840,,112,219,211 F,2,55840,56040,1,0 S,2,55840,56040,1.2,0.24 P,0,55840,56040,A
Sprite,Foreground,Centre,"sb\etc\ring.png",433,211 C,0,55908,,112,219,211 F,2,55908,56108,1,0 S,2,55908,56108,1.2,0.24 P,0,55908,56108,A
Sprite,Foreground,Centre,"sb\etc\ring.png",434,204 C,0,55976,,112,219,211 F,2,55976,56176,1,0 S,2,55976,56176,1.2,0.24 P,0,55976,56176,A
Sprite,Foreground,Centre,"sb\etc\ring.png",435,198 C,0,56046,,112,219,211 F,2,56046,56246,1,0 S,2,56046,56246,1.2,0.24 P,0,56046,56246,A
Sprite,Foreground,Centre,"sb\etc\ring.png",306,298 C,0,56182,,112,219,211 F,2,56182,56382,1,0 S,2,56182,56382,1.2,0.24 P,0,56182,56382,A
Sprite,Foreground,Centre,"sb\etc\ring.png",306,298 C,0,56250,,112,219,211 F,2,56250,56450,1,0 S,2,56250,56450,1.2,0.24 P,0,56250,56450,A
Sprite,Foreground,Centre,"sb\etc\ring.png",306,298 C,0,56318,,112,219,211 F,2,56318,56518,1,0 S,2,56318,56518,1.2,0.24 P,0,56318,56518,A
Sprite,Foreground,Centre,"sb\etc\ring.png",173,212 C,0,56455,,112,219,211 F,2,56455,56655,1,0 S,2,56455,56655,1.2,0.24 P,0,56455,56655,A
Sprite,Foreground,Centre,"sb\etc\ring.png",173,212 C,0,56523,,112,219,211 F,2,56523,56723,1,0 S,2,56523,56723,1.2,0.24 P,0,56523,56723,A
Sprite,Foreground,Centre,"sb\etc\ring.png",173,212 C,0,56591,,112,219,211 F,2,56591,56791,1,0 S,2,56591,56791,1.2,0.24 P,0,56591,56791,A
Sprite,Foreground,Centre,"sb\etc\l.png",64,262 C,0,111409,,112,219,211 F,2,111409,111809,1,0 S,2,111409,111809,1.5,0.3 P,0,111409,111809,A
Sprite,Foreground,Centre,"sb\etc\l.png",336,223 C,0,111682,,112,219,211 F,2,111682,112082,1,0 S,2,111682,112082,1.5,0.3 P,0,111682,112082,A
Sprite,Foreground,Centre,"sb\etc\l.png",192,108 C,0,111955,,222,9,76 F,2,111955,112355,1,0 S,2,111955,112355,1.5,0.3 P,0,111955,112355,A
Sprite,Foreground,Centre,"sb\etc\l.png",498,232 C,0,112091,,222,9,76 F,2,112091,112491,1,0 S,2,112091,112491,1.5,0.3 P,0,112091,112491,A
Sprite,Foreground,Centre,"sb\etc\l.png",246,202 C,0,112227,,5,28,186 F,2,112227,112627,1,0 S,2,112227,112627,1.5,0.3 P,0,112227,112627,A
Sprite,Foreground,Centre,"sb\etc\l.png",447,102 C,0,112364,,5,28,186 F,2,112364,112764,1,0 S,2,112364,112764,1.5,0.3 P,0,112364,112764,A
Sprite,Foreground,Centre,"sb\etc\l.png",543,367 C,0,112500,,9,98,198 F,2,112500,112900,1,0 S,2,112500,112900,1.5,0.3 P,0,112500,112900,A
Sprite,Foreground,Centre,"sb\etc\l.png",124,272 C,0,112909,,9,98,198 F,2,112909,113309,1,0 S,2,112909,113309,1.5,0.3 P,0,112909,113309,A
Sprite,Foreground,Centre,"sb\etc\l.png",447,102 C,0,113182,,112,219,211 F,2,113182,113582,1,0 S,2,113182,113582,1.5,0.3 P,0,113182,113582,A
Sprite,Foreground,Centre,"sb\etc\l.png",246,202 C,0,113318,,112,219,211 F,2,113318,113718,1,0 S,2,113318,113718,1.5,0.3 P,0,113318,113718,A
Sprite,Foreground,Centre,"sb\etc\l.png",498,232 C,0,113455,,112,219,211 F,2,113455,113855,1,0 S,2,113455,113855,1.5,0.3 P,0,113455,113855,A
Sprite,Foreground,Centre,"sb\etc\l.png",178,99 C,0,113591,,222,9,76 F,2,113591,113991,1,0 S,2,113591,113991,1.5,0.3 P,0,113591,113991,A
Sprite,Foreground,Centre,"sb\etc\l.png",189,300 C,0,113864,,222,9,76 F,2,113864,114264,1,0 S,2,113864,114264,1.5,0.3 P,0,113864,114264,A
Sprite,Foreground,Centre,"sb\etc\l.png",346,151 C,0,114137,,5,28,186 F,2,114137,114537,1,0 S,2,114137,114537,1.5,0.3 P,0,114137,114537,A
Sprite,Foreground,Centre,"sb\etc\l.png",438,440 C,0,114273,,5,28,186 F,2,114273,114673,1,0 S,2,114273,114673,1.5,0.3 P,0,114273,114673,A
Sprite,Foreground,Centre,"sb\etc\l.png",498,232 C,0,114409,,9,98,198 F,2,114409,114809,1,0 S,2,114409,114809,1.5,0.3 P,0,114409,114809,A
Sprite,Foreground,Centre,"sb\etc\l.png",293,387 C,0,114546,,9,98,198 F,2,114546,114946,1,0 S,2,114546,114946,1.5,0.3 P,0,114546,114946,A
Sprite,Foreground,Centre,"sb\etc\l.png",149,151 C,0,114682,,112,219,211 F,2,114682,115082,1,0 S,2,114682,115082,1.5,0.3 P,0,114682,115082,A
Sprite,Foreground,Centre,"sb\etc\l.png",380,267 C,0,114955,,112,219,211 F,2,114955,115355,1,0 S,2,114955,115355,1.5,0.3 P,0,114955,115355,A
Sprite,Foreground,Centre,"sb\etc\l.png",576,151 C,0,115091,,112,219,211 F,2,115091,115491,1,0 S,2,115091,115491,1.5,0.3 P,0,115091,115491,A
Sprite,Foreground,Centre,"sb\etc\l.png",532,319 C,0,115364,,112,219,211 F,2,115364,115764,1,0 S,2,115364,115764,1.5,0.3 P,0,115364,115764,A
Sprite,Foreground,Centre,"sb\etc\l.png",452,368 C,0,115500,,222,9,76 F,2,115500,115900,1,0 S,2,115500,115900,1.5,0.3 P,0,115500,115900,A
Sprite,Foreground,Centre,"sb\etc\l.png",448,386 C,0,115568,,222,9,76 F,2,115568,115968,1,0 S,2,115568,115968,1.5,0.3 P,0,115568,115968,A
Sprite,Foreground,Centre,"sb\etc\l.png",445,404 C,0,115636,,222,9,76 F,2,115636,116036,1,0 S,2,115636,116036,1.5,0.3 P,0,115636,116036,A
Sprite,Foreground,Centre,"sb\etc\l.png",442,422 C,0,115704,,222,9,76 F,2,115704,116104,1,0 S,2,115704,116104,1.5,0.3 P,0,115704,116104,A
Sprite,Foreground,Centre,"sb\etc\l.png",438,440 C,0,115773,,5,28,186 F,2,115773,116173,1,0 S,2,115773,116173,1.5,0.3 P,0,115773,116173,A
Sprite,Foreground,Centre,"sb\etc\l.png",209,337 C,0,116046,,5,28,186 F,2,116046,116446,1,0 S,2,116046,116446,1.5,0.3 P,0,116046,116446,A
Sprite,Foreground,Centre,"sb\etc\l.png",380,267 C,0,116318,,9,98,198 F,2,116318,116718,1,0 S,2,116318,116718,1.5,0.3 P,0,116318,116718,A
Sprite,Foreground,Centre,"sb\etc\l.png",149,151 C,0,116455,,9,98,198 F,2,116455,116855,1,0 S,2,116455,116855,1.5,0.3 P,0,116455,116855,A
Sprite,Foreground,Centre,"sb\etc\l.png",509,109 C,0,116591,,112,219,211 F,2,116591,116991,1,0 S,2,116591,116991,1.5,0.3 P,0,116591,116991,A
Sprite,Foreground,Centre,"sb\etc\l.png",209,337 C,0,116727,,112,219,211 F,2,116727,117127,1,0 S,2,116727,117127,1.5,0.3 P,0,116727,117127,A
Sprite,Foreground,Centre,"sb\etc\l.png",344,56 C,0,116864,,222,9,76 F,2,116864,117264,1,0 S,2,116864,117264,1.5,0.3 P,0,116864,117264,A
Sprite,Foreground,Centre,"sb\etc\l.png",452,368 C,0,117000,,222,9,76 F,2,117000,117400,1,0 S,2,117000,117400,1.5,0.3 P,0,117000,117400,A
Sprite,Foreground,Centre,"sb\etc\l.png",246,202 C,0,117137,,222,9,76 F,2,117137,117537,1,0 S,2,117137,117537,1.5,0.3 P,0,117137,117537,A
Sprite,Foreground,Centre,"sb\etc\l.png",576,258 C,0,117273,,5,28,186 F,2,117273,117673,1,0 S,2,117273,117673,1.5,0.3 P,0,117273,117673,A
Sprite,Foreground,Centre,"sb\etc\l.png",245,438 C,0,117409,,5,28,186 F,2,117409,117809,1,0 S,2,117409,117809,1.5,0.3 P,0,117409,117809,A
Sprite,Foreground,Centre,"sb\etc\l.png",345,150 C,0,117546,,5,28,186 F,2,117546,117946,1,0 S,2,117546,117946,1.5,0.3 P,0,117546,117946,A
Sprite,Foreground,Centre,"sb\etc\l.png",452,368 C,0,117682,,9,98,198 F,2,117682,118082,1,0 S,2,117682,118082,1.5,0.3 P,0,117682,118082,A
Sprite,Foreground,Centre,"sb\etc\l.png",160,251 C,0,117818,,9,98,198 F,2,117818,118218,1,0 S,2,117818,118218,1.5,0.3 P,0,117818,118218,A
Sprite,Foreground,Centre,"sb\etc\l.png",509,109 C,0,117955,,112,219,211 F,2,117955,118355,1,0 S,2,117955,118355,1.5,0.3 P,0,117955,118355,A
Sprite,Foreground,Centre,"sb\etc\l.png",509,109 C,0,118023,,112,219,211 F,2,118023,118423,1,0 S,2,118023,118423,1.5,0.3 P,0,118023,118423,A
Sprite,Foreground,Centre,"sb\etc\l.png",509,109 C,0,118091,,112,219,211 F,2,118091,118491,1,0 S,2,118091,118491,1.5,0.3 P,0,118091,118491,A
Sprite,Foreground,Centre,"sb\etc\l.png",452,368 C,0,118227,,112,219,211 F,2,118227,118627,1,0 S,2,118227,118627,1.5,0.3 P,0,118227,118627,A
Sprite,Foreground,Centre,"sb\etc\l.png",452,368 C,0,118295,,112,219,211 F,2,118295,118695,1,0 S,2,118295,118695,1.5,0.3 P,0,118295,118695,A
Sprite,Foreground,Centre,"sb\etc\l.png",452,368 C,0,118363,,112,219,211 F,2,118363,118763,1,0 S,2,118363,118763,1.5,0.3 P,0,118363,118763,A
Sprite,Foreground,Centre,"sb\etc\l.png",345,150 C,0,118500,,112,219,211 F,2,118500,118900,1,0 S,2,118500,118900,1.5,0.3 P,0,118500,118900,A
Sprite,Foreground,Centre,"sb\etc\l.png",345,150 C,0,118568,,112,219,211 F,2,118568,118968,1,0 S,2,118568,118968,1.5,0.3 P,0,118568,118968,A
Sprite,Foreground,Centre,"sb\etc\l.png",345,150 C,0,118636,,112,219,211 F,2,118636,119036,1,0 S,2,118636,119036,1.5,0.3 P,0,118636,119036,A
Sprite,Foreground,Centre,"sb\etc\l.png",233,336 C,0,118773,,222,9,76 F,2,118773,119173,1,0 S,2,118773,119173,1.5,0.3 P,0,118773,119173,A
Sprite,Foreground,Centre,"sb\etc\l.png",236,354 C,0,118841,,222,9,76 F,2,118841,119241,1,0 S,2,118841,119241,1.5,0.3 P,0,118841,119241,A
Sprite,Foreground,Centre,"sb\etc\l.png",239,372 C,0,118909,,222,9,76 F,2,118909,119309,1,0 S,2,118909,119309,1.5,0.3 P,0,118909,119309,A
Sprite,Foreground,Centre,"sb\etc\l.png",242,390 C,0,118977,,222,9,76 F,2,118977,119377,1,0 S,2,118977,119377,1.5,0.3 P,0,118977,119377,A
Sprite,Foreground,Centre,"sb\etc\l.png",245,407 C,0,119046,,5,28,186 F,2,119046,119446,1,0 S,2,119046,119446,1.5,0.3 P,0,119046,119446,A
Sprite,Foreground,Centre,"sb\etc\l.png",178,437 C,0,119114,,5,28,186 F,2,119114,119514,1,0 S,2,119114,119514,1.5,0.3 P,0,119114,119514,A
Sprite,Foreground,Centre,"sb\etc\l.png",107,419 C,0,119182,,5,28,186 F,2,119182,119582,1,0 S,2,119182,119582,1.5,0.3 P,0,119182,119582,A
Sprite,Foreground,Centre,"sb\etc\l.png",64,359 C,0,119250,,5,28,186 F,2,119250,119650,1,0 S,2,119250,119650,1.5,0.3 P,0,119250,119650,A
Sprite,Foreground,Centre,"sb\etc\l.png",69,286 C,0,119318,,5,28,186 F,2,119318,119718,1,0 S,2,119318,119718,1.5,0.3 P,0,119318,119718,A
Sprite,Foreground,Centre,"sb\etc\l.png",119,233 C,0,119386,,5,28,186 F,2,119386,119786,1,0 S,2,119386,119786,1.5,0.3 P,0,119386,119786,A
Sprite,Foreground,Centre,"sb\etc\l.png",192,223 C,0,119455,,5,28,186 F,2,119455,119855,1,0 S,2,119455,119855,1.5,0.3 P,0,119455,119855,A
Sprite,Foreground,Centre,"sb\etc\l.png",254,262 C,0,119523,,5,28,186 F,2,119523,119923,1,0 S,2,119523,119923,1.5,0.3 P,0,119523,119923,A
Sprite,Foreground,Centre,"sb\etc\l.png",316,301 C,0,119591,,5,28,186 F,2,119591,119991,1,0 S,2,119591,119991,1.5,0.3 P,0,119591,119991,A
Sprite,Foreground,Centre,"sb\etc\l.png",389,291 C,0,119660,,5,28,186 F,2,119660,120060,1,0 S,2,119660,120060,1.5,0.3 P,0,119660,120060,A
Sprite,Foreground,Centre,"sb\etc\l.png",439,238 C,0,119727,,5,28,186 F,2,119727,120127,1,0 S,2,119727,120127,1.5,0.3 P,0,119727,120127,A
Sprite,Foreground,Centre,"sb\etc\l.png",443,163 C,0,119795,,5,28,186 F,2,119795,120195,1,0 S,2,119795,120195,1.5,0.3 P,0,119795,120195,A
Sprite,Foreground,Centre,"sb\etc\l.png",398,103 C,0,119864,,5,28,186 F,2,119864,120264,1,0 S,2,119864,120264,1.5,0.3 P,0,119864,120264,A
Sprite,Foreground,Centre,"sb\etc\l.png",326,86 C,0,119931,,5,28,186 F,2,119931,120331,1,0 S,2,119931,120331,1.5,0.3 P,0,119931,120331,A
Sprite,Foreground,Centre,"sb\etc\l.png",259,120 C,0,120000,,5,28,186 F,2,120000,120400,1,0 S,2,120000,120400,1.5,0.3 P,0,120000,120400,A
Sprite,Foreground,Centre,"sb\etc\l.png",230,189 C,0,120067,,5,28,186 F,2,120067,120467,1,0 S,2,120067,120467,1.5,0.3 P,0,120067,120467,A
Sprite,Foreground,Centre,"sb\etc\l.png",254,262 C,0,120137,,9,98,198 F,2,120137,120537,1,0 S,2,120137,120537,1.5,0.3 P,0,120137,120537,A
Sprite,Foreground,Centre,"sb\etc\l.png",523,337 C,0,120409,,9,98,198 F,2,120409,120809,1,0 S,2,120409,120809,1.5,0.3 P,0,120409,120809,A
Sprite,Foreground,Centre,"sb\etc\l.png",259,120 C,0,120682,,112,219,211 F,2,120682,121082,1,0 S,2,120682,121082,1.5,0.3 P,0,120682,121082,A
Sprite,Foreground,Centre,"sb\etc\l.png",176,390 C,0,120818,,112,219,211 F,2,120818,121218,1,0 S,2,120818,121218,1.5,0.3 P,0,120818,121218,A
Sprite,Foreground,Centre,"sb\etc\l.png",147,165 C,0,120955,,222,9,76 F,2,120955,121355,1,0 S,2,120955,121355,1.5,0.3 P,0,120955,121355,A
Sprite,Foreground,Centre,"sb\etc\l.png",288,345 C,0,121091,,222,9,76 F,2,121091,121491,1,0 S,2,121091,121491,1.5,0.3 P,0,121091,121491,A
Sprite,Foreground,Centre,"sb\etc\l.png",455,119 C,0,121227,,5,28,186 F,2,121227,121627,1,0 S,2,121227,121627,1.5,0.3 P,0,121227,121627,A
Sprite,Foreground,Centre,"sb\etc\l.png",147,165 C,0,121500,,5,28,186 F,2,121500,121900,1,0 S,2,121500,121900,1.5,0.3 P,0,121500,121900,A
Sprite,Foreground,Centre,"sb\etc\l.png",288,345 C,0,121637,,5,28,186 F,2,121637,122037,1,0 S,2,121637,122037,1.5,0.3 P,0,121637,122037,A
Sprite,Foreground,Centre,"sb\etc\l.png",176,390 C,0,121909,,9,98,198 F,2,121909,122309,1,0 S,2,121909,122309,1.5,0.3 P,0,121909,122309,A
Sprite,Foreground,Centre,"sb\etc\l.png",389,291 C,0,122046,,9,98,198 F,2,122046,122446,1,0 S,2,122046,122446,1.5,0.3 P,0,122046,122446,A
Sprite,Foreground,Centre,"sb\etc\l.png",147,165 C,0,122182,,9,98,198 F,2,122182,122582,1,0 S,2,122182,122582,1.5,0.3 P,0,122182,122582,A
Sprite,Foreground,Centre,"sb\etc\l.png",386,406 C,0,122318,,112,219,211 F,2,122318,122718,1,0 S,2,122318,122718,1.5,0.3 P,0,122318,122718,A
Sprite,Foreground,Centre,"sb\etc\l.png",440,174 C,0,122591,,112,219,211 F,2,122591,122991,1,0 S,2,122591,122991,1.5,0.3 P,0,122591,122991,A
Sprite,Foreground,Centre,"sb\etc\l.png",272,117 C,0,122864,,222,9,76 F,2,122864,123264,1,0 S,2,122864,123264,1.5,0.3 P,0,122864,123264,A
Sprite,Foreground,Centre,"sb\etc\l.png",386,406 C,0,123000,,222,9,76 F,2,123000,123400,1,0 S,2,123000,123400,1.5,0.3 P,0,123000,123400,A
Sprite,Foreground,Centre,"sb\etc\l.png",440,174 C,0,123137,,5,28,186 F,2,123137,123537,1,0 S,2,123137,123537,1.5,0.3 P,0,123137,123537,A
Sprite,Foreground,Centre,"sb\etc\l.png",288,345 C,0,123273,,5,28,186 F,2,123273,123673,1,0 S,2,123273,123673,1.5,0.3 P,0,123273,123673,A
Sprite,Foreground,Centre,"sb\etc\l.png",113,115 C,0,123409,,9,98,198 F,2,123409,123809,1,0 S,2,123409,123809,1.5,0.3 P,0,123409,123809,A
Sprite,Foreground,Centre,"sb\etc\l.png",522,314 C,0,123818,,9,98,198 F,2,123818,124218,1,0 S,2,123818,124218,1.5,0.3 P,0,123818,124218,A
Sprite,Foreground,Centre,"sb\etc\l.png",223,254 C,0,124091,,9,98,198 F,2,124091,124491,1,0 S,2,124091,124491,1.5,0.3 P,0,124091,124491,A
Sprite,Foreground,Centre,"sb\etc\l.png",155,326 C,0,124227,,112,219,211 F,2,124227,124627,1,0 S,2,124227,124627,1.5,0.3 P,0,124227,124627,A
Sprite,Foreground,Centre,"sb\etc\l.png",151,344 C,0,124295,,112,219,211 F,2,124295,124695,1,0 S,2,124295,124695,1.5,0.3 P,0,124295,124695,A
Sprite,Foreground,Centre,"sb\etc\l.png",148,362 C,0,124363,,112,219,211 F,2,124363,124763,1,0 S,2,124363,124763,1.5,0.3 P,0,124363,124763,A
Sprite,Foreground,Centre,"sb\etc\l.png",145,379 C,0,124432,,112,219,211 F,2,124432,124832,1,0 S,2,124432,124832,1.5,0.3 P,0,124432,124832,A
Sprite,Foreground,Centre,"sb\etc\l.png",141,397 C,0,124500,,222,9,76 F,2,124500,124900,1,0 S,2,124500,124900,1.5,0.3 P,0,124500,124900,A
Sprite,Foreground,Centre,"sb\etc\l.png",96,353 C,0,124568,,222,9,76 F,2,124568,124968,1,0 S,2,124568,124968,1.5,0.3 P,0,124568,124968,A
Sprite,Foreground,Centre,"sb\etc\l.png",81,293 C,0,124636,,222,9,76 F,2,124636,125036,1,0 S,2,124636,125036,1.5,0.3 P,0,124636,125036,A
Sprite,Foreground,Centre,"sb\etc\l.png",101,234 C,0,124704,,222,9,76 F,2,124704,125104,1,0 S,2,124704,125104,1.5,0.3 P,0,124704,125104,A
Sprite,Foreground,Centre,"sb\etc\l.png",149,195 C,0,124772,,222,9,76 F,2,124772,125172,1,0 S,2,124772,125172,1.5,0.3 P,0,124772,125172,A
Sprite,Foreground,Centre,"sb\etc\l.png",210,187 C,0,124840,,222,9,76 F,2,124840,125240,1,0 S,2,124840,125240,1.5,0.3 P,0,124840,125240,A
Sprite,Foreground,Centre,"sb\etc\l.png",266,212 C,0,124909,,222,9,76 F,2,124909,125309,1,0 S,2,124909,125309,1.5,0.3 P,0,124909,125309,A
Sprite,Foreground,Centre,"sb\etc\l.png",300,264 C,0,124977,,222,9,76 F,2,124977,125377,1,0 S,2,124977,125377,1.5,0.3 P,0,124977,125377,A
Sprite,Foreground,Centre,"sb\etc\l.png",334,315 C,0,125045,,222,9,76 F,2,125045,125445,1,0 S,2,125045,125445,1.5,0.3 P,0,125045,125445,A
Sprite,Foreground,Centre,"sb\etc\l.png",390,341 C,0,125114,,222,9,76 F,2,125114,125514,1,0 S,2,125114,125514,1.5,0.3 P,0,125114,125514,A
Sprite,Foreground,Centre,"sb\etc\l.png",451,333 C,0,125182,,222,9,76 F,2,125182,125582,1,0 S,2,125182,125582,1.5,0.3 P,0,125182,125582,A
Sprite,Foreground,Centre,"sb\etc\l.png",497,294 C,0,125250,,222,9,76 F,2,125250,125650,1,0 S,2,125250,125650,1.5,0.3 P,0,125250,125650,A
Sprite,Foreground,Centre,"sb\etc\l.png",517,237 C,0,125318,,222,9,76 F,2,125318,125718,1,0 S,2,125318,125718,1.5,0.3 P,0,125318,125718,A
Sprite,Foreground,Centre,"sb\etc\l.png",505,178 C,0,125386,,222,9,76 F,2,125386,125786,1,0 S,2,125386,125786,1.5,0.3 P,0,125386,125786,A
Sprite,Foreground,Centre,"sb\etc\l.png",464,134 C,0,125454,,222,9,76 F,2,125454,125854,1,0 S,2,125454,125854,1.5,0.3 P,0,125454,125854,A
Sprite,Foreground,Centre,"sb\etc\l.png",406,117 C,0,125522,,222,9,76 F,2,125522,125922,1,0 S,2,125522,125922,1.5,0.3 P,0,125522,125922,A
Sprite,Foreground,Centre,"sb\etc\l.png",354,133 C,0,125591,,5,28,186 F,2,125591,125991,1,0 S,2,125591,125991,1.5,0.3 P,0,125591,125991,A
Sprite,Foreground,Centre,"sb\etc\l.png",266,212 C,0,125727,,5,28,186 F,2,125727,126127,1,0 S,2,125727,126127,1.5,0.3 P,0,125727,126127,A
Sprite,Foreground,Centre,"sb\etc\l.png",266,212 C,0,125796,,5,28,186 F,2,125796,126196,1,0 S,2,125796,126196,1.5,0.3 P,0,125796,126196,A
Sprite,Foreground,Centre,"sb\etc\l.png",266,212 C,0,125864,,5,28,186 F,2,125864,126264,1,0 S,2,125864,126264,1.5,0.3 P,0,125864,126264,A
Sprite,Foreground,Centre,"sb\etc\l.png",453,260 C,0,126000,,5,28,186 F,2,126000,126400,1,0 S,2,126000,126400,1.5,0.3 P,0,126000,126400,A
Sprite,Foreground,Centre,"sb\etc\l.png",453,260 C,0,126069,,5,28,186 F,2,126069,126469,1,0 S,2,126069,126469,1.5,0.3 P,0,126069,126469,A
Sprite,Foreground,Centre,"sb\etc\l.png",453,260 C,0,126137,,5,28,186 F,2,126137,126537,1,0 S,2,126137,126537,1.5,0.3 P,0,126137,126537,A
Sprite,Foreground,Centre,"sb\etc\l.png",215,337 C,0,126273,,5,28,186 F,2,126273,126673,1,0 S,2,126273,126673,1.5,0.3 P,0,126273,126673,A
Sprite,Foreground,Centre,"sb\etc\l.png",215,337 C,0,126342,,5,28,186 F,2,126342,126742,1,0 S,2,126342,126742,1.5,0.3 P,0,126342,126742,A
Sprite,Foreground,Centre,"sb\etc\l.png",215,337 C,0,126410,,5,28,186 F,2,126410,126810,1,0 S,2,126410,126810,1.5,0.3 P,0,126410,126810,A
Sprite,Foreground,Centre,"sb\etc\l.png",534,440 C,0,126546,,5,28,186 F,2,126546,126946,1,0 S,2,126546,126946,1.5,0.3 P,0,126546,126946,A
Sprite,Foreground,Centre,"sb\etc\l.png",534,440 C,0,126614,,5,28,186 F,2,126614,127014,1,0 S,2,126614,127014,1.5,0.3 P,0,126614,127014,A
Sprite,Foreground,Centre,"sb\etc\l.png",534,440 C,0,126682,,9,98,198 F,2,126682,127082,1,0 S,2,126682,127082,1.5,0.3 P,0,126682,127082,A
Sprite,Foreground,Centre,"sb\etc\l.png",266,212 C,0,126955,,9,98,198 F,2,126955,127355,1,0 S,2,126955,127355,1.5,0.3 P,0,126955,127355,A
Sprite,Foreground,Centre,"sb\etc\l.png",131,351 C,0,127091,,9,98,198 F,2,127091,127491,1,0 S,2,127091,127491,1.5,0.3 P,0,127091,127491,A
Sprite,Foreground,Centre,"sb\etc\l.png",131,351 C,0,127160,,9,98,198 F,2,127160,127560,1,0 S,2,127160,127560,1.5,0.3 P,0,127160,127560,A
Sprite,Foreground,Centre,"sb\etc\l.png",131,351 C,0,127228,,9,98,198 F,2,127228,127628,1,0 S,2,127228,127628,1.5,0.3 P,0,127228,127628,A
Sprite,Foreground,Centre,"sb\etc\l.png",377,247 C,0,127364,,9,98,198 F,2,127364,127764,1,0 S,2,127364,127764,1.5,0.3 P,0,127364,127764,A
Sprite,Foreground,Centre,"sb\etc\l.png",377,247 C,0,127433,,9,98,198 F,2,127433,127833,1,0 S,2,127433,127833,1.5,0.3 P,0,127433,127833,A
Sprite,Foreground,Centre,"sb\etc\l.png",377,247 C,0,127501,,9,98,198 F,2,127501,127901,1,0 S,2,127501,127901,1.5,0.3 P,0,127501,127901,A
Sprite,Foreground,Centre,"sb\etc\l.png",252,136 C,0,127637,,9,98,198 F,2,127637,128037,1,0 S,2,127637,128037,1.5,0.3 P,0,127637,128037,A
Sprite,Foreground,Centre,"sb\etc\l.png",249,119 C,0,127705,,9,98,198 F,2,127705,128105,1,0 S,2,127705,128105,1.5,0.3 P,0,127705,128105,A
Sprite,Foreground,Centre,"sb\etc\l.png",245,102 C,0,127773,,112,219,211 F,2,127773,128173,1,0 S,2,127773,128173,1.5,0.3 P,0,127773,128173,A
Sprite,Foreground,Centre,"sb\etc\l.png",279,144 C,0,127841,,112,219,211 F,2,127841,128241,1,0 S,2,127841,128241,1.5,0.3 P,0,127841,128241,A
Sprite,Foreground,Centre,"sb\etc\l.png",294,197 C,0,127909,,112,219,211 F,2,127909,128309,1,0 S,2,127909,128309,1.5,0.3 P,0,127909,128309,A
Sprite,Foreground,Centre,"sb\etc\l.png",288,251 C,0,127977,,112,219,211 F,2,127977,128377,1,0 S,2,127977,128377,1.5,0.3 P,0,127977,128377,A
Sprite,Foreground,Centre,"sb\etc\l.png",262,299 C,0,128045,,112,219,211 F,2,128045,128445,1,0 S,2,128045,128445,1.5,0.3 P,0,128045,128445,A
Sprite,Foreground,Centre,"sb\etc\l.png",219,334 C,0,128113,,112,219,211 F,2,128113,128513,1,0 S,2,128113,128513,1.5,0.3 P,0,128113,128513,A
Sprite,Foreground,Centre,"sb\etc\l.png",167,349 C,0,128182,,112,219,211 F,2,128182,128582,1,0 S,2,128182,128582,1.5,0.3 P,0,128182,128582,A
Sprite,Foreground,Centre,"sb\etc\l.png",112,343 C,0,128250,,112,219,211 F,2,128250,128650,1,0 S,2,128250,128650,1.5,0.3 P,0,128250,128650,A
Sprite,Foreground,Centre,"sb\etc\l.png",64,316 C,0,128318,,222,9,76 F,2,128318,128718,1,0 S,2,128318,128718,1.5,0.3 P,0,128318,128718,A
Sprite,Foreground,Centre,"sb\etc\l.png",116,258 C,0,128386,,222,9,76 F,2,128386,128786,1,0 S,2,128386,128786,1.5,0.3 P,0,128386,128786,A
Sprite,Foreground,Centre,"sb\etc\l.png",193,242 C,0,128454,,222,9,76 F,2,128454,128854,1,0 S,2,128454,128854,1.5,0.3 P,0,128454,128854,A
Sprite,Foreground,Centre,"sb\etc\l.png",264,274 C,0,128522,,222,9,76 F,2,128522,128922,1,0 S,2,128522,128922,1.5,0.3 P,0,128522,128922,A
Sprite,Foreground,Centre,"sb\etc\l.png",304,341 C,0,128590,,222,9,76 F,2,128590,128990,1,0 S,2,128590,128990,1.5,0.3 P,0,128590,128990,A
Sprite,Foreground,Centre,"sb\etc\l.png",341,408 C,0,128660,,222,9,76 F,2,128660,129060,1,0 S,2,128660,129060,1.5,0.3 P,0,128660,129060,A
Sprite,Foreground,Centre,"sb\etc\l.png",413,440 C,0,128728,,222,9,76 F,2,128728,129128,1,0 S,2,128728,129128,1.5,0.3 P,0,128728,129128,A
Sprite,Foreground,Centre,"sb\etc\l.png",490,423 C,0,128796,,222,9,76 F,2,128796,129196,1,0 S,2,128796,129196,1.5,0.3 P,0,128796,129196,A
Sprite,Foreground,Centre,"sb\etc\l.png",104,123 C,0,176864,,5,28,186 F,2,176864,177264,1,0 S,2,176864,177264,1.5,0.3 P,0,176864,177264,A
Sprite,Foreground,Centre,"sb\etc\l.png",418,79 C,0,177137,,5,28,186 F,2,177137,177537,1,0 S,2,177137,177537,1.5,0.3 P,0,177137,177537,A
Sprite,Foreground,Centre,"sb\etc\l.png",469,355 C,0,177409,,9,98,198 F,2,177409,177809,1,0 S,2,177409,177809,1.5,0.3 P,0,177409,177809,A
Sprite,Foreground,Centre,"sb\etc\l.png",300,124 C,0,177546,,9,98,198 F,2,177546,177946,1,0 S,2,177546,177946,1.5,0.3 P,0,177546,177946,A
Sprite,Foreground,Centre,"sb\etc\l.png",372,313 C,0,177682,,112,219,211 F,2,177682,178082,1,0 S,2,177682,178082,1.5,0.3 P,0,177682,178082,A
Sprite,Foreground,Centre,"sb\etc\l.png",418,79 C,0,177818,,112,219,211 F,2,177818,178218,1,0 S,2,177818,178218,1.5,0.3 P,0,177818,178218,A
Sprite,Foreground,Centre,"sb\etc\l.png",551,342 C,0,177955,,222,9,76 F,2,177955,178355,1,0 S,2,177955,178355,1.5,0.3 P,0,177955,178355,A
Sprite,Foreground,Centre,"sb\etc\l.png",506,116 C,0,178364,,222,9,76 F,2,178364,178764,1,0 S,2,178364,178764,1.5,0.3 P,0,178364,178764,A
Sprite,Foreground,Centre,"sb\etc\l.png",359,420 C,0,178637,,5,28,186 F,2,178637,179037,1,0 S,2,178637,179037,1.5,0.3 P,0,178637,179037,A
Sprite,Foreground,Centre,"sb\etc\l.png",221,234 C,0,178773,,5,28,186 F,2,178773,179173,1,0 S,2,178773,179173,1.5,0.3 P,0,178773,179173,A
Sprite,Foreground,Centre,"sb\etc\l.png",482,249 C,0,178909,,5,28,186 F,2,178909,179309,1,0 S,2,178909,179309,1.5,0.3 P,0,178909,179309,A
Sprite,Foreground,Centre,"sb\etc\l.png",221,430 C,0,179046,,9,98,198 F,2,179046,179446,1,0 S,2,179046,179446,1.5,0.3 P,0,179046,179446,A
Sprite,Foreground,Centre,"sb\etc\l.png",297,159 C,0,179318,,9,98,198 F,2,179318,179718,1,0 S,2,179318,179718,1.5,0.3 P,0,179318,179718,A
Sprite,Foreground,Centre,"sb\etc\l.png",194,129 C,0,179591,,112,219,211 F,2,179591,179991,1,0 S,2,179591,179991,1.5,0.3 P,0,179591,179991,A
Sprite,Foreground,Centre,"sb\etc\l.png",479,56 C,0,179727,,112,219,211 F,2,179727,180127,1,0 S,2,179727,180127,1.5,0.3 P,0,179727,180127,A
Sprite,Foreground,Centre,"sb\etc\l.png",482,249 C,0,179864,,222,9,76 F,2,179864,180264,1,0 S,2,179864,180264,1.5,0.3 P,0,179864,180264,A
Sprite,Foreground,Centre,"sb\etc\l.png",327,56 C,0,180000,,222,9,76 F,2,180000,180400,1,0 S,2,180000,180400,1.5,0.3 P,0,180000,180400,A
Sprite,Foreground,Centre,"sb\etc\l.png",223,349 C,0,180137,,5,28,186 F,2,180137,180537,1,0 S,2,180137,180537,1.5,0.3 P,0,180137,180537,A
Sprite,Foreground,Centre,"sb\etc\l.png",337,152 C,0,180546,,5,28,186 F,2,180546,180946,1,0 S,2,180546,180946,1.5,0.3 P,0,180546,180946,A
Sprite,Foreground,Centre,"sb\etc\l.png",133,413 C,0,180818,,5,28,186 F,2,180818,181218,1,0 S,2,180818,181218,1.5,0.3 P,0,180818,181218,A
Sprite,Foreground,Centre,"sb\etc\l.png",188,200 C,0,180955,,9,98,198 F,2,180955,181355,1,0 S,2,180955,181355,1.5,0.3 P,0,180955,181355,A
Sprite,Foreground,Centre,"sb\etc\l.png",191,181 C,0,181023,,9,98,198 F,2,181023,181423,1,0 S,2,181023,181423,1.5,0.3 P,0,181023,181423,A
Sprite,Foreground,Centre,"sb\etc\l.png",194,163 C,0,181091,,9,98,198 F,2,181091,181491,1,0 S,2,181091,181491,1.5,0.3 P,0,181091,181491,A
Sprite,Foreground,Centre,"sb\etc\l.png",197,145 C,0,181159,,9,98,198 F,2,181159,181559,1,0 S,2,181159,181559,1.5,0.3 P,0,181159,181559,A
Sprite,Foreground,Centre,"sb\etc\l.png",200,127 C,0,181227,,9,98,198 F,2,181227,181627,1,0 S,2,181227,181627,1.5,0.3 P,0,181227,181627,A
Sprite,Foreground,Centre,"sb\etc\l.png",521,74 C,0,181500,,9,98,198 F,2,181500,181900,1,0 S,2,181500,181900,1.5,0.3 P,0,181500,181900,A
Sprite,Foreground,Centre,"sb\etc\l.png",268,395 C,0,181773,,112,219,211 F,2,181773,182173,1,0 S,2,181773,182173,1.5,0.3 P,0,181773,182173,A
Sprite,Foreground,Centre,"sb\etc\l.png",200,127 C,0,181909,,112,219,211 F,2,181909,182309,1,0 S,2,181909,182309,1.5,0.3 P,0,181909,182309,A
Sprite,Foreground,Centre,"sb\etc\l.png",133,413 C,0,182046,,222,9,76 F,2,182046,182446,1,0 S,2,182046,182446,1.5,0.3 P,0,182046,182446,A
Sprite,Foreground,Centre,"sb\etc\l.png",337,152 C,0,182182,,222,9,76 F,2,182182,182582,1,0 S,2,182182,182582,1.5,0.3 P,0,182182,182582,A
Sprite,Foreground,Centre,"sb\etc\l.png",517,434 C,0,182318,,5,28,186 F,2,182318,182718,1,0 S,2,182318,182718,1.5,0.3 P,0,182318,182718,A
Sprite,Foreground,Centre,"sb\etc\l.png",197,267 C,0,182455,,5,28,186 F,2,182455,182855,1,0 S,2,182455,182855,1.5,0.3 P,0,182455,182855,A
Sprite,Foreground,Centre,"sb\etc\l.png",497,207 C,0,182591,,5,28,186 F,2,182591,182991,1,0 S,2,182591,182991,1.5,0.3 P,0,182591,182991,A
Sprite,Foreground,Centre,"sb\etc\l.png",268,395 C,0,182727,,9,98,198 F,2,182727,183127,1,0 S,2,182727,183127,1.5,0.3 P,0,182727,183127,A
Sprite,Foreground,Centre,"sb\etc\l.png",337,152 C,0,182864,,9,98,198 F,2,182864,183264,1,0 S,2,182864,183264,1.5,0.3 P,0,182864,183264,A
Sprite,Foreground,Centre,"sb\etc\l.png",420,334 C,0,183000,,9,98,198 F,2,183000,183400,1,0 S,2,183000,183400,1.5,0.3 P,0,183000,183400,A
Sprite,Foreground,Centre,"sb\etc\l.png",200,127 C,0,183137,,112,219,211 F,2,183137,183537,1,0 S,2,183137,183537,1.5,0.3 P,0,183137,183537,A
Sprite,Foreground,Centre,"sb\etc\l.png",521,74 C,0,183273,,112,219,211 F,2,183273,183673,1,0 S,2,183273,183673,1.5,0.3 P,0,183273,183673,A
Sprite,Foreground,Centre,"sb\etc\l.png",420,334 C,0,183409,,222,9,76 F,2,183409,183809,1,0 S,2,183409,183809,1.5,0.3 P,0,183409,183809,A
Sprite,Foreground,Centre,"sb\etc\l.png",400,330 C,0,183478,,222,9,76 F,2,183478,183878,1,0 S,2,183478,183878,1.5,0.3 P,0,183478,183878,A
Sprite,Foreground,Centre,"sb\etc\l.png",380,327 C,0,183546,,222,9,76 F,2,183546,183946,1,0 S,2,183546,183946,1.5,0.3 P,0,183546,183946,A
Sprite,Foreground,Centre,"sb\etc\l.png",360,323 C,0,183614,,222,9,76 F,2,183614,184014,1,0 S,2,183614,184014,1.5,0.3 P,0,183614,184014,A
Sprite,Foreground,Centre,"sb\etc\l.png",340,320 C,0,183682,,222,9,76 F,2,183682,184082,1,0 S,2,183682,184082,1.5,0.3 P,0,183682,184082,A
Sprite,Foreground,Centre,"sb\etc\l.png",320,316 C,0,183750,,222,9,76 F,2,183750,184150,1,0 S,2,183750,184150,1.5,0.3 P,0,183750,184150,A
Sprite,Foreground,Centre,"sb\etc\l.png",300,312 C,0,183818,,222,9,76 F,2,183818,184218,1,0 S,2,183818,184218,1.5,0.3 P,0,183818,184218,A
Sprite,Foreground,Centre,"sb\etc\l.png",111,245 C,0,183955,,5,28,186 F,2,183955,184355,1,0 S,2,183955,184355,1.5,0.3 P,0,183955,184355,A
Sprite,Foreground,Centre,"sb\etc\l.png",117,246 C,0,184023,,5,28,186 F,2,184023,184423,1,0 S,2,184023,184423,1.5,0.3 P,0,184023,184423,A
Sprite,Foreground,Centre,"sb\etc\l.png",124,247 C,0,184091,,5,28,186 F,2,184091,184491,1,0 S,2,184091,184491,1.5,0.3 P,0,184091,184491,A
Sprite,Foreground,Centre,"sb\etc\l.png",131,248 C,0,184159,,5,28,186 F,2,184159,184559,1,0 S,2,184159,184559,1.5,0.3 P,0,184159,184559,A
Sprite,Foreground,Centre,"sb\etc\l.png",137,249 C,0,184227,,5,28,186 F,2,184227,184627,1,0 S,2,184227,184627,1.5,0.3 P,0,184227,184627,A
Sprite,Foreground,Centre,"sb\etc\l.png",144,250 C,0,184295,,5,28,186 F,2,184295,184695,1,0 S,2,184295,184695,1.5,0.3 P,0,184295,184695,A
Sprite,Foreground,Centre,"sb\etc\l.png",150,251 C,0,184364,,5,28,186 F,2,184364,184764,1,0 S,2,184364,184764,1.5,0.3 P,0,184364,184764,A
Sprite,Foreground,Centre,"sb\etc\l.png",397,157 C,0,184500,,9,98,198 F,2,184500,184900,1,0 S,2,184500,184900,1.5,0.3 P,0,184500,184900,A
Sprite,Foreground,Centre,"sb\etc\l.png",407,227 C,0,184568,,9,98,198 F,2,184568,184968,1,0 S,2,184568,184968,1.5,0.3 P,0,184568,184968,A
Sprite,Foreground,Centre,"sb\etc\l.png",380,292 C,0,184636,,9,98,198 F,2,184636,185036,1,0 S,2,184636,185036,1.5,0.3 P,0,184636,185036,A
Sprite,Foreground,Centre,"sb\etc\l.png",323,333 C,0,184704,,9,98,198 F,2,184704,185104,1,0 S,2,184704,185104,1.5,0.3 P,0,184704,185104,A
Sprite,Foreground,Centre,"sb\etc\l.png",254,340 C,0,184772,,9,98,198 F,2,184772,185172,1,0 S,2,184772,185172,1.5,0.3 P,0,184772,185172,A
Sprite,Foreground,Centre,"sb\etc\l.png",189,310 C,0,184840,,9,98,198 F,2,184840,185240,1,0 S,2,184840,185240,1.5,0.3 P,0,184840,185240,A
Sprite,Foreground,Centre,"sb\etc\l.png",150,251 C,0,184909,,112,219,211 F,2,184909,185309,1,0 S,2,184909,185309,1.5,0.3 P,0,184909,185309,A
Sprite,Foreground,Centre,"sb\etc\l.png",274,56 C,0,185046,,112,219,211 F,2,185046,185446,1,0 S,2,185046,185446,1.5,0.3 P,0,185046,185446,A
Sprite,Foreground,Centre,"sb\etc\l.png",323,333 C,0,185182,,112,219,211 F,2,185182,185582,1,0 S,2,185182,185582,1.5,0.3 P,0,185182,185582,A
Sprite,Foreground,Centre,"sb\etc\l.png",449,129 C,0,185319,,112,219,211 F,2,185319,185719,1,0 S,2,185319,185719,1.5,0.3 P,0,185319,185719,A
Sprite,Foreground,Centre,"sb\etc\l.png",576,420 C,0,185455,,112,219,211 F,2,185455,185855,1,0 S,2,185455,185855,1.5,0.3 P,0,185455,185855,A
Sprite,Foreground,Centre,"sb\etc\l.png",576,420 C,0,185523,,112,219,211 F,2,185523,185923,1,0 S,2,185523,185923,1.5,0.3 P,0,185523,185923,A
Sprite,Foreground,Centre,"sb\etc\l.png",576,420 C,0,185591,,222,9,76 F,2,185591,185991,1,0 S,2,185591,185991,1.5,0.3 P,0,185591,185991,A
Sprite,Foreground,Centre,"sb\etc\l.png",323,333 C,0,185864,,222,9,76 F,2,185864,186264,1,0 S,2,185864,186264,1.5,0.3 P,0,185864,186264,A
Sprite,Foreground,Centre,"sb\etc\l.png",449,129 C,0,186137,,5,28,186 F,2,186137,186537,1,0 S,2,186137,186537,1.5,0.3 P,0,186137,186537,A
Sprite,Foreground,Centre,"sb\etc\l.png",576,419 C,0,186273,,5,28,186 F,2,186273,186673,1,0 S,2,186273,186673,1.5,0.3 P,0,186273,186673,A
Sprite,Foreground,Centre,"sb\etc\l.png",554,187 C,0,186409,,9,98,198 F,2,186409,186809,1,0 S,2,186409,186809,1.5,0.3 P,0,186409,186809,A
Sprite,Foreground,Centre,"sb\etc\l.png",379,420 C,0,186546,,9,98,198 F,2,186546,186946,1,0 S,2,186546,186946,1.5,0.3 P,0,186546,186946,A
Sprite,Foreground,Centre,"sb\etc\l.png",209,224 C,0,186682,,112,219,211 F,2,186682,187082,1,0 S,2,186682,187082,1.5,0.3 P,0,186682,187082,A
Sprite,Foreground,Centre,"sb\etc\l.png",232,90 C,0,187091,,112,219,211 F,2,187091,187491,1,0 S,2,187091,187491,1.5,0.3 P,0,187091,187491,A
Sprite,Foreground,Centre,"sb\etc\l.png",379,420 C,0,187364,,222,9,76 F,2,187364,187764,1,0 S,2,187364,187764,1.5,0.3 P,0,187364,187764,A
Sprite,Foreground,Centre,"sb\etc\l.png",472,210 C,0,187500,,222,9,76 F,2,187500,187900,1,0 S,2,187500,187900,1.5,0.3 P,0,187500,187900,A
Sprite,Foreground,Centre,"sb\etc\l.png",576,419 C,0,187637,,222,9,76 F,2,187637,188037,1,0 S,2,187637,188037,1.5,0.3 P,0,187637,188037,A
Sprite,Foreground,Centre,"sb\etc\l.png",350,112 C,0,187773,,5,28,186 F,2,187773,188173,1,0 S,2,187773,188173,1.5,0.3 P,0,187773,188173,A
Sprite,Foreground,Centre,"sb\etc\l.png",472,210 C,0,188046,,5,28,186 F,2,188046,188446,1,0 S,2,188046,188446,1.5,0.3 P,0,188046,188446,A
Sprite,Foreground,Centre,"sb\etc\l.png",91,99 C,0,188318,,9,98,198 F,2,188318,188718,1,0 S,2,188318,188718,1.5,0.3 P,0,188318,188718,A
Sprite,Foreground,Centre,"sb\etc\l.png",189,358 C,0,188455,,9,98,198 F,2,188455,188855,1,0 S,2,188455,188855,1.5,0.3 P,0,188455,188855,A
Sprite,Foreground,Centre,"sb\etc\l.png",221,156 C,0,188591,,112,219,211 F,2,188591,188991,1,0 S,2,188591,188991,1.5,0.3 P,0,188591,188991,A
Sprite,Foreground,Centre,"sb\etc\l.png",64,382 C,0,188727,,112,219,211 F,2,188727,189127,1,0 S,2,188727,189127,1.5,0.3 P,0,188727,189127,A
Sprite,Foreground,Centre,"sb\etc\l.png",317,390 C,0,188864,,222,9,76 F,2,188864,189264,1,0 S,2,188864,189264,1.5,0.3 P,0,188864,189264,A
Sprite,Foreground,Centre,"sb\etc\l.png",87,132 C,0,189273,,222,9,76 F,2,189273,189673,1,0 S,2,189273,189673,1.5,0.3 P,0,189273,189673,A
Sprite,Foreground,Centre,"sb\etc\l.png",433,67 C,0,189546,,222,9,76 F,2,189546,189946,1,0 S,2,189546,189946,1.5,0.3 P,0,189546,189946,A
Sprite,Foreground,Centre,"sb\etc\l.png",546,310 C,0,189682,,5,28,186 F,2,189682,190082,1,0 S,2,189682,190082,1.5,0.3 P,0,189682,190082,A
Sprite,Foreground,Centre,"sb\etc\l.png",542,328 C,0,189750,,5,28,186 F,2,189750,190150,1,0 S,2,189750,190150,1.5,0.3 P,0,189750,190150,A
Sprite,Foreground,Centre,"sb\etc\l.png",539,346 C,0,189818,,5,28,186 F,2,189818,190218,1,0 S,2,189818,190218,1.5,0.3 P,0,189818,190218,A
Sprite,Foreground,Centre,"sb\etc\l.png",536,364 C,0,189886,,5,28,186 F,2,189886,190286,1,0 S,2,189886,190286,1.5,0.3 P,0,189886,190286,A
Sprite,Foreground,Centre,"sb\etc\l.png",533,379 C,0,189955,,9,98,198 F,2,189955,190355,1,0 S,2,189955,190355,1.5,0.3 P,0,189955,190355,A
Sprite,Foreground,Centre,"sb\etc\l.png",491,422 C,0,190023,,9,98,198 F,2,190023,190423,1,0 S,2,190023,190423,1.5,0.3 P,0,190023,190423,A
Sprite,Foreground,Centre,"sb\etc\l.png",432,433 C,0,190091,,9,98,198 F,2,190091,190491,1,0 S,2,190091,190491,1.5,0.3 P,0,190091,190491,A
Sprite,Foreground,Centre,"sb\etc\l.png",378,406 C,0,190159,,9,98,198 F,2,190159,190559,1,0 S,2,190159,190559,1.5,0.3 P,0,190159,190559,A
Sprite,Foreground,Centre,"sb\etc\l.png",351,352 C,0,190227,,9,98,198 F,2,190227,190627,1,0 S,2,190227,190627,1.5,0.3 P,0,190227,190627,A
Sprite,Foreground,Centre,"sb\etc\l.png",361,293 C,0,190295,,9,98,198 F,2,190295,190695,1,0 S,2,190295,190695,1.5,0.3 P,0,190295,190695,A
Sprite,Foreground,Centre,"sb\etc\l.png",404,251 C,0,190364,,9,98,198 F,2,190364,190764,1,0 S,2,190364,190764,1.5,0.3 P,0,190364,190764,A
Sprite,Foreground,Centre,"sb\etc\l.png",463,243 C,0,190432,,9,98,198 F,2,190432,190832,1,0 S,2,190432,190832,1.5,0.3 P,0,190432,190832,A
Sprite,Foreground,Centre,"sb\etc\l.png",522,235 C,0,190500,,9,98,198 F,2,190500,190900,1,0 S,2,190500,190900,1.5,0.3 P,0,190500,190900,A
Sprite,Foreground,Centre,"sb\etc\l.png",565,193 C,0,190569,,9,98,198 F,2,190569,190969,1,0 S,2,190569,190969,1.5,0.3 P,0,190569,190969,A
Sprite,Foreground,Centre,"sb\etc\l.png",576,134 C,0,190637,,9,98,198 F,2,190637,191037,1,0 S,2,190637,191037,1.5,0.3 P,0,190637,191037,A
Sprite,Foreground,Centre,"sb\etc\l.png",547,81 C,0,190705,,9,98,198 F,2,190705,191105,1,0 S,2,190705,191105,1.5,0.3 P,0,190705,191105,A
Sprite,Foreground,Centre,"sb\etc\l.png",492,56 C,0,190773,,9,98,198 F,2,190773,191173,1,0 S,2,190773,191173,1.5,0.3 P,0,190773,191173,A
Sprite,Foreground,Centre,"sb\etc\l.png",433,67 C,0,190841,,9,98,198 F,2,190841,191241,1,0 S,2,190841,191241,1.5,0.3 P,0,190841,191241,A
Sprite,Foreground,Centre,"sb\etc\l.png",392,111 C,0,190909,,9,98,198 F,2,190909,191309,1,0 S,2,190909,191309,1.5,0.3 P,0,190909,191309,A
Sprite,Foreground,Centre,"sb\etc\l.png",385,171 C,0,190977,,9,98,198 F,2,190977,191377,1,0 S,2,190977,191377,1.5,0.3 P,0,190977,191377,A
Sprite,Foreground,Centre,"sb\etc\l.png",414,223 C,0,191046,,9,98,198 F,2,191046,191446,1,0 S,2,191046,191446,1.5,0.3 P,0,191046,191446,A
Sprite,Foreground,Centre,"sb\etc\l.png",443,275 C,0,191115,,9,98,198 F,2,191115,191515,1,0 S,2,191115,191515,1.5,0.3 P,0,191115,191515,A
Sprite,Foreground,Centre,"sb\etc\l.png",436,335 C,0,191183,,9,98,198 F,2,191183,191583,1,0 S,2,191183,191583,1.5,0.3 P,0,191183,191583,A
Sprite,Foreground,Centre,"sb\etc\l.png",395,379 C,0,191251,,9,98,198 F,2,191251,191651,1,0 S,2,191251,191651,1.5,0.3 P,0,191251,191651,A
Sprite,Foreground,Centre,"sb\etc\l.png",336,390 C,0,191319,,9,98,198 F,2,191319,191719,1,0 S,2,191319,191719,1.5,0.3 P,0,191319,191719,A
Sprite,Foreground,Centre,"sb\etc\l.png",281,365 C,0,191387,,9,98,198 F,2,191387,191787,1,0 S,2,191387,191787,1.5,0.3 P,0,191387,191787,A
Sprite,Foreground,Centre,"sb\etc\l.png",252,312 C,0,191455,,9,98,198 F,2,191455,191855,1,0 S,2,191455,191855,1.5,0.3 P,0,191455,191855,A
Sprite,Foreground,Centre,"sb\etc\l.png",263,253 C,0,191523,,9,98,198 F,2,191523,191923,1,0 S,2,191523,191923,1.5,0.3 P,0,191523,191923,A
Sprite,Foreground,Centre,"sb\etc\l.png",291,199 C,0,191591,,9,98,198 F,2,191591,191991,1,0 S,2,191591,191991,1.5,0.3 P,0,191591,191991,A
Sprite,Foreground,Centre,"sb\etc\l.png",290,139 C,0,191659,,9,98,198 F,2,191659,192059,1,0 S,2,191659,192059,1.5,0.3 P,0,191659,192059,A
Sprite,Foreground,Centre,"sb\etc\l.png",257,88 C,0,191727,,9,98,198 F,2,191727,192127,1,0 S,2,191727,192127,1.5,0.3 P,0,191727,192127,A
Sprite,Foreground,Centre,"sb\etc\l.png",203,60 C,0,191795,,9,98,198 F,2,191795,192195,1,0 S,2,191795,192195,1.5,0.3 P,0,191795,192195,A
Sprite,Foreground,Centre,"sb\etc\l.png",143,64 C,0,191863,,9,98,198 F,2,191863,192263,1,0 S,2,191863,192263,1.5,0.3 P,0,191863,192263,A
Sprite,Foreground,Centre,"sb\etc\l.png",93,98 C,0,191932,,9,98,198 F,2,191932,192332,1,0 S,2,191932,192332,1.5,0.3 P,0,191932,192332,A
Sprite,Foreground,Centre,"sb\etc\l.png",67,153 C,0,192000,,9,98,198 F,2,192000,192400,1,0 S,2,192000,192400,1.5,0.3 P,0,192000,192400,A
Sprite,Foreground,Centre,"sb\etc\l.png",72,213 C,0,192068,,9,98,198 F,2,192068,192468,1,0 S,2,192068,192468,1.5,0.3 P,0,192068,192468,A
Sprite,Foreground,Centre,"sb\etc\l.png",108,262 C,0,192137,,112,219,211 F,2,192137,192537,1,0 S,2,192137,192537,1.5,0.3 P,0,192137,192537,A
Sprite,Foreground,Centre,"sb\etc\l.png",126,230 C,0,192205,,112,219,211 F,2,192205,192605,1,0 S,2,192205,192605,1.5,0.3 P,0,192205,192605,A
Sprite,Foreground,Centre,"sb\etc\l.png",152,205 C,0,192273,,112,219,211 F,2,192273,192673,1,0 S,2,192273,192673,1.5,0.3 P,0,192273,192673,A
Sprite,Foreground,Centre,"sb\etc\l.png",184,188 C,0,192341,,112,219,211 F,2,192341,192741,1,0 S,2,192341,192741,1.5,0.3 P,0,192341,192741,A
Sprite,Foreground,Centre,"sb\etc\l.png",220,181 C,0,192409,,112,219,211 F,2,192409,192809,1,0 S,2,192409,192809,1.5,0.3 P,0,192409,192809,A
Sprite,Foreground,Centre,"sb\etc\l.png",257,185 C,0,192477,,112,219,211 F,2,192477,192877,1,0 S,2,192477,192877,1.5,0.3 P,0,192477,192877,A
Sprite,Foreground,Centre,"sb\etc\l.png",291,198 C,0,192546,,112,219,211 F,2,192546,192946,1,0 S,2,192546,192946,1.5,0.3 P,0,192546,192946,A
Sprite,Foreground,Centre,"sb\etc\l.png",319,221 C,0,192614,,112,219,211 F,2,192614,193014,1,0 S,2,192614,193014,1.5,0.3 P,0,192614,193014,A
Sprite,Foreground,Centre,"sb\etc\l.png",340,252 C,0,192682,,222,9,76 F,2,192682,193082,1,0 S,2,192682,193082,1.5,0.3 P,0,192682,193082,A
Sprite,Foreground,Centre,"sb\etc\l.png",360,221 C,0,192750,,222,9,76 F,2,192750,193150,1,0 S,2,192750,193150,1.5,0.3 P,0,192750,193150,A
Sprite,Foreground,Centre,"sb\etc\l.png",389,198 C,0,192818,,222,9,76 F,2,192818,193218,1,0 S,2,192818,193218,1.5,0.3 P,0,192818,193218,A
Sprite,Foreground,Centre,"sb\etc\l.png",422,185 C,0,192887,,222,9,76 F,2,192887,193287,1,0 S,2,192887,193287,1.5,0.3 P,0,192887,193287,A
Sprite,Foreground,Centre,"sb\etc\l.png",459,181 C,0,192955,,222,9,76 F,2,192955,193355,1,0 S,2,192955,193355,1.5,0.3 P,0,192955,193355,A
Sprite,Foreground,Centre,"sb\etc\l.png",495,188 C,0,193023,,222,9,76 F,2,193023,193423,1,0 S,2,193023,193423,1.5,0.3 P,0,193023,193423,A
Sprite,Foreground,Centre,"sb\etc\l.png",527,205 C,0,193091,,222,9,76 F,2,193091,193491,1,0 S,2,193091,193491,1.5,0.3 P,0,193091,193491,A
Sprite,Foreground,Centre,"sb\etc\l.png",554,230 C,0,193159,,222,9,76 F,2,193159,193559,1,0 S,2,193159,193559,1.5,0.3 P,0,193159,193559,A
//Storyboard Layer 4 (Overlay)
//Storyboard Sound Samples

[TimingPoints]
137,272.727272727273,4,2,1,30,1,0
137,-243.90243902439,4,2,1,30,0,0
8318,-100,4,2,2,60,0,0
24137,-71.4285714285714,4,2,2,60,0,0
24409,-66.6666666666667,4,2,2,60,0,0
24682,-62.5,4,2,2,60,0,0
24955,-58.8235294117647,4,2,2,60,0,0
25227,-250,4,2,2,60,0,0
25977,-250,4,2,2,5,0,0
26046,-250,4,2,2,60,0,0
26318,-71.4285714285714,4,2,2,70,0,0
35046,-83.3333333333333,4,2,2,65,0,0
51477,-83.3333333333333,4,2,2,5,0,0
51546,-83.3333333333333,4,2,2,65,0,0
52500,-125,4,2,2,75,0,0
54000,-125,4,2,2,5,0,0
54137,-125,4,2,2,75,0,0
56046,-83.3333333333333,4,2,2,70,0,0
56387,-83.3333333333333,4,2,2,5,0,0
56455,-83.3333333333333,4,2,2,70,0,0
56727,-83.3333333333333,4,2,2,5,0,0
56864,-62.5,4,2,2,90,0,1
57068,-62.5,4,2,2,5,0,1
57137,-62.5,4,2,2,90,0,1
59250,-62.5,4,2,2,5,0,1
59318,-62.5,4,2,2,90,0,1
60887,-62.5,4,2,2,5,0,1
60955,-62.5,4,2,2,90,0,1
61432,-62.5,4,2,2,5,0,1
61500,-62.5,4,2,2,90,0,1
64909,-55.5555555555556,4,2,2,90,0,1
65591,-62.5,4,2,2,90,0,1
65796,-62.5,4,2,2,5,0,1
65864,-62.5,4,2,2,90,0,1
67977,-62.5,4,2,2,5,0,1
68046,-62.5,4,2,2,90,0,1
72137,-52.6315789473684,4,2,2,90,0,1
73227,-41.6666666666667,4,2,2,90,0,1
73909,-55.5555555555556,4,2,2,70,0,1
74046,-66.6666666666667,4,2,2,90,0,1
74318,-200,4,2,2,90,0,0
83046,-200,4,2,2,55,0,0
89591,-200,4,2,2,60,0,0
91773,-83.3333333333333,4,2,2,65,0,0
103773,-71.4285714285714,4,2,2,65,0,0
104864,-83.3333333333333,4,2,2,65,0,0
108137,-71.4285714285714,4,2,2,65,0,0
110864,-62.5,4,2,2,70,0,0
111409,-62.5,4,2,2,90,0,1
111614,-62.5,4,2,2,5,0,1
111682,-62.5,4,2,2,90,0,1
113796,-62.5,4,2,2,5,0,1
113864,-62.5,4,2,2,90,0,1
114887,-62.5,4,2,2,5,0,1
114955,-62.5,4,2,2,90,0,1
115432,-62.5,4,2,2,5,0,1
115500,-62.5,4,2,2,90,0,1
115977,-62.5,4,2,2,5,0,1
116046,-62.5,4,2,2,90,0,1
120341,-62.5,4,2,2,5,0,1
120409,-62.5,4,2,2,90,0,1
121432,-62.5,4,2,2,5,0,1
121500,-62.5,4,2,2,90,0,1
122523,-62.5,4,2,2,5,0,1
122591,-62.5,4,2,2,90,0,1
124500,-55.5555555555556,4,2,2,90,0,1
126682,-50,4,2,2,90,0,1
128864,-76.9230769230769,4,2,2,65,0,0
133227,-100,4,2,2,65,0,0
144137,-100,4,2,2,65,0,0
145364,-71.4285714285714,4,2,2,65,0,0
146318,-62.5,4,2,2,85,0,0
147000,-52.6315789473684,4,2,2,85,0,0
147137,-57.1428571428571,4,2,2,85,0,0
148909,-41.6666666666667,4,2,2,85,0,0
149046,-50,4,2,2,85,0,0
149318,-71.4285714285714,4,2,2,85,0,0
149591,-58.8235294117647,4,2,2,85,0,0
150000,-52.6315789473684,4,2,2,85,0,0
150137,-55.5555555555556,4,2,2,85,0,0
150341,-55.5555555555556,4,2,2,5,0,0
150409,-71.4285714285714,4,2,2,85,0,0
150682,-55.5555555555556,4,2,2,85,0,0
150955,-58.8235294117647,4,2,2,85,0,0
151227,-62.5,4,2,2,85,0,0
151500,-66.6666666666667,4,2,2,85,0,0
151773,-62.5,4,2,2,85,0,0
152046,-66.6666666666667,4,2,2,85,0,0
152318,-71.4285714285714,4,2,2,85,0,0
152591,-76.9230769230769,4,2,2,85,0,0
152864,-83.3333333333333,4,2,2,85,0,0
153137,-90.9090909090909,4,2,2,85,0,0
153273,-71.4285714285714,4,2,2,85,0,0
155046,-125,4,2,2,75,0,0
157227,-100,4,2,2,75,0,0
158318,-83.3333333333333,4,2,2,75,0,0
160500,-100,4,2,2,75,0,0
163773,-83.3333333333333,4,2,2,65,0,0
167046,-71.4285714285714,4,2,2,65,0,0
168137,-83.3333333333333,4,2,2,65,0,0
171409,-71.4285714285714,4,2,2,65,0,0
172500,-125,4,2,2,75,0,0
174000,-125,4,2,2,5,0,0
174137,-125,4,2,2,75,0,0
174546,-125,4,2,2,5,0,0
174682,-125,4,2,2,75,0,0
176046,-83.3333333333333,4,2,2,75,0,0
176387,-83.3333333333333,4,2,2,5,0,0
176455,-83.3333333333333,4,2,2,75,0,0
176727,-83.3333333333333,4,2,2,5,0,0
176864,-62.5,4,2,2,90,0,1
177068,-62.5,4,2,2,5,0,1
177137,-62.5,4,2,2,90,0,1
179250,-62.5,4,2,2,5,0,1
179318,-62.5,4,2,2,90,0,1
180887,-62.5,4,2,2,5,0,1
180955,-62.5,4,2,2,90,0,1
181432,-62.5,4,2,2,5,0,1
181500,-62.5,4,2,2,90,0,1
184909,-55.5555555555556,4,2,2,90,0,1
185591,-62.5,4,2,2,90,0,1
185796,-62.5,4,2,2,5,0,1
185864,-62.5,4,2,2,90,0,1
187977,-62.5,4,2,2,5,0,1
188046,-62.5,4,2,2,90,0,1
189955,-55.5555555555556,4,2,2,90,0,1
193227,-45.4545454545455,4,2,2,90,0,0
193296,-45.4545454545455,4,2,2,5,0,0
193637,-45.4545454545455,4,2,2,90,0,0
193705,-45.4545454545455,4,2,2,5,0,0
194046,-45.4545454545455,4,2,2,90,0,0
194114,-45.4545454545455,4,2,2,5,0,0
194455,-45.4545454545455,4,2,2,90,0,0
194591,-58.8235294117647,4,2,2,60,0,0
195000,-58.8235294117647,4,2,2,5,0,0
195137,-33.3333333333333,4,2,2,60,0,0
195273,-33.3333333333333,4,2,2,5,0,0

[Colours]
Combo1 : 5,28,186
Combo2 : 9,98,198
Combo3 : 112,219,211
Combo4 : 222,9,76

[HitObjects]
93,118,137,5,4,3:2:0:0:
93,118,546,1,2,0:0:0:0:
114,238,682,1,12,0:0:0:0:
114,238,955,1,2,0:0:0:0:
16,90,1227,5,4,3:2:0:0:
155,65,1364,1,0,0:0:0:0:
33,100,1500,1,0,0:0:0:0:
143,80,1637,1,0,0:0:0:0:
216,205,1773,5,12,0:0:0:0:
105,185,1910,1,0,0:0:0:0:
202,212,2046,1,0,0:0:0:0:
114,196,2182,1,0,0:0:0:0:
407,143,2318,5,4,3:2:0:0:
407,143,2727,1,2,0:0:0:0:
386,263,2863,1,12,0:0:0:0:
386,263,3136,1,2,0:0:0:0:
483,115,3408,5,6,3:2:0:0:
344,90,3545,1,0,0:0:0:0:
499,130,3681,1,2,0:0:0:0:
324,99,3818,1,0,0:0:0:0:
284,230,3954,5,12,0:0:0:0:
395,210,4091,1,0,0:0:0:0:
298,237,4227,1,2,0:0:0:0:
386,221,4364,1,0,0:0:0:0:
102,157,4500,5,4,3:2:0:0:
102,157,4909,1,2,0:0:0:0:
76,301,5046,1,12,0:0:0:0:
76,301,5318,1,2,0:0:0:0:
177,93,5590,5,4,3:2:0:0:
10,123,5727,1,0,0:0:0:0:
162,111,5863,1,0,0:0:0:0:
30,135,6000,1,0,0:0:0:0:
276,218,6137,5,12,0:0:0:0:
108,189,6274,1,0,0:0:0:0:
255,229,6410,1,0,0:0:0:0:
123,207,6547,1,0,0:0:0:0:
416,154,6682,5,4,3:2:0:0:
416,154,7091,1,2,0:0:0:0:
442,298,7228,1,12,0:0:0:0:
442,298,7500,1,2,0:0:0:0:
341,90,7772,5,4,3:2:0:0:
508,120,7909,1,0,0:0:0:0:
356,108,8045,1,0,0:0:0:0:
488,132,8182,1,0,0:0:0:0:
170,237,8318,6,0,L|106:225,1,42.5,10|0,0:2|3:2,0:0:0:0:
242,168,8455,1,0,3:2:0:0:
244,179,8523,1,0,3:2:0:0:
246,194,8591,1,0,3:2:0:0:
248,206,8659,1,0,3:2:0:0:
250,221,8727,1,0,3:2:0:0:
254,235,8795,1,0,3:2:0:0:
256,248,8864,6,0,L|235:357,1,85,6|0,3:2|3:2,0:0:0:0:
170,237,9137,1,0,3:2:0:0:
170,237,9273,1,2,3:2:0:0:
328,179,9409,2,0,L|348:288,1,85,8|0,3:2|3:2,0:0:0:0:
220,129,9682,1,2,3:2:0:0:
220,129,9750,1,0,3:2:0:0:
220,129,9818,1,0,3:2:0:0:
438,49,9955,5,2,3:2:0:0:
383,114,10091,1,0,3:2:0:0:
383,114,10159,1,0,3:2:0:0:
383,114,10227,1,0,3:2:0:0:
354,33,10364,1,0,3:2:0:0:
467,130,10500,5,10,3:2:0:0:
328,179,10636,1,0,3:2:0:0:
412,195,10773,1,0,3:2:0:0:
299,98,10909,1,0,3:2:0:0:
341,342,11046,6,0,L|355:258,1,85,6|0,3:2|3:2,0:0:0:0:
383,114,11318,1,0,3:2:0:0:
383,114,11455,1,2,3:2:0:0:
258,247,11591,2,0,L|243:163,1,85,8|0,3:2|3:2,0:0:0:0:
216,19,11864,1,2,3:2:0:0:
216,19,11932,1,0,3:2:0:0:
216,19,12000,1,0,3:2:0:0:
51,214,12137,5,2,3:2:0:0:
106,149,12273,1,0,3:2:0:0:
106,149,12341,1,0,3:2:0:0:
106,149,12409,1,2,3:2:0:0:
135,230,12546,1,0,3:2:0:0:
24,134,12682,5,10,3:2:0:0:
21,117,12750,1,0,3:2:0:0:
18,100,12818,1,0,3:2:0:0:
15,83,12886,1,0,3:2:0:0:
12,67,12954,1,2,3:2:0:0:
9,50,13022,1,0,3:2:0:0:
6,33,13091,1,0,3:2:0:0:
3,16,13159,1,0,3:2:0:0:
0,0,13227,6,0,L|110:19,1,85,6|0,3:2|3:2,0:0:0:0:
161,84,13500,1,0,3:2:0:0:
161,84,13637,1,2,3:2:0:0:
22,163,13773,2,0,L|105:149,1,85,8|0,3:2|3:2,0:0:0:0:
216,19,14046,1,2,3:2:0:0:
216,19,14114,1,0,3:2:0:0:
216,19,14182,1,0,3:2:0:0:
220,247,14318,5,2,3:2:0:0:
191,166,14455,1,0,3:2:0:0:
191,166,14523,1,0,3:2:0:0:
191,166,14591,1,0,3:2:0:0:
275,181,14727,1,0,3:2:0:0:
165,313,14864,5,10,3:2:0:0:
304,262,15000,1,0,3:2:0:0:
135,230,15137,1,0,3:2:0:0:
249,328,15273,1,0,3:2:0:0:
329,86,15409,6,0,L|234:102,1,85,6|0,3:2|3:2,0:0:0:0:
135,230,15682,1,0,3:2:0:0:
135,230,15818,1,2,3:2:0:0:
358,195,15955,2,0,L|274:180,1,85,8|0,3:2|3:2,0:0:0:0:
161,84,16227,1,2,3:2:0:0:
161,84,16296,1,0,3:2:0:0:
161,84,16364,1,0,3:2:0:0:
120,314,16500,5,2,3:2:0:0:
135,230,16636,1,0,3:2:0:0:
135,230,16704,1,0,3:2:0:0:
135,230,16772,1,2,3:2:0:0:
200,285,16909,1,0,3:2:0:0:
40,343,17046,5,10,3:2:0:0:
43,322,17114,1,0,3:2:0:0:
47,301,17182,1,0,3:2:0:0:
51,280,17250,1,0,3:2:0:0:
55,259,17318,1,2,3:2:0:0:
58,238,17386,1,0,3:2:0:0:
62,217,17455,1,0,3:2:0:0:
66,196,17523,1,0,3:2:0:0:
70,175,17591,6,0,L|-13:189,1,85,6|0,3:2|3:2,0:0:0:0:
84,91,17864,1,0,3:2:0:0:
84,91,18000,1,2,3:2:0:0:
125,241,18137,2,0,L|208:255,1,85,8|0,3:2|3:2,0:0:0:0:
51,280,18409,1,2,3:2:0:0:
51,280,18477,1,0,3:2:0:0:
51,280,18545,1,0,3:2:0:0:
180,88,18682,5,2,3:2:0:0:
194,171,18818,1,0,3:2:0:0:
194,171,18887,1,0,3:2:0:0:
194,171,18955,1,0,3:2:0:0:
208,255,19091,1,0,3:2:0:0:
175,58,19227,5,10,3:2:0:0:
278,157,19364,1,0,3:2:0:0:
212,284,19500,1,0,3:2:0:0:
111,186,19637,1,0,3:2:0:0:
312,18,19773,6,0,L|398:33,1,85,6|0,3:2|3:2,0:0:0:0:
255,78,20046,1,0,3:2:0:0:
255,78,20182,1,2,3:2:0:0:
446,128,20318,2,0,L|359:143,1,85,8|0,3:2|3:2,0:0:0:0:
479,52,20591,1,2,3:2:0:0:
479,52,20659,1,0,3:2:0:0:
479,52,20727,1,0,3:2:0:0:
348,225,20864,5,2,3:2:0:0:
362,142,21000,1,0,3:2:0:0:
362,142,21069,1,0,3:2:0:0:
362,142,21137,1,2,3:2:0:0:
376,58,21273,1,0,3:2:0:0:
499,199,21409,5,10,3:2:0:0:
473,203,21477,1,0,3:2:0:0:
448,207,21545,1,0,3:2:0:0:
423,212,21613,1,0,3:2:0:0:
398,216,21681,1,2,3:2:0:0:
373,221,21749,1,0,3:2:0:0:
348,225,21818,1,0,3:2:0:0:
323,229,21886,1,0,3:2:0:0:
298,234,21955,6,0,L|279:338,1,85,6|0,3:2|3:2,0:0:0:0:
227,136,22227,1,0,3:2:0:0:
227,136,22364,1,2,3:2:0:0:
181,301,22500,2,0,L|199:405,1,85,8|0,3:2|3:2,0:0:0:0:
110,203,22773,1,2,3:2:0:0:
110,203,22841,1,0,3:2:0:0:
110,203,22909,1,0,3:2:0:0:
326,67,23046,5,2,3:2:0:0:
312,150,23182,1,0,3:2:0:0:
312,150,23251,1,0,3:2:0:0:
312,150,23319,1,0,3:2:0:0:
298,234,23455,1,0,3:2:0:0:
330,37,23591,5,10,3:2:0:0:
227,136,23728,1,0,3:2:0:0:
293,263,23864,1,0,3:2:0:0:
395,165,24001,1,0,3:2:0:0:
156,38,24137,6,0,L|92:49,1,59.4999981842042,10|0,0:2|0:0,0:0:0:0:
168,125,24273,2,0,L|231:136,1,59.4999981842042,10|0,0:2|0:0,0:0:0:0:
147,28,24409,2,0,L|6:52,1,127.500004863739,10|0,3:2|3:0,0:0:0:0:
141,278,24682,6,0,L|210:264,1,68,10|0,3:2|0:0,0:0:0:0:
129,191,24818,2,0,L|60:178,1,68,8|0,0:0|0:0,0:0:0:0:
150,288,24955,2,0,L|299:261,1,144.500002756119,10|0,3:2|3:0,0:0:0:0:
446,36,25227,6,0,L|412:225,1,187,14|0,0:2|0:0,0:0:0:0:
488,288,26046,5,8,0:2:0:0:
439,267,26114,1,0,3:2:0:0:
386,266,26182,1,0,3:2:0:0:
337,286,26250,1,0,3:2:0:0:
299,322,26318,6,0,P|244:345|186:340,1,118.999996368408,6|8,3:2|0:2,0:0:0:0:
127,161,26591,1,0,3:2:0:0:
130,149,26659,1,2,3:2:0:0:
132,137,26727,1,10,0:2:0:0:
67,279,26864,1,0,3:2:0:0:
245,221,27000,1,8,0:2:0:0:
106,47,27137,2,0,B|131:101|131:101|126:160,1,118.999996368408,2|8,3:2|0:2,0:0:0:0:
382,46,27409,6,0,B|357:101|357:101|362:160,1,118.999996368408,2|8,3:2|0:2,0:0:0:0:
423,279,27682,1,0,3:2:0:0:
425,290,27750,1,0,3:2:0:0:
427,302,27818,1,8,0:2:0:0:
429,314,27886,1,0,0:0:0:0:
431,325,27955,2,0,L|304:302,1,118.999996368408,2|8,3:2|0:2,0:0:0:0:
253,135,28227,1,0,3:2:0:0:
251,146,28295,1,0,3:2:0:0:
249,158,28363,1,8,0:2:0:0:
247,170,28431,1,0,0:0:0:0:
245,181,28500,6,0,L|372:158,1,118.999996368408,2|8,3:2|0:2,0:0:0:0:
446,36,28773,1,0,3:2:0:0:
443,24,28841,1,0,3:2:0:0:
441,12,28909,1,10,0:2:0:0:
511,171,29046,1,0,3:2:0:0:
427,294,29182,1,8,0:2:0:0:
245,181,29318,2,0,L|372:158,1,118.999996368408,2|8,3:2|0:2,0:0:0:0:
204,291,29591,6,0,B|145:295|145:295|78:264,1,118.999996368408,2|8,3:2|0:2,0:0:0:0:
227,67,29864,2,0,P|222:125|244:180,1,118.999996368408,2|8,3:2|0:2,0:0:0:0:
304,384,30137,2,0,P|326:329|321:270,1,118.999996368408,2|8,3:2|0:2,0:0:0:0:
475,139,30409,2,0,B|416:134|416:134|361:159,1,118.999996368408,2|8,3:2|0:2,0:0:0:0:
109,46,30682,6,0,L|227:67,1,118.999996368408,6|8,3:2|0:2,0:0:0:0:
321,270,30955,1,0,3:2:0:0:
319,282,31023,1,0,3:2:0:0:
316,294,31091,1,10,0:2:0:0:
361,159,31227,1,0,3:2:0:0:
204,291,31364,1,8,0:2:0:0:
457,366,31500,2,0,L|436:248,1,118.999996368408,2|8,3:2|0:2,0:0:0:0:
205,184,31773,6,0,L|226:66,1,118.999996368408,2|8,3:2|0:2,0:0:0:0:
48,178,32046,1,0,3:2:0:0:
57,185,32114,1,0,3:2:0:0:
67,191,32182,1,8,0:2:0:0:
78,196,32250,1,0,0:0:0:0:
91,201,32318,2,0,P|149:205|204:183,1,118.999996368408,2|8,3:2|0:2,0:0:0:0:
136,25,32591,1,0,3:2:0:0:
134,36,32659,1,0,3:2:0:0:
132,48,32727,1,8,0:2:0:0:
130,60,32795,1,0,0:0:0:0:
128,72,32863,5,2,3:2:0:0:
204,182,33000,1,8,0:2:0:0:
206,194,33068,1,0,3:2:0:0:
209,206,33136,1,0,3:2:0:0:
343,46,33273,2,0,L|225:66,1,118.999996368408,10|0,0:2|3:2,0:0:0:0:
401,192,33546,1,8,0:2:0:0:
446,36,33682,1,2,3:2:0:0:
512,159,33818,1,8,0:2:0:0:
510,171,33886,1,0,0:0:0:0:
507,183,33955,6,0,L|493:261,2,79.3333309122722,0|0|0,3:2|3:2|3:2,0:0:0:0:
402,384,34227,2,0,L|388:305,2,79.3333309122722,2|0|0,3:2|3:2|3:2,0:0:0:0:
305,218,34500,5,2,3:2:0:0:
294,233,34568,1,0,3:2:0:0:
284,247,34636,1,0,3:2:0:0:
277,263,34704,1,0,3:2:0:0:
272,281,34773,1,0,3:2:0:0:
270,299,34840,1,0,3:2:0:0:
271,316,34909,1,0,3:2:0:0:
274,334,34977,1,0,3:2:0:0:
280,351,35046,6,0,B|218:326|218:326|78:351,1,203.999993774414,6|0,3:2|3:2,0:0:0:0:
166,165,35455,2,0,P|166:227|142:268,1,101.999996887207,10|0,0:2|3:2,0:0:0:0:
59,195,35727,2,0,P|58:132|82:91,1,101.999996887207,10|2,0:2|3:2,0:0:0:0:
259,0,36000,6,0,B|316:32|316:32|176:57,1,204.000003890991,10|8,0:2|0:2,0:0:0:0:
59,195,36409,2,0,P|58:132|82:91,1,101.999996887207,2|8,3:2|0:2,0:0:0:0:
239,227,36682,2,0,P|184:259|137:259,1,101.999996887207,2|8,3:2|0:2,0:0:0:0:
179,56,36955,2,0,P|234:86|257:127,1,101.999996887207,2|8,3:2|0:2,0:0:0:0:
330,284,37227,6,0,L|309:402,1,101.999996887207,2|8,3:2|0:2,0:0:0:0:
238,227,37500,1,2,3:2:0:0:
359,91,37637,2,0,B|373:173|373:173|402:201|402:201|416:279,1,203.999993774414,10|8,0:2|0:2,0:0:0:0:
312,384,38046,1,2,3:2:0:0:
314,374,38114,1,0,3:2:0:0:
315,364,38182,1,8,0:2:0:0:
238,227,38318,6,0,L|220:126,1,101.999996887207,2|8,3:2|0:2,0:0:0:0:
433,26,38591,2,0,B|405:68|405:68|345:96,1,101.999996887207,2|8,3:2|0:2,0:0:0:0:
414,261,38864,2,0,B|390:215|390:215|396:150,1,101.999996887207,2|8,3:2|0:2,0:0:0:0:
220,126,39137,2,0,B|270:128|270:128|324:166,1,101.999996887207,2|8,3:2|0:2,0:0:0:0:
144,384,39409,6,0,B|119:322|119:322|143:186,1,203.999993774414,6|0,3:2|3:2,0:0:0:0:
35,54,39818,2,0,P|30:104|50:150,1,101.999996887207,10|0,0:2|3:2,0:0:0:0:
235,221,40091,2,0,P|239:171|219:125,1,101.999996887207,10|2,0:2|3:2,0:0:0:0:
64,305,40364,6,0,P|144:281|250:345,1,203.999993774414,10|8,0:2|0:2,0:0:0:0:
335,204,40773,2,0,L|234:221,1,101.999996887207,2|8,3:2|0:2,0:0:0:0:
404,279,41046,2,0,P|431:236|435:186,1,101.999996887207,2|8,3:2|0:2,0:0:0:0:
266,129,41318,2,0,P|238:171|234:221,1,101.999996887207,2|8,3:2|0:2,0:0:0:0:
337,367,41591,6,0,P|294:339|244:335,1,101.999996887207,2|8,3:2|0:2,0:0:0:0:
435,186,41864,2,0,L|472:400,1,203.999993774414,2|0,3:2|3:2,0:0:0:0:
335,204,42273,1,8,0:2:0:0:
489,90,42409,1,2,3:2:0:0:
499,92,42477,1,0,3:2:0:0:
509,93,42545,1,8,0:2:0:0:
299,0,42682,6,0,L|309:58,1,50.9999984436036,4|0,3:2|3:2,0:0:0:0:
398,70,42818,2,0,L|387:128,1,50.9999984436036,4|0,3:2|3:2,0:0:0:0:
289,12,42955,2,0,L|299:70,1,50.9999984436036,6|0,3:2|3:2,0:0:0:0:
408,82,43091,2,0,L|397:140,1,50.9999984436036,4|0,3:2|3:2,0:0:0:0:
335,204,43227,6,0,L|345:262,1,50.9999984436036,6|0,3:2|3:2,0:0:0:0:
434,274,43363,2,0,L|423:332,1,50.9999984436036,4|0,3:2|3:2,0:0:0:0:
325,216,43500,2,0,L|335:274,1,50.9999984436036,6|0,3:2|3:2,0:0:0:0:
444,286,43636,2,0,L|433:344,1,50.9999984436036,4|0,3:2|3:2,0:0:0:0:
251,384,43773,6,0,L|215:183,1,203.999993774414,6|0,3:2|3:2,0:0:0:0:
15,283,44182,2,0,P|3:343|18:388,1,101.999996887207,10|0,0:2|3:2,0:0:0:0:
112,331,44454,2,0,P|125:269|109:224,1,101.999996887207,10|2,0:2|3:2,0:0:0:0:
51,107,44727,6,0,B|149:129|143:48|245:71,1,203.999993774414,10|8,0:2|0:2,0:0:0:0:
278,258,45137,2,0,P|237:228|214:182,1,101.999996887207,2|8,3:2|0:2,0:0:0:0:
360,60,45409,2,0,P|354:110|326:152,1,101.999996887207,2|8,3:2|0:2,0:0:0:0:
148,88,45682,2,0,P|194:67|244:70,1,101.999996887207,2|8,3:2|0:2,0:0:0:0:
393,246,45955,6,0,L|412:356,1,101.999996887207,2|8,3:2|0:2,0:0:0:0:
278,258,46227,1,0,3:2:0:0:
420,126,46364,2,0,B|462:175|462:175|326:151,1,204.000003890991,10|8,0:2|0:2,0:0:0:0:
258,261,46773,1,2,3:2:0:0:
268,260,46841,1,0,3:2:0:0:
278,258,46909,1,8,0:2:0:0:
176,177,47046,6,0,P|147:218|141:268,1,101.999996887207,2|8,3:2|0:2,0:0:0:0:
320,336,47318,2,0,P|298:290|257:260,1,101.999996887207,2|8,3:2|0:2,0:0:0:0:
111,382,47591,2,0,P|161:386|207:366,1,101.999996887207,2|8,3:2|0:2,0:0:0:0:
176,177,47864,2,0,P|147:218|141:268,1,101.999996887207,2|8,3:2|0:2,0:0:0:0:
373,166,48137,6,0,B|293:179|293:179|257:162|257:162|175:176,1,203.999993774414,6|0,3:2|3:2,0:0:0:0:
9,82,48545,2,0,L|109:99,1,101.999996887207,10|0,0:2|3:2,0:0:0:0:
140,268,48818,2,0,L|39:250,1,101.999996887207,10|2,0:2|3:2,0:0:0:0:
0,67,49091,6,0,B|135:91|135:91|197:66,1,203.999993774414,10|8,0:2|0:2,0:0:0:0:
373,166,49500,2,0,L|353:55,1,101.999996887207,2|8,3:2|0:2,0:0:0:0:
174,175,49773,2,0,B|224:169|224:169|283:198,1,101.999996887207,2|8,3:2|0:2,0:0:0:0:
440,248,50046,2,0,B|394:270|394:270|343:265,1,101.999996887207,2|8,3:2|0:2,0:0:0:0:
222,374,50318,6,0,L|202:263,1,101.999996887207,2|8,3:2|0:2,0:0:0:0:
72,81,50591,2,0,B|59:161|59:161|76:197|76:197|62:279,1,203.999993774414,2|2,3:2|3:2,0:0:0:0:
197,66,51000,1,8,0:2:0:0:
291,196,51137,1,2,3:2:0:0:
281,195,51205,1,0,3:2:0:0:
271,193,51273,1,8,0:2:0:0:
401,3,51409,6,0,L|413:73,1,50.9999984436036,6|0,3:2|0:0,0:0:0:0:
512,143,51546,1,8,0:2:0:0:
504,183,51614,1,8,0:2:0:0:
497,223,51682,1,10,0:2:0:0:
490,263,51750,1,8,0:2:0:0:
483,303,51818,1,8,0:2:0:0:
476,343,51886,1,8,0:2:0:0:
469,384,51955,5,2,3:2:0:0:
465,363,52023,1,0,3:2:0:0:
461,343,52091,1,0,3:2:0:0:
458,323,52159,1,0,3:2:0:0:
443,308,52227,5,4,0:2:0:0:
439,287,52295,1,4,0:2:0:0:
435,267,52363,1,4,0:2:0:0:
432,247,52431,1,4,0:2:0:0:
429,227,52500,6,0,B|329:249|335:169|234:192,2,204,6|2|2,0:2|0:2|0:2,0:0:0:0:
178,272,53591,6,0,B|210:329|210:329|235:189,1,204.000003890991,2|0,0:2|0:0,0:0:0:0:
396,128,54137,1,2,0:2:0:0:
396,128,54273,1,2,0:2:0:0:
271,12,54409,2,0,L|286:98,1,68,2|0,0:2|0:0,0:0:0:0:
234,192,54682,1,2,3:2:0:0:
0,67,54955,5,8,0:2:0:0:
33,72,55023,1,8,0:2:0:0:
66,78,55091,1,8,0:2:0:0:
100,84,55159,1,8,0:2:0:0:
133,90,55227,2,0,L|124:42,3,34,0|0|0|0,3:2|3:2|3:2|3:2,0:0:0:0:
234,192,55500,5,8,0:2:0:0:
267,187,55568,1,8,0:2:0:0:
300,181,55636,1,8,0:2:0:0:
334,175,55704,1,8,0:2:0:0:
367,169,55772,5,2,3:2:0:0:
368,162,55840,1,0,3:2:0:0:
369,155,55908,1,0,3:2:0:0:
370,148,55976,1,0,3:2:0:0:
371,142,56046,2,0,L|383:71,1,50.9999984436036,10|0,0:2|0:0,0:0:0:0:
242,242,56182,1,0,3:2:0:0:
242,242,56250,1,0,3:2:0:0:
242,242,56318,2,0,L|229:171,1,50.9999984436036,10|0,0:2|0:0,0:0:0:0:
109,156,56455,1,0,3:2:0:0:
109,156,56523,1,0,3:2:0:0:
109,156,56591,2,0,L|130:34,1,101.999996887207,10|0,0:2|0:0,0:0:0:0:
0,340,56864,6,0,B|60:315|60:315|197:340,1,204,6|0,3:2|0:0,0:0:0:0:
314,384,57137,2,0,L|460:356,1,136,2|10,3:2|0:2,0:0:0:0:
354,65,57409,5,2,3:2:0:0:
196,339,57546,1,10,0:2:0:0:
226,112,57682,5,2,3:2:0:0:
314,384,57818,1,10,0:2:0:0:
508,198,57955,6,0,B|404:216|404:216|355:192|355:192|244:212,1,272,2|0,3:2|3:2,0:0:0:0:
144,22,58364,2,0,P|205:-6|272:0,1,136,10|0,0:2|3:2,0:0:0:0:
335,288,58637,5,10,0:2:0:0:
226,112,58773,1,2,3:2:0:0:
196,339,58909,1,10,0:2:0:0:
354,65,59046,6,0,B|491:40|491:40|454:100,1,204,2|0,3:2|0:0,0:0:0:0:
394,200,59318,2,0,P|474:217|529:193,1,136,2|10,3:2|0:2,0:0:0:0:
354,65,59591,5,2,3:2:0:0:
196,339,59727,1,10,0:2:0:0:
226,112,59864,5,2,3:2:0:0:
335,288,60000,1,10,0:2:0:0:
73,384,60137,6,0,B|27:340|27:340|40:251|40:251|48:244|48:244|68:138,1,272,2|0,3:2|3:2,0:0:0:0:
307,202,60546,2,0,B|248:236|248:236|181:223,1,136,10|0,0:2|3:2,0:0:0:0:
214,45,60818,2,0,L|226:115,1,68,10|0,0:2|0:0,0:0:0:0:
252,263,60955,5,2,3:2:0:0:
248,281,61023,1,0,3:2:0:0:
245,299,61091,1,0,3:2:0:0:
242,317,61159,1,0,3:2:0:0:
239,335,61227,6,0,P|324:386|422:366,1,204,6|0,3:2|0:0,0:0:0:0:
507,267,61500,2,0,P|446:239|379:245,1,136,2|8,3:2|0:2,0:0:0:0:
214,45,61773,5,2,3:2:0:0:
112,300,61909,1,10,0:2:0:0:
73,0,62046,5,2,3:2:0:0:
239,335,62182,1,10,0:2:0:0:
491,40,62318,5,2,3:2:0:0:
229,184,62455,1,10,0:2:0:0:
507,267,62591,1,2,3:2:0:0:
214,45,62727,5,10,0:2:0:0:
239,335,62864,1,2,3:2:0:0:
360,112,63000,1,10,0:2:0:0:
115,266,63137,5,2,3:2:0:0:
330,384,63273,1,8,0:2:0:0:
214,45,63409,5,6,3:2:0:0:
194,49,63478,1,0,3:2:0:0:
174,52,63546,1,10,3:2:0:0:
154,56,63614,1,8,3:2:0:0:
134,59,63682,1,10,3:2:0:0:
114,63,63750,1,8,3:2:0:0:
94,67,63818,2,0,L|23:54,1,68,10|8,3:2|3:2,0:0:0:0:
92,168,63955,5,2,3:2:0:0:
98,169,64023,1,0,3:2:0:0:
105,170,64091,1,2,3:2:0:0:
112,171,64159,1,0,3:2:0:0:
118,172,64227,1,10,3:2:0:0:
125,173,64295,1,8,3:2:0:0:
131,174,64364,2,0,L|201:161,1,68,10|8,3:2|3:2,0:0:0:0:
338,12,64500,5,6,3:2:0:0:
281,54,64568,1,2,3:2:0:0:
254,119,64636,1,2,3:2:0:0:
265,189,64704,1,2,3:2:0:0:
309,243,64772,1,0,3:2:0:0:
376,267,64840,1,2,3:2:0:0:
445,253,64909,6,0,L|459:171,1,76.4999976654053,2|2,3:2|3:2,0:0:0:0:
337,11,65046,2,0,L|351:87,1,76.4999976654053,2|2,3:2|3:2,0:0:0:0:
295,318,65182,2,0,L|309:236,1,76.4999976654053,2|2,3:2|3:2,0:0:0:0:
184,87,65319,2,0,L|198:163,1,76.4999976654053,0|10,3:2|3:2,0:0:0:0:
98,317,65455,1,10,3:2:0:0:
98,317,65523,1,10,3:2:0:0:
98,317,65591,6,0,B|158:342|158:342|295:317,1,204,6|0,3:2|0:0,0:0:0:0:
445,253,65864,2,0,L|420:393,1,136,2|8,3:2|0:2,0:0:0:0:
198,163,66137,5,2,3:2:0:0:
466,8,66274,1,10,0:2:0:0:
244,37,66410,5,2,3:2:0:0:
510,123,66546,1,10,0:2:0:0:
294,317,66682,6,0,B|111:351|111:351|31:317,1,272,2|0,3:2|3:2,0:0:0:0:
89,117,67091,2,0,L|115:266,1,136,10|0,0:2|3:2,0:0:0:0:
386,85,67364,5,10,0:2:0:0:
294,317,67500,1,2,3:2:0:0:
244,37,67637,1,10,0:2:0:0:
491,306,67773,6,0,B|412:319|412:319|375:301|375:301|292:316,1,204,2|0,3:2|0:0,0:0:0:0:
200,234,68046,2,0,P|170:294|178:361,1,136,2|8,3:2|0:2,0:0:0:0:
318,195,68318,5,2,3:2:0:0:
38,66,68455,1,10,0:2:0:0:
112,250,68591,5,2,3:2:0:0:
244,37,68727,1,10,0:2:0:0:
401,384,68864,6,0,B|447:340|447:340|434:251|434:251|426:244|426:244|406:138,1,272,2|0,3:2|3:2,0:0:0:0:
234,282,69273,2,0,B|293:316|293:316|360:303,1,136,10|0,0:2|3:2,0:0:0:0:
473,149,69546,2,0,L|405:137,1,68,10|0,0:2|0:0,0:0:0:0:
244,37,69682,5,2,3:2:0:0:
241,55,69751,1,0,3:2:0:0:
238,73,69819,1,0,3:2:0:0:
235,91,69887,1,0,3:2:0:0:
231,109,69955,5,14,0:2:0:0:
294,316,70091,1,0,3:2:0:0:
325,87,70227,5,10,0:2:0:0:
200,338,70364,1,0,3:2:0:0:
165,39,70500,5,10,0:2:0:0:
294,316,70637,1,2,3:2:0:0:
353,0,70773,5,10,0:2:0:0:
228,246,70909,1,2,3:2:0:0:
71,17,71046,5,10,0:2:0:0:
391,157,71182,1,2,3:2:0:0:
99,110,71318,5,10,0:2:0:0:
353,0,71454,1,2,3:2:0:0:
228,246,71591,5,10,0:2:0:0:
165,39,71727,1,2,3:2:0:0:
200,338,71864,5,10,0:2:0:0:
325,87,72000,1,0,3:2:0:0:
478,295,72137,5,6,3:2:0:0:
431,246,72205,1,0,3:2:0:0:
365,226,72273,1,2,3:2:0:0:
299,243,72341,1,0,3:2:0:0:
249,290,72409,1,2,3:2:0:0:
200,338,72477,1,0,3:2:0:0:
134,354,72545,1,2,3:2:0:0:
67,335,72613,1,0,3:2:0:0:
20,286,72682,5,2,3:2:0:0:
69,238,72750,1,0,3:2:0:0:
135,222,72818,1,2,3:2:0:0:
202,241,72886,1,0,3:2:0:0:
249,290,72955,5,2,3:2:0:0:
247,305,73023,1,0,3:2:0:0:
244,321,73091,1,2,3:2:0:0:
241,337,73159,1,0,3:2:0:0:
238,353,73227,6,0,L|221:252,1,101.999996887207,10|8,0:2|0:2,0:0:0:0:
122,140,73364,2,0,L|223:122,1,101.999996887207,8|8,0:2|0:2,0:0:0:0:
335,24,73500,2,0,L|353:124,1,101.999996887207,8|8,3:2|0:2,0:0:0:0:
451,237,73637,2,0,L|351:254,1,101.999996887207,10|8,0:2|0:2,0:0:0:0:
238,353,73773,5,10,3:2:0:0:
238,353,73841,1,8,3:2:0:0:
238,353,73909,2,0,P|197:339|145:344,1,76.4999976654053,4|4,0:3|0:3,0:0:0:0:
121,263,74046,2,0,P|91:271|64:287,1,63.7500024318696,4|4,0:3|0:3,0:0:0:0:
21,371,74182,1,4,0:3:0:0:
21,371,74250,1,4,0:3:0:0:
21,371,74318,5,6,0:2:0:0:
194,162,83046,5,6,3:2:0:0:
194,162,83114,1,0,3:2:0:0:
194,162,83182,1,0,3:2:0:0:
289,253,83318,1,0,3:2:0:0:
266,124,83455,1,2,3:2:0:0:
208,242,83591,1,8,3:2:0:0:
208,242,83659,1,0,3:2:0:0:
208,242,83727,1,0,3:2:0:0:
324,180,83864,1,2,3:2:0:0:
324,180,83932,1,0,3:2:0:0:
324,180,84000,1,0,3:2:0:0:
340,177,85227,5,6,3:2:0:0:
340,177,85295,1,0,3:2:0:0:
340,177,85363,1,0,3:2:0:0:
197,253,85500,1,0,3:2:0:0:
268,108,85637,1,2,3:2:0:0:
296,267,85773,1,8,3:2:0:0:
296,267,85841,1,0,3:2:0:0:
296,267,85909,1,0,3:2:0:0:
180,155,86046,1,2,3:2:0:0:
180,155,86113,1,0,3:2:0:0:
180,155,86181,1,0,3:2:0:0:
151,141,87409,5,6,3:2:0:0:
151,141,87477,1,0,3:2:0:0:
151,141,87545,1,0,3:2:0:0:
311,295,87681,1,0,3:2:0:0:
273,76,87818,1,2,3:2:0:0:
175,276,87954,1,8,3:2:0:0:
175,276,88022,1,0,3:2:0:0:
175,276,88090,1,0,3:2:0:0:
371,172,88227,1,2,3:2:0:0:
371,172,88295,1,0,3:2:0:0:
371,172,88363,1,0,3:2:0:0:
408,165,89591,5,8,3:2:0:0:
408,165,89659,1,8,3:2:0:0:
408,165,89727,1,8,3:2:0:0:
149,303,89864,1,8,3:2:0:0:
278,39,90000,1,8,3:2:0:0:
329,328,90137,1,8,3:2:0:0:
329,328,90205,1,8,3:2:0:0:
329,328,90273,1,8,3:2:0:0:
118,124,90409,1,8,3:2:0:0:
118,124,90477,1,8,3:2:0:0:
118,124,90545,1,8,3:2:0:0:
413,29,90682,5,4,3:2:0:0:
413,29,91500,1,8,0:2:0:0:
408,54,91568,1,0,3:2:0:0:
410,80,91636,1,0,3:2:0:0:
417,105,91704,1,0,3:2:0:0:
431,128,91773,6,0,B|329:105|335:186|237:164,1,203.999993774414,6|0,3:2|3:2,0:0:0:0:
205,0,92182,2,0,P|245:30|269:74,1,101.999996887207,10|0,0:2|3:2,0:0:0:0:
142,183,92455,2,0,P|148:132|174:89,1,101.999996887207,10|2,0:2|3:2,0:0:0:0:
208,253,92727,6,0,B|146:278|146:278|6:253,1,203.999993774414,10|8,0:2|0:2,0:0:0:0:
109,89,93137,2,0,P|135:132|141:182,1,101.999996887207,2|8,3:2|0:2,0:0:0:0:
143,328,93409,2,0,P|167:283|207:253,1,101.999996887207,2|8,3:2|0:2,0:0:0:0:
333,179,93682,2,0,P|282:180|235:160,1,101.999996887207,2|8,3:2|0:2,0:0:0:0:
109,89,93955,6,0,B|156:44|156:44|141:186,1,203.999993774414,2|0,3:2|3:2,0:0:0:0:
25,324,94364,2,0,B|106:309|106:309|143:326|143:326|222:313,1,203.999993774414,10|8,0:2|0:2,0:0:0:0:
333,179,94773,1,2,3:2:0:0:
332,189,94841,1,0,3:2:0:0:
330,199,94909,1,8,0:2:0:0:
423,384,95046,6,0,L|405:283,1,101.999996887207,2|8,3:2|0:2,0:0:0:0:
423,80,95318,2,0,B|445:125|445:125|440:176,1,101.999996887207,2|8,3:2|0:2,0:0:0:0:
273,58,95591,2,0,B|301:16|301:16|347:-4,1,101.999996887207,2|8,3:2|0:2,0:0:0:0:
330,199,95864,2,0,B|279:195|279:195|237:165,1,101.999996887207,2|8,3:2|0:2,0:0:0:0:
138,0,96137,6,0,B|163:62|163:62|138:202,1,203.999993774414,6|0,3:2|3:2,0:0:0:0:
0,317,96546,2,0,P|45:295|96:298,1,101.999996887207,10|0,0:2|3:2,0:0:0:0:
138,197,96818,2,0,P|179:226|201:271,1,101.999996887207,10|2,0:2|3:2,0:0:0:0:
369,364,97091,6,0,B|289:377|289:377|253:360|253:360|171:374,1,203.999993774414,10|8,0:2|0:2,0:0:0:0:
307,287,97500,2,0,L|409:268,1,101.999996887207,2|8,3:2|0:2,0:0:0:0:
507,251,97774,2,0,P|485:205|445:174,1,101.999996887207,2|8,3:2|0:2,0:0:0:0:
307,287,98046,2,0,P|328:332|368:363,1,101.999996887207,2|8,3:2|0:2,0:0:0:0:
345,192,98318,6,0,L|242:210,1,101.999996887207,2|8,3:2|0:2,0:0:0:0:
156,314,98591,2,0,P|209:230|187:133,1,203.999993774414,2|0,3:2|3:2,0:0:0:0:
82,209,99000,1,8,0:2:0:0:
253,360,99137,1,2,3:2:0:0:
350,216,99273,1,8,0:2:0:0:
348,204,99341,1,0,0:0:0:0:
345,192,99410,6,0,L|331:114,2,67.9999979248048,10|0|0,3:2|0:0|0:0,0:0:0:0:
435,317,99682,2,0,L|422:383,2,67.9999979248048,8|0|0,3:2|0:0|0:0,0:0:0:0:
498,186,99955,5,8,3:2:0:0:
482,197,100023,1,8,3:2:0:0:
464,207,100091,1,8,3:2:0:0:
444,214,100160,1,8,3:2:0:0:
423,217,100228,1,8,3:2:0:0:
402,216,100296,1,8,3:2:0:0:
382,211,100364,1,8,3:2:0:0:
363,203,100432,1,8,3:2:0:0:
345,192,100500,5,6,3:2:0:0:
358,228,100568,1,0,3:2:0:0:
355,269,100636,1,0,3:2:0:0:
334,302,100704,1,0,3:2:0:0:
299,323,100772,1,0,3:2:0:0:
258,326,100840,1,0,3:2:0:0:
221,310,100909,1,2,3:2:0:0:
195,278,100977,1,0,3:2:0:0:
187,239,101045,1,8,3:2:0:0:
197,200,101113,1,0,3:2:0:0:
224,169,101182,1,0,3:2:0:0:
247,136,101250,1,0,3:2:0:0:
252,96,101318,1,2,3:2:0:0:
240,58,101386,1,0,3:2:0:0:
211,29,101454,1,0,3:2:0:0:
173,16,101522,1,0,3:2:0:0:
133,22,101591,1,2,3:2:0:0:
100,46,101659,1,0,3:2:0:0:
81,81,101727,1,0,3:2:0:0:
82,122,101795,1,0,3:2:0:0:
99,158,101863,1,2,3:2:0:0:
131,183,101932,1,0,3:2:0:0:
166,203,102000,1,0,3:2:0:0:
187,237,102068,1,0,3:2:0:0:
192,276,102136,1,10,3:2:0:0:
177,314,102204,1,0,3:2:0:0:
148,342,102273,1,0,3:2:0:0:
108,351,102341,1,0,3:2:0:0:
68,344,102409,1,2,3:2:0:0:
36,318,102477,1,0,3:2:0:0:
18,281,102545,1,0,3:2:0:0:
19,241,102613,1,0,3:2:0:0:
37,206,102682,5,14,3:2:0:0:
80,164,102750,1,0,3:2:0:0:
139,148,102818,1,0,3:2:0:0:
198,163,102886,1,0,3:2:0:0:
242,204,102954,1,0,3:2:0:0:
261,262,103023,1,0,3:2:0:0:
277,320,103091,1,14,3:2:0:0:
319,363,103159,1,0,3:2:0:0:
377,382,103227,1,0,3:2:0:0:
436,372,103296,1,0,3:2:0:0:
484,334,103364,1,0,3:2:0:0:
507,278,103432,1,0,3:2:0:0:
502,218,103500,1,14,3:2:0:0:
468,167,103568,1,0,3:2:0:0:
415,139,103636,1,0,3:2:0:0:
354,139,103705,1,0,3:2:0:0:
300,167,103773,6,0,L|311:109,3,59.4999981842042,14|0|0|0,3:2|3:2|3:2|3:2,0:0:0:0:
383,259,104046,2,0,L|393:317,3,59.4999981842042,14|0|0|0,3:2|3:2|3:2|3:2,0:0:0:0:
268,287,104318,2,0,L|209:276,3,59.4999981842042,14|0|0|0,3:2|3:2|3:2|3:2,0:0:0:0:
415,139,104591,2,0,L|473:128,3,59.4999981842042,14|0|0|0,3:2|3:2|3:2|3:2,0:0:0:0:
312,44,104864,5,6,3:2:0:0:
276,31,104932,1,0,3:2:0:0:
235,34,105000,1,0,3:2:0:0:
202,55,105068,1,0,3:2:0:0:
181,90,105136,1,0,3:2:0:0:
178,131,105204,1,0,3:2:0:0:
194,168,105273,1,2,3:2:0:0:
226,194,105341,1,0,3:2:0:0:
265,202,105409,1,8,3:2:0:0:
304,209,105477,1,0,3:2:0:0:
336,235,105545,1,0,3:2:0:0:
352,272,105613,1,0,3:2:0:0:
350,312,105681,1,2,3:2:0:0:
329,347,105749,1,0,3:2:0:0:
295,368,105818,1,0,3:2:0:0:
255,372,105886,1,0,3:2:0:0:
218,356,105954,1,2,3:2:0:0:
191,325,106022,1,0,3:2:0:0:
182,286,106090,1,0,3:2:0:0:
192,247,106159,1,0,3:2:0:0:
219,217,106227,1,2,3:2:0:0:
258,202,106296,1,0,3:2:0:0:
298,207,106364,1,0,3:2:0:0:
330,231,106432,1,0,3:2:0:0:
364,252,106500,1,10,3:2:0:0:
404,256,106568,1,0,3:2:0:0:
441,241,106636,1,0,3:2:0:0:
468,211,106704,1,0,3:2:0:0:
478,172,106772,1,2,3:2:0:0:
469,133,106841,1,0,3:2:0:0:
443,102,106909,1,0,3:2:0:0:
406,86,106977,1,0,3:2:0:0:
366,88,107046,5,14,3:2:0:0:
317,122,107114,1,0,3:2:0:0:
303,180,107182,1,0,3:2:0:0:
330,231,107250,1,0,3:2:0:0:
347,288,107318,1,0,3:2:0:0:
328,345,107386,1,0,3:2:0:0:
278,379,107454,1,14,3:2:0:0:
218,377,107522,1,0,3:2:0:0:
171,339,107590,1,0,3:2:0:0:
155,281,107659,1,0,3:2:0:0:
177,225,107727,1,0,3:2:0:0:
203,171,107795,1,0,3:2:0:0:
193,111,107863,1,14,3:2:0:0:
150,69,107931,1,0,3:2:0:0:
91,61,107999,1,0,3:2:0:0:
38,89,108067,1,0,3:2:0:0:
11,143,108137,6,0,L|105:159,1,59.4999981842042,12|8,3:2|3:2,0:0:0:0:
97,291,108273,2,0,L|155:280,1,59.4999981842042,8|8,0:2|0:2,0:0:0:0:
203,171,108409,2,0,L|261:181,1,59.4999981842042,10|8,0:2|0:2,0:0:0:0:
288,262,108546,2,0,L|347:252,1,59.4999981842042,8|8,0:2|0:2,0:0:0:0:
395,199,108682,5,2,3:2:0:0:
411,201,108750,1,0,3:2:0:0:
428,204,108818,1,0,3:2:0:0:
445,207,108886,1,0,3:2:0:0:
479,233,108955,5,2,3:2:0:0:
487,231,109023,1,0,3:2:0:0:
495,229,109091,1,0,3:2:0:0:
504,228,109159,1,0,3:2:0:0:
512,226,109227,1,4,0:2:0:0:
39,14,110864,6,0,L|25:92,1,68,2|0,3:2|3:2,0:0:0:0:
154,128,111000,2,0,L|142:61,1,68,0|0,3:2|3:2,0:0:0:0:
29,0,111137,2,0,L|15:78,1,68,2|0,3:2|3:2,0:0:0:0:
168,137,111273,2,0,L|154:58,1,68,0|0,3:2|3:2,0:0:0:0:
0,206,111409,6,0,B|101:183|95:263|196:240,1,204,6|0,3:2|0:0,0:0:0:0:
272,167,111682,2,0,P|301:229|281:304,1,136,2|8,3:2|0:2,0:0:0:0:
128,52,111955,5,2,3:2:0:0:
434,176,112091,1,10,0:2:0:0:
182,146,112227,5,2,3:2:0:0:
383,46,112364,1,10,0:2:0:0:
479,311,112500,6,0,B|368:329|368:329|330:368|330:368|227:386,1,272,2|0,3:2|3:2,0:0:0:0:
60,216,112909,2,0,L|193:239,1,136,10|0,0:2|3:2,0:0:0:0:
383,46,113182,5,10,0:2:0:0:
182,146,113318,1,2,3:2:0:0:
434,176,113455,1,10,0:2:0:0:
114,43,113591,6,0,B|42:13|42:13|67:160,1,204,2|0,3:2|0:0,0:0:0:0:
125,244,113864,2,0,L|99:385,1,136,2|8,3:2|0:2,0:0:0:0:
282,95,114137,5,2,3:2:0:0:
374,384,114273,1,10,0:2:0:0:
434,176,114409,5,2,3:2:0:0:
229,331,114546,1,10,0:2:0:0:
85,95,114682,6,0,B|145:70|145:70|282:95,1,204,2|0,3:2|0:0,0:0:0:0:
316,211,114955,1,0,3:2:0:0:
512,95,115091,2,0,P|452:64|385:73,1,136,10|0,0:2|3:2,0:0:0:0:
468,263,115364,2,0,L|549:248,1,68,10|0,0:2|0:0,0:0:0:0:
388,312,115500,5,2,3:2:0:0:
384,330,115568,1,0,3:2:0:0:
381,348,115636,1,0,3:2:0:0:
378,366,115704,1,0,3:2:0:0:
374,384,115773,6,0,B|314:359|314:359|177:384,1,204,6|0,3:2|0:0,0:0:0:0:
145,281,116046,2,0,P|90:318|69:382,1,136,2|8,3:2|0:2,0:0:0:0:
316,211,116318,5,2,3:2:0:0:
85,95,116455,1,10,0:2:0:0:
445,53,116591,5,2,3:2:0:0:
145,281,116727,1,10,0:2:0:0:
280,0,116864,5,2,3:2:0:0:
388,312,117000,1,8,0:2:0:0:
182,146,117137,1,2,3:2:0:0:
512,202,117273,5,10,0:2:0:0:
181,382,117409,1,2,3:2:0:0:
281,94,117546,1,8,0:2:0:0:
388,312,117682,5,2,3:2:0:0:
96,195,117818,1,8,0:2:0:0:
445,53,117955,5,2,3:2:0:0:
445,53,118023,1,0,3:2:0:0:
445,53,118091,2,0,L|431:131,1,68,10|8,3:2|3:2,0:0:0:0:
388,312,118227,1,10,3:2:0:0:
388,312,118295,1,8,3:2:0:0:
388,312,118363,2,0,L|374:233,1,68,10|8,3:2|3:2,0:0:0:0:
281,94,118500,1,2,3:2:0:0:
281,94,118568,1,0,3:2:0:0:
281,94,118636,2,0,L|267:172,1,68,2|0,3:2|3:2,0:0:0:0:
169,280,118773,5,10,3:2:0:0:
172,298,118841,1,8,3:2:0:0:
175,316,118909,1,10,3:2:0:0:
178,334,118977,1,8,3:2:0:0:
181,351,119046,5,6,3:2:0:0:
114,381,119114,1,0,3:2:0:0:
43,363,119182,1,0,3:2:0:0:
0,303,119250,1,0,3:2:0:0:
5,230,119318,1,2,3:2:0:0:
55,177,119386,1,2,3:2:0:0:
128,167,119455,1,2,3:2:0:0:
190,206,119523,1,2,3:2:0:0:
252,245,119591,1,2,3:2:0:0:
325,235,119660,1,2,3:2:0:0:
375,182,119727,1,2,3:2:0:0:
379,107,119795,1,2,3:2:0:0:
334,47,119864,1,0,3:2:0:0:
262,30,119931,1,2,3:2:0:0:
195,64,120000,1,2,3:2:0:0:
166,133,120067,1,2,3:2:0:0:
190,206,120137,6,0,P|281:158|387:192,1,204,6|0,3:2|0:0,0:0:0:0:
459,281,120409,2,0,P|397:309|330:302,1,136,2|8,3:2|0:2,0:0:0:0:
195,64,120682,5,2,3:2:0:0:
112,334,120818,1,10,0:2:0:0:
83,109,120955,5,2,3:2:0:0:
224,289,121091,1,10,0:2:0:0:
391,63,121227,6,0,B|331:88|331:88|194:63,1,204,2|0,3:2|0:0,0:0:0:0:
83,109,121500,1,0,3:2:0:0:
224,289,121637,2,0,L|204:145,1,136,10|0,0:2|3:2,0:0:0:0:
112,334,121909,5,10,0:2:0:0:
325,235,122046,1,2,3:2:0:0:
83,109,122182,1,10,0:2:0:0:
322,350,122318,6,0,P|402:321|425:180,1,204,2|0,3:2|0:0,0:0:0:0:
376,118,122591,2,0,P|332:168|325:235,1,136,2|8,3:2|0:2,0:0:0:0:
208,61,122864,5,2,3:2:0:0:
322,350,123000,1,10,0:2:0:0:
376,118,123137,5,2,3:2:0:0:
224,289,123273,1,10,0:2:0:0:
49,59,123409,6,0,B|159:37|159:37|208:61|208:61|311:43,1,272,2|0,3:2|3:2,0:0:0:0:
458,258,123818,2,0,L|324:234,1,136,10|0,0:2|3:2,0:0:0:0:
159,198,124091,2,0,L|147:131,1,68,10|0,0:2|0:0,0:0:0:0:
91,270,124227,5,2,3:2:0:0:
87,288,124295,1,0,3:2:0:0:
84,306,124363,1,0,3:2:0:0:
81,323,124432,1,0,3:2:0:0:
77,341,124500,5,14,0:2:0:0:
32,297,124568,1,0,0:0:0:0:
17,237,124636,1,0,3:2:0:0:
37,178,124704,1,0,3:2:0:0:
85,139,124772,1,10,0:2:0:0:
146,131,124840,1,0,0:0:0:0:
202,156,124909,1,0,3:2:0:0:
236,208,124977,1,0,3:2:0:0:
270,259,125045,1,10,0:2:0:0:
326,285,125114,1,0,0:0:0:0:
387,277,125182,1,2,3:2:0:0:
433,238,125250,1,0,3:2:0:0:
453,181,125318,1,10,0:2:0:0:
441,122,125386,1,0,0:0:0:0:
400,78,125454,1,2,3:2:0:0:
342,61,125522,1,0,3:2:0:0:
290,77,125591,6,0,L|303:1,1,76.4999976654053,14|0,0:2|0:0,0:0:0:0:
202,156,125727,1,2,3:2:0:0:
202,156,125796,1,0,3:2:0:0:
202,156,125864,2,0,L|188:80,1,76.4999976654053,10|0,0:2|0:0,0:0:0:0:
389,204,126000,1,2,3:2:0:0:
389,204,126069,1,0,3:2:0:0:
389,204,126137,2,0,L|313:191,1,76.4999976654053,10|0,0:2|0:0,0:0:0:0:
151,281,126273,1,2,3:2:0:0:
151,281,126342,1,0,3:2:0:0:
151,281,126410,2,0,L|227:268,1,76.4999976654053,10|0,0:2|0:0,0:0:0:0:
470,384,126546,1,0,3:2:0:0:
470,384,126614,1,0,3:2:0:0:
470,384,126682,6,0,L|298:353,1,170,6|2,3:2|3:2,0:0:0:0:
202,156,126955,1,2,3:2:0:0:
67,295,127091,1,2,3:2:0:0:
67,295,127160,1,0,3:2:0:0:
67,295,127228,2,0,L|162:278,1,85,2|0,3:2|3:2,0:0:0:0:
313,191,127364,1,2,3:2:0:0:
313,191,127433,1,0,3:2:0:0:
313,191,127501,2,0,L|408:207,1,85,2|0,3:2|3:2,0:0:0:0:
188,80,127637,1,2,3:2:0:0:
185,63,127705,1,0,3:2:0:0:
181,46,127773,5,6,3:2:0:0:
215,88,127841,1,0,3:2:0:0:
230,141,127909,1,0,3:2:0:0:
224,195,127977,1,0,3:2:0:0:
198,243,128045,1,0,3:2:0:0:
155,278,128113,1,2,3:2:0:0:
103,293,128182,1,2,3:2:0:0:
48,287,128250,1,2,3:2:0:0:
0,260,128318,5,2,3:2:0:0:
52,202,128386,1,2,3:2:0:0:
129,186,128454,1,2,3:2:0:0:
200,218,128522,1,2,3:2:0:0:
240,285,128590,1,0,3:2:0:0:
277,352,128660,1,2,3:2:0:0:
349,384,128728,1,2,3:2:0:0:
426,367,128796,1,2,3:2:0:0:
478,310,128864,6,0,L|465:239,2,55.2499974708558,6|0|0,3:2|3:2|3:2,0:0:0:0:
396,205,129137,2,0,L|415:94,1,110.499994941712,0|0,3:2|3:2,0:0:0:0:
240,285,129409,5,0,3:2:0:0:
240,285,129477,1,0,3:2:0:0:
240,285,129546,1,0,3:2:0:0:
181,46,129682,1,2,3:2:0:0:
181,46,129750,1,0,3:2:0:0:
181,46,129818,1,0,3:2:0:0:
18,340,132682,5,10,0:2:0:0:
33,337,132750,1,0,3:2:0:0:
48,334,132818,1,0,3:2:0:0:
63,332,132886,1,0,3:2:0:0:
78,329,132954,1,0,3:2:0:0:
93,326,133022,1,0,3:2:0:0:
108,324,133091,1,0,3:2:0:0:
123,321,133159,1,0,3:2:0:0:
138,318,133227,6,0,L|199:307,1,42.5,6|0,3:2|3:2,0:0:0:0:
314,236,133364,1,2,3:2:0:0:
249,374,133500,1,0,3:2:0:0:
218,223,133637,1,0,3:2:0:0:
334,331,133773,1,8,0:2:0:0:
334,331,133841,1,0,3:2:0:0:
334,331,133909,1,2,3:2:0:0:
179,310,134046,1,0,3:2:0:0:
179,310,134114,1,0,3:2:0:0:
179,310,134182,1,0,3:2:0:0:
397,66,137591,5,0,3:2:0:0:
397,66,137659,1,0,3:2:0:0:
397,66,137727,1,0,3:2:0:0:
417,161,137864,1,2,3:2:0:0:
332,204,138000,1,0,3:2:0:0:
262,140,138137,1,10,0:2:0:0:
262,140,138205,1,2,3:2:0:0:
262,140,138273,1,0,3:2:0:0:
301,53,138409,1,2,3:2:0:0:
301,53,138477,1,0,3:2:0:0:
301,53,138546,1,2,3:2:0:0:
298,47,139773,5,2,3:2:0:0:
298,47,139842,1,2,3:2:0:0:
298,47,139910,1,2,3:2:0:0:
255,143,140046,1,2,3:2:0:0:
332,214,140182,1,2,3:2:0:0:
425,166,140318,1,10,0:2:0:0:
425,166,140387,1,2,3:2:0:0:
425,166,140455,1,2,3:2:0:0:
403,62,140592,1,2,3:2:0:0:
403,62,140660,1,2,3:2:0:0:
403,62,140728,1,2,3:2:0:0:
407,57,141955,5,4,3:2:0:0:
407,57,142023,1,0,3:2:0:0:
407,57,142091,1,2,3:2:0:0:
432,172,142228,1,0,3:2:0:0:
329,224,142364,1,0,3:2:0:0:
244,147,142500,1,10,0:2:0:0:
244,147,142568,1,0,3:2:0:0:
244,147,142637,1,0,3:2:0:0:
291,41,142773,1,2,3:2:0:0:
291,41,142841,1,0,3:2:0:0:
291,41,142910,1,0,3:2:0:0:
416,53,143046,5,2,3:2:0:0:
442,179,143182,1,0,3:2:0:0:
442,179,143250,1,0,3:2:0:0:
442,179,143319,1,0,3:2:0:0:
329,236,143455,1,0,3:2:0:0:
288,35,143591,1,10,0:2:0:0:
442,179,143727,1,2,3:2:0:0:
236,151,143864,1,2,3:2:0:0:
416,53,144000,1,2,3:2:0:0:
330,267,144137,5,10,3:2:0:0:
330,267,144205,1,8,3:2:0:0:
330,267,144273,1,8,3:2:0:0:
436,41,144410,1,10,3:2:0:0:
215,162,144546,1,10,3:2:0:0:
469,196,144682,1,10,3:2:0:0:
469,196,144750,1,8,3:2:0:0:
469,196,144818,1,8,3:2:0:0:
279,20,144955,1,10,3:2:0:0:
279,20,145023,1,8,3:2:0:0:
279,20,145091,1,8,3:2:0:0:
374,150,145227,5,10,3:2:0:0:
374,150,145296,1,8,3:2:0:0:
374,150,145364,2,0,L|303:137,1,59.4999981842042,6|0,3:2|3:2,0:0:0:0:
449,34,145500,1,0,3:2:0:0:
330,286,145637,1,0,3:2:0:0:
273,10,145773,1,2,3:2:0:0:
273,10,145841,1,0,3:2:0:0:
273,10,145909,1,0,3:2:0:0:
485,207,146046,1,0,3:2:0:0:
485,207,146115,1,0,3:2:0:0:
485,207,146183,2,0,L|414:219,1,59.4999981842042,2|0,3:2|3:2,0:0:0:0:
171,260,146318,5,2,3:2:0:0:
195,242,146386,1,0,0:2:0:0:
223,233,146454,1,10,0:2:0:0:
252,232,146522,1,0,0:2:0:0:
281,240,146591,2,0,P|311:259|331:289,1,68,2|0,3:2|3:2,0:0:0:0:
155,384,146727,5,10,0:2:0:0:
88,352,146795,1,2,0:2:0:0:
51,288,146863,1,2,3:2:0:0:
56,215,146931,1,2,0:2:0:0:
102,157,147000,2,0,P|115:119|76:9,1,161.499995687485,10|0,0:2|3:2,0:0:0:0:
199,138,147205,1,0,3:2:0:0:
199,138,147273,2,0,P|238:139|272:125,1,74.3750007092953,10|0,0:2|0:2,0:0:0:0:
360,0,147409,5,2,3:2:0:0:
360,0,147477,1,2,0:2:0:0:
360,0,147546,2,0,L|344:86,1,74.3750007092953,10|2,0:2|0:2,0:0:0:0:
412,222,147682,1,2,3:2:0:0:
412,222,147750,1,0,3:2:0:0:
412,222,147819,2,0,L|396:135,1,74.3750007092953,10|0,0:2|0:2,0:0:0:0:
207,264,147955,2,0,B|279:247|279:247|341:287,1,148.750001418591,2|10,3:2|0:2,0:0:0:0:
480,56,148227,5,2,3:2:0:0:
486,92,148295,1,2,3:2:0:0:
493,129,148363,1,10,0:2:0:0:
500,165,148431,1,0,0:2:0:0:
506,202,148500,2,0,P|507:238|424:318,1,148.750001418591,2|10,3:2|0:2,0:0:0:0:
63,82,148773,6,0,L|82:-28,1,74.3750007092953,2|0,3:2|3:2,0:0:0:0:
179,176,148909,2,0,L|160:66,1,101.999996887207,10|0,0:2|0:2,0:0:0:0:
13,257,149046,5,2,3:2:0:0:
50,236,149114,1,0,0:2:0:0:
92,234,149182,1,10,0:2:0:0:
131,251,149250,1,0,0:2:0:0:
159,282,149318,1,2,3:2:0:0:
181,306,149386,1,2,3:2:0:0:
212,320,149454,1,10,0:2:0:0:
246,318,149522,1,2,0:2:0:0:
275,302,149591,5,2,3:2:0:0:
277,287,149659,1,0,0:2:0:0:
280,273,149727,1,10,0:2:0:0:
282,259,149795,1,2,0:2:0:0:
285,245,149864,6,0,L|297:174,1,72.2500013780594,2|2,3:2|3:2,0:0:0:0:
398,266,150000,2,0,L|412:345,1,80.7499978437424,10|0,0:2|0:2,0:0:0:0:
512,137,150137,2,0,B|391:101|411:211|298:174,1,229.499992996216,0|0,3:2|0:0,0:0:0:0:
170,122,150409,1,2,3:2:0:0:
165,98,150477,1,2,3:2:0:0:
161,75,150545,1,10,0:2:0:0:
157,51,150613,1,0,0:2:0:0:
153,28,150682,6,0,P|115:9|68:13,3,76.4999976654053,2|2|10|0,3:2|0:2|0:2|0:2,0:0:0:0:
74,108,150955,2,0,P|46:136|34:174,3,72.2500013780594,2|2|10|0,3:2|3:2|0:2|0:2,0:0:0:0:
125,205,151227,2,0,P|142:240|172:263,3,68,2|0|10|0,3:2|0:2|0:2|0:2,0:0:0:0:
234,187,151500,2,0,P|269:182|299:163,3,63.7500024318696,2|2|10|0,3:2|3:2|0:2|0:2,0:0:0:0:
430,0,151773,5,2,3:2:0:0:
424,30,151841,1,0,0:2:0:0:
419,60,151909,1,10,0:2:0:0:
414,90,151977,1,0,0:2:0:0:
394,112,152046,1,2,3:2:0:0:
398,137,152114,1,0,3:2:0:0:
402,162,152182,1,10,0:2:0:0:
407,187,152250,1,0,0:2:0:0:
425,201,152318,1,2,3:2:0:0:
422,221,152386,1,0,0:2:0:0:
418,242,152454,1,10,0:2:0:0:
414,262,152522,1,0,0:2:0:0:
399,275,152591,1,2,3:2:0:0:
401,291,152659,1,2,3:2:0:0:
404,307,152727,1,10,0:2:0:0:
407,323,152795,1,0,0:2:0:0:
410,340,152864,6,0,L|339:327,1,50.9999984436036,2|2,3:2|0:2,0:0:0:0:
282,259,153000,1,10,0:2:0:0:
282,259,153068,1,0,3:2:0:0:
282,259,153137,2,0,L|233:267,1,46.7500014266968,0|0,3:2|0:2,0:0:0:0:
149,330,153273,6,0,L|90:319,1,59.4999981842042,2|0,3:2|0:2,0:0:0:0:
32,236,153409,2,0,L|90:225,1,59.4999981842042,2|0,3:2|0:2,0:0:0:0:
156,345,153546,2,0,L|97:334,1,59.4999981842042,10|0,0:2|0:2,0:0:0:0:
20,224,153682,1,2,3:2:0:0:
49,218,153750,1,0,3:2:0:0:
78,213,153818,1,0,3:2:0:0:
107,208,153886,1,0,3:2:0:0:
137,203,153955,6,0,L|223:187,2,79.3333309122722,2|0|0,3:2|3:2|3:2,0:0:0:0:
251,71,154227,2,0,L|329:84,2,79.3333309122722,0|2|2,3:2|3:2|3:2,0:0:0:0:
387,217,154500,5,0,3:2:0:0:
402,214,154568,1,0,3:2:0:0:
418,211,154636,1,0,3:2:0:0:
434,208,154704,1,0,3:2:0:0:
450,205,154772,1,0,3:2:0:0:
465,203,154840,1,0,3:2:0:0:
480,200,154910,1,0,3:2:0:0:
496,197,154978,1,0,3:2:0:0:
512,194,155046,6,0,P|451:164|385:173,1,136,6|0,3:2|0:2,0:0:0:0:
307,230,155455,1,2,0:2:0:0:
250,150,155591,2,0,B|282:93|282:93|307:233,1,204.000003890991,8|0,0:2|0:2,0:0:0:0:
100,264,156137,6,0,P|160:293|226:284,1,136,2|0,3:2|0:2,0:0:0:0:
306,229,156546,1,2,0:2:0:0:
362,308,156682,2,0,B|330:365|330:365|305:225,1,204.000003890991,8|0,0:2|0:2,0:0:0:0:
193,97,157227,6,0,L|176:191,1,85,10|0,0:2|0:2,0:0:0:0:
226,284,157500,1,2,3:2:0:0:
338,41,157637,2,0,L|354:135,1,85,10|0,0:2|0:2,0:0:0:0:
305,228,157910,1,2,3:2:0:0:
104,3,158046,2,0,L|87:97,1,85,10|0,0:2|0:2,0:0:0:0:
117,364,158318,6,0,L|99:263,1,101.999996887207,10|0,3:2|0:2,0:0:0:0:
322,127,158591,2,0,L|304:227,1,101.999996887207,10|0,0:2|3:2,0:0:0:0:
39,198,158864,2,0,B|83:172|83:172|134:182,1,101.999996887207,10|0,0:2|3:2,0:0:0:0:
363,291,159136,2,0,B|318:317|318:317|269:308,1,101.999996887207,10|0,0:2|3:2,0:0:0:0:
463,58,159409,6,0,B|483:175|483:175|456:231|456:231|478:357,1,305.999990661621,2|0,3:2|0:2,0:0:0:0:
269,307,159955,2,0,P|275:199|363:293,1,305.999990661621,8|0,0:2|0:2,0:0:0:0:
175,322,160500,5,2,3:2:0:0:
175,322,160637,1,2,0:2:0:0:
127,183,160773,1,2,0:2:0:0:
127,183,160909,1,2,0:2:0:0:
11,323,161046,6,0,B|63:301|63:301|181:323,1,170,10|2,0:2|0:2,0:0:0:0:
463,58,161591,5,10,3:2:0:0:
442,61,161659,1,0,3:2:0:0:
421,65,161727,1,2,3:2:0:0:
400,69,161795,1,0,3:2:0:0:
379,73,161863,1,2,3:2:0:0:
358,77,161931,1,0,3:2:0:0:
345,94,162000,5,10,3:2:0:0:
324,90,162068,1,0,3:2:0:0:
303,86,162136,1,2,3:2:0:0:
282,82,162204,1,0,3:2:0:0:
261,78,162272,1,2,3:2:0:0:
240,75,162340,1,0,3:2:0:0:
227,58,162409,5,10,3:2:0:0:
206,62,162477,1,0,3:2:0:0:
185,66,162545,1,2,3:2:0:0:
164,70,162613,1,0,3:2:0:0:
143,73,162682,6,0,L|80:84,1,42.5,10|8,0:2|0:2,0:0:0:0:
204,158,162818,2,0,L|266:169,1,42.5,8|8,0:2|0:2,0:0:0:0:
132,65,162955,2,0,L|69:76,1,42.5,10|8,0:2|0:2,0:0:0:0:
211,169,163091,2,0,L|253:177,1,42.5,10|8,0:2|0:2,0:0:0:0:
40,193,163227,5,10,0:2:0:0:
58,215,163295,1,0,0:2:0:0:
69,243,163363,1,0,0:2:0:0:
71,272,163431,1,0,0:2:0:0:
63,301,163500,2,0,L|0:312,3,42.5,2|0|0|0,3:2|3:2|3:2|3:2,0:0:0:0:
200,372,163773,5,2,3:2:0:0:
171,350,163841,1,0,3:2:0:0:
153,320,163909,1,0,3:2:0:0:
147,285,163977,1,0,3:2:0:0:
155,251,164045,1,0,3:2:0:0:
176,222,164113,1,0,3:2:0:0:
206,203,164182,1,2,3:2:0:0:
241,197,164250,1,0,3:2:0:0:
276,205,164318,1,0,3:2:0:0:
305,226,164386,1,0,3:2:0:0:
324,256,164454,1,0,3:2:0:0:
330,291,164523,1,0,3:2:0:0:
336,325,164592,1,2,3:2:0:0:
355,355,164660,1,0,3:2:0:0:
384,376,164728,1,0,3:2:0:0:
418,384,164796,1,0,3:2:0:0:
453,378,164864,1,10,3:2:0:0:
483,359,164932,1,0,3:2:0:0:
503,330,165000,1,0,3:2:0:0:
511,295,165068,1,0,3:2:0:0:
506,260,165136,1,0,3:2:0:0:
487,230,165204,1,0,3:2:0:0:
459,209,165272,1,0,3:2:0:0:
424,200,165341,1,0,3:2:0:0:
389,205,165409,1,2,3:2:0:0:
353,210,165477,1,0,3:2:0:0:
319,201,165545,1,0,3:2:0:0:
290,180,165613,1,0,3:2:0:0:
272,150,165681,1,0,3:2:0:0:
267,115,165749,1,0,3:2:0:0:
275,80,165818,1,0,3:2:0:0:
296,51,165886,1,0,3:2:0:0:
327,33,165955,5,2,3:2:0:0:
356,61,166023,1,0,3:2:0:0:
374,98,166091,1,0,3:2:0:0:
379,138,166159,1,0,3:2:0:0:
371,178,166227,1,0,3:2:0:0:
350,212,166295,1,0,3:2:0:0:
319,238,166364,1,2,3:2:0:0:
281,253,166432,1,0,3:2:0:0:
241,254,166500,1,0,3:2:0:0:
202,241,166568,1,0,3:2:0:0:
169,217,166636,1,0,3:2:0:0:
147,183,166705,1,0,3:2:0:0:
137,144,166773,1,2,3:2:0:0:
140,103,166841,1,0,3:2:0:0:
157,66,166909,1,0,3:2:0:0:
184,37,166977,1,0,3:2:0:0:
220,18,167046,6,0,L|283:29,3,59.4999981842042,10|0|0|0,3:2|3:2|3:2|3:2,0:0:0:0:
140,103,167318,2,0,L|76:114,3,59.4999981842042,2|0|0|0,3:2|3:2|3:2|3:2,0:0:0:0:
258,133,167591,2,0,L|321:144,3,59.4999981842042,2|0|0|0,3:2|3:2|3:2|3:2,0:0:0:0:
169,217,167864,2,0,L|105:228,3,59.4999981842042,2|0|0|0,3:2|3:2|3:2|3:2,0:0:0:0:
287,247,168137,5,2,3:2:0:0:
278,281,168205,1,0,3:2:0:0:
283,316,168273,1,0,3:2:0:0:
301,347,168341,1,0,3:2:0:0:
328,370,168409,1,0,3:2:0:0:
362,381,168477,1,0,3:2:0:0:
397,379,168546,1,2,3:2:0:0:
430,364,168614,1,0,3:2:0:0:
454,338,168682,1,0,3:2:0:0:
468,306,168750,1,0,3:2:0:0:
469,270,168818,1,0,3:2:0:0:
457,237,168887,1,0,3:2:0:0:
433,210,168955,1,2,3:2:0:0:
402,194,169023,1,0,3:2:0:0:
367,190,169091,1,0,3:2:0:0:
331,186,169159,1,0,3:2:0:0:
300,169,169227,1,10,3:2:0:0:
276,143,169295,1,0,3:2:0:0:
264,109,169364,1,0,3:2:0:0:
265,74,169432,1,0,3:2:0:0:
279,41,169500,1,0,3:2:0:0:
304,15,169568,1,0,3:2:0:0:
336,1,169636,1,0,3:2:0:0:
371,0,169705,1,0,3:2:0:0:
405,10,169773,1,10,3:2:0:0:
433,32,169841,1,0,3:2:0:0:
450,63,169909,1,0,3:2:0:0:
455,98,169977,1,0,3:2:0:0:
447,133,170046,1,0,3:2:0:0:
443,168,170114,1,0,3:2:0:0:
452,202,170182,1,0,3:2:0:0:
471,232,170250,1,0,3:2:0:0:
500,253,170318,5,10,3:2:0:0:
467,223,170386,1,0,3:2:0:0:
431,206,170455,1,0,3:2:0:0:
391,201,170523,1,0,3:2:0:0:
351,207,170591,1,0,3:2:0:0:
315,226,170659,1,0,3:2:0:0:
286,255,170727,1,2,3:2:0:0:
270,292,170796,1,0,3:2:0:0:
253,328,170864,1,8,3:2:0:0:
225,357,170932,1,0,3:2:0:0:
188,376,171000,1,0,3:2:0:0:
147,382,171068,1,0,3:2:0:0:
107,376,171136,1,2,3:2:0:0:
71,358,171204,1,0,3:2:0:0:
42,329,171272,1,0,3:2:0:0:
23,293,171340,1,0,3:2:0:0:
17,253,171409,6,0,L|30:174,1,79.3333309122722,8|0,3:2|3:2,0:0:0:0:
57,50,171591,2,0,L|118:101,1,79.3333309122722,8|0,3:2|3:2,0:0:0:0:
213,186,171773,2,0,L|138:212,1,79.3333309122722,8|0,3:2|3:2,0:0:0:0:
0,261,171955,6,0,L|13:182,1,79.3333309122722,8|0,3:2|3:2,0:0:0:0:
58,31,172137,2,0,L|119:81,1,79.3333309122722,8|0,3:2|3:2,0:0:0:0:
228,196,172318,2,0,L|153:224,1,79.3333309122722,8|0,3:2|3:2,0:0:0:0:
318,61,172500,6,0,B|304:140|304:140|322:178|322:178|307:264,2,204,6|2|2,3:2|0:2|0:2,0:0:0:0:
505,258,173591,6,0,B|445:233|445:233|308:258,1,204,2|0,0:2|0:0,0:0:0:0:
225,357,174137,1,2,0:2:0:0:
225,357,174273,1,2,0:2:0:0:
122,279,174409,2,0,L|135:200,1,68,2|0,0:2|0:0,0:0:0:0:
42,329,174682,1,2,3:2:0:0:
0,64,174955,5,8,0:2:0:0:
32,53,175023,1,0,0:2:0:0:
66,54,175091,1,0,0:2:0:0:
98,64,175159,1,0,0:2:0:0:
125,84,175227,2,0,L|130:117,3,34,0|0|0|0,3:2|0:2|3:2|3:2,0:0:0:0:
225,30,175500,5,8,3:2:0:0:
252,50,175569,1,0,0:2:0:0:
284,60,175637,1,0,3:2:0:0:
318,61,175705,1,0,3:2:0:0:
350,50,175773,5,10,3:2:0:0:
351,43,175841,1,8,3:2:0:0:
352,36,175909,1,8,3:2:0:0:
353,29,175977,1,8,3:2:0:0:
354,23,176046,2,0,L|366:93,1,50.9999984436036,10|8,3:2|3:2,0:0:0:0:
457,152,176182,1,10,3:2:0:0:
457,152,176250,1,8,3:2:0:0:
457,152,176318,2,0,L|444:222,1,50.9999984436036,10|0,0:2|0:0,0:0:0:0:
308,257,176455,1,0,3:2:0:0:
308,257,176523,1,0,3:2:0:0:
308,257,176591,2,0,L|328:375,1,101.999996887207,10|0,0:2|0:0,0:0:0:0:
40,67,176864,6,0,B|100:92|100:92|237:67,1,204,6|0,3:2|0:0,0:0:0:0:
354,23,177137,2,0,L|500:51,1,136,2|8,3:2|0:2,0:0:0:0:
405,299,177409,5,2,3:2:0:0:
236,68,177546,1,10,0:2:0:0:
308,257,177682,5,2,3:2:0:0:
354,23,177818,1,10,0:2:0:0:
487,286,177955,6,0,B|406:300|406:300|308:257|308:257|217:273,1,272,2|0,3:2|3:2,0:0:0:0:
442,60,178364,2,0,L|418:193,1,136,10|0,0:2|3:2,0:0:0:0:
295,364,178637,5,10,0:2:0:0:
157,178,178773,1,2,3:2:0:0:
418,193,178909,1,10,0:2:0:0:
157,374,179046,6,0,B|132:314|132:314|157:177,1,204,2|0,3:2|0:0,0:0:0:0:
233,103,179318,2,0,P|262:164|250:230,1,136,2|8,3:2|0:2,0:0:0:0:
130,73,179591,5,2,3:2:0:0:
415,0,179727,1,10,0:2:0:0:
418,193,179864,5,2,3:2:0:0:
263,0,180000,1,10,0:2:0:0:
159,293,180137,6,0,B|203:339|203:339|292:326|292:326|299:318|299:318|405:298,1,272,2|0,3:2|3:2,0:0:0:0:
273,96,180546,2,0,L|247:237,1,136,10|0,0:2|3:2,0:0:0:0:
69,357,180818,2,0,L|57:290,1,68,10|0,0:2|0:0,0:0:0:0:
124,144,180955,5,2,3:2:0:0:
127,125,181023,1,0,3:2:0:0:
130,107,181091,1,0,3:2:0:0:
133,89,181159,1,0,3:2:0:0:
136,71,181227,2,0,B|273:96|273:96|333:71,1,204,6|0,3:2|0:0,0:0:0:0:
457,18,181500,2,0,L|433:151,1,136,2|8,3:2|0:2,0:0:0:0:
204,339,181773,5,2,3:2:0:0:
136,71,181909,1,10,0:2:0:0:
69,357,182046,5,2,3:2:0:0:
273,96,182182,1,10,0:2:0:0:
453,378,182318,5,2,3:2:0:0:
133,211,182455,1,10,0:2:0:0:
433,151,182591,1,2,3:2:0:0:
204,339,182727,5,10,0:2:0:0:
273,96,182864,1,2,3:2:0:0:
356,278,183000,1,10,0:2:0:0:
136,71,183137,5,2,3:2:0:0:
457,18,183273,1,8,0:2:0:0:
356,278,183409,5,2,3:2:0:0:
336,274,183478,1,8,3:3:0:0:
316,271,183546,1,10,3:3:0:0:
296,267,183614,1,8,3:3:0:0:
276,264,183682,1,10,3:3:0:0:
256,260,183750,1,8,3:3:0:0:
236,256,183818,2,0,L|165:269,1,68,10|8,0:3|0:3,0:0:0:0:
47,189,183955,5,10,3:3:0:0:
53,190,184023,1,8,3:3:0:0:
60,191,184091,1,10,3:3:0:0:
67,192,184159,1,8,3:3:0:0:
73,193,184227,1,10,3:3:0:0:
80,194,184295,1,8,3:3:0:0:
86,195,184364,2,0,L|156:182,1,68,10|8,0:3|0:3,0:0:0:0:
333,101,184500,5,6,3:2:0:0:
343,171,184568,1,2,3:2:0:0:
316,236,184636,1,2,3:2:0:0:
259,277,184704,1,2,3:2:0:0:
190,284,184772,1,2,3:2:0:0:
125,254,184840,1,2,3:2:0:0:
86,195,184909,6,0,L|99:119,1,76.4999976654053,2|2,3:2|3:2,0:0:0:0:
210,0,185046,2,0,L|226:67,1,76.4999976654053,2|2,3:2|3:2,0:0:0:0:
259,277,185182,2,0,L|272:201,1,76.4999976654053,2|2,3:2|3:2,0:0:0:0:
385,73,185319,2,0,L|399:149,1,76.4999976654053,2|2,3:2|3:2,0:0:0:0:
512,364,185455,1,2,3:2:0:0:
512,364,185523,1,2,3:2:0:0:
512,364,185591,6,0,B|452:389|452:389|315:364,1,204,6|0,3:2|0:0,0:0:0:0:
259,277,185864,2,0,L|113:305,1,136,2|8,3:2|0:2,0:0:0:0:
385,73,186137,5,2,3:2:0:0:
512,363,186273,1,10,0:2:0:0:
490,131,186409,5,2,3:2:0:0:
315,364,186546,1,10,0:2:0:0:
145,168,186682,6,0,B|256:148|256:148|305:172|305:172|409:154,1,272,2|0,3:2|3:2,0:0:0:0:
168,34,187091,2,0,L|142:175,1,136,10|0,0:2|3:2,0:0:0:0:
315,364,187364,5,10,0:2:0:0:
408,154,187500,1,2,3:2:0:0:
512,363,187637,1,10,0:2:0:0:
286,56,187773,6,0,B|423:31|423:31|483:56,1,204,2|0,3:2|0:0,0:0:0:0:
408,154,188046,2,0,L|274:177,1,136,2|8,3:2|0:2,0:0:0:0:
27,43,188318,5,2,3:2:0:0:
125,302,188455,1,10,0:2:0:0:
157,100,188591,5,2,3:2:0:0:
0,326,188727,1,10,0:2:0:0:
253,334,188864,6,0,B|308:269|308:269|125:301,1,272,2|0,3:2|3:2,0:0:0:0:
23,76,189273,2,0,L|164:101,1,136,10|0,0:2|3:2,0:0:0:0:
369,11,189546,2,0,L|386:107,1,68,10|0,0:2|0:0,0:0:0:0:
482,254,189682,5,2,3:2:0:0:
478,272,189750,1,0,3:2:0:0:
475,290,189818,1,0,3:2:0:0:
472,308,189886,1,0,3:2:0:0:
469,323,189955,5,6,3:2:0:0:
427,366,190023,1,0,0:0:0:0:
368,377,190091,1,10,0:2:0:0:
314,350,190159,1,0,0:2:0:0:
287,296,190227,1,10,3:2:0:0:
297,237,190295,1,0,0:0:0:0:
340,195,190364,1,10,3:2:0:0:
399,187,190432,1,0,0:2:0:0:
458,179,190500,1,10,3:2:0:0:
501,137,190569,1,0,0:0:0:0:
512,78,190637,1,10,3:2:0:0:
483,25,190705,1,0,0:2:0:0:
428,0,190773,1,10,3:2:0:0:
369,11,190841,1,0,0:0:0:0:
328,55,190909,1,8,3:2:0:0:
321,115,190977,1,0,0:2:0:0:
350,167,191046,1,14,3:2:0:0:
379,219,191115,1,0,0:0:0:0:
372,279,191183,1,10,3:2:0:0:
331,323,191251,1,0,0:2:0:0:
272,334,191319,1,10,3:2:0:0:
217,309,191387,1,0,0:0:0:0:
188,256,191455,1,10,3:2:0:0:
199,197,191523,1,0,0:2:0:0:
227,143,191591,1,10,3:2:0:0:
226,83,191659,1,0,0:0:0:0:
193,32,191727,1,10,3:2:0:0:
139,4,191795,1,0,0:2:0:0:
79,8,191863,1,8,3:2:0:0:
29,42,191932,1,0,0:0:0:0:
3,97,192000,1,10,0:2:0:0:
8,157,192068,1,0,0:2:0:0:
44,206,192137,5,6,3:2:0:0:
62,174,192205,1,0,3:2:0:0:
88,149,192273,1,2,3:2:0:0:
120,132,192341,1,0,3:2:0:0:
156,125,192409,1,2,3:2:0:0:
193,129,192477,1,0,3:2:0:0:
227,142,192546,1,2,3:2:0:0:
255,165,192614,1,0,3:2:0:0:
276,196,192682,5,14,3:2:0:0:
296,165,192750,1,0,3:2:0:0:
325,142,192818,1,2,3:2:0:0:
358,129,192887,1,0,3:2:0:0:
395,125,192955,1,2,3:2:0:0:
431,132,193023,1,0,3:2:0:0:
463,149,193091,1,2,3:2:0:0:
490,174,193159,1,0,3:2:0:0:
508,206,193227,6,0,L|490:104,1,93.5000028533936,6|0,3:2|0:0,0:0:0:0:
4,206,193637,6,0,L|21:104,1,93.5000028533936,6|0,3:2|0:0,0:0:0:0:
365,351,194046,6,0,L|347:249,1,93.5000028533936,6|0,3:2|0:0,0:0:0:0:
146,351,194455,6,0,L|163:249,1,93.5000028533936,6|0,3:2|3:2,0:0:0:0:
211,114,194591,5,0,3:2:0:0:
232,105,194659,1,0,3:2:0:0:
255,102,194727,1,0,3:2:0:0:
279,105,194795,1,0,3:2:0:0:
301,113,194864,6,0,L|272:276,1,144.500002756119,10|0,3:2|0:0,0:0:0:0:
345,364,195137,6,0,L|299:107,1,255.000009727478,10|0,3:2|0:0,0:0:0:0:
