osu file format v14

[General]
AudioFilename: audio.mp3
AudioLeadIn: 0
PreviewTime: 176046
Countdown: 0
SampleSet: Soft
StackLeniency: 0.7
Mode: 0
LetterboxInBreaks: 0
EpilepsyWarning: 1
WidescreenStoryboard: 1

[Editor]
Bookmarks: 8864,91773,146318
DistanceSpacing: 1.2
BeatDivisor: 4
GridSize: 16
TimelineZoom: 2.3

[Metadata]
Title:Frozen
TitleUnicode:Frozen
Artist:UNDEAD CORPORATION
ArtistUnicode:UNDEAD CORPORATION
Creator:Daycore
Version:Collab Hard
Source:東方紅魔郷 ~ the Embodiment of Scarlet Devil.
Tags:osu! 東方Project Touhou Project おてんば恋娘 O Tenba Koi Musume Tomboyish Girl in Love Cirno チルノ Stage 2 Boss TOHO Complete Box - SILVER 極鉄 Gokutetsu Extreme Metal パインツリー pinetree 平野幸村 Yukimura Hirano yuki Shiren Comiket 79 c79 english metal rock Aphestra allein MashaSG ZUN Team Shanghai Alice melodic death melodeath featured artist fa hantrik shmiklak marvollo m_a_r_v_o_l_l_o namki
BeatmapID:2635986
BeatmapSetID:1268344

[Difficulty]
HPDrainRate:3
CircleSize:3.5
OverallDifficulty:6
ApproachRate:8
SliderMultiplier:1.5
SliderTickRate:1

[Events]
//Background and Video events
0,0,"mgbg.jpg",0,0
//Break Periods
2,74518,81246
2,130018,131932
2,134382,136841
2,168337,170509
//Storyboard Layer 0 (Background)
//Storyboard Layer 1 (Fail)
//Storyboard Layer 2 (Pass)
//Storyboard Layer 3 (Foreground)
Sprite,Foreground,Centre,"sb\etc\l.png",201,228 C,0,56864,,40,126,199 F,2,56864,57264,1,0 S,2,56864,57264,1.5,0.3
Sprite,Foreground,Centre,"sb\etc\l.png",162,389 C,0,57137,,40,126,199 F,2,57137,57537,1,0 S,2,57137,57537,1.5,0.3
Sprite,Foreground,Centre,"sb\etc\l.png",322,370 C,0,57409,,40,126,199 F,2,57409,57809,1,0 S,2,57409,57809,1.5,0.3
Sprite,Foreground,Centre,"sb\etc\l.png",273,298 C,0,57818,,40,126,199 F,2,57818,58218,1,0 S,2,57818,58218,1.5,0.3
Sprite,Foreground,Centre,"sb\etc\l.png",293,214 C,0,57955,,40,126,199 F,2,57955,58355,1,0 S,2,57955,58355,1.5,0.3
Sprite,Foreground,Centre,"sb\etc\l.png",530,185 C,0,58364,,40,126,199 F,2,58364,58764,1,0 S,2,58364,58764,1.5,0.3
Sprite,Foreground,Centre,"sb\etc\l.png",437,293 C,0,58637,,40,126,199 F,2,58637,59037,1,0 S,2,58637,59037,1.5,0.3
Sprite,Foreground,Centre,"sb\etc\l.png",446,207 C,0,59046,,159,83,121 F,2,59046,59446,1,0 S,2,59046,59446,1.5,0.3
Sprite,Foreground,Centre,"sb\etc\l.png",314,155 C,0,59318,,159,83,121 F,2,59318,59718,1,0 S,2,59318,59718,1.5,0.3
Sprite,Foreground,Centre,"sb\etc\l.png",186,212 C,0,59591,,159,83,121 F,2,59591,59991,1,0 S,2,59591,59991,1.5,0.3
Sprite,Foreground,Centre,"sb\etc\l.png",126,151 C,0,60000,,159,83,121 F,2,60000,60400,1,0 S,2,60000,60400,1.5,0.3
Sprite,Foreground,Centre,"sb\etc\l.png",65,211 C,0,60137,,159,83,121 F,2,60137,60537,1,0 S,2,60137,60537,1.5,0.3
Sprite,Foreground,Centre,"sb\etc\l.png",139,409 C,0,60546,,159,83,121 F,2,60546,60946,1,0 S,2,60546,60946,1.5,0.3
Sprite,Foreground,Centre,"sb\etc\l.png",345,323 C,0,60955,,159,83,121 F,2,60955,61355,1,0 S,2,60955,61355,1.5,0.3
Sprite,Foreground,Centre,"sb\etc\l.png",382,253 C,0,61227,,40,61,98 F,2,61227,61627,1,0 S,2,61227,61627,1.5,0.3
Sprite,Foreground,Centre,"sb\etc\l.png",543,265 C,0,61500,,40,61,98 F,2,61500,61900,1,0 S,2,61500,61900,1.5,0.3
Sprite,Foreground,Centre,"sb\etc\l.png",452,153 C,0,61773,,40,61,98 F,2,61773,62173,1,0 S,2,61773,62173,1.5,0.3
Sprite,Foreground,Centre,"sb\etc\l.png",460,240 C,0,62182,,40,61,98 F,2,62182,62582,1,0 S,2,62182,62582,1.5,0.3
Sprite,Foreground,Centre,"sb\etc\l.png",383,202 C,0,62318,,40,61,98 F,2,62318,62718,1,0 S,2,62318,62718,1.5,0.3
Sprite,Foreground,Centre,"sb\etc\l.png",390,289 C,0,62727,,40,61,98 F,2,62727,63127,1,0 S,2,62727,63127,1.5,0.3
Sprite,Foreground,Centre,"sb\etc\l.png",410,379 C,0,63137,,40,61,98 F,2,63137,63537,1,0 S,2,63137,63537,1.5,0.3
Sprite,Foreground,Centre,"sb\etc\l.png",460,240 C,0,63409,,157,23,30 F,2,63409,63809,1,0 S,2,63409,63809,1.5,0.3
Sprite,Foreground,Centre,"sb\etc\l.png",390,289 C,0,63955,,157,23,30 F,2,63955,64355,1,0 S,2,63955,64355,1.5,0.3
Sprite,Foreground,Centre,"sb\etc\l.png",468,329 C,0,64364,,157,23,30 F,2,64364,64764,1,0 S,2,64364,64764,1.5,0.3
Sprite,Foreground,Centre,"sb\etc\l.png",412,396 C,0,64500,,40,126,199 F,2,64500,64900,1,0 S,2,64500,64900,1.5,0.3
Sprite,Foreground,Centre,"sb\etc\l.png",175,419 C,0,64909,,40,126,199 F,2,64909,65309,1,0 S,2,64909,65309,1.5,0.3
Sprite,Foreground,Centre,"sb\etc\l.png",227,286 C,0,65182,,40,126,199 F,2,65182,65582,1,0 S,2,65182,65582,1.5,0.3
Sprite,Foreground,Centre,"sb\etc\l.png",175,153 C,0,65455,,40,126,199 F,2,65455,65855,1,0 S,2,65455,65855,1.5,0.3
Sprite,Foreground,Centre,"sb\etc\l.png",243,99 C,0,65591,,159,83,121 F,2,65591,65991,1,0 S,2,65591,65991,1.5,0.3
Sprite,Foreground,Centre,"sb\etc\l.png",391,60 C,0,65864,,159,83,121 F,2,65864,66264,1,0 S,2,65864,66264,1.5,0.3
Sprite,Foreground,Centre,"sb\etc\l.png",428,217 C,0,66136,,159,83,121 F,2,66136,66536,1,0 S,2,66136,66536,1.5,0.3
Sprite,Foreground,Centre,"sb\etc\l.png",344,196 C,0,66545,,159,83,121 F,2,66545,66945,1,0 S,2,66545,66945,1.5,0.3
Sprite,Foreground,Centre,"sb\etc\l.png",369,280 C,0,66682,,159,83,121 F,2,66682,67082,1,0 S,2,66682,67082,1.5,0.3
Sprite,Foreground,Centre,"sb\etc\l.png",428,420 C,0,67091,,159,83,121 F,2,67091,67491,1,0 S,2,67091,67491,1.5,0.3
Sprite,Foreground,Centre,"sb\etc\l.png",528,328 C,0,67364,,159,83,121 F,2,67364,67764,1,0 S,2,67364,67764,1.5,0.3
Sprite,Foreground,Centre,"sb\etc\l.png",552,245 C,0,67773,,40,61,98 F,2,67773,68173,1,0 S,2,67773,68173,1.5,0.3
Sprite,Foreground,Centre,"sb\etc\l.png",442,343 C,0,68046,,40,61,98 F,2,68046,68446,1,0 S,2,68046,68446,1.5,0.3
Sprite,Foreground,Centre,"sb\etc\l.png",319,258 C,0,68318,,40,61,98 F,2,68318,68718,1,0 S,2,68318,68718,1.5,0.3
Sprite,Foreground,Centre,"sb\etc\l.png",280,336 C,0,68727,,40,61,98 F,2,68727,69127,1,0 S,2,68727,69127,1.5,0.3
Sprite,Foreground,Centre,"sb\etc\l.png",233,263 C,0,68864,,40,61,98 F,2,68864,69264,1,0 S,2,68864,69264,1.5,0.3
Sprite,Foreground,Centre,"sb\etc\l.png",102,153 C,0,69273,,40,61,98 F,2,69273,69673,1,0 S,2,69273,69673,1.5,0.3
Sprite,Foreground,Centre,"sb\etc\l.png",334,183 C,0,69682,,40,61,98 F,2,69682,70082,1,0 S,2,69682,70082,1.5,0.3
Sprite,Foreground,Centre,"sb\etc\l.png",370,111 C,0,69955,,157,23,30 F,2,69955,70355,1,0 S,2,69955,70355,1.5,0.3
Sprite,Foreground,Centre,"sb\etc\l.png",525,138 C,0,70227,,157,23,30 F,2,70227,70627,1,0 S,2,70227,70627,1.5,0.3
Sprite,Foreground,Centre,"sb\etc\l.png",498,293 C,0,70500,,157,23,30 F,2,70500,70900,1,0 S,2,70500,70900,1.5,0.3
Sprite,Foreground,Centre,"sb\etc\l.png",343,266 C,0,70773,,157,23,30 F,2,70773,71173,1,0 S,2,70773,71173,1.5,0.3
Sprite,Foreground,Centre,"sb\etc\l.png",253,148 C,0,71046,,40,126,199 F,2,71046,71446,1,0 S,2,71046,71446,1.5,0.3
Sprite,Foreground,Centre,"sb\etc\l.png",135,238 C,0,71319,,40,126,199 F,2,71319,71719,1,0 S,2,71319,71719,1.5,0.3
Sprite,Foreground,Centre,"sb\etc\l.png",225,356 C,0,71591,,40,126,199 F,2,71591,71991,1,0 S,2,71591,71991,1.5,0.3
Sprite,Foreground,Centre,"sb\etc\l.png",343,266 C,0,71864,,40,126,199 F,2,71864,72264,1,0 S,2,71864,72264,1.5,0.3
Sprite,Foreground,Centre,"sb\etc\l.png",315,103 C,0,72137,,159,83,121 F,2,72137,72537,1,0 S,2,72137,72537,1.5,0.3
Sprite,Foreground,Centre,"sb\etc\l.png",550,72 C,0,72546,,159,83,121 F,2,72546,72946,1,0 S,2,72546,72946,1.5,0.3
Sprite,Foreground,Centre,"sb\etc\l.png",576,155 C,0,72682,,159,83,121 F,2,72682,73082,1,0 S,2,72682,73082,1.5,0.3
Sprite,Foreground,Centre,"sb\etc\l.png",533,396 C,0,73091,,159,83,121 F,2,73091,73491,1,0 S,2,73091,73491,1.5,0.3
Sprite,Foreground,Centre,"sb\etc\l.png",469,339 C,0,73227,,40,61,98 F,2,73227,73627,1,0 S,2,73227,73627,1.5,0.3
Sprite,Foreground,Centre,"sb\etc\l.png",399,377 C,0,73500,,40,61,98 F,2,73500,73900,1,0 S,2,73500,73900,1.5,0.3
Sprite,Foreground,Centre,"sb\etc\l.png",329,339 C,0,73773,,40,61,98 F,2,73773,74173,1,0 S,2,73773,74173,1.5,0.3
Sprite,Foreground,Centre,"sb\etc\l.png",259,377 C,0,74046,,40,61,98 F,2,74046,74446,1,0 S,2,74046,74446,1.5,0.3
Sprite,Foreground,Centre,"sb\etc\ring.png",430,361 C,0,172500,,159,83,121 F,2,172500,172700,1,0 S,2,172500,172700,1.2,0.24
Sprite,Foreground,Centre,"sb\etc\ring.png",260,254 C,0,172909,,159,83,121 F,2,172909,173109,1,0 S,2,172909,173109,1.2,0.24
Sprite,Foreground,Centre,"sb\etc\ring.png",66,330 C,0,173318,,159,83,121 F,2,173318,173518,1,0 S,2,173318,173518,1.2,0.24
Sprite,Foreground,Centre,"sb\etc\ring.png",118,165 C,0,173591,,40,61,98 F,2,173591,173791,1,0 S,2,173591,173791,1.2,0.24
Sprite,Foreground,Centre,"sb\etc\ring.png",390,267 C,0,174137,,40,61,98 F,2,174137,174337,1,0 S,2,174137,174337,1.2,0.24
Sprite,Foreground,Centre,"sb\etc\ring.png",478,118 C,0,174682,,40,61,98 F,2,174682,174882,1,0 S,2,174682,174882,1.2,0.24
Sprite,Foreground,Centre,"sb\etc\ring.png",484,356 C,0,175773,,157,23,30 F,2,175773,175973,1,0 S,2,175773,175973,1.2,0.24
Sprite,Foreground,Centre,"sb\etc\ring.png",529,294 C,0,176046,,157,23,30 F,2,176046,176246,1,0 S,2,176046,176246,1.2,0.24
Sprite,Foreground,Centre,"sb\etc\ring.png",428,225 C,0,176319,,157,23,30 F,2,176319,176519,1,0 S,2,176319,176519,1.2,0.24
Sprite,Foreground,Centre,"sb\etc\ring.png",333,117 C,0,176591,,157,23,30 F,2,176591,176791,1,0 S,2,176591,176791,1.2,0.24
Sprite,Foreground,Centre,"sb\etc\l.png",0,0 C,0,128864,,40,126,199 M,0,128864,128898,166,191,169.0705,210.4466 F,2,128864,129200,1,0 S,2,128864,129200,1,0.2 M,0,128898,128932,169.0705,210.4466,172,229 M,0,128932,128966,172,229,169.0705,210.4466 M,0,128966,129000,169.0705,210.4466,166,191
Sprite,Foreground,Centre,"sb\etc\l.png",0,0 C,0,129137,,40,126,199 M,0,129137,129171,93,142,89.4782,161.3699 F,2,129137,129473,1,0 S,2,129137,129473,1,0.2 M,0,129171,129205,89.4782,161.3699,85.95639,180.7399 M,0,129205,129239,85.95639,180.7399,82.43458,200.1098 M,0,129239,129273,82.43458,200.1098,79,219
Sprite,Foreground,Centre,"sb\etc\l.png",0,0 C,0,129409,,40,126,199 M,0,129409,129443,118,296,121.3036,315.4084 F,2,129409,129745,1,0 S,2,129409,129745,1,0.2 M,0,129443,129477,121.3036,315.4084,124.6071,334.8167 M,0,129477,129511,124.6071,334.8167,121.3036,315.4084 M,0,129511,129545,121.3036,315.4084,118,296
Sprite,Foreground,Centre,"sb\etc\l.png",0,0 C,0,129682,,40,126,199 M,0,129682,129716,172,229,191.4466,232.0705 F,2,129682,130018,1,0 S,2,129682,130018,1,0.2 M,0,129716,129750,191.4466,232.0705,210,235 M,0,129750,129784,210,235,191.4466,232.0705 M,0,129784,129818,191.4466,232.0705,172,229
Sprite,Foreground,Centre,"sb\etc\l.png",0,0 C,0,132682,,159,83,121 M,0,132682,132716,141,259,143.9936,278.4586 F,2,132682,133291,1,0 S,2,132682,133291,1,0.2 M,0,132716,132750,143.9936,278.4586,146.9872,297.9171 M,0,132750,132784,146.9872,297.9171,143.9936,278.4586 M,0,132784,132818,143.9936,278.4586,141,259 M,0,132818,132852,141,259,143.9936,278.4586 M,0,132852,132886,143.9936,278.4586,146.9872,297.9171 M,0,132886,132920,146.9872,297.9171,143.9936,278.4586 M,0,132920,132954,143.9936,278.4586,141,259 M,0,132954,132988,141,259,143.9936,278.4586 M,0,132988,133022,143.9936,278.4586,146.9872,297.9171 M,0,133022,133057,146.9872,297.9171,143.9936,278.4586 M,0,133057,133091,143.9936,278.4586,141,259
Sprite,Foreground,Centre,"sb\etc\l.png",0,0 C,0,133227,,40,61,98 M,0,133227,133261,138,173,118.5414,170.0064 F,2,133227,133563,1,0 S,2,133227,133563,1,0.2 M,0,133261,133295,118.5414,170.0064,99.08287,167.0128 M,0,133295,133329,99.08287,167.0128,118.5414,170.0064 M,0,133329,133363,118.5414,170.0064,138,173
Sprite,Foreground,Centre,"sb\etc\l.png",0,0 C,0,133500,,40,61,98 M,0,133500,133534,193,106,212.4084,102.6964 F,2,133500,133836,1,0 S,2,133500,133836,1,0.2 M,0,133534,133568,212.4084,102.6964,231.8167,99.3929 M,0,133568,133602,231.8167,99.3929,251.2251,96.08936 M,0,133602,133636,251.2251,96.08936,270.6334,92.7858
Sprite,Foreground,Centre,"sb\etc\l.png",0,0 C,0,133773,,40,61,98 M,0,133773,133807,325,160,344.3617,163.5666 F,2,133773,134109,1,0 S,2,133773,134109,1,0.2 M,0,133807,133841,344.3617,163.5666,363,167 M,0,133841,133875,363,167,344.3617,163.5666 M,0,133875,133909,344.3617,163.5666,325,160
Sprite,Foreground,Centre,"sb\etc\l.png",0,0 C,0,134046,,40,61,98 M,0,134046,134080,253,209,233.6222,212.4781 F,2,134046,134382,1,0 S,2,134046,134382,1,0.2 M,0,134080,134114,233.6222,212.4781,214.2443,215.9561 M,0,134114,134148,214.2443,215.9561,233.6222,212.4781 M,0,134148,134182,233.6222,212.4781,253,209
Sprite,Foreground,Centre,"sb\etc\l.png",0,0 C,0,137591,,157,23,30 M,0,137591,137625,448,389,428.5916,385.6964 F,2,137591,137927,1,0 S,2,137591,137927,1,0.2 M,0,137625,137659,428.5916,385.6964,409.1833,382.3929 M,0,137659,137693,409.1833,382.3929,428.5916,385.6964 M,0,137693,137727,428.5916,385.6964,448,389
Sprite,Foreground,Centre,"sb\etc\l.png",0,0 C,0,137864,,157,23,30 M,0,137864,137898,533,404,529.7225,384.5872 F,2,137864,138200,1,0 S,2,137864,138200,1,0.2 M,0,137898,137932,529.7225,384.5872,526.4451,365.1744 M,0,137932,137966,526.4451,365.1744,523.1675,345.7617 M,0,137966,138000,523.1675,345.7617,520,327
Sprite,Foreground,Centre,"sb\etc\l.png",0,0 C,0,138137,,157,23,30 M,0,138137,138171,436,299,416.5916,295.6965 F,2,138137,138473,1,0 S,2,138137,138473,1,0.2 M,0,138171,138205,416.5916,295.6965,397.1833,292.3929 M,0,138205,138239,397.1833,292.3929,416.5916,295.6965 M,0,138239,138273,416.5916,295.6965,436,299
Sprite,Foreground,Centre,"sb\etc\l.png",0,0 C,0,138409,,157,23,30 M,0,138409,138443,500,241,519.4196,237.7634 F,2,138409,138745,1,0 S,2,138409,138745,1,0.2 M,0,138443,138477,519.4196,237.7634,538.8392,234.5268 M,0,138477,138511,538.8392,234.5268,519.4196,237.7634 M,0,138511,138545,519.4196,237.7634,500,241
Sprite,Foreground,Centre,"sb\etc\l.png",0,0 C,0,139773,,40,126,199 M,0,139773,139807,246,352,265.3503,355.6282 F,2,139773,140109,1,0 S,2,139773,140109,1,0.2 M,0,139807,139841,265.3503,355.6282,284.7006,359.2563 M,0,139841,139875,284.7006,359.2563,265.3503,355.6282 M,0,139875,139909,265.3503,355.6282,246,352
Sprite,Foreground,Centre,"sb\etc\l.png",0,0 C,0,140045,,40,126,199 M,0,140045,140079,177,404,167.0892,387.0758 F,2,140045,140381,1,0 S,2,140045,140381,1,0.2 M,0,140079,140113,167.0892,387.0758,161.2264,368.3921 M,0,140113,140147,161.2264,368.3921,159.6964,348.8894 M,0,140147,140181,159.6964,348.8894,162,330
Sprite,Foreground,Centre,"sb\etc\l.png",0,0 C,0,140318,,40,126,199 M,0,140318,140352,223,267,242.3503,270.6282 F,2,140318,140654,1,0 S,2,140318,140654,1,0.2 M,0,140352,140386,242.3503,270.6282,261.7006,274.2563 M,0,140386,140420,261.7006,274.2563,242.3503,270.6282 M,0,140420,140454,242.3503,270.6282,223,267
Sprite,Foreground,Centre,"sb\etc\l.png",0,0 C,0,140591,,40,126,199 M,0,140591,140625,139,245,119.6638,248.7027 F,2,140591,140927,1,0 S,2,140591,140927,1,0.2 M,0,140625,140659,119.6638,248.7027,100.3276,252.4053 M,0,140659,140693,100.3276,252.4053,119.6638,248.7027 M,0,140693,140727,119.6638,248.7027,139,245
Sprite,Foreground,Centre,"sb\etc\l.png",0,0 C,0,141955,,159,83,121 M,0,141955,141989,538,142,557.4083,138.6964 F,2,141955,142291,1,0 S,2,141955,142291,1,0.2 M,0,141989,142023,557.4083,138.6964,576.8167,135.3929 M,0,142023,142057,576.8167,135.3929,557.4083,138.6964 M,0,142057,142091,557.4083,138.6964,538,142
Sprite,Foreground,Centre,"sb\etc\l.png",0,0 C,0,142228,,159,83,121 M,0,142228,142262,560,227,540.5601,229.6246 F,2,142228,142564,1,0 S,2,142228,142564,1,0.2 M,0,142262,142296,540.5601,229.6246,521.0501,227.8858 M,0,142296,142330,521.0501,227.8858,502.4276,221.8787 M,0,142330,142364,502.4276,221.8787,485.3501,212.2399
Sprite,Foreground,Centre,"sb\etc\l.png",0,0 C,0,142501,,159,83,121 M,0,142501,142535,454,131,450.2973,111.6638 F,2,142501,142837,1,0 S,2,142501,142837,1,0.2 M,0,142535,142569,450.2973,111.6638,446.5947,92.32764 M,0,142569,142603,446.5947,92.32764,450.2973,111.6638 M,0,142603,142637,450.2973,111.6638,454,131
Sprite,Foreground,Centre,"sb\etc\l.png",0,0 C,0,142773,,159,83,121 M,0,142773,142807,400,200,396.5219,219.3778 F,2,142773,143109,1,0 S,2,142773,143109,1,0.2 M,0,142807,142841,396.5219,219.3778,393.0439,238.7557 M,0,142841,142875,393.0439,238.7557,396.5219,219.3778 M,0,142875,142909,396.5219,219.3778,400,200
Sprite,Foreground,Centre,"sb\etc\l.png",369,119 C,0,143046,,40,61,98 F,2,143046,143246,1,0 S,2,143046,143246,1,0.2
Sprite,Foreground,Centre,"sb\etc\l.png",0,0 C,0,143182,,40,61,98 M,0,143182,143216,315,186,311.5219,205.3778 F,2,143182,143518,1,0 S,2,143182,143518,1,0.2 M,0,143216,143250,311.5219,205.3778,308.0439,224.7557 M,0,143250,143284,308.0439,224.7557,311.5219,205.3778 M,0,143284,143318,311.5219,205.3778,315,186
Sprite,Foreground,Centre,"sb\etc\l.png",284,105 C,0,143455,,40,61,98 F,2,143455,143655,1,0 S,2,143455,143655,1,0.2
Sprite,Foreground,Centre,"sb\etc\l.png",0,0 C,0,143591,,40,61,98 M,0,143591,143625,230,173,210.5804,176.2366 F,2,143591,143927,1,0 S,2,143591,143927,1,0.2 M,0,143625,143659,210.5804,176.2366,191.1607,179.4732 M,0,143659,143693,191.1607,179.4732,171.7411,182.7098 M,0,143693,143727,171.7411,182.7098,152.3215,185.9464
Sprite,Foreground,Centre,"sb\etc\l.png",0,0 C,0,143864,,40,61,98 M,0,143864,143898,78,141,69.42662,158.6255 F,2,143864,144200,1,0 S,2,143864,144200,1,0.2 M,0,143898,143932,69.42662,158.6255,65.3882,177.7687 M,0,143932,143966,65.3882,177.7687,66.1106,197.2966 M,0,143966,144000,66.1106,197.2966,71,216
Sprite,Foreground,Centre,"sb\etc\l.png",0,0 C,0,144137,,157,23,30 M,0,144137,144171,137,273,156.3778,269.5219 F,2,144137,144473,1,0 S,2,144137,144473,1,0.2 M,0,144171,144205,156.3778,269.5219,175.7557,266.0439 M,0,144205,144239,175.7557,266.0439,156.3778,269.5219 M,0,144239,144273,156.3778,269.5219,137,273
Sprite,Foreground,Centre,"sb\etc\l.png",0,0 C,0,144409,,157,23,30 M,0,144409,144443,122,360,141.3699,356.4782 F,2,144409,144745,1,0 S,2,144409,144745,1,0.2 M,0,144443,144477,141.3699,356.4782,160.7399,352.9564 M,0,144477,144511,160.7399,352.9564,180.1098,349.4346 M,0,144511,144545,180.1098,349.4346,199,346
Sprite,Foreground,Centre,"sb\etc\l.png",0,0 C,0,144682,,157,23,30 M,0,144682,144716,261,284,264.4781,264.6222 F,2,144682,145018,1,0 S,2,144682,145018,1,0.2 M,0,144716,144750,264.4781,264.6222,267.9561,245.2443 M,0,144750,144784,267.9561,245.2443,264.4781,264.6222 M,0,144784,144818,264.4781,264.6222,261,284
Sprite,Foreground,Centre,"sb\etc\l.png",0,0 C,0,144955,,157,23,30 M,0,144955,144989,284,367,287.4781,386.3778 F,2,144955,145291,1,0 S,2,144955,145291,1,0.2 M,0,144989,145023,287.4781,386.3778,290.9561,405.7557 M,0,145023,145057,290.9561,405.7557,287.4781,386.3778 M,0,145057,145091,287.4781,386.3778,284,367
Sprite,Foreground,Centre,"sb\etc\l.png",345,305 C,0,145227,,40,126,199 F,2,145227,145427,1,0 S,2,145227,145427,1,0.2
Sprite,Foreground,Centre,"sb\etc\l.png",0,0 C,0,145364,,40,126,199 M,0,145364,145398,406,366,424.6084,372.4284 F,2,145364,145836,1,0 S,2,145364,145836,1,0.2 M,0,145398,145432,424.6084,372.4284,443.2169,378.8568 M,0,145432,145466,443.2169,378.8568,461.8591,384.8438 M,0,145466,145500,461.8591,384.8438,481.229,381.322 M,0,145500,145534,481.229,381.322,500.5989,377.8002 M,0,145534,145568,500.5989,377.8002,519.9689,374.2784 M,0,145568,145602,519.9689,374.2784,539.3388,370.7566 M,0,145602,145636,539.3388,370.7566,558.7087,367.2348
Sprite,Foreground,Centre,"sb\etc\l.png",0,0 C,0,145773,,40,126,199 M,0,145773,145807,515,291,495.6222,294.4781 F,2,145773,146109,1,0 S,2,145773,146109,1,0.2 M,0,145807,145841,495.6222,294.4781,476.2443,297.9561 M,0,145841,145875,476.2443,297.9561,495.6222,294.4781 M,0,145875,145909,495.6222,294.4781,515,291
Sprite,Foreground,Centre,"sb\etc\l.png",0,0 C,0,146046,,40,126,199 M,0,146046,146080,537,207,556.3778,210.4781 F,2,146046,146382,1,0 S,2,146046,146382,1,0.2 M,0,146080,146114,556.3778,210.4781,575.7557,213.9561 M,0,146114,146148,575.7557,213.9561,556.3778,210.4781 M,0,146148,146182,556.3778,210.4781,537,207
Sprite,Foreground,Centre,"sb\etc\l.png",0,0 C,0,146318,,159,83,121 M,0,146318,146352,486,136,467.0566,130.6823 F,2,146318,146790,1,0 S,2,146318,146790,1,0.2 M,0,146352,146386,467.0566,130.6823,447.5389,128.3733 M,0,146386,146420,447.5389,128.3733,428.1221,131.0997 M,0,146420,146454,428.1221,131.0997,410.4544,139.6375 M,0,146454,146488,410.4544,139.6375,394.5056,151.1729 M,0,146488,146522,394.5056,151.1729,378.2042,162.191 M,0,146522,146556,378.2042,162.191,360.3171,170.3352 M,0,146556,146590,360.3171,170.3352,341.1722,174.7946
Sprite,Foreground,Centre,"sb\etc\l.png",0,0 C,0,146727,,159,83,121 M,0,146727,146761,276,116,290.5882,129.2205 F,2,146727,147199,1,0 S,2,146727,147199,1,0.2 M,0,146761,146795,290.5882,129.2205,305.1764,142.4411 M,0,146795,146829,305.1764,142.4411,306.1083,160.7638 M,0,146829,146863,306.1083,160.7638,303.7627,180.311 M,0,146863,146897,303.7627,180.311,301.417,199.8583 M,0,146897,146931,301.417,199.8583,299.0714,219.4055 M,0,146931,146965,299.0714,219.4055,296.7256,238.9528 M,0,146965,146999,296.7256,238.9528,294.38,258.5001
Sprite,Foreground,Centre,"sb\etc\l.png",0,0 C,0,147137,,159,83,121 M,0,147137,147171,250,334,231.6462,340.7856 F,2,147137,147473,1,0 S,2,147137,147473,1,0.2 M,0,147171,147205,231.6462,340.7856,212.1849,342.3187 M,0,147205,147239,212.1849,342.3187,192.9388,338.8801 M,0,147239,147273,192.9388,338.8801,175.6941,329.6644
Sprite,Foreground,Centre,"sb\etc\l.png",0,0 C,0,147409,,159,83,121 M,0,147409,147443,122,261,125.1024,241.5585 F,2,147409,147745,1,0 S,2,147409,147745,1,0.2 M,0,147443,147477,125.1024,241.5585,128.2047,222.1169 M,0,147477,147511,128.2047,222.1169,131.3071,202.6754 M,0,147511,147545,131.3071,202.6754,134.4095,183.2339
Sprite,Foreground,Centre,"sb\etc\l.png",0,0 C,0,147682,,159,83,121 M,0,147682,147716,112,98,131.4586,95.00638 F,2,147682,148086,1,0 S,2,147682,148086,1,0.2 M,0,147716,147750,131.4586,95.00638,150.9171,92.01275 M,0,147750,147784,150.9171,92.01275,131.4586,95.00638 M,0,147784,147818,131.4586,95.00638,112,98 M,0,147818,147852,112,98,131.4586,95.00638 M,0,147852,147886,131.4586,95.00638,150.9171,92.01275
Sprite,Foreground,Centre,"sb\etc\l.png",0,0 C,0,147955,,159,83,121 M,0,147955,147989,174,56,193.3879,59.4214 F,2,147955,148291,1,0 S,2,147955,148291,1,0.2 M,0,147989,148023,193.3879,59.4214,212.7758,62.8428 M,0,148023,148057,212.7758,62.8428,232.1638,66.2642 M,0,148057,148091,232.1638,66.2642,251.5517,69.68559
Sprite,Foreground,Centre,"sb\etc\l.png",0,0 C,0,148227,,159,83,121 M,0,148227,148261,315,127,318.5218,146.3699 F,2,148227,148631,1,0 S,2,148227,148631,1,0.2 M,0,148261,148295,318.5218,146.3699,322.0436,165.7399 M,0,148295,148329,322.0436,165.7399,318.5218,146.3699 M,0,148329,148363,318.5218,146.3699,315,127 M,0,148363,148397,315,127,318.5218,146.3699 M,0,148397,148431,318.5218,146.3699,322.0436,165.7399
Sprite,Foreground,Centre,"sb\etc\l.png",0,0 C,0,148500,,40,61,98 M,0,148500,148534,309,207,305.6619,226.4025 F,2,148500,148836,1,0 S,2,148500,148836,1,0.2 M,0,148534,148568,305.6619,226.4025,302.3239,245.8049 M,0,148568,148602,302.3239,245.8049,298.9858,265.2073 M,0,148602,148636,298.9858,265.2073,295.6478,284.6098
Sprite,Foreground,Centre,"sb\etc\l.png",375,319 C,0,148773,,40,61,98 F,2,148773,148973,1,0 S,2,148773,148973,1,0.2
Sprite,Foreground,Centre,"sb\etc\l.png",0,0 C,0,148909,,40,61,98 M,0,148909,148943,317,383,336.3941,379.6137 F,2,148909,149381,1,0 S,2,148909,149381,1,0.2 M,0,148943,148977,336.3941,379.6137,355.7882,376.2274 M,0,148977,149011,355.7882,376.2274,375.1823,372.8412 M,0,149011,149045,375.1823,372.8412,393.3254,378.4329 M,0,149045,149079,393.3254,378.4329,411.2509,385.6248 M,0,149079,149113,411.2509,385.6248,430.6705,382.3882 M,0,149113,149147,430.6705,382.3882,450.0901,379.1516 M,0,149147,149181,450.0901,379.1516,469,376
Sprite,Foreground,Centre,"sb\etc\l.png",0,0 C,0,149318,,40,61,98 M,0,149318,149352,543,329,546.3036,309.5916 F,2,149318,149654,1,0 S,2,149318,149654,1,0.2 M,0,149352,149386,546.3036,309.5916,549.6071,290.1833 M,0,149386,149420,549.6071,290.1833,552.9106,270.7749 M,0,149420,149454,552.9106,270.7749,556.2142,251.3666
Sprite,Foreground,Centre,"sb\etc\l.png",0,0 C,0,149591,,40,61,98 M,0,149591,149625,543,171,523.6222,174.4781 F,2,149591,149927,1,0 S,2,149591,149927,1,0.2 M,0,149625,149659,523.6222,174.4781,504.2443,177.9561 M,0,149659,149693,504.2443,177.9561,484.8665,181.4342 M,0,149693,149727,484.8665,181.4342,465.4886,184.9123
Sprite,Foreground,Centre,"sb\etc\l.png",388,225 C,0,149864,,40,61,98 F,2,149864,150064,1,0 S,2,149864,150064,1,0.2
Sprite,Foreground,Centre,"sb\etc\l.png",0,0 C,0,150000,,40,61,98 M,0,150000,150034,323,167,308.1281,154.1566 F,2,150000,150472,1,0 S,2,150000,150472,1,0.2 M,0,150034,150068,308.1281,154.1566,291.4802,143.7445 M,0,150068,150102,291.4802,143.7445,273.5102,135.8129 M,0,150102,150136,273.5102,135.8129,254.4365,131.1138 M,0,150136,150170,254.4365,131.1138,234.8799,129.3859 M,0,150170,150204,234.8799,129.3859,215.2802,130.5405 M,0,150204,150238,215.2802,130.5405,196.1549,135.003 M,0,150238,150272,196.1549,135.003,178,142
Sprite,Foreground,Centre,"sb\etc\l.png",0,0 C,0,150409,,40,61,98 M,0,150409,150443,113,200,109.5219,219.3778 F,2,150409,150813,1,0 S,2,150409,150813,1,0.2 M,0,150443,150477,109.5219,219.3778,106.0439,238.7557 M,0,150477,150511,106.0439,238.7557,109.5219,219.3778 M,0,150511,150545,109.5219,219.3778,113,200 M,0,150545,150579,113,200,109.5219,219.3778 M,0,150579,150613,109.5219,219.3778,106.0439,238.7557
Sprite,Foreground,Centre,"sb\etc\l.png",0,0 C,0,150682,,157,23,30 M,0,150682,150716,120,280,138.3378,273.0633 F,2,150682,151154,1,0 S,2,150682,151154,1,0.2 M,0,150716,150750,138.3378,273.0633,157.7287,270.373 M,0,150750,150784,157.7287,270.373,177.2387,271.918 M,0,150784,150818,177.2387,271.918,195.785,278.2028 M,0,150818,150852,195.785,278.2028,212.593,288.2566 M,0,150852,150886,212.593,288.2566,226.3626,302.1902 M,0,150886,150920,226.3626,302.1902,236.9688,318.6766 M,0,150920,150954,236.9688,318.6766,243.0384,337.3113
Sprite,Foreground,Centre,"sb\etc\l.png",0,0 C,0,151091,,157,23,30 M,0,151091,151125,315,383,295.6817,379.2053 F,2,151091,151563,1,0 S,2,151091,151563,1,0.2 M,0,151125,151159,295.6817,379.2053,276.3633,375.4106 M,0,151159,151193,276.3633,375.4106,257.045,371.616 M,0,151193,151227,257.045,371.616,237.7267,367.8213 M,0,151227,151261,237.7267,367.8213,218.4083,364.0266 M,0,151261,151295,218.4083,364.0266,199.09,360.232 M,0,151295,151329,199.09,360.232,179.7717,356.4373 M,0,151329,151363,179.7717,356.4373,160.4533,352.6426
Sprite,Foreground,Centre,"sb\etc\l.png",0,0 C,0,151500,,157,23,30 M,0,151500,151534,120,280,123.5037,260.6268 F,2,151500,151836,1,0 S,2,151500,151836,1,0.2 M,0,151534,151568,123.5037,260.6268,127.0073,241.2535 M,0,151568,151602,127.0073,241.2535,130.511,221.8803 M,0,151602,151636,130.511,221.8803,134.0147,202.5071
Sprite,Foreground,Centre,"sb\etc\l.png",0,0 C,0,151773,,157,23,30 M,0,151773,151807,79,134,96.31053,124.755 F,2,151773,152109,1,0 S,2,151773,152109,1,0.2 M,0,151807,151841,96.31053,124.755,115.1321,119.2899 M,0,151841,151875,115.1321,119.2899,134.6597,117.8303 M,0,151875,151909,134.6597,117.8303,154,120
Sprite,Foreground,Centre,"sb\etc\l.png",0,0 C,0,152046,,157,23,30 M,0,152046,152080,217,179,220.6282,198.3503 F,2,152046,152382,1,0 S,2,152046,152382,1,0.2 M,0,152080,152114,220.6282,198.3503,224.2564,217.7006 M,0,152114,152148,224.2564,217.7006,220.6282,198.3503 M,0,152148,152182,220.6282,198.3503,217,179
Sprite,Foreground,Centre,"sb\etc\l.png",0,0 C,0,152318,,157,23,30 M,0,152318,152352,293,139,310.0113,148.7734 F,2,152318,152654,1,0 S,2,152318,152654,1,0.2 M,0,152352,152386,310.0113,148.7734,328.7099,154.619 M,0,152386,152420,328.7099,154.619,348.2122,156.2701 M,0,152420,152454,348.2122,156.2701,367.7004,154.0598
Sprite,Foreground,Centre,"sb\etc\l.png",0,0 C,0,152591,,157,23,30 M,0,152591,152625,443,110,446.7027,90.66382 F,2,152591,152927,1,0 S,2,152591,152927,1,0.2 M,0,152625,152659,446.7027,90.66382,450.4053,71.32764 M,0,152659,152693,450.4053,71.32764,446.7027,90.66382 M,0,152693,152727,446.7027,90.66382,443,110
Sprite,Foreground,Centre,"sb\etc\l.png",0,0 C,0,152864,,40,126,199 M,0,152864,152898,478,190,481.4679,209.3797 F,2,152864,153200,1,0 S,2,152864,153200,1,0.2 M,0,152898,152932,481.4679,209.3797,484.9359,228.7593 M,0,152932,152966,484.9359,228.7593,488.4038,248.139 M,0,152966,153000,488.4038,248.139,491.8718,267.5186
Sprite,Foreground,Centre,"sb\etc\l.png",447,342 C,0,153137,,40,126,199 F,2,153137,153337,1,0 S,2,153137,153337,1,0.2
Sprite,Foreground,Centre,"sb\etc\l.png",0,0 C,0,153273,,40,126,199 M,0,153273,153307,506,406,487.3916,412.4284 F,2,153273,153745,1,0 S,2,153273,153745,1,0.2 M,0,153307,153341,487.3916,412.4284,468.7831,418.8568 M,0,153341,153375,468.7831,418.8568,450.14,424.8493 M,0,153375,153409,450.14,424.8493,430.748,421.4507 M,0,153409,153443,430.748,421.4507,411.3561,418.0521 M,0,153443,153477,411.3561,418.0521,391.9641,414.6535 M,0,153477,153511,391.9641,414.6535,372.5722,411.2549 M,0,153511,153545,372.5722,411.2549,354,408
Sprite,Foreground,Centre,"sb\etc\l.png",0,0 C,0,153682,,40,126,199 M,0,153682,153716,295,344,275.6231,347.4835 F,2,153682,154018,1,0 S,2,153682,154018,1,0.2 M,0,153716,153750,275.6231,347.4835,256.2463,350.9669 M,0,153750,153784,256.2463,350.9669,236.8694,354.4504 M,0,153784,153818,236.8694,354.4504,217.4925,357.9339
Sprite,Foreground,Centre,"sb\etc\l.png",0,0 C,0,153955,,159,83,121 M,0,153955,153989,159,294,139.6121,290.5786 F,2,153955,154336,1,0 S,2,153955,154336,1,0.2 M,0,153989,154023,139.6121,290.5786,120.2242,287.1572 M,0,154023,154057,120.2242,287.1572,113.7615,286.0167 M,0,154057,154091,113.7615,286.0167,133.1494,289.4381 M,0,154091,154125,133.1494,289.4381,152.5374,292.8595 M,0,154125,154136,152.5374,292.8595,159,294
Sprite,Foreground,Centre,"sb\etc\l.png",0,0 C,0,154227,,159,83,121 M,0,154227,154261,194,249,213.3991,245.6425 F,2,154227,154608,1,0 S,2,154227,154608,1,0.2 M,0,154261,154295,213.3991,245.6425,232.7982,242.2849 M,0,154295,154329,232.7982,242.2849,239.2645,241.1658 M,0,154329,154363,239.2645,241.1658,219.8654,244.5233 M,0,154363,154397,219.8654,244.5233,200.4664,247.8808 M,0,154397,154408,200.4664,247.8808,194,249
Sprite,Foreground,Centre,"sb\etc\l.png",0,0 C,0,154500,,40,61,98 M,0,154500,154534,159,204,155.4334,184.6383 F,2,154500,154904,1,0 S,2,154500,154904,1,0.2 M,0,154534,154568,155.4334,184.6383,152,166 M,0,154568,154602,152,166,155.4334,184.6383 M,0,154602,154636,155.4334,184.6383,159,204 M,0,154636,154670,159,204,155.4334,184.6383 M,0,154670,154704,155.4334,184.6383,152,166
Sprite,Foreground,Centre,"sb\etc\l.png",0,0 C,0,154773,,40,61,98 M,0,154773,154807,182,134,185.0705,114.5534 F,2,154773,155177,1,0 S,2,154773,155177,1,0.2 M,0,154807,154841,185.0705,114.5534,188,96 M,0,154841,154875,188,96,185.0705,114.5534 M,0,154875,154909,185.0705,114.5534,182,134 M,0,154909,154943,182,134,185.0705,114.5534 M,0,154943,154977,185.0705,114.5534,188,96
Sprite,Foreground,Centre,"sb\etc\l.png",0,0 C,0,155046,,157,23,30 M,0,155046,155080,160,62,178.6084,68.42837 F,2,155046,155518,1,0 S,2,155046,155518,1,0.2 M,0,155080,155114,178.6084,68.42837,197.2169,74.85674 M,0,155114,155148,197.2169,74.85674,215.8603,80.85076 M,0,155148,155182,215.8603,80.85076,235.2581,77.48584 M,0,155182,155216,235.2581,77.48584,254.6559,74.12091 M,0,155216,155250,254.6559,74.12091,274.0537,70.75599 M,0,155250,155284,274.0537,70.75599,293.4515,67.39106 M,0,155284,155318,293.4515,67.39106,312.8493,64.02614
Sprite,Foreground,Centre,"sb\etc\l.png",384,115 C,0,155455,,157,23,30 F,2,155455,155655,1,0 S,2,155455,155655,1,0.2
Sprite,Foreground,Centre,"sb\etc\l.png",0,0 C,0,155591,,157,23,30 M,0,155591,155625,454,64,466.8434,78.87193 F,2,155591,156063,1,0 S,2,155591,156063,1,0.2 M,0,155625,155659,466.8434,78.87193,477.2555,95.51978 M,0,155659,155693,477.2555,95.51978,485.1871,113.4898 M,0,155693,155727,485.1871,113.4898,489.8862,132.5635 M,0,155727,155761,489.8862,132.5635,491.6141,152.1201 M,0,155761,155795,491.6141,152.1201,490.4595,171.7198 M,0,155795,155829,490.4595,171.7198,485.997,190.8451 M,0,155829,155863,485.997,190.8451,479,209
Sprite,Foreground,Centre,"sb\etc\l.png",416,269 C,0,156000,,157,23,30 F,2,156000,156200,1,0 S,2,156000,156200,1,0.2
Sprite,Foreground,Centre,"sb\etc\l.png",0,0 C,0,156137,,40,126,199 M,0,156137,156171,463,343,443.5804,346.2366 F,2,156137,156609,1,0 S,2,156137,156609,1,0.2 M,0,156171,156205,443.5804,346.2366,424.1607,349.4732 M,0,156205,156239,424.1607,349.4732,404.7411,352.7098 M,0,156239,156273,404.7411,352.7098,386.86,345.2083 M,0,156273,156307,386.86,345.2083,368.6732,339.9301 M,0,156307,156341,368.6732,339.9301,349.2791,343.3163 M,0,156341,156375,349.2791,343.3163,329.885,346.7026 M,0,156375,156409,329.885,346.7026,311,350
Sprite,Foreground,Centre,"sb\etc\l.png",258,420 C,0,156546,,40,126,199 F,2,156546,156746,1,0 S,2,156546,156746,1,0.2
Sprite,Foreground,Centre,"sb\etc\l.png",0,0 C,0,156682,,40,126,199 M,0,156682,156716,225,341,228.4566,321.6183 F,2,156682,157154,1,0 S,2,156682,157154,1,0.2 M,0,156716,156750,228.4566,321.6183,231.9132,302.2366 M,0,156750,156784,231.9132,302.2366,235.3698,282.8549 M,0,156784,156818,235.3698,282.8549,238.8264,263.4733 M,0,156818,156852,238.8264,263.4733,242.283,244.0916 M,0,156852,156886,242.283,244.0916,245.7396,224.7099 M,0,156886,156920,245.7396,224.7099,249.1962,205.3282 M,0,156920,156954,249.1962,205.3282,252.6528,185.9465
Sprite,Foreground,Centre,"sb\etc\l.png",311,123 C,0,157091,,40,126,199 F,2,157091,157291,1,0 S,2,157091,157291,1,0.2
Sprite,Foreground,Centre,"sb\etc\l.png",0,0 C,0,157227,,159,83,121 M,0,157227,157261,227,103,207.6301,106.5218 F,2,157227,157563,1,0 S,2,157227,157563,1,0.2 M,0,157261,157295,207.6301,106.5218,188.2601,110.0436 M,0,157295,157329,188.2601,110.0436,168.8902,113.5654 M,0,157329,157363,168.8902,113.5654,150,117
Sprite,Foreground,Centre,"sb\etc\l.png",91,181 C,0,157500,,159,83,121 F,2,157500,157700,1,0 S,2,157500,157700,1,0.2
Sprite,Foreground,Centre,"sb\etc\l.png",0,0 C,0,157637,,159,83,121 M,0,157637,157671,175,200,194.4196,196.7634 F,2,157637,157973,1,0 S,2,157637,157973,1,0.2 M,0,157671,157705,194.4196,196.7634,213.8393,193.5268 M,0,157705,157739,213.8393,193.5268,233.2589,190.2902 M,0,157739,157773,233.2589,190.2902,252.6785,187.0536
Sprite,Foreground,Centre,"sb\etc\l.png",311,123 C,0,157909,,159,83,121 F,2,157909,158109,1,0 S,2,157909,158109,1,0.2
Sprite,Foreground,Centre,"sb\etc\l.png",0,0 C,0,158046,,159,83,121 M,0,158046,158080,370,187,389.4128,190.2775 F,2,158046,158382,1,0 S,2,158046,158382,1,0.2 M,0,158080,158114,389.4128,190.2775,408.8256,193.555 M,0,158114,158148,408.8256,193.555,428.2383,196.8324 M,0,158148,158182,428.2383,196.8324,447,200
Sprite,Foreground,Centre,"sb\etc\l.png",0,0 C,0,158318,,40,61,98 M,0,158318,158352,491,275,494.4781,294.3778 F,2,158318,158654,1,0 S,2,158318,158654,1,0.2 M,0,158352,158386,494.4781,294.3778,497.9561,313.7557 M,0,158386,158420,497.9561,313.7557,501.4342,333.1335 M,0,158420,158454,501.4342,333.1335,504.9123,352.5114
Sprite,Foreground,Centre,"sb\etc\l.png",0,0 C,0,158591,,40,61,98 M,0,158591,158625,433,401,413.5872,397.7225 F,2,158591,158927,1,0 S,2,158591,158927,1,0.2 M,0,158625,158659,413.5872,397.7225,394.1744,394.445 M,0,158659,158693,394.1744,394.445,374.7617,391.1675 M,0,158693,158727,374.7617,391.1675,356,388
Sprite,Foreground,Centre,"sb\etc\l.png",0,0 C,0,158864,,40,61,98 M,0,158864,158898,269,387,249.6301,390.5218 F,2,158864,159200,1,0 S,2,158864,159200,1,0.2 M,0,158898,158932,249.6301,390.5218,230.2601,394.0436 M,0,158932,158966,230.2601,394.0436,210.8902,397.5654 M,0,158966,159000,210.8902,397.5654,192,401
Sprite,Foreground,Centre,"sb\etc\l.png",0,0 C,0,159137,,40,61,98 M,0,159137,159171,120,353,123.5218,333.6301 F,2,159137,159473,1,0 S,2,159137,159473,1,0.2 M,0,159171,159205,123.5218,333.6301,127.0436,314.2601 M,0,159205,159239,127.0436,314.2601,130.5654,294.8902 M,0,159239,159273,130.5654,294.8902,134,276
Sprite,Foreground,Centre,"sb\etc\l.png",0,0 C,0,159409,,157,23,30 M,0,159409,159443,175,200,194.3916,203.3706 F,2,159409,160018,1,0 S,2,159409,160018,1,0.2 M,0,159443,159477,194.3916,203.3706,214.0066,204.9376 M,0,159477,159511,214.0066,204.9376,233.6502,203.9503 M,0,159511,159545,233.6502,203.9503,252.8234,199.6154 M,0,159545,159579,252.8234,199.6154,270.8215,191.7033 M,0,159579,159613,270.8215,191.7033,287.5689,181.3654 M,0,159613,159647,287.5689,181.3654,304.1555,170.7652 M,0,159647,159681,304.1555,170.7652,321.8667,162.2262 M,0,159681,159715,321.8667,162.2262,340.893,157.3055 M,0,159715,159749,340.893,157.3055,360.5168,156.0435 M,0,159749,159784,360.5168,156.0435,380.131,157.5956 M,0,159784,159818,380.131,157.5956,399,161
Sprite,Foreground,Centre,"sb\etc\l.png",441,85 C,0,159955,,157,23,30 F,2,159955,160155,1,0 S,2,159955,160155,1,0.2
Sprite,Foreground,Centre,"sb\etc\l.png",0,0 C,0,160500,,40,126,199 M,0,160500,160534,505,353,522.2416,362.3453 F,2,160500,160972,1,0 S,2,160500,160972,1,0.2 M,0,160534,160568,522.2416,362.3453,541.1252,367.5231 M,0,160568,160602,541.1252,367.5231,560.6707,368.2754 M,0,160602,160636,560.6707,368.2754,580,365 M,0,160636,160670,580,365,560.6707,368.2754 M,0,160670,160704,560.6707,368.2754,541.1252,367.5231 M,0,160704,160738,541.1252,367.5231,522.2416,362.3453 M,0,160738,160772,522.2416,362.3453,505,353
Sprite,Foreground,Centre,"sb\etc\l.png",556,283 C,0,160909,,40,126,199 F,2,160909,161109,1,0 S,2,160909,161109,1,0.2
Sprite,Foreground,Centre,"sb\etc\l.png",0,0 C,0,161046,,40,126,199 M,0,161046,161080,470,272,450.6222,275.4781 F,2,161046,161382,1,0 S,2,161046,161382,1,0.2 M,0,161080,161114,450.6222,275.4781,431.2443,278.9561 M,0,161114,161148,431.2443,278.9561,411.8665,282.4342 M,0,161148,161182,411.8665,282.4342,392.4886,285.9123
Sprite,Foreground,Centre,"sb\etc\l.png",0,0 C,0,161318,,40,126,199 M,0,161318,161352,346,359,326.5872,355.7225 F,2,161318,161654,1,0 S,2,161318,161654,1,0.2 M,0,161352,161386,326.5872,355.7225,307.1744,352.445 M,0,161386,161420,307.1744,352.445,287.7617,349.1675 M,0,161420,161454,287.7617,349.1675,269,346
Sprite,Foreground,Centre,"sb\etc\l.png",0,0 C,0,161591,,159,83,121 M,0,161591,161625,222,272,228.4284,253.3916 F,2,161591,162063,1,0 S,2,161591,162063,1,0.2 M,0,161625,161659,228.4284,253.3916,234.8567,234.7831 M,0,161659,161693,234.8567,234.7831,240.8493,216.14 M,0,161693,161727,240.8493,216.14,237.4507,196.748 M,0,161727,161761,237.4507,196.748,234.0521,177.3561 M,0,161761,161795,234.0521,177.3561,230.6535,157.9641 M,0,161795,161829,230.6535,157.9641,227.2549,138.5722 M,0,161829,161863,227.2549,138.5722,224,120
Sprite,Foreground,Centre,"sb\etc\l.png",0,0 C,0,162000,,159,83,121 M,0,162000,162034,153,69,146.5716,87.60843 F,2,162000,162472,1,0 S,2,162000,162472,1,0.2 M,0,162034,162068,146.5716,87.60843,140.1433,106.2169 M,0,162068,162102,140.1433,106.2169,134.1577,124.8588 M,0,162102,162136,134.1577,124.8588,137.7143,144.2224 M,0,162136,162170,137.7143,144.2224,141.2709,163.586 M,0,162170,162204,141.2709,163.586,144.8275,182.9495 M,0,162204,162238,144.8275,182.9495,148.384,202.3131 M,0,162238,162272,148.384,202.3131,151.9406,221.6767
Sprite,Foreground,Centre,"sb\etc\l.png",0,0 C,0,162409,,159,83,121 M,0,162409,162443,77,266,73.80328,285.4262 F,2,162409,162745,1,0 S,2,162409,162745,1,0.2 M,0,162443,162477,73.80328,285.4262,70.60655,304.8525 M,0,162477,162511,70.60655,304.8525,67.40984,324.2787 M,0,162511,162545,67.40984,324.2787,64.21311,343.705
Sprite,Foreground,Centre,"sb\etc\l.png",0,0 C,0,162682,,40,61,98 M,0,162682,162716,130,400,149.3503,396.3718 F,2,162682,163086,1,0 S,2,162682,163086,1,0.2 M,0,162716,162750,149.3503,396.3718,168.7006,392.7437 M,0,162750,162784,168.7006,392.7437,149.3503,396.3718 M,0,162784,162818,149.3503,396.3718,130,400 M,0,162818,162852,130,400,149.3503,396.3718 M,0,162852,162886,149.3503,396.3718,168.7006,392.7437
Sprite,Foreground,Centre,"sb\etc\l.png",0,0 C,0,162955,,40,61,98 M,0,162955,162989,189,354,208.4586,356.9936 F,2,162955,163359,1,0 S,2,162955,163359,1,0.2 M,0,162989,163023,208.4586,356.9936,227.9171,359.9872 M,0,163023,163057,227.9171,359.9872,208.4586,356.9936 M,0,163057,163091,208.4586,356.9936,189,354 M,0,163091,163125,189,354,208.4586,356.9936 M,0,163125,163159,208.4586,356.9936,227.9171,359.9872
Sprite,Foreground,Centre,"sb\etc\l.png",0,0 C,0,163228,,40,61,98 M,0,163228,163262,248,400,267.3778,396.5219 F,2,163228,163632,1,0 S,2,163228,163632,1,0.2 M,0,163262,163296,267.3778,396.5219,286.7557,393.0439 M,0,163296,163330,286.7557,393.0439,267.3778,396.5219 M,0,163330,163364,267.3778,396.5219,248,400 M,0,163364,163398,248,400,267.3778,396.5219 M,0,163398,163432,267.3778,396.5219,286.7557,393.0439
Sprite,Foreground,Centre,"sb\etc\l.png",0,0 C,0,163500,,40,61,98 M,0,163500,163534,307,354,326.4586,356.9936 F,2,163500,163904,1,0 S,2,163500,163904,1,0.2 M,0,163534,163568,326.4586,356.9936,345.9171,359.9872 M,0,163568,163602,345.9171,359.9872,326.4586,356.9936 M,0,163602,163636,326.4586,356.9936,307,354 M,0,163636,163670,307,354,326.4586,356.9936 M,0,163670,163704,326.4586,356.9936,345.9171,359.9872
Sprite,Foreground,Centre,"sb\etc\l.png",366,400 C,0,163773,,157,23,30 F,2,163773,163973,1,0 S,2,163773,163973,1,0.2
Sprite,Foreground,Centre,"sb\etc\l.png",320,248 C,0,163841,,157,23,30 F,2,163841,168337,1,0 S,2,163841,168337,1,0.2
Sprite,Foreground,Centre,"sb\etc\l.png",0,0 C,0,171409,,40,126,199 M,0,171409,171443,492,261,508.3512,271.8586 F,2,171409,171972,1,0 S,2,171409,171972,1,0.2 M,0,171443,171477,508.3512,271.8586,522.3274,285.6096 M,0,171477,171511,522.3274,285.6096,533.5592,301.6792 M,0,171511,171545,533.5592,301.6792,541.1462,319.7648 M,0,171545,171579,541.1462,319.7648,545.4443,338.9169 M,0,171579,171613,545.4443,338.9169,544.3799,332.4422 M,0,171613,171647,544.3799,332.4422,538.949,313.6072 M,0,171647,171681,538.949,313.6072,530.1467,296.0888 M,0,171681,171715,530.1467,296.0888,518.1654,280.545 M,0,171715,171749,518.1654,280.545,503.0689,267.9956 M,0,171749,171772,503.0689,267.9956,492,261
Sprite,Foreground,Centre,"sb\etc\l.png",0,0 C,0,171955,,40,126,199 M,0,171955,171989,376,259,377.8381,239.4516 F,2,171955,172518,1,0 S,2,171955,172518,1,0.2 M,0,171989,172023,377.8381,239.4516,383.143,220.5669 M,0,172023,172057,383.143,220.5669,391.6438,202.8927 M,0,172057,172091,391.6438,202.8927,403.4821,187.2475 M,0,172091,172125,403.4821,187.2475,417.7739,173.7882 M,0,172125,172159,417.7739,173.7882,412.7682,178.0293 M,0,172159,172193,412.7682,178.0293,399.2642,192.2459 M,0,172193,172227,399.2642,192.2459,388.4633,208.6183 M,0,172227,172261,388.4633,208.6183,380.7635,226.676 M,0,172261,172295,380.7635,226.676,376.9449,245.9363 M,0,172295,172318,376.9449,245.9363,376,259
Sprite,Foreground,Centre,"sb\etc\ring.png",200,414 C,0,110591,,40,126,199 F,2,110591,110791,1,0 S,2,110591,110791,1.2,0.24
Sprite,Foreground,Centre,"sb\etc\ring.png",148,343 C,0,110864,,40,126,199 F,2,110864,111064,1,0 S,2,110864,111064,1.2,0.24
Sprite,Foreground,Centre,"sb\etc\ring.png",185,271 C,0,111137,,40,126,199 F,2,111137,111337,1,0 S,2,111137,111337,1.2,0.24
Sprite,Foreground,Centre,"sb\etc\ring.png",565,332 C,0,52500,,159,83,121 F,2,52500,52700,1,0 S,2,52500,52700,1.2,0.24
Sprite,Foreground,Centre,"sb\etc\ring.png",506,115 C,0,52909,,159,83,121 F,2,52909,53109,1,0 S,2,52909,53109,1.2,0.24
Sprite,Foreground,Centre,"sb\etc\ring.png",301,78 C,0,53318,,159,83,121 F,2,53318,53518,1,0 S,2,53318,53518,1.2,0.24
Sprite,Foreground,Centre,"sb\etc\ring.png",156,173 C,0,53591,,40,61,98 F,2,53591,53791,1,0 S,2,53591,53791,1.2,0.24
Sprite,Foreground,Centre,"sb\etc\ring.png",281,381 C,0,54137,,40,61,98 F,2,54137,54337,1,0 S,2,54137,54337,1.2,0.24
Sprite,Foreground,Centre,"sb\etc\ring.png",115,431 C,0,54682,,40,61,98 F,2,54682,54882,1,0 S,2,54682,54882,1.2,0.24
Sprite,Foreground,Centre,"sb\etc\ring.png",156,166 C,0,55773,,157,23,30 F,2,55773,55973,1,0 S,2,55773,55973,1.2,0.24
Sprite,Foreground,Centre,"sb\etc\ring.png",201,228 C,0,56046,,157,23,30 F,2,56046,56246,1,0 S,2,56046,56246,1.2,0.24
Sprite,Foreground,Centre,"sb\etc\ring.png",77,172 C,0,56318,,157,23,30 F,2,56318,56518,1,0 S,2,56318,56518,1.2,0.24
Sprite,Foreground,Centre,"sb\etc\ring.png",188,92 C,0,56591,,157,23,30 F,2,56591,56791,1,0 S,2,56591,56791,1.2,0.24
Sprite,Foreground,Centre,"sb\etc\l.png",148,199 C,0,111409,,159,83,121 F,2,111409,111809,1,0 S,2,111409,111809,1.5,0.3
Sprite,Foreground,Centre,"sb\etc\l.png",239,82 C,0,111682,,159,83,121 F,2,111682,112082,1,0 S,2,111682,112082,1.5,0.3
Sprite,Foreground,Centre,"sb\etc\l.png",323,212 C,0,111955,,159,83,121 F,2,111955,112355,1,0 S,2,111955,112355,1.5,0.3
Sprite,Foreground,Centre,"sb\etc\l.png",401,173 C,0,112364,,159,83,121 F,2,112364,112764,1,0 S,2,112364,112764,1.5,0.3
Sprite,Foreground,Centre,"sb\etc\l.png",479,134 C,0,112500,,159,83,121 F,2,112500,112900,1,0 S,2,112500,112900,1.5,0.3
Sprite,Foreground,Centre,"sb\etc\l.png",537,352 C,0,112909,,159,83,121 F,2,112909,113309,1,0 S,2,112909,113309,1.5,0.3
Sprite,Foreground,Centre,"sb\etc\l.png",383,339 C,0,113182,,159,83,121 F,2,113182,113582,1,0 S,2,113182,113582,1.5,0.3
Sprite,Foreground,Centre,"sb\etc\l.png",396,425 C,0,113591,,40,61,98 F,2,113591,113991,1,0 S,2,113591,113991,1.5,0.3
Sprite,Foreground,Centre,"sb\etc\l.png",297,321 C,0,113864,,40,61,98 F,2,113864,114264,1,0 S,2,113864,114264,1.5,0.3
Sprite,Foreground,Centre,"sb\etc\l.png",133,350 C,0,114137,,40,61,98 F,2,114137,114537,1,0 S,2,114137,114537,1.5,0.3
Sprite,Foreground,Centre,"sb\etc\l.png",65,295 C,0,114546,,40,61,98 F,2,114546,114946,1,0 S,2,114546,114946,1.5,0.3
Sprite,Foreground,Centre,"sb\etc\l.png",120,227 C,0,114682,,40,61,98 F,2,114682,115082,1,0 S,2,114682,115082,1.5,0.3
Sprite,Foreground,Centre,"sb\etc\l.png",352,255 C,0,115091,,40,61,98 F,2,115091,115491,1,0 S,2,115091,115491,1.5,0.3
Sprite,Foreground,Centre,"sb\etc\l.png",413,125 C,0,115500,,40,61,98 F,2,115500,115900,1,0 S,2,115500,115900,1.5,0.3
Sprite,Foreground,Centre,"sb\etc\l.png",495,139 C,0,115773,,157,23,30 F,2,115773,116173,1,0 S,2,115773,116173,1.5,0.3
Sprite,Foreground,Centre,"sb\etc\l.png",559,287 C,0,116046,,157,23,30 F,2,116046,116446,1,0 S,2,116046,116446,1.5,0.3
Sprite,Foreground,Centre,"sb\etc\l.png",402,326 C,0,116318,,157,23,30 F,2,116318,116718,1,0 S,2,116318,116718,1.5,0.3
Sprite,Foreground,Centre,"sb\etc\l.png",419,240 C,0,116727,,157,23,30 F,2,116727,117127,1,0 S,2,116727,117127,1.5,0.3
Sprite,Foreground,Centre,"sb\etc\l.png",337,269 C,0,116864,,157,23,30 F,2,116864,117264,1,0 S,2,116864,117264,1.5,0.3
Sprite,Foreground,Centre,"sb\etc\l.png",354,184 C,0,117273,,157,23,30 F,2,117273,117673,1,0 S,2,117273,117673,1.5,0.3
Sprite,Foreground,Centre,"sb\etc\l.png",388,97 C,0,117682,,157,23,30 F,2,117682,118082,1,0 S,2,117682,118082,1.5,0.3
Sprite,Foreground,Centre,"sb\etc\l.png",419,240 C,0,117955,,40,126,199 F,2,117955,118355,1,0 S,2,117955,118355,1.5,0.3
Sprite,Foreground,Centre,"sb\etc\l.png",457,308 C,0,118227,,40,126,199 F,2,118227,118627,1,0 S,2,118227,118627,1.5,0.3
Sprite,Foreground,Centre,"sb\etc\l.png",419,376 C,0,118500,,40,126,199 F,2,118500,118900,1,0 S,2,118500,118900,1.5,0.3
Sprite,Foreground,Centre,"sb\etc\l.png",351,414 C,0,118773,,40,126,199 F,2,118773,119173,1,0 S,2,118773,119173,1.5,0.3
Sprite,Foreground,Centre,"sb\etc\l.png",283,376 C,0,119046,,159,83,121 F,2,119046,119446,1,0 S,2,119046,119446,1.5,0.3
Sprite,Foreground,Centre,"sb\etc\l.png",65,325 C,0,119455,,159,83,121 F,2,119455,119855,1,0 S,2,119455,119855,1.5,0.3
Sprite,Foreground,Centre,"sb\etc\l.png",123,260 C,0,119591,,159,83,121 F,2,119591,119991,1,0 S,2,119591,119991,1.5,0.3
Sprite,Foreground,Centre,"sb\etc\l.png",97,192 C,0,119864,,159,83,121 F,2,119864,120264,1,0 S,2,119864,120264,1.5,0.3
Sprite,Foreground,Centre,"sb\etc\l.png",123,124 C,0,120137,,40,61,98 F,2,120137,120537,1,0 S,2,120137,120537,1.5,0.3
Sprite,Foreground,Centre,"sb\etc\l.png",271,87 C,0,120409,,40,61,98 F,2,120409,120809,1,0 S,2,120409,120809,1.5,0.3
Sprite,Foreground,Centre,"sb\etc\l.png",291,250 C,0,120682,,40,61,98 F,2,120682,121082,1,0 S,2,120682,121082,1.5,0.3
Sprite,Foreground,Centre,"sb\etc\l.png",362,199 C,0,121091,,40,61,98 F,2,121091,121491,1,0 S,2,121091,121491,1.5,0.3
Sprite,Foreground,Centre,"sb\etc\l.png",433,251 C,0,121227,,40,61,98 F,2,121227,121627,1,0 S,2,121227,121627,1.5,0.3
Sprite,Foreground,Centre,"sb\etc\l.png",556,311 C,0,121637,,40,61,98 F,2,121637,122037,1,0 S,2,121637,122037,1.5,0.3
Sprite,Foreground,Centre,"sb\etc\l.png",394,329 C,0,121909,,40,61,98 F,2,121909,122309,1,0 S,2,121909,122309,1.5,0.3
Sprite,Foreground,Centre,"sb\etc\l.png",433,251 C,0,122318,,157,23,30 F,2,122318,122718,1,0 S,2,122318,122718,1.5,0.3
Sprite,Foreground,Centre,"sb\etc\l.png",472,90 C,0,122591,,157,23,30 F,2,122591,122991,1,0 S,2,122591,122991,1.5,0.3
Sprite,Foreground,Centre,"sb\etc\l.png",314,131 C,0,122864,,157,23,30 F,2,122864,123264,1,0 S,2,122864,123264,1.5,0.3
Sprite,Foreground,Centre,"sb\etc\l.png",363,203 C,0,123273,,157,23,30 F,2,123273,123673,1,0 S,2,123273,123673,1.5,0.3
Sprite,Foreground,Centre,"sb\etc\l.png",325,280 C,0,123409,,157,23,30 F,2,123409,123809,1,0 S,2,123409,123809,1.5,0.3
Sprite,Foreground,Centre,"sb\etc\l.png",104,218 C,0,123818,,157,23,30 F,2,123818,124218,1,0 S,2,123818,124218,1.5,0.3
Sprite,Foreground,Centre,"sb\etc\l.png",169,439 C,0,124227,,157,23,30 F,2,124227,124627,1,0 S,2,124227,124627,1.5,0.3
Sprite,Foreground,Centre,"sb\etc\l.png",239,402 C,0,124500,,40,126,199 F,2,124500,124900,1,0 S,2,124500,124900,1.5,0.3
Sprite,Foreground,Centre,"sb\etc\l.png",402,431 C,0,124773,,40,126,199 F,2,124773,125173,1,0 S,2,124773,125173,1.5,0.3
Sprite,Foreground,Centre,"sb\etc\l.png",431,268 C,0,125046,,40,126,199 F,2,125046,125446,1,0 S,2,125046,125446,1.5,0.3
Sprite,Foreground,Centre,"sb\etc\l.png",268,239 C,0,125318,,40,126,199 F,2,125318,125718,1,0 S,2,125318,125718,1.5,0.3
Sprite,Foreground,Centre,"sb\etc\l.png",167,301 C,0,125591,,159,83,121 F,2,125591,125991,1,0 S,2,125591,125991,1.5,0.3
Sprite,Foreground,Centre,"sb\etc\l.png",105,201 C,0,125864,,159,83,121 F,2,125864,126264,1,0 S,2,125864,126264,1.5,0.3
Sprite,Foreground,Centre,"sb\etc\l.png",205,139 C,0,126137,,159,83,121 F,2,126137,126537,1,0 S,2,126137,126537,1.5,0.3
Sprite,Foreground,Centre,"sb\etc\l.png",268,239 C,0,126409,,159,83,121 F,2,126409,126809,1,0 S,2,126409,126809,1.5,0.3
Sprite,Foreground,Centre,"sb\etc\l.png",239,402 C,0,126682,,40,61,98 F,2,126682,127082,1,0 S,2,126682,127082,1.5,0.3
Sprite,Foreground,Centre,"sb\etc\l.png",467,420 C,0,127091,,40,61,98 F,2,127091,127491,1,0 S,2,127091,127491,1.5,0.3
Sprite,Foreground,Centre,"sb\etc\l.png",533,364 C,0,127227,,40,61,98 F,2,127227,127627,1,0 S,2,127227,127627,1.5,0.3
Sprite,Foreground,Centre,"sb\etc\l.png",509,128 C,0,127637,,40,61,98 F,2,127637,128037,1,0 S,2,127637,128037,1.5,0.3
Sprite,Foreground,Centre,"sb\etc\l.png",450,191 C,0,127773,,157,23,30 F,2,127773,128173,1,0 S,2,127773,128173,1.5,0.3
Sprite,Foreground,Centre,"sb\etc\l.png",379,167 C,0,128046,,157,23,30 F,2,128046,128446,1,0 S,2,128046,128446,1.5,0.3
Sprite,Foreground,Centre,"sb\etc\l.png",308,191 C,0,128318,,157,23,30 F,2,128318,128718,1,0 S,2,128318,128718,1.5,0.3
Sprite,Foreground,Centre,"sb\etc\l.png",237,167 C,0,128591,,157,23,30 F,2,128591,128991,1,0 S,2,128591,128991,1.5,0.3
Sprite,Foreground,Centre,"sb\etc\l.png",236,261 C,0,176864,,40,126,199 F,2,176864,177264,1,0 S,2,176864,177264,1.5,0.3
Sprite,Foreground,Centre,"sb\etc\l.png",173,111 C,0,177137,,40,126,199 F,2,177137,177537,1,0 S,2,177137,177537,1.5,0.3
Sprite,Foreground,Centre,"sb\etc\l.png",333,117 C,0,177409,,40,126,199 F,2,177409,177809,1,0 S,2,177409,177809,1.5,0.3
Sprite,Foreground,Centre,"sb\etc\l.png",406,71 C,0,177818,,40,126,199 F,2,177818,178218,1,0 S,2,177818,178218,1.5,0.3
Sprite,Foreground,Centre,"sb\etc\l.png",490,91 C,0,177955,,40,126,199 F,2,177955,178355,1,0 S,2,177955,178355,1.5,0.3
Sprite,Foreground,Centre,"sb\etc\l.png",417,270 C,0,178364,,40,126,199 F,2,178364,178764,1,0 S,2,178364,178764,1.5,0.3
Sprite,Foreground,Centre,"sb\etc\l.png",344,352 C,0,178637,,40,126,199 F,2,178637,179037,1,0 S,2,178637,179037,1.5,0.3
Sprite,Foreground,Centre,"sb\etc\l.png",325,267 C,0,179046,,159,83,121 F,2,179046,179446,1,0 S,2,179046,179446,1.5,0.3
Sprite,Foreground,Centre,"sb\etc\l.png",194,322 C,0,179318,,159,83,121 F,2,179318,179718,1,0 S,2,179318,179718,1.5,0.3
Sprite,Foreground,Centre,"sb\etc\l.png",64,267 C,0,179591,,159,83,121 F,2,179591,179991,1,0 S,2,179591,179991,1.5,0.3
Sprite,Foreground,Centre,"sb\etc\l.png",116,336 C,0,180000,,159,83,121 F,2,180000,180400,1,0 S,2,180000,180400,1.5,0.3
Sprite,Foreground,Centre,"sb\etc\l.png",145,253 C,0,180137,,159,83,121 F,2,180137,180537,1,0 S,2,180137,180537,1.5,0.3
Sprite,Foreground,Centre,"sb\etc\l.png",233,71 C,0,180546,,159,83,121 F,2,180546,180946,1,0 S,2,180546,180946,1.5,0.3
Sprite,Foreground,Centre,"sb\etc\l.png",445,174 C,0,180955,,159,83,121 F,2,180955,181355,1,0 S,2,180955,181355,1.5,0.3
Sprite,Foreground,Centre,"sb\etc\l.png",422,252 C,0,181227,,40,61,98 F,2,181227,181627,1,0 S,2,181227,181627,1.5,0.3
Sprite,Foreground,Centre,"sb\etc\l.png",263,232 C,0,181500,,40,61,98 F,2,181500,181900,1,0 S,2,181500,181900,1.5,0.3
Sprite,Foreground,Centre,"sb\etc\l.png",345,105 C,0,181773,,40,61,98 F,2,181773,182173,1,0 S,2,181773,182173,1.5,0.3
Sprite,Foreground,Centre,"sb\etc\l.png",265,70 C,0,182182,,40,61,98 F,2,182182,182582,1,0 S,2,182182,182582,1.5,0.3
Sprite,Foreground,Centre,"sb\etc\l.png",275,156 C,0,182318,,40,61,98 F,2,182318,182718,1,0 S,2,182318,182718,1.5,0.3
Sprite,Foreground,Centre,"sb\etc\l.png",337,106 C,0,182727,,40,61,98 F,2,182727,183127,1,0 S,2,182727,183127,1.5,0.3
Sprite,Foreground,Centre,"sb\etc\l.png",422,86 C,0,183137,,40,61,98 F,2,183137,183537,1,0 S,2,183137,183537,1.5,0.3
Sprite,Foreground,Centre,"sb\etc\l.png",536,150 C,0,183409,,157,23,30 F,2,183409,183809,1,0 S,2,183409,183809,1.5,0.3
Sprite,Foreground,Centre,"sb\etc\l.png",448,209 C,0,183955,,157,23,30 F,2,183955,184355,1,0 S,2,183955,184355,1.5,0.3
Sprite,Foreground,Centre,"sb\etc\l.png",404,133 C,0,184364,,157,23,30 F,2,184364,184764,1,0 S,2,184364,184764,1.5,0.3
Sprite,Foreground,Centre,"sb\etc\l.png",346,197 C,0,184500,,40,126,199 F,2,184500,184900,1,0 S,2,184500,184900,1.5,0.3
Sprite,Foreground,Centre,"sb\etc\l.png",398,418 C,0,184909,,40,126,199 F,2,184909,185309,1,0 S,2,184909,185309,1.5,0.3
Sprite,Foreground,Centre,"sb\etc\l.png",236,439 C,0,185182,,40,126,199 F,2,185182,185582,1,0 S,2,185182,185582,1.5,0.3
Sprite,Foreground,Centre,"sb\etc\l.png",198,293 C,0,185455,,40,126,199 F,2,185455,185855,1,0 S,2,185455,185855,1.5,0.3
Sprite,Foreground,Centre,"sb\etc\l.png",198,293 C,0,185591,,159,83,121 F,2,185591,185991,1,0 S,2,185591,185991,1.5,0.3
Sprite,Foreground,Centre,"sb\etc\l.png",76,189 C,0,185865,,159,83,121 F,2,185865,186265,1,0 S,2,185865,186265,1.5,0.3
Sprite,Foreground,Centre,"sb\etc\l.png",203,90 C,0,186137,,159,83,121 F,2,186137,186537,1,0 S,2,186137,186537,1.5,0.3
Sprite,Foreground,Centre,"sb\etc\l.png",259,156 C,0,186546,,159,83,121 F,2,186546,186946,1,0 S,2,186546,186946,1.5,0.3
Sprite,Foreground,Centre,"sb\etc\l.png",304,81 C,0,186682,,159,83,121 F,2,186682,187082,1,0 S,2,186682,187082,1.5,0.3
Sprite,Foreground,Centre,"sb\etc\l.png",543,103 C,0,187091,,159,83,121 F,2,187091,187491,1,0 S,2,187091,187491,1.5,0.3
Sprite,Foreground,Centre,"sb\etc\l.png",494,241 C,0,187364,,159,83,121 F,2,187364,187764,1,0 S,2,187364,187764,1.5,0.3
Sprite,Foreground,Centre,"sb\etc\l.png",416,202 C,0,187773,,40,61,98 F,2,187773,188173,1,0 S,2,187773,188173,1.5,0.3
Sprite,Foreground,Centre,"sb\etc\l.png",289,145 C,0,188046,,40,61,98 F,2,188046,188446,1,0 S,2,188046,188446,1.5,0.3
Sprite,Foreground,Centre,"sb\etc\l.png",162,202 C,0,188318,,40,61,98 F,2,188318,188718,1,0 S,2,188318,188718,1.5,0.3
Sprite,Foreground,Centre,"sb\etc\l.png",228,260 C,0,188727,,40,61,98 F,2,188727,189127,1,0 S,2,188727,189127,1.5,0.3
Sprite,Foreground,Centre,"sb\etc\l.png",146,289 C,0,188864,,40,61,98 F,2,188864,189264,1,0 S,2,188864,189264,1.5,0.3
Sprite,Foreground,Centre,"sb\etc\l.png",228,414 C,0,189273,,40,61,98 F,2,189273,189673,1,0 S,2,189273,189673,1.5,0.3
Sprite,Foreground,Centre,"sb\etc\l.png",456,394 C,0,189682,,40,61,98 F,2,189682,190082,1,0 S,2,189682,190082,1.5,0.3
Sprite,Foreground,Centre,"sb\etc\l.png",462,314 C,0,189955,,157,23,30 F,2,189955,190355,1,0 S,2,189955,190355,1.5,0.3
Sprite,Foreground,Centre,"sb\etc\l.png",525,243 C,0,190227,,157,23,30 F,2,190227,190627,1,0 S,2,190227,190627,1.5,0.3
Sprite,Foreground,Centre,"sb\etc\l.png",427,151 C,0,190500,,157,23,30 F,2,190500,190900,1,0 S,2,190500,190900,1.5,0.3
Sprite,Foreground,Centre,"sb\etc\l.png",263,128 C,0,190773,,157,23,30 F,2,190773,191173,1,0 S,2,190773,191173,1.5,0.3
Sprite,Foreground,Centre,"sb\etc\l.png",327,277 C,0,191046,,40,126,199 F,2,191046,191446,1,0 S,2,191046,191446,1.5,0.3
Sprite,Foreground,Centre,"sb\etc\l.png",254,346 C,0,191318,,40,126,199 F,2,191318,191718,1,0 S,2,191318,191718,1.5,0.3
Sprite,Foreground,Centre,"sb\etc\l.png",92,317 C,0,191592,,40,126,199 F,2,191592,191992,1,0 S,2,191592,191992,1.5,0.3
Sprite,Foreground,Centre,"sb\etc\l.png",64,155 C,0,191864,,40,126,199 F,2,191864,192264,1,0 S,2,191864,192264,1.5,0.3
Sprite,Foreground,Centre,"sb\etc\l.png",212,117 C,0,192137,,159,83,121 F,2,192137,192537,1,0 S,2,192137,192537,1.5,0.3
Sprite,Foreground,Centre,"sb\etc\l.png",427,58 C,0,192546,,159,83,121 F,2,192546,192946,1,0 S,2,192546,192946,1.5,0.3
Sprite,Foreground,Centre,"sb\etc\l.png",448,142 C,0,192682,,159,83,121 F,2,192682,193082,1,0 S,2,192682,193082,1.5,0.3
Sprite,Foreground,Centre,"sb\etc\l.png",555,318 C,0,193091,,159,83,121 F,2,193091,193491,1,0 S,2,193091,193491,1.5,0.3
//Storyboard Layer 4 (Overlay)
//Storyboard Sound Samples

[TimingPoints]
137,272.727272727273,4,2,1,30,1,0
8318,-100,4,2,2,60,0,0
8864,-95.2380952380951,4,2,2,60,0,0
25977,-95.2380952380951,4,2,2,5,0,0
26046,-95.2380952380951,4,2,2,60,0,0
26318,-95.2380952380951,4,2,2,70,0,0
35046,-95.2380952380951,4,2,2,65,0,0
51477,-95.2380952380951,4,2,2,5,0,0
51546,-95.2380952380951,4,2,2,65,0,0
52500,-95.2380952380951,4,2,2,75,0,0
54000,-95.2380952380951,4,2,2,5,0,0
54137,-95.2380952380951,4,2,2,75,0,0
56046,-95.2380952380951,4,2,2,70,0,0
56387,-95.2380952380951,4,2,2,5,0,0
56455,-95.2380952380951,4,2,2,70,0,0
56727,-95.2380952380951,4,2,2,5,0,0
56864,-95.2380952380951,4,2,2,90,0,1
57068,-95.2380952380951,4,2,2,5,0,1
57137,-95.2380952380951,4,2,2,90,0,1
59250,-95.2380952380951,4,2,2,5,0,1
59318,-95.2380952380951,4,2,2,90,0,1
60887,-95.2380952380951,4,2,2,5,0,1
60955,-95.2380952380951,4,2,2,90,0,1
61432,-95.2380952380951,4,2,2,5,0,1
61500,-95.2380952380951,4,2,2,90,0,1
65796,-95.2380952380951,4,2,2,5,0,1
65864,-95.2380952380951,4,2,2,90,0,1
67977,-95.2380952380951,4,2,2,5,0,1
68046,-95.2380952380951,4,2,2,90,0,1
73909,-95.2380952380951,4,2,2,70,0,1
74046,-95.2380952380951,4,2,2,90,0,1
74318,-95.2380952380951,4,2,2,90,0,0
83046,-95.2380952380951,4,2,2,55,0,0
89591,-95.2380952380951,4,2,2,60,0,0
91773,-95.2380952380951,4,2,2,65,0,0
110591,-95.2380952380951,4,2,2,65,0,0
110864,-95.2380952380951,4,2,2,70,0,0
111409,-95.2380952380951,4,2,2,90,0,1
111614,-95.2380952380951,4,2,2,5,0,1
111682,-95.2380952380951,4,2,2,90,0,1
113796,-95.2380952380951,4,2,2,5,0,1
113864,-95.2380952380951,4,2,2,90,0,1
114887,-95.2380952380951,4,2,2,5,0,1
114955,-95.2380952380951,4,2,2,90,0,1
115432,-95.2380952380951,4,2,2,5,0,1
115500,-95.2380952380951,4,2,2,90,0,1
115977,-95.2380952380951,4,2,2,5,0,1
116046,-95.2380952380951,4,2,2,90,0,1
120341,-95.2380952380951,4,2,2,5,0,1
120409,-95.2380952380951,4,2,2,90,0,1
121432,-95.2380952380951,4,2,2,5,0,1
121500,-95.2380952380951,4,2,2,90,0,1
122523,-95.2380952380951,4,2,2,5,0,1
122591,-95.2380952380951,4,2,2,90,0,1
128864,-95.2380952380951,4,2,2,65,0,0
144137,-95.2380952380951,4,2,2,65,0,0
145364,-95.2380952380951,4,2,2,65,0,0
146318,-95.2380952380951,4,2,2,85,0,0
150341,-95.2380952380951,4,2,2,5,0,0
150409,-95.2380952380951,4,2,2,85,0,0
155046,-95.2380952380951,4,2,2,75,0,0
163773,-95.2380952380951,4,2,2,65,0,0
172500,-95.2380952380951,4,2,2,75,0,0
174000,-95.2380952380951,4,2,2,5,0,0
174137,-95.2380952380951,4,2,2,75,0,0
174546,-95.2380952380951,4,2,2,5,0,0
174682,-95.2380952380951,4,2,2,75,0,0
176387,-95.2380952380951,4,2,2,5,0,0
176455,-95.2380952380951,4,2,2,75,0,0
176727,-95.2380952380951,4,2,2,5,0,0
176864,-95.2380952380951,4,2,2,90,0,1
177068,-95.2380952380951,4,2,2,5,0,1
177137,-95.2380952380951,4,2,2,90,0,1
179250,-95.2380952380951,4,2,2,5,0,1
179318,-95.2380952380951,4,2,2,90,0,1
180887,-95.2380952380951,4,2,2,5,0,1
180955,-95.2380952380951,4,2,2,90,0,1
181432,-95.2380952380951,4,2,2,5,0,1
181500,-95.2380952380951,4,2,2,90,0,1
185796,-95.2380952380951,4,2,2,5,0,1
185864,-95.2380952380951,4,2,2,90,0,1
187977,-95.2380952380951,4,2,2,5,0,1
188046,-95.2380952380951,4,2,2,90,0,1
193227,-95.2380952380951,4,2,2,90,0,0
193296,-95.2380952380951,4,2,2,5,0,0
193637,-95.2380952380951,4,2,2,90,0,0
193705,-95.2380952380951,4,2,2,5,0,0
194046,-95.2380952380951,4,2,2,90,0,0
194114,-95.2380952380951,4,2,2,5,0,0
194455,-95.2380952380951,4,2,2,90,0,0
194591,-95.2380952380951,4,2,2,60,0,0
194864,-95.2380952380951,4,2,2,60,0,0
195000,-95.2380952380951,4,2,2,5,0,0
195137,-95.2380952380951,4,2,2,60,0,0
195273,-95.2380952380951,4,2,2,5,0,0

[Colours]
Combo1 : 40,61,98
Combo2 : 157,23,30
Combo3 : 40,126,199
Combo4 : 159,83,121

[HitObjects]
462,156,8318,6,0,L|456:193,6,37.5,10|0|0|0|0|0|0,0:2|3:2|3:2|3:2|3:2|3:2|3:2,0:0:0:0:
440,120,8864,6,0,B|394:101|394:101|289:120,1,157.499995193482,6|0,3:2|3:2,0:0:0:0:
203,136,9273,1,2,3:2:0:0:
259,202,9409,2,0,L|253:241,2,39.3749987983704,8|0|0,3:2|3:2|3:2,0:0:0:0:
175,227,9682,2,0,L|169:266,2,39.3749987983704,2|0|0,3:2|3:2|3:2,0:0:0:0:
88,233,9955,6,0,L|73:320,1,78.7499975967408,2|0,3:2|3:2,0:0:0:0:
151,349,10227,2,0,L|229:336,1,78.7499975967408,0|0,3:2|3:2,0:0:0:0:
315,329,10500,2,0,L|330:242,1,78.7499975967408,10|0,3:2|3:2,0:0:0:0:
253,215,10772,2,0,L|175:228,1,78.7499975967408,0|0,3:2|3:2,0:0:0:0:
127,154,11046,6,0,L|158:-20,1,157.499995193482,6|0,3:2|3:2,0:0:0:0:
240,9,11455,1,2,3:2:0:0:
324,28,11591,2,0,L|362:21,2,39.3749987983704,8|0|0,3:2|3:2|3:2,0:0:0:0:
361,106,11864,2,0,L|399:99,2,39.3749987983704,2|0|0,3:2|3:2|3:2,0:0:0:0:
282,142,12137,6,0,L|205:156,1,78.7499975967408,2|0,3:2|3:2,0:0:0:0:
165,78,12409,2,0,L|87:65,1,78.7499975967408,2|0,3:2|3:2,0:0:0:0:
30,131,12682,2,0,L|37:170,3,39.3749987983704,10|0|0|0,3:2|3:2|3:2|3:2,0:0:0:0:
70,197,12955,2,0,L|64:236,3,39.3749987983704,2|0|0|0,3:2|3:2|3:2|3:2,0:0:0:0:
34,267,13227,6,0,P|111:256|179:293,1,157.499995193482,6|0,3:2|3:2,0:0:0:0:
209,374,13637,1,2,3:2:0:0:
276,320,13773,2,0,L|340:332,2,39.3749987983704,8|0|0,3:2|3:2|3:2,0:0:0:0:
301,236,14046,2,0,L|339:243,2,39.3749987983704,2|0|0,3:2|3:2|3:2,0:0:0:0:
329,154,14318,6,0,L|251:141,1,78.7499975967408,2|0,3:2|3:2,0:0:0:0:
164,132,14591,2,0,L|177:53,1,78.7499975967408,0|0,3:2|3:2,0:0:0:0:
248,4,14864,2,0,L|326:17,1,78.7499975967408,10|0,3:2|3:2,0:0:0:0:
413,26,15137,2,0,L|400:104,1,78.7499975967408,0|0,3:2|3:2,0:0:0:0:
329,154,15409,6,0,B|400:194|400:194|477:151,1,157.499995193482,6|0,3:2|3:2,0:0:0:0:
497,238,15818,1,2,3:2:0:0:
425,287,15955,2,0,L|387:281,2,39.3749987983704,8|0|0,3:2|3:2|3:2,0:0:0:0:
386,364,16227,2,0,L|348:358,2,39.3749987983704,2|0|0,3:2|3:2|3:2,0:0:0:0:
300,281,16500,6,0,L|223:268,1,78.7499975967408,2|0,3:2|3:2,0:0:0:0:
179,343,16773,2,0,L|102:330,1,78.7499975967408,2|0,3:2|3:2,0:0:0:0:
86,244,17046,2,0,L|92:206,3,39.3749987983704,10|0|0|0,3:2|3:2|3:2|3:2,0:0:0:0:
122,176,17318,2,0,L|115:138,3,39.3749987983704,2|0|0|0,3:2|3:2|3:2|3:2,0:0:0:0:
86,104,17591,6,0,B|172:94|133:30|220:25,1,157.499995193482,6|0,3:2|3:2,0:0:0:0:
286,74,18000,1,2,3:2:0:0:
369,100,18137,2,0,L|417:109,2,39.3749987983704,8|0|0,3:2|3:2|3:2,0:0:0:0:
401,19,18409,2,0,L|440:26,2,39.3749987983704,2|0|0,3:2|3:2|3:2,0:0:0:0:
496,100,18682,6,0,L|495:214,1,78.7499975967408,2|0,3:2|3:2,0:0:0:0:
410,199,18955,2,0,L|411:313,1,78.7499975967408,0|0,3:2|3:2,0:0:0:0:
337,323,19227,2,0,B|300:339|300:339|253:321,1,78.7499975967408,10|0,3:2|3:2,0:0:0:0:
219,250,19500,2,0,B|183:236|183:236|146:252,1,78.7499975967408,0|0,3:2|3:2,0:0:0:0:
84,191,19773,6,0,P|110:245|44:339,1,157.499995193482,6|0,3:2|3:2,0:0:0:0:
26,251,20182,1,2,3:2:0:0:
3,167,20318,2,0,L|6:128,2,39.3749987983704,8|0|0,3:2|3:2|3:2,0:0:0:0:
92,105,20591,2,0,L|95:66,2,39.3749987983704,2|0|0,3:2|3:2|3:2,0:0:0:0:
168,145,20864,6,0,L|262:129,1,78.7499975967408,2|0,3:2|3:2,0:0:0:0:
328,106,21137,2,0,L|314:184,1,78.7499975967408,2|0,3:2|3:2,0:0:0:0:
322,269,21409,2,0,L|381:259,3,39.3749987983704,10|0|0|0,3:2|3:2|3:2|3:2,0:0:0:0:
396,237,21682,2,0,L|434:244,3,39.3749987983704,2|0|0|0,3:2|3:2|3:2|3:2,0:0:0:0:
467,273,21955,6,0,B|507:256|507:256|489:109,1,157.499995193482,6|0,3:2|3:2,0:0:0:0:
425,87,22364,1,2,3:2:0:0:
368,21,22500,2,0,L|329:15,2,39.3749987983704,8|0|0,3:2|3:2|3:2,0:0:0:0:
328,98,22773,2,0,L|289:92,2,39.3749987983704,2|0|0,3:2|3:2|3:2,0:0:0:0:
296,179,23046,6,0,L|218:165,1,78.7499975967408,2|0,3:2|3:2,0:0:0:0:
211,78,23318,2,0,L|289:92,1,78.7499975967408,0|0,3:2|3:2,0:0:0:0:
218,165,23591,2,0,L|140:151,1,78.7499975967408,10|0,3:2|3:2,0:0:0:0:
133,64,23863,2,0,L|211:78,1,78.7499975967408,0|0,3:2|3:2,0:0:0:0:
218,165,24137,6,0,L|210:212,3,39.3749987983704,10|0|10|0,0:2|0:0|0:2|0:0,0:0:0:0:
243,233,24409,1,10,3:2:0:0:
438,220,24682,2,0,L|430:173,3,39.3749987983704,10|0|8|0,3:2|0:0|0:2|0:0,0:0:0:0:
463,152,24954,1,10,3:2:0:0:
301,88,25227,5,14,0:2:0:0:
481,368,26046,6,0,L|475:329,3,39.3749987983704,8|0|0|0,0:2|3:2|3:2|3:2,0:0:0:0:
491,289,26318,6,0,B|445:308|445:308|340:289,1,157.499995193482,6|0,3:2|3:2,0:0:0:0:
287,220,26727,2,0,L|130:248,1,157.499995193482,10|8,0:2|0:2,0:0:0:0:
48,272,27137,2,0,P|46:234|61:198,1,78.7499975967408,2|8,3:2|0:2,0:0:0:0:
0,137,27409,2,0,P|33:116|72:111,1,78.7499975967408,2|8,3:2|0:2,0:0:0:0:
141,164,27682,2,0,L|180:158,3,39.3749987983704,0|0|8|0,3:2|3:2|0:2|0:0,0:0:0:0:
203,120,27955,2,0,L|305:138,1,78.7499975967408,2|8,3:2|0:2,0:0:0:0:
317,56,28227,2,0,L|356:63,3,39.3749987983704,0|0|8|0,3:2|3:2|0:2|0:0,0:0:0:0:
379,100,28500,6,0,L|539:73,1,157.499995193482,2|0,3:2|3:2,0:0:0:0:
511,157,28909,2,0,L|356:185,1,157.499995193482,10|8,0:2|0:2,0:0:0:0:
281,134,29318,2,0,L|201:120,1,78.7499975967408,2|8,3:2|0:2,0:0:0:0:
133,70,29591,2,0,P|118:106|120:145,1,78.7499975967408,2|8,3:2|0:2,0:0:0:0:
41,181,29863,2,0,P|65:213|99:231,1,78.7499975967408,2|8,3:2|0:2,0:0:0:0:
91,316,30137,2,0,P|130:312|163:291,1,78.7499975967408,2|8,3:2|0:2,0:0:0:0:
233,340,30409,2,0,P|249:305|247:266,1,78.7499975967408,2|8,3:2|0:2,0:0:0:0:
183,206,30682,6,0,P|252:243|328:232,1,157.499995193482,6|0,3:2|3:2,0:0:0:0:
349,147,31091,2,0,P|281:111|205:122,1,157.499995193482,10|8,0:2|0:2,0:0:0:0:
121,145,31500,2,0,L|27:162,1,78.7499975967408,2|8,3:2|0:2,0:0:0:0:
21,243,31773,2,0,L|99:230,1,78.7499975967408,2|8,3:2|0:2,0:0:0:0:
183,206,32046,2,0,L|175:254,3,39.3749987983704,0|0|8|0,3:2|3:2|0:2|0:0,0:0:0:0:
168,288,32318,2,0,L|246:275,1,78.7499975967408,2|8,3:2|0:2,0:0:0:0:
332,259,32591,2,0,L|324:307,3,39.3749987983704,0|0|8|0,3:2|3:2|0:2|0:0,0:0:0:0:
317,341,32864,6,0,L|483:312,1,157.499995193482,2|0,3:2|3:2,0:0:0:0:
512,235,33273,2,0,L|434:222,1,78.7499975967408,10|0,0:2|3:2,0:0:0:0:
401,142,33546,1,8,0:2:0:0:
368,63,33682,2,0,L|290:49,1,78.7499975967408,2|8,3:2|0:2,0:0:0:0:
230,112,33955,6,0,L|242:176,2,52.4999983978272,0|0|0,3:2|3:2|3:2,0:0:0:0:
185,77,34227,2,0,L|195:26,2,52.4999983978272,2|0|0,3:2|3:2|3:2,0:0:0:0:
140,112,34500,6,0,L|102:119,3,39.3749987983704,2|0|0|0,3:2|3:2|3:2|3:2,0:0:0:0:
70,89,34773,2,0,L|32:83,3,39.3749987983704,0|0|0|0,3:2|3:2|3:2|3:2,0:0:0:0:
1,113,35046,6,0,B|20:159|20:159|1:264,1,157.499995193482,6|0,3:2|3:2,0:0:0:0:
1,353,35455,2,0,P|40:344|70:320,1,78.7499975967408,10|0,0:2|3:2,0:0:0:0:
145,362,35727,2,0,P|157:325|150:287,1,78.7499975967408,10|2,0:2|3:2,0:0:0:0:
117,207,36000,2,0,P|186:244|262:233,1,157.499995193482,10|8,0:2|0:2,0:0:0:0:
305,310,36409,2,0,P|344:308|380:324,1,78.7499975967408,2|8,3:2|0:2,0:0:0:0:
448,267,36682,2,0,L|432:173,1,78.7499975967408,2|8,3:2|0:2,0:0:0:0:
351,167,36955,2,0,L|367:73,1,78.7499975967408,2|8,3:2|0:2,0:0:0:0:
390,7,37227,6,0,P|352:5|316:21,1,78.7499975967408,2|8,3:2|0:2,0:0:0:0:
278,99,37500,1,2,3:2:0:0:
230,27,37637,2,0,B|124:8|124:8|78:27,1,157.499995193482,10|8,0:2|0:2,0:0:0:0:
134,94,38046,2,0,L|148:172,1,78.7499975967408,2|8,3:2|0:2,0:0:0:0:
63,194,38319,2,0,L|50:272,1,78.7499975967408,2|8,3:2|0:2,0:0:0:0:
99,344,38591,2,0,L|177:331,1,78.7499975967408,2|8,3:2|0:2,0:0:0:0:
261,308,38864,2,0,L|274:230,1,78.7499975967408,2|8,3:2|0:2,0:0:0:0:
226,159,39137,2,0,L|148:172,1,78.7499975967408,2|8,3:2|0:2,0:0:0:0:
63,194,39409,6,0,B|74:131|74:131|97:109|97:109|108:49,1,157.499995193482,6|0,3:2|3:2,0:0:0:0:
193,32,39818,2,0,L|271:19,1,78.7499975967408,10|0,0:2|3:2,0:0:0:0:
294,104,40091,2,0,L|372:117,1,78.7499975967408,10|2,0:2|3:2,0:0:0:0:
428,50,40364,2,0,P|465:119|455:195,1,157.499995193482,10|8,0:2|0:2,0:0:0:0:
498,271,40773,2,0,P|460:283|422:277,1,78.7499975967408,2|8,3:2|0:2,0:0:0:0:
380,352,41045,2,0,P|352:326|339:290,1,78.7499975967408,2|8,3:2|0:2,0:0:0:0:
252,288,41318,2,0,P|261:250|286:221,1,78.7499975967408,2|8,3:2|0:2,0:0:0:0:
373,208,41591,6,0,L|357:114,1,78.7499975967408,2|8,3:2|0:2,0:0:0:0:
419,67,41864,2,0,B|373:86|373:86|267:67,1,157.499995193482,2|0,3:2|3:2,0:0:0:0:
201,11,42273,1,8,0:2:0:0:
120,41,42409,2,0,P|85:25|46:27,1,78.7499975967408,2|8,3:2|0:2,0:0:0:0:
69,111,42682,6,0,L|76:150,3,39.3749987983704,4|0|4|0,3:2|3:2|3:2|3:2,0:0:0:0:
84,193,42955,2,0,L|122:207,3,39.3749987983704,6|0|4|0,3:2|3:2|3:2|3:2,0:0:0:0:
163,222,43227,2,0,L|194:197,3,39.3749987983704,6|0|4|0,3:2|3:2|3:2|3:2,0:0:0:0:
228,169,43500,2,0,L|222:131,3,39.3749987983704,6|0|4|0,3:2|3:2|3:2|3:2,0:0:0:0:
215,87,43773,6,0,L|389:118,1,157.499995193482,6|0,3:2|3:2,0:0:0:0:
451,82,44182,2,0,P|457:121|445:158,1,78.7499975967408,10|0,0:2|3:2,0:0:0:0:
369,201,44455,2,0,P|364:240|376:277,1,78.7499975967408,10|2,0:2|3:2,0:0:0:0:
451,320,44727,2,0,P|375:311|306:347,1,157.499995193482,10|8,0:2|0:2,0:0:0:0:
248,282,45137,2,0,P|210:288|173:276,1,78.7499975967408,2|8,3:2|0:2,0:0:0:0:
119,344,45409,2,0,P|95:314|87:276,1,78.7499975967408,2|8,3:2|0:2,0:0:0:0:
1,264,45682,2,0,P|16:228|45:202,1,78.7499975967408,2|8,3:2|0:2,0:0:0:0:
132,198,45955,6,0,L|116:104,1,78.7499975967408,2|8,3:2|0:2,0:0:0:0:
53,65,46227,2,0,B|114:76|114:76|142:62|142:62|205:73,1,157.499995193482,0|0,3:2|3:2,0:0:0:0:
278,24,46637,1,8,0:2:0:0:
343,82,46773,2,0,L|357:160,1,78.7499975967408,2|8,3:2|0:2,0:0:0:0:
278,198,47046,2,0,L|265:276,1,78.7499975967408,2|8,3:2|0:2,0:0:0:0:
310,350,47318,2,0,L|388:337,1,78.7499975967408,2|8,3:2|0:2,0:0:0:0:
427,259,47591,2,0,L|441:182,1,78.7499975967408,2|8,3:2|0:2,0:0:0:0:
357,160,47864,2,0,L|343:82,1,78.7499975967408,2|8,3:2|0:2,0:0:0:0:
402,18,48137,6,0,B|356:37|356:37|250:18,1,157.499995193482,6|0,3:2|3:2,0:0:0:0:
186,77,48546,2,0,L|76:97,1,78.7499975967408,10|0,0:2|3:2,0:0:0:0:
29,59,48818,2,0,P|24:98|36:135,1,78.7499975967408,10|2,0:2|3:2,0:0:0:0:
112,178,49091,2,0,L|268:151,1,157.499995193482,10|8,0:2|0:2,0:0:0:0:
330,91,49500,2,0,L|425:108,1,78.7499975967408,2|8,3:2|0:2,0:0:0:0:
489,72,49773,2,0,P|495:111|483:148,1,78.7499975967408,2|8,3:2|0:2,0:0:0:0:
420,208,50046,2,0,L|343:195,1,78.7499975967408,2|8,3:2|0:2,0:0:0:0:
268,151,50318,6,0,L|191:165,1,78.7499975967408,2|8,3:2|0:2,0:0:0:0:
117,120,50591,2,0,P|81:189|90:266,1,157.499995193482,2|2,3:2|3:2,0:0:0:0:
34,333,51000,1,8,0:2:0:0:
120,349,51137,2,0,L|198:336,1,78.7499975967408,2|8,3:2|0:2,0:0:0:0:
265,276,51409,6,0,L|313:285,3,39.3749987983704,6|0|8|8,3:2|0:0|0:2|0:2,0:0:0:0:
324,322,51682,2,0,L|363:316,3,39.3749987983704,10|8|8|8,0:2|0:2|0:2|0:2,0:0:0:0:
383,276,51955,2,0,L|422:283,3,39.3749987983704,2|0|0|0,3:2|3:2|3:2|3:2,0:0:0:0:
442,322,52227,2,0,L|481:316,3,39.3749987983704,4|4|4|4,0:2|0:2|0:2|0:2,0:0:0:0:
501,276,52500,6,0,B|482:221|482:221|500:122,1,157.499995193482,6|0,0:2|0:0,0:0:0:0:
442,59,52909,2,0,P|374:96|298:85,1,157.499995193482,2|0,0:2|0:0,0:0:0:0:
237,22,53318,1,2,0:2:0:0:
92,117,53591,6,0,L|134:354,1,236.249992790222,2|0,0:2|0:0,0:0:0:0:
217,325,54137,2,0,L|296:339,2,78.7499975967408,2|2|2,0:2|0:2|0:2,0:0:0:0:
51,375,54682,1,2,3:2:0:0:
92,110,55773,6,0,L|101:158,3,39.3749987983704,2|0|0|0,3:2|3:2|3:2|3:2,0:0:0:0:
137,172,56046,2,0,B|102:192|102:192|46:183,1,78.7499975967408,10|0,0:2|3:2,0:0:0:0:
13,116,56318,2,0,B|14:76|14:76|51:32,1,78.7499975967408,10|0,0:2|3:2,0:0:0:0:
124,36,56591,2,0,B|159:57|159:57|179:111,1,78.7499975967408,10|0,0:2|0:0,0:0:0:0:
137,172,56864,6,0,L|120:267,1,78.7499975967408,6|8,3:2|0:2,0:0:0:0:
98,333,57137,2,0,P|137:336|173:321,1,78.7499975967408,2|10,3:2|0:2,0:0:0:0:
258,314,57409,2,0,P|254:353|232:385,2,78.7499975967408,2|10|2,3:2|0:2|3:2,0:0:0:0:
209,242,57818,1,10,0:2:0:0:
229,158,57955,2,0,B|292:147|292:147|321:161|321:161|381:151,1,157.499995193482,2|0,3:2|3:2,0:0:0:0:
466,129,58364,2,0,P|469:168|454:204,1,78.7499975967408,10|0,0:2|3:2,0:0:0:0:
373,237,58637,2,0,P|397:269|432:286,2,78.7499975967408,10|2|10,0:2|3:2|0:2,0:0:0:0:
382,151,59046,6,0,L|272:171,1,78.7499975967408,2|8,3:2|0:2,0:0:0:0:
250,99,59318,2,0,L|173:86,1,78.7499975967408,2|10,3:2|0:2,0:0:0:0:
122,156,59591,2,0,L|136:234,2,78.7499975967408,2|10|2,3:2|0:2|3:2,0:0:0:0:
62,95,60000,1,10,0:2:0:0:
1,155,60137,2,0,B|19:253|19:253|0:308,1,157.499995193482,2|0,3:2|3:2,0:0:0:0:
75,353,60546,2,0,P|152:365|220:328,1,157.499995193482,10|10,0:2|0:2,0:0:0:0:
281,267,60955,2,0,L|288:229,3,39.3749987983704,2|0|0|0,3:2|3:2|3:2|3:2,0:0:0:0:
318,197,61227,6,0,L|396:184,1,78.7499975967408,6|8,3:2|0:2,0:0:0:0:
479,209,61500,2,0,B|483:169|483:169|467:134,1,78.7499975967408,2|8,3:2|0:2,0:0:0:0:
388,97,61773,2,0,B|411:66|411:66|447:49,2,78.7499975967408,2|10|2,3:2|0:2|3:2,0:0:0:0:
396,184,62182,1,10,0:2:0:0:
319,146,62318,2,0,B|304:111|304:111|307:71,2,78.7499975967408,2|10|2,3:2|0:2|3:2,0:0:0:0:
326,233,62727,2,0,B|288:230|288:230|255:207,2,78.7499975967408,10|2|10,0:2|3:2|0:2,0:0:0:0:
346,323,63137,2,0,B|382:306|382:306|404:274,1,78.7499975967408,2|8,3:2|0:2,0:0:0:0:
396,184,63409,6,0,L|444:193,6,39.3749987983704,6|0|10|8|10|8|10,3:2|3:2|3:2|3:2|3:2|3:2|3:2,0:0:0:0:
326,233,63955,2,0,L|288:240,4,39.3749987983704,2|0|2|0|10,3:2|3:2|3:2|3:2|3:2,0:0:0:0:
404,273,64364,1,10,3:2:0:0:
348,340,64500,6,0,B|288:351|288:351|260:337|260:337|197:348,1,157.499995193482,6|0,3:2|3:2,0:0:0:0:
111,363,64909,2,0,B|114:325|114:325|98:288,1,78.7499975967408,2|2,3:2|3:2,0:0:0:0:
163,230,65182,2,0,B|161:192|161:192|177:155,1,78.7499975967408,2|0,3:2|3:2,0:0:0:0:
111,97,65455,1,10,3:2:0:0:
179,43,65591,6,0,L|258:57,1,78.7499975967408,6|8,3:2|0:2,0:0:0:0:
327,4,65864,2,0,P|344:40|342:79,1,78.7499975967408,2|8,3:2|0:2,0:0:0:0:
364,161,66136,2,0,P|400:144|422:113,2,78.7499975967408,2|10|2,3:2|0:2|3:2,0:0:0:0:
280,140,66545,1,10,0:2:0:0:
305,224,66682,2,0,L|278:380,1,157.499995193482,2|0,3:2|3:2,0:0:0:0:
364,364,67091,2,0,L|381:270,1,78.7499975967408,10|0,0:2|3:2,0:0:0:0:
464,272,67364,2,0,L|451:350,2,78.7499975967408,10|2|10,0:2|3:2|0:2,0:0:0:0:
488,189,67773,6,0,P|450:188|414:204,1,78.7499975967408,2|8,3:2|0:2,0:0:0:0:
378,287,68046,2,0,P|340:289|304:273,1,78.7499975967408,2|8,3:2|0:2,0:0:0:0:
255,202,68318,2,0,L|272:108,2,78.7499975967408,2|10|2,3:2|0:2|3:2,0:0:0:0:
216,280,68727,1,10,0:2:0:0:
169,207,68864,2,0,P|93:220|25:183,1,157.499995193482,2|0,3:2|3:2,0:0:0:0:
38,97,69273,2,0,P|115:85|183:122,1,157.499995193482,10|10,0:2|0:2,0:0:0:0:
270,127,69682,2,0,L|279:80,3,39.3749987983704,2|0|0|0,3:2|3:2|3:2|3:2,0:0:0:0:
306,55,69955,6,0,L|384:42,1,78.7499975967408,14|0,0:2|3:2,0:0:0:0:
461,82,70227,2,0,L|474:160,1,78.7499975967408,10|0,0:2|3:2,0:0:0:0:
434,237,70500,2,0,L|356:250,1,78.7499975967408,10|2,0:2|3:2,0:0:0:0:
279,210,70773,2,0,L|266:132,1,78.7499975967408,10|2,0:2|3:2,0:0:0:0:
189,92,71046,6,0,L|111:105,1,78.7499975967408,14|2,0:2|3:2,0:0:0:0:
71,182,71319,2,0,L|84:260,1,78.7499975967408,10|2,0:2|3:2,0:0:0:0:
161,300,71591,2,0,L|239:287,1,78.7499975967408,10|2,0:2|3:2,0:0:0:0:
279,210,71864,2,0,L|266:132,1,78.7499975967408,10|0,0:2|3:2,0:0:0:0:
251,47,72137,6,0,B|349:65|349:65|404:46,1,157.499995193482,6|2,3:2|3:2,0:0:0:0:
486,16,72546,1,2,3:2:0:0:
512,99,72682,2,0,L|485:255,1,157.499995193482,2|2,3:2|3:2,0:0:0:0:
469,340,73091,1,2,3:2:0:0:
405,283,73227,6,0,L|358:292,3,39.3749987983704,14|8|8|8,0:2|0:2|0:2|0:2,0:0:0:0:
335,321,73500,2,0,L|297:315,3,39.3749987983704,8|8|10|8,3:2|0:2|0:2|0:2,0:0:0:0:
265,283,73773,2,0,L|227:290,3,39.3749987983704,10|8|4|4,3:2|3:2|0:3|0:3,0:0:0:0:
195,321,74046,2,0,L|157:315,3,39.3749987983704,4|4|4|4,0:3|0:3|0:3|0:3,0:0:0:0:
125,283,74318,5,6,0:2:0:0:
438,145,83046,6,0,L|486:154,2,39.3749987983704,6|0|0,3:2|3:2|3:2,0:0:0:0:
369,197,83318,2,0,P|353:162|354:123,1,78.7499975967408,0|2,3:2|3:2,0:0:0:0:
415,60,83591,2,0,L|463:69,2,39.3749987983704,8|0|0,3:2|3:2|3:2,0:0:0:0:
331,38,83864,2,0,L|284:47,2,39.3749987983704,2|0|0,3:2|3:2|3:2,0:0:0:0:
117,307,85227,6,0,L|111:346,2,39.3749987983704,6|0|0,3:2|3:2|3:2,0:0:0:0:
50,252,85500,2,0,L|34:158,1,78.7499975967408,0|2,3:2|3:2,0:0:0:0:
104,120,85773,2,0,L|111:82,2,39.3749987983704,8|0|0,3:2|3:2|3:2,0:0:0:0:
153,192,86046,2,0,L|160:231,2,39.3749987983704,2|0|0,3:2|3:2|3:2,0:0:0:0:
384,333,87409,6,0,L|337:325,2,39.3749987983704,6|0|0,3:2|3:2|3:2,0:0:0:0:
469,348,87682,2,0,L|456:271,1,78.7499975967408,0|2,3:2|3:2,0:0:0:0:
372,243,87955,2,0,L|325:235,2,39.3749987983704,8|0|0,3:2|3:2|3:2,0:0:0:0:
436,185,88227,2,0,L|484:177,2,39.3749987983704,2|0|0,3:2|3:2|3:2,0:0:0:0:
38,76,89591,6,0,L|-9:68,2,39.3749987983704,8|8|8,3:2|3:2|3:2,0:0:0:0:
16,161,89864,2,0,P|56:162|91:146,1,78.7499975967408,8|8,3:2|3:2,0:0:0:0:
122,65,90137,2,0,L|131:18,2,39.3749987983704,8|8|8,3:2|3:2|3:2,0:0:0:0:
176,134,90409,2,0,L|183:173,2,39.3749987983704,8|8|8,3:2|3:2|3:2,0:0:0:0:
207,53,90682,1,4,3:2:0:0:
305,331,91500,2,0,L|257:322,3,39.3749987983704,8|0|0|0,0:2|3:2|3:2|3:2,0:0:0:0:
238,357,91773,6,0,B|183:376|183:376|84:358,1,157.499995193482,6|0,3:2|3:2,0:0:0:0:
1,383,92182,2,0,P|-2:344|14:309,1,78.7499975967408,10|0,0:2|3:2,0:0:0:0:
93,271,92455,2,0,P|96:232|80:197,1,78.7499975967408,10|2,0:2|3:2,0:0:0:0:
1,159,92727,2,0,P|78:171|146:134,1,157.499995193482,10|8,0:2|0:2,0:0:0:0:
122,49,93137,2,0,P|160:45|196:62,1,78.7499975967408,2|8,3:2|0:2,0:0:0:0:
257,1,93409,2,0,P|279:33|282:71,1,78.7499975967408,2|8,3:2|0:2,0:0:0:0:
366,93,93682,2,0,P|349:128|317:150,1,78.7499975967408,2|8,3:2|0:2,0:0:0:0:
230,142,93955,6,0,L|260:315,1,157.499995193482,2|0,3:2|3:2,0:0:0:0:
201,364,94364,2,0,B|256:345|256:345|353:362,1,157.499995193482,10|8,0:2|0:2,0:0:0:0:
438,384,94773,2,0,P|441:345|425:310,1,78.7499975967408,2|8,3:2|0:2,0:0:0:0:
346,272,95046,2,0,P|343:233|359:198,1,78.7499975967408,2|8,3:2|0:2,0:0:0:0:
431,149,95318,2,0,P|466:165|488:197,1,78.7499975967408,2|8,3:2|0:2,0:0:0:0:
495,284,95591,2,0,P|462:306|424:309,1,78.7499975967408,2|8,3:2|0:2,0:0:0:0:
346,272,95864,2,0,P|343:233|359:198,1,78.7499975967408,2|8,3:2|0:2,0:0:0:0:
354,110,96137,6,0,B|291:121|291:121|262:107|262:107|202:117,1,157.499995193482,6|0,3:2|3:2,0:0:0:0:
131,65,96546,2,0,P|114:99|117:138,1,78.7499975967408,10|0,0:2|3:2,0:0:0:0:
40,176,96818,2,0,P|62:207|97:223,1,78.7499975967408,10|2,0:2|3:2,0:0:0:0:
89,309,97091,2,0,P|165:296|233:333,1,157.499995193482,10|8,0:2|0:2,0:0:0:0:
318,357,97500,2,0,P|322:318|305:284,1,78.7499975967408,2|8,3:2|0:2,0:0:0:0:
377,235,97773,2,0,L|454:221,1,78.7499975967408,2|8,3:2|0:2,0:0:0:0:
488,141,98046,2,0,L|410:127,1,78.7499975967408,2|8,3:2|0:2,0:0:0:0:
359,58,98318,6,0,L|281:71,1,78.7499975967408,2|8,3:2|0:2,0:0:0:0:
231,143,98591,2,0,L|60:112,1,157.499995193482,2|0,3:2|3:2,0:0:0:0:
8,170,99000,1,8,0:2:0:0:
88,203,99137,2,0,L|101:280,1,78.7499975967408,2|8,3:2|0:2,0:0:0:0:
170,333,99409,6,0,L|160:384,2,52.4999983978272,10|0|0,3:2|0:0|0:0,0:0:0:0:
215,298,99682,2,0,L|204:240,2,52.4999983978272,8|0|0,3:2|0:0|0:0,0:0:0:0:
260,333,99954,6,0,L|298:340,3,39.3749987983704,8|8|8|8,3:2|3:2|3:2|3:2,0:0:0:0:
330,310,100227,2,0,L|368:304,3,39.3749987983704,8|8|8|8,3:2|3:2|3:2|3:2,0:0:0:0:
399,334,100500,6,0,B|380:288|380:288|399:183,1,157.499995193482,6|0,3:2|3:2,0:0:0:0:
470,131,100909,1,2,3:2:0:0:
420,60,101046,2,0,L|342:73,1,78.7499975967408,8|0,3:2|3:2,0:0:0:0:
317,156,101318,2,0,L|239:142,1,78.7499975967408,2|0,3:2|3:2,0:0:0:0:
214,60,101591,2,0,L|136:73,1,78.7499975967408,6|0,3:2|3:2,0:0:0:0:
84,143,101864,2,0,P|96:66|59:-1,2,157.499995193482,2|10|2,3:2|3:2|3:2,0:0:0:0:
21,203,102546,1,0,3:2:0:0:
81,266,102682,6,0,B|127:247|127:247|232:266,1,157.499995193482,14|0,3:2|3:2,0:0:0:0:
282,337,103091,2,0,B|388:356|388:356|434:337,1,157.499995193482,14|0,3:2|3:2,0:0:0:0:
377,270,103500,2,0,L|390:192,1,78.7499975967408,14|0,3:2|3:2,0:0:0:0:
441,121,103773,2,0,P|404:106|366:109,1,78.7499975967408,14|0,3:2|3:2,0:0:0:0:
329,30,104046,2,0,P|298:53|281:88,1,78.7499975967408,14|0,3:2|3:2,0:0:0:0:
194,81,104318,2,0,P|199:119|221:151,1,78.7499975967408,14|0,3:2|3:2,0:0:0:0:
170,223,104591,2,0,P|206:237|244:234,1,78.7499975967408,14|0,3:2|3:2,0:0:0:0:
305,172,104864,6,0,L|274:345,1,157.499995193482,6|0,3:2|3:2,0:0:0:0:
203,373,105273,1,2,3:2:0:0:
156,300,105409,2,0,L|169:222,1,78.7499975967408,12|0,3:2|3:2,0:0:0:0:
221,151,105682,2,0,L|207:73,1,78.7499975967408,2|0,3:2|3:2,0:0:0:0:
144,12,105955,2,0,L|66:-1,1,78.7499975967408,2|0,3:2|3:2,0:0:0:0:
1,55,106227,2,0,B|20:161|20:161|1:207,2,157.499995193482,2|14|2,3:2|3:2|3:2,0:0:0:0:
66,0,106909,1,0,3:2:0:0:
88,84,107046,6,0,L|118:257,1,157.499995193482,14|0,3:2|3:2,0:0:0:0:
74,315,107455,2,0,B|137:326|137:326|166:312|166:312|226:322,1,157.499995193482,14|0,3:2|3:2,0:0:0:0:
287,383,107864,2,0,L|381:366,1,78.7499975967408,14|0,3:2|3:2,0:0:0:0:
429,310,108137,6,0,L|420:262,3,39.3749987983704,12|8|8|8,3:2|3:2|0:2|0:2,0:0:0:0:
392,238,108410,2,0,L|398:199,3,39.3749987983704,10|8|8|8,0:2|0:2|0:2|0:2,0:0:0:0:
429,166,108682,2,0,L|423:127,3,39.3749987983704,2|0|0|0,3:2|3:2|3:2|3:2,0:0:0:0:
392,94,108955,2,0,L|398:55,3,39.3749987983704,2|0|0|0,3:2|3:2|3:2|3:2,0:0:0:0:
429,22,109227,5,4,0:2:0:0:
136,358,110591,6,0,B|101:378|101:378|45:369,1,78.7499975967408,2|0,0:2|0:0,0:0:0:0:
84,287,110864,2,0,L|92:240,3,39.3749987983704,2|0|0|0,3:2|3:2|3:2|3:2,0:0:0:0:
121,215,111137,2,0,L|115:176,3,39.3749987983704,2|0|0|0,3:2|3:2|3:2|3:2,0:0:0:0:
84,143,111409,6,0,L|98:65,1,78.7499975967408,6|8,3:2|0:2,0:0:0:0:
175,26,111682,2,0,L|189:104,1,78.7499975967408,2|8,3:2|0:2,0:0:0:0:
259,156,111955,2,0,L|245:234,2,78.7499975967408,2|10|2,3:2|0:2|3:2,0:0:0:0:
337,117,112364,1,10,0:2:0:0:
415,78,112500,2,0,B|433:132|433:132|416:230,1,157.499995193482,2|0,3:2|3:2,0:0:0:0:
473,296,112909,2,0,P|438:314|399:315,1,78.7499975967408,10|0,0:2|3:2,0:0:0:0:
319,283,113182,2,0,L|333:205,2,78.7499975967408,10|2|10,0:2|3:2|0:2,0:0:0:0:
332,369,113591,6,0,P|292:367|258:349,1,78.7499975967408,2|8,3:2|0:2,0:0:0:0:
233,265,113864,2,0,L|138:281,1,78.7499975967408,2|8,3:2|0:2,0:0:0:0:
69,294,114137,2,0,L|52:388,2,78.7499975967408,2|10|2,3:2|0:2|3:2,0:0:0:0:
1,239,114546,1,10,0:2:0:0:
56,171,114682,2,0,B|116:161|116:161|144:175|144:175|207:164,1,157.499995193482,2|0,3:2|3:2,0:0:0:0:
288,199,115091,2,0,P|251:130|263:54,1,157.499995193482,10|10,0:2|0:2,0:0:0:0:
349,69,115500,2,0,L|387:75,3,39.3749987983704,2|0|0|0,3:2|3:2|3:2|3:2,0:0:0:0:
431,83,115773,6,0,L|447:177,1,78.7499975967408,6|8,3:2|0:2,0:0:0:0:
495,231,116046,2,0,B|460:247|460:247|420:243,1,78.7499975967408,2|8,3:2|0:2,0:0:0:0:
338,270,116318,2,0,B|354:306|354:306|385:328,2,78.7499975967408,2|10|2,3:2|0:2|3:2,0:0:0:0:
355,184,116727,1,10,0:2:0:0:
273,213,116864,2,0,B|249:245|249:245|245:283,2,78.7499975967408,2|8|2,3:2|0:2|3:2,0:0:0:0:
290,128,117273,2,0,B|250:123|250:123|214:140,2,78.7499975967408,10|2|8,0:2|3:2|0:2,0:0:0:0:
324,41,117682,2,0,B|355:63|355:63|372:100,1,78.7499975967408,2|8,3:2|0:2,0:0:0:0:
355,184,117955,6,0,L|363:231,3,39.3749987983704,2|0|10|8,3:2|3:2|3:2|3:2,0:0:0:0:
393,252,118227,2,0,L|384:299,3,39.3749987983704,10|8|10|8,3:2|3:2|3:2|3:2,0:0:0:0:
355,320,118500,2,0,L|307:328,3,39.3749987983704,2|0|2|0,3:2|3:2|3:2|3:2,0:0:0:0:
287,358,118773,2,0,L|239:349,3,39.3749987983704,10|8|10|8,3:2|3:2|3:2|3:2,0:0:0:0:
219,320,119046,6,0,B|156:331|156:331|127:317|127:317|67:327,1,157.499995193482,6|2,3:2|3:2,0:0:0:0:
1,269,119455,1,2,3:2:0:0:
59,204,119591,2,0,L|69:145,3,39.3749987983704,2|2|2|2,3:2|3:2|3:2|3:2,0:0:0:0:
33,136,119864,2,0,L|26:97,3,39.3749987983704,0|2|2|2,3:2|3:2|3:2|3:2,0:0:0:0:
59,68,120137,6,0,L|136:81,1,78.7499975967408,6|8,3:2|0:2,0:0:0:0:
207,31,120409,2,0,P|221:67|218:105,1,78.7499975967408,2|8,3:2|0:2,0:0:0:0:
227,194,120682,2,0,P|189:189|157:167,2,78.7499975967408,2|10|2,3:2|0:2|3:2,0:0:0:0:
298,143,121091,1,10,0:2:0:0:
369,195,121227,2,0,P|437:158|514:170,1,157.499995193482,2|0,3:2|3:2,0:0:0:0:
492,255,121637,2,0,P|455:269|417:266,1,78.7499975967408,10|0,0:2|3:2,0:0:0:0:
330,273,121909,2,0,L|343:351,2,78.7499975967408,10|2|10,0:2|3:2|0:2,0:0:0:0:
369,195,122318,6,0,L|386:100,1,78.7499975967408,2|8,3:2|0:2,0:0:0:0:
408,34,122591,2,0,P|369:31|333:46,1,78.7499975967408,2|8,3:2|0:2,0:0:0:0:
250,75,122864,2,0,P|244:36|258:0,2,78.7499975967408,2|10|2,3:2|0:2|3:2,0:0:0:0:
299,147,123273,1,10,0:2:0:0:
261,224,123409,2,0,B|201:214|201:214|172:228|172:228|109:217,1,157.499995193482,2|0,3:2|3:2,0:0:0:0:
40,162,123818,2,0,P|77:230|65:307,1,157.499995193482,10|10,0:2|0:2,0:0:0:0:
105,383,124227,2,0,L|143:376,3,39.3749987983704,2|0|0|0,3:2|3:2|3:2|3:2,0:0:0:0:
175,346,124500,6,0,L|269:362,1,78.7499975967408,14|0,0:2|3:2,0:0:0:0:
338,375,124773,2,0,L|354:280,1,78.7499975967408,10|0,0:2|3:2,0:0:0:0:
367,212,125046,2,0,L|272:195,1,78.7499975967408,10|2,0:2|3:2,0:0:0:0:
204,183,125318,2,0,L|190:260,1,78.7499975967408,10|2,0:2|3:2,0:0:0:0:
103,245,125591,6,0,L|26:232,1,78.7499975967408,14|2,0:2|3:2,0:0:0:0:
41,145,125864,2,0,L|55:68,1,78.7499975967408,10|2,0:2|3:2,0:0:0:0:
141,83,126137,2,0,L|219:97,1,78.7499975967408,10|2,0:2|3:2,0:0:0:0:
204,183,126409,2,0,L|187:277,1,78.7499975967408,10|0,0:2|3:2,0:0:0:0:
175,346,126682,6,0,L|332:318,1,157.499995193482,6|2,3:2|3:2,0:0:0:0:
403,364,127091,1,2,3:2:0:0:
469,308,127227,2,0,B|450:253|450:253|468:155,1,157.499995193482,2|2,3:2|3:2,0:0:0:0:
445,72,127637,1,2,3:2:0:0:
386,135,127773,6,0,L|347:141,3,39.3749987983704,6|0|0|0,3:2|3:2|3:2|3:2,0:0:0:0:
315,111,128046,2,0,L|276:104,3,39.3749987983704,0|2|2|2,3:2|3:2|3:2|3:2,0:0:0:0:
244,135,128318,2,0,L|205:141,3,39.3749987983704,2|2|2|2,3:2|3:2|3:2|3:2,0:0:0:0:
173,111,128591,2,0,L|134:104,3,39.3749987983704,0|2|2|2,3:2|3:2|3:2|3:2,0:0:0:0:
102,135,128864,6,0,L|108:173,2,39.3749987983704,2|0|0,3:2|3:2|3:2,0:0:0:0:
29,86,129137,2,0,L|15:163,1,78.7499975967408,0|0,3:2|3:2,0:0:0:0:
54,240,129409,2,0,L|62:287,2,39.3749987983704,0|0|0,3:2|3:2|3:2,0:0:0:0:
108,173,129682,2,0,L|146:179,2,39.3749987983704,2|0|0,3:2|3:2|3:2,0:0:0:0:
77,203,132682,6,0,L|83:242,6,39.3749987983704,10|0|0|0|0|0|0,0:2|3:2|3:2|3:2|3:2|3:2|3:2,0:0:0:0:
74,117,133227,6,0,L|35:111,2,39.3749987983704,6|0|2,3:2|3:2|3:2,0:0:0:0:
129,50,133500,2,0,L|223:34,1,78.7499975967408,0|0,3:2|3:2,0:0:0:0:
261,104,133773,2,0,L|299:111,2,39.3749987983704,8|0|2,0:2|3:2|3:2,0:0:0:0:
189,153,134046,2,0,L|150:160,2,39.3749987983704,0|0|0,3:2|3:2|3:2,0:0:0:0:
384,333,137591,6,0,L|337:325,2,39.3749987983704,0|0|0,3:2|3:2|3:2,0:0:0:0:
469,348,137864,2,0,L|456:271,1,78.7499975967408,2|0,3:2|3:2,0:0:0:0:
372,243,138137,2,0,L|325:235,2,39.3749987983704,10|2|0,0:2|3:2|3:2,0:0:0:0:
436,185,138409,2,0,L|484:177,2,39.3749987983704,2|0|2,3:2|3:2|3:2,0:0:0:0:
182,296,139773,6,0,L|230:305,2,39.3749987983704,2|2|2,3:2|3:2|3:2,0:0:0:0:
113,348,140045,2,0,P|97:313|98:274,1,78.7499975967408,2|2,3:2|3:2,0:0:0:0:
159,211,140318,2,0,L|207:220,2,39.3749987983704,10|2|2,0:2|3:2|3:2,0:0:0:0:
75,189,140591,2,0,L|28:198,2,39.3749987983704,2|2|2,3:2|3:2|3:2,0:0:0:0:
474,86,141955,6,0,L|521:78,2,39.3749987983704,4|0|2,3:2|3:2|3:2,0:0:0:0:
496,171,142228,2,0,P|456:172|421:156,1,78.7499975967408,0|0,3:2|3:2,0:0:0:0:
390,75,142501,2,0,L|381:28,2,39.3749987983704,10|0|0,0:2|3:2|3:2,0:0:0:0:
336,144,142773,2,0,L|329:183,2,39.3749987983704,2|0|0,3:2|3:2|3:2,0:0:0:0:
305,63,143046,5,2,3:2:0:0:
251,130,143182,2,0,L|244:169,2,39.3749987983704,0|0|0,3:2|3:2|3:2,0:0:0:0:
220,49,143455,1,0,3:2:0:0:
166,117,143591,2,0,L|88:130,1,78.7499975967408,10|2,0:2|3:2,0:0:0:0:
14,85,143864,2,0,P|1:122|7:160,1,78.7499975967408,2|2,3:2|3:2,0:0:0:0:
73,217,144137,6,0,L|112:210,2,39.3749987983704,10|8|8,3:2|3:2|3:2,0:0:0:0:
58,304,144409,2,0,L|135:290,1,78.7499975967408,10|10,3:2|3:2,0:0:0:0:
197,228,144682,2,0,L|204:189,2,39.3749987983704,10|8|8,3:2|3:2|3:2,0:0:0:0:
220,311,144955,2,0,L|227:350,2,39.3749987983704,10|8|8,3:2|3:2|3:2,0:0:0:0:
281,249,145227,5,10,3:2:0:0:
342,310,145364,2,0,B|397:329|397:329|496:311,1,157.499995193482,6|0,3:2|3:2,0:0:0:0:
451,235,145773,2,0,L|412:242,2,39.3749987983704,2|0|0,3:2|3:2|3:2,0:0:0:0:
473,151,146046,2,0,L|512:158,2,39.3749987983704,0|0|2,3:2|3:2|3:2,0:0:0:0:
422,80,146318,6,0,B|334:50|345:118|262:120,1,157.499995193482,2|2,3:2|3:2,0:0:0:0:
212,60,146727,2,0,B|244:89|244:89|229:214,1,157.499995193482,10|10,0:2|0:2,0:0:0:0:
186,278,147137,2,0,P|129:283|88:245,1,78.7499975967408,0|10,3:2|0:2,0:0:0:0:
58,205,147409,2,0,L|73:111,1,78.7499975967408,2|10,3:2|0:2,0:0:0:0:
48,42,147682,2,0,L|87:36,3,39.3749987983704,2|0|10|0,3:2|3:2|0:2|0:2,0:0:0:0:
110,0,147955,2,0,L|212:18,1,78.7499975967408,2|10,3:2|0:2,0:0:0:0:
251,71,148227,2,0,L|259:115,3,39.3749987983704,2|2|10|0,3:2|3:2|0:2|0:2,0:0:0:0:
245,151,148500,6,0,L|229:244,1,78.7499975967408,2|10,3:2|0:2,0:0:0:0:
311,263,148773,1,2,3:2:0:0:
253,327,148909,2,0,B|316:316|316:316|345:330|345:330|405:320,1,157.499995193482,10|10,0:2|0:2,0:0:0:0:
479,273,149318,2,0,L|495:179,1,78.7499975967408,2|10,3:2|0:2,0:0:0:0:
479,115,149591,2,0,L|401:129,1,78.7499975967408,2|10,3:2|0:2,0:0:0:0:
324,169,149864,1,2,3:2:0:0:
259,111,150000,2,0,P|191:75|114:86,1,157.499995193482,10|10,0:2|0:2,0:0:0:0:
49,144,150409,2,0,L|42:183,3,39.3749987983704,2|2|10|0,3:2|3:2|0:2|0:2,0:0:0:0:
56,224,150682,6,0,P|122:218|181:293,1,157.499995193482,2|2,3:2|3:2,0:0:0:0:
251,327,151091,2,0,L|83:294,1,157.499995193482,10|10,0:2|0:2,0:0:0:0:
56,224,151500,2,0,L|73:130,1,78.7499975967408,2|10,3:2|0:2,0:0:0:0:
15,78,151773,2,0,P|51:63|90:64,1,78.7499975967408,2|10,3:2|0:2,0:0:0:0:
153,123,152046,2,0,L|162:171,2,39.3749987983704,2|0|10,3:2|3:2|0:2,0:0:0:0:
229,83,152318,2,0,P|265:99|304:98,1,78.7499975967408,2|10,3:2|0:2,0:0:0:0:
379,54,152591,2,0,L|388:7,2,39.3749987983704,2|2|10,3:2|3:2|0:2,0:0:0:0:
414,134,152864,6,0,L|431:229,1,78.7499975967408,2|10,3:2|0:2,0:0:0:0:
383,286,153137,1,0,3:2:0:0:
442,350,153273,2,0,B|387:369|387:369|290:352,1,157.499995193482,2|10,3:2|0:2,0:0:0:0:
231,288,153682,2,0,L|142:304,1,78.7499975967408,2|0,3:2|3:2,0:0:0:0:
95,238,153955,6,0,L|44:229,2,52.4999983978272,2|0|0,3:2|3:2|3:2,0:0:0:0:
130,193,154227,2,0,L|182:184,2,52.4999983978272,0|2|2,3:2|3:2|3:2,0:0:0:0:
95,148,154500,6,0,L|88:110,3,39.3749987983704,0|0|0|0,3:2|3:2|3:2|3:2,0:0:0:0:
118,78,154773,2,0,L|124:40,3,39.3749987983704,0|0|0|0,3:2|3:2|3:2|3:2,0:0:0:0:
96,6,155046,6,0,B|151:25|151:25|249:8,1,157.499995193482,6|0,3:2|0:2,0:0:0:0:
320,59,155455,1,2,0:2:0:0:
390,8,155591,2,0,P|426:76|415:153,1,157.499995193482,8|0,0:2|0:2,0:0:0:0:
352,213,156000,1,0,0:2:0:0:
399,287,156137,6,0,B|339:297|339:297|310:283|310:283|247:294,1,157.499995193482,2|0,3:2|0:2,0:0:0:0:
194,364,156546,1,2,0:2:0:0:
161,285,156682,2,0,L|189:128,1,157.499995193482,8|2,0:2|0:2,0:0:0:0:
247,67,157091,1,0,0:2:0:0:
163,47,157227,6,0,L|86:61,1,78.7499975967408,10|0,0:2|0:2,0:0:0:0:
27,125,157500,1,2,3:2:0:0:
111,144,157637,2,0,L|189:131,1,78.7499975967408,10|0,0:2|0:2,0:0:0:0:
247,67,157909,1,2,3:2:0:0:
306,131,158046,2,0,L|383:144,1,78.7499975967408,10|0,0:2|0:2,0:0:0:0:
427,219,158318,6,0,L|441:297,1,78.7499975967408,10|0,3:2|0:2,0:0:0:0:
369,345,158591,2,0,L|292:332,1,78.7499975967408,10|0,0:2|3:2,0:0:0:0:
205,331,158864,2,0,L|128:345,1,78.7499975967408,10|0,0:2|3:2,0:0:0:0:
56,297,159137,2,0,L|70:220,1,78.7499975967408,10|0,0:2|3:2,0:0:0:0:
111,144,159409,6,0,B|238:171|213:78|335:105,1,236.249992790222,2|0,3:2|0:2,0:0:0:0:
377,29,159955,1,8,0:2:0:0:
441,297,160500,6,0,P|478:312|516:309,2,78.7499975967408,2|2|2,3:2|0:2|0:2,0:0:0:0:
492,227,160909,1,2,0:2:0:0:
406,216,161046,2,0,L|328:230,1,78.7499975967408,10|0,0:2|0:2,0:0:0:0:
282,303,161318,2,0,L|205:290,1,78.7499975967408,2|0,0:2|0:2,0:0:0:0:
158,216,161591,6,0,B|177:161|177:161|160:64,1,157.499995193482,10|2,3:2|3:2,0:0:0:0:
89,13,162000,2,0,B|70:68|70:68|88:166,1,157.499995193482,10|2,3:2|3:2,0:0:0:0:
13,210,162409,2,0,L|0:289,1,78.7499975967408,10|2,3:2|3:2,0:0:0:0:
66,344,162682,6,0,L|114:335,3,39.3749987983704,10|8|8|8,0:2|0:2|0:2|0:2,0:0:0:0:
125,298,162955,2,0,L|164:304,3,39.3749987983704,10|8|10|8,0:2|0:2|0:2|0:2,0:0:0:0:
184,344,163228,2,0,L|223:337,3,39.3749987983704,10|0|0|0,0:2|0:2|0:2|0:2,0:0:0:0:
243,298,163500,2,0,L|282:304,3,39.3749987983704,2|0|0|0,3:2|3:2|3:2|3:2,0:0:0:0:
302,344,163773,5,6,3:2:0:0:
256,192,163841,12,2,168137,3:2:0:0:
428,205,171409,6,0,P|467:241|482:290,2,104.999996795654,8|8|8,3:2|3:2|3:2,0:0:0:0:
312,203,171955,2,0,P|324:153|359:114,2,104.999996795654,8|8|8,3:2|3:2|3:2,0:0:0:0:
366,305,172500,6,0,P|317:321|211:261,1,157.499995193482,6|0,3:2|0:0,0:0:0:0:
196,198,172909,2,0,B|141:179|141:179|42:197,1,157.499995193482,2|0,0:2|0:0,0:0:0:0:
2,274,173318,1,2,0:2:0:0:
54,109,173591,6,0,B|152:92|152:92|282:136,1,236.249992790222,2|0,0:2|0:0,0:0:0:0:
326,211,174137,2,0,L|340:289,2,78.7499975967408,2|2|2,0:2|0:2|0:2,0:0:0:0:
414,62,174682,1,2,3:2:0:0:
420,300,175773,6,0,L|429:252,3,39.3749987983704,10|8|8|8,3:2|3:2|3:2|3:2,0:0:0:0:
465,238,176046,2,0,L|448:143,1,78.7499975967408,10|10,3:2|3:2,0:0:0:0:
364,169,176319,2,0,L|347:74,1,78.7499975967408,10|0,0:2|3:2,0:0:0:0:
269,61,176591,1,10,0:2:0:0:
172,205,176864,6,0,L|158:127,1,78.7499975967408,6|8,3:2|0:2,0:0:0:0:
109,55,177137,2,0,P|145:40|184:44,1,78.7499975967408,2|8,3:2|0:2,0:0:0:0:
269,61,177409,2,0,L|283:139,2,78.7499975967408,2|10|2,3:2|0:2|3:2,0:0:0:0:
342,15,177818,1,10,0:2:0:0:
426,35,177955,2,0,B|455:64|455:64|432:180,1,157.499995193482,2|0,3:2|3:2,0:0:0:0:
353,214,178364,2,0,L|367:292,1,78.7499975967408,10|0,0:2|3:2,0:0:0:0:
280,296,178637,2,0,L|267:374,2,78.7499975967408,10|2|10,0:2|3:2|0:2,0:0:0:0:
261,211,179046,6,0,B|183:197,1,78.7499975967408,2|8,3:2|0:2,0:0:0:0:
130,266,179318,2,0,B|52:281,1,78.7499975967408,2|8,3:2|0:2,0:0:0:0:
0,211,179591,2,0,L|13:134,2,78.7499975967408,2|10|2,3:2|0:2|3:2,0:0:0:0:
52,280,180000,1,10,0:2:0:0:
81,197,180137,2,0,B|98:99|98:99|79:44,1,157.499995193482,2|0,3:2|3:2,0:0:0:0:
169,15,180546,2,0,L|324:43,1,157.499995193482,10|10,0:2|0:2,0:0:0:0:
381,118,180955,2,0,L|375:157,3,39.3749987983704,2|0|0|0,3:2|3:2|3:2|3:2,0:0:0:0:
358,196,181227,6,0,L|280:209,1,78.7499975967408,6|8,3:2|0:2,0:0:0:0:
199,176,181500,2,0,B|195:136|195:136|211:101,1,78.7499975967408,2|8,3:2|0:2,0:0:0:0:
281,49,181773,2,0,B|297:84|297:84|293:124,2,78.7499975967408,2|10|2,3:2|0:2|3:2,0:0:0:0:
201,14,182182,1,10,0:2:0:0:
211,100,182318,2,0,B|195:135|195:135|199:175,2,78.7499975967408,2|10|2,3:2|0:2|3:2,0:0:0:0:
273,50,182727,2,0,B|289:85|289:85|285:125,2,78.7499975967408,10|2|10,0:2|3:2|0:2,0:0:0:0:
358,30,183137,2,0,B|393:14|393:14|433:18,1,78.7499975967408,2|8,3:2|0:2,0:0:0:0:
472,94,183409,6,0,L|464:142,6,39.3749987983704,2|8|10|8|10|8|10,3:2|3:3|3:3|3:3|3:3|3:3|0:3,0:0:0:0:
384,153,183955,2,0,L|390:191,4,39.3749987983704,10|8|10|8|10,3:3|3:3|3:3|3:3|3:3,0:0:0:0:
340,77,184364,1,10,0:3:0:0:
282,141,184500,6,0,B|263:196|263:196|281:295,1,157.499995193482,6|2,3:2|3:2,0:0:0:0:
334,362,184909,2,0,B|299:378|299:378|259:374,1,78.7499975967408,2|2,3:2|3:2,0:0:0:0:
172,383,185182,2,0,B|141:361|141:361|125:325,1,78.7499975967408,2|2,3:2|3:2,0:0:0:0:
47,268,185455,1,2,3:2:0:0:
134,237,185591,6,0,L|88:173,1,78.7499975967408,6|8,3:2|0:2,0:0:0:0:
12,133,185865,2,0,P|36:103|73:89,1,78.7499975967408,2|8,3:2|0:2,0:0:0:0:
139,34,186137,2,0,P|107:9|70:3,2,78.7499975967408,2|10|2,3:2|0:2|3:2,0:0:0:0:
195,100,186546,1,10,0:2:0:0:
240,25,186682,2,0,B|303:36|303:36|332:22|332:22|392:32,1,157.499995193482,2|0,3:2|3:2,0:0:0:0:
479,47,187091,2,0,L|493:125,1,78.7499975967408,10|0,0:2|3:2,0:0:0:0:
430,185,187364,2,0,L|417:263,2,78.7499975967408,10|2|10,0:2|3:2|0:2,0:0:0:0:
352,146,187773,6,0,L|275:160,1,78.7499975967408,2|8,3:2|0:2,0:0:0:0:
225,89,188046,2,0,L|148:76,1,78.7499975967408,2|8,3:2|0:2,0:0:0:0:
98,146,188318,2,0,L|21:160,2,78.7499975967408,2|10|2,3:2|0:2|3:2,0:0:0:0:
164,204,188727,1,10,0:2:0:0:
82,233,188864,2,0,B|63:288|63:288|81:387,1,157.499995193482,2|0,3:2|3:2,0:0:0:0:
164,358,189273,2,0,L|354:391,1,157.499995193482,10|10,0:2|0:2,0:0:0:0:
392,338,189682,2,0,L|384:291,3,39.3749987983704,2|0|0|0,3:2|3:2|3:2|3:2,0:0:0:0:
398,258,189955,6,0,L|477:272,1,78.7499975967408,6|10,3:2|0:2,0:0:0:0:
461,187,190227,2,0,L|448:110,1,78.7499975967408,10|10,3:2|3:2,0:0:0:0:
363,95,190500,2,0,L|275:79,1,78.7499975967408,10|10,3:2|3:2,0:0:0:0:
199,72,190773,2,0,L|216:165,1,78.7499975967408,10|8,3:2|3:2,0:0:0:0:
263,221,191046,6,0,L|277:299,1,78.7499975967408,14|10,3:2|3:2,0:0:0:0:
190,290,191318,2,0,L|97:274,1,78.7499975967408,10|10,3:2|3:2,0:0:0:0:
28,261,191592,2,0,L|15:184,1,78.7499975967408,10|10,3:2|3:2,0:0:0:0:
0,99,191864,2,0,L|78:113,1,78.7499975967408,8|10,3:2|0:2,0:0:0:0:
148,61,192137,6,0,B|203:80|203:80|301:63,1,157.499995193482,6|2,3:2|3:2,0:0:0:0:
363,2,192546,1,2,3:2:0:0:
384,86,192682,2,0,P|373:163|410:231,1,157.499995193482,14|2,3:2|3:2,0:0:0:0:
491,262,193091,1,2,3:2:0:0:
476,177,193227,5,6,3:2:0:0:
317,383,193637,5,6,3:2:0:0:
111,224,194046,5,6,3:2:0:0:
270,18,194455,6,0,L|259:82,5,39.3749987983704,6|0|0|0|0|0,3:2|3:2|3:2|3:2|3:2|3:2,0:0:0:0:
289,93,194864,2,0,L|303:171,1,78.7499975967408,10|0,3:2|0:0,0:0:0:0:
236,226,195137,2,0,L|223:304,1,78.7499975967408,10|0,3:2|0:0,0:0:0:0:
