osu file format v14

[General]
AudioFilename: audio.mp3
AudioLeadIn: 0
PreviewTime: 176046
Countdown: 0
SampleSet: Soft
StackLeniency: 0.7
Mode: 0
LetterboxInBreaks: 0
EpilepsyWarning: 1
WidescreenStoryboard: 1

[Editor]
Bookmarks: 91773,146318
DistanceSpacing: 2.4
BeatDivisor: 4
GridSize: 16
TimelineZoom: 2.3

[Metadata]
Title:Frozen
TitleUnicode:Frozen
Artist:UNDEAD CORPORATION
ArtistUnicode:UNDEAD CORPORATION
Creator:Daycore
Version:Collab Advanced
Source:東方紅魔郷 ~ the Embodiment of Scarlet Devil.
Tags:osu! 東方Project Touhou Project おてんば恋娘 O Tenba Koi Musume Tomboyish Girl in Love Cirno チルノ Stage 2 Boss TOHO Complete Box - SILVER 極鉄 Gokutetsu Extreme Metal パインツリー pinetree 平野幸村 Yukimura Hirano yuki Shiren Comiket 79 c79 english metal rock Aphestra allein MashaSG ZUN Team Shanghai Alice melodic death melodeath featured artist fa hantrik shmiklak marvollo m_a_r_v_o_l_l_o namki
BeatmapID:2635979
BeatmapSetID:1268344

[Difficulty]
HPDrainRate:2.5
CircleSize:3.5
OverallDifficulty:5
ApproachRate:6.5
SliderMultiplier:1.3
SliderTickRate:1

[Events]
//Background and Video events
0,0,"mgbg.jpg",0,0
//Break Periods
2,74518,82071
2,129064,131707
2,134382,136616
2,168337,170434
//Storyboard Layer 0 (Background)
//Storyboard Layer 1 (Fail)
//Storyboard Layer 2 (Pass)
//Storyboard Layer 3 (Foreground)
Sprite,Foreground,Centre,"sb\etc\l.png",211,109 C,0,56864,,40,61,98 F,2,56864,57264,1,0 S,2,56864,57264,1.5,0.3
Sprite,Foreground,Centre,"sb\etc\l.png",194,313 C,0,57273,,40,61,98 F,2,57273,57673,1,0 S,2,57273,57673,1.5,0.3
Sprite,Foreground,Centre,"sb\etc\l.png",194,313 C,0,57409,,40,61,98 F,2,57409,57809,1,0 S,2,57409,57809,1.5,0.3
Sprite,Foreground,Centre,"sb\etc\l.png",274,403 C,0,57682,,40,61,98 F,2,57682,58082,1,0 S,2,57682,58082,1.5,0.3
Sprite,Foreground,Centre,"sb\etc\l.png",343,291 C,0,57955,,157,23,30 F,2,57955,58355,1,0 S,2,57955,58355,1.5,0.3
Sprite,Foreground,Centre,"sb\etc\l.png",492,387 C,0,58364,,157,23,30 F,2,58364,58764,1,0 S,2,58364,58764,1.5,0.3
Sprite,Foreground,Centre,"sb\etc\l.png",530,235 C,0,58637,,157,23,30 F,2,58637,59037,1,0 S,2,58637,59037,1.5,0.3
Sprite,Foreground,Centre,"sb\etc\l.png",518,94 C,0,58909,,157,23,30 F,2,58909,59309,1,0 S,2,58909,59309,1.5,0.3
Sprite,Foreground,Centre,"sb\etc\l.png",445,64 C,0,59046,,40,126,199 F,2,59046,59446,1,0 S,2,59046,59446,1.5,0.3
Sprite,Foreground,Centre,"sb\etc\l.png",275,177 C,0,59455,,40,126,199 F,2,59455,59855,1,0 S,2,59455,59855,1.5,0.3
Sprite,Foreground,Centre,"sb\etc\l.png",275,177 C,0,59591,,40,126,199 F,2,59591,59991,1,0 S,2,59591,59991,1.5,0.3
Sprite,Foreground,Centre,"sb\etc\l.png",187,237 C,0,59864,,40,126,199 F,2,59864,60264,1,0 S,2,59864,60264,1.5,0.3
Sprite,Foreground,Centre,"sb\etc\l.png",324,278 C,0,60137,,40,126,199 F,2,60137,60537,1,0 S,2,60137,60537,1.5,0.3
Sprite,Foreground,Centre,"sb\etc\l.png",455,142 C,0,60955,,40,126,199 F,2,60955,61355,1,0 S,2,60955,61355,1.5,0.3
Sprite,Foreground,Centre,"sb\etc\l.png",519,269 C,0,61227,,159,83,121 F,2,61227,61627,1,0 S,2,61227,61627,1.5,0.3
Sprite,Foreground,Centre,"sb\etc\l.png",511,71 C,0,61637,,159,83,121 F,2,61637,62037,1,0 S,2,61637,62037,1.5,0.3
Sprite,Foreground,Centre,"sb\etc\l.png",511,71 C,0,61773,,159,83,121 F,2,61773,62173,1,0 S,2,61773,62173,1.5,0.3
Sprite,Foreground,Centre,"sb\etc\l.png",385,94 C,0,62046,,159,83,121 F,2,62046,62446,1,0 S,2,62046,62446,1.5,0.3
Sprite,Foreground,Centre,"sb\etc\l.png",247,102 C,0,62318,,159,83,121 F,2,62318,62718,1,0 S,2,62318,62718,1.5,0.3
Sprite,Foreground,Centre,"sb\etc\l.png",245,180 C,0,62727,,159,83,121 F,2,62727,63127,1,0 S,2,62727,63127,1.5,0.3
Sprite,Foreground,Centre,"sb\etc\l.png",244,258 C,0,63137,,159,83,121 F,2,63137,63537,1,0 S,2,63137,63537,1.5,0.3
Sprite,Foreground,Centre,"sb\etc\l.png",384,190 C,0,63409,,40,61,98 F,2,63409,63809,1,0 S,2,63409,63809,1.5,0.3
Sprite,Foreground,Centre,"sb\etc\l.png",454,372 C,0,63818,,40,61,98 F,2,63818,64218,1,0 S,2,63818,64218,1.5,0.3
Sprite,Foreground,Centre,"sb\etc\l.png",454,372 C,0,63955,,40,61,98 F,2,63955,64355,1,0 S,2,63955,64355,1.5,0.3
Sprite,Foreground,Centre,"sb\etc\l.png",523,196 C,0,64364,,40,61,98 F,2,64364,64764,1,0 S,2,64364,64764,1.5,0.3
Sprite,Foreground,Centre,"sb\etc\l.png",510,119 C,0,64500,,40,61,98 F,2,64500,64900,1,0 S,2,64500,64900,1.5,0.3
Sprite,Foreground,Centre,"sb\etc\l.png",247,101 C,0,65046,,40,61,98 F,2,65046,65446,1,0 S,2,65046,65446,1.5,0.3
Sprite,Foreground,Centre,"sb\etc\l.png",242,386 C,0,65591,,157,23,30 F,2,65591,65991,1,0 S,2,65591,65991,1.5,0.3
Sprite,Foreground,Centre,"sb\etc\l.png",100,261 C,0,66000,,157,23,30 F,2,66000,66400,1,0 S,2,66000,66400,1.5,0.3
Sprite,Foreground,Centre,"sb\etc\l.png",100,261 C,0,66137,,157,23,30 F,2,66137,66537,1,0 S,2,66137,66537,1.5,0.3
Sprite,Foreground,Centre,"sb\etc\l.png",186,187 C,0,66409,,157,23,30 F,2,66409,66809,1,0 S,2,66409,66809,1.5,0.3
Sprite,Foreground,Centre,"sb\etc\l.png",118,69 C,0,66682,,157,23,30 F,2,66682,67082,1,0 S,2,66682,67082,1.5,0.3
Sprite,Foreground,Centre,"sb\etc\l.png",305,130 C,0,67091,,157,23,30 F,2,67091,67491,1,0 S,2,67091,67491,1.5,0.3
Sprite,Foreground,Centre,"sb\etc\l.png",448,67 C,0,67364,,157,23,30 F,2,67364,67764,1,0 S,2,67364,67764,1.5,0.3
Sprite,Foreground,Centre,"sb\etc\l.png",473,186 C,0,67637,,157,23,30 F,2,67637,68037,1,0 S,2,67637,68037,1.5,0.3
Sprite,Foreground,Centre,"sb\etc\l.png",411,233 C,0,67773,,40,126,199 F,2,67773,68173,1,0 S,2,67773,68173,1.5,0.3
Sprite,Foreground,Centre,"sb\etc\l.png",501,389 C,0,68182,,40,126,199 F,2,68182,68582,1,0 S,2,68182,68582,1.5,0.3
Sprite,Foreground,Centre,"sb\etc\l.png",501,389 C,0,68318,,40,126,199 F,2,68318,68718,1,0 S,2,68318,68718,1.5,0.3
Sprite,Foreground,Centre,"sb\etc\l.png",553,260 C,0,68591,,40,126,199 F,2,68591,68991,1,0 S,2,68591,68991,1.5,0.3
Sprite,Foreground,Centre,"sb\etc\l.png",550,116 C,0,68864,,40,126,199 F,2,68864,69264,1,0 S,2,68864,69264,1.5,0.3
Sprite,Foreground,Centre,"sb\etc\l.png",184,260 C,0,69682,,40,126,199 F,2,69682,70082,1,0 S,2,69682,70082,1.5,0.3
Sprite,Foreground,Centre,"sb\etc\l.png",132,149 C,0,69955,,159,83,121 F,2,69955,70355,1,0 S,2,69955,70355,1.5,0.3
Sprite,Foreground,Centre,"sb\etc\l.png",341,135 C,0,70364,,159,83,121 F,2,70364,70764,1,0 S,2,70364,70764,1.5,0.3
Sprite,Foreground,Centre,"sb\etc\l.png",357,210 C,0,70500,,159,83,121 F,2,70500,70900,1,0 S,2,70500,70900,1.5,0.3
Sprite,Foreground,Centre,"sb\etc\l.png",293,329 C,0,71046,,159,83,121 F,2,71046,71446,1,0 S,2,71046,71446,1.5,0.3
Sprite,Foreground,Centre,"sb\etc\l.png",486,331 C,0,71455,,159,83,121 F,2,71455,71855,1,0 S,2,71455,71855,1.5,0.3
Sprite,Foreground,Centre,"sb\etc\l.png",486,331 C,0,71591,,159,83,121 F,2,71591,71991,1,0 S,2,71591,71991,1.5,0.3
Sprite,Foreground,Centre,"sb\etc\l.png",540,210 C,0,71864,,159,83,121 F,2,71864,72264,1,0 S,2,71864,72264,1.5,0.3
Sprite,Foreground,Centre,"sb\etc\l.png",431,97 C,0,72137,,40,61,98 F,2,72137,72537,1,0 S,2,72137,72537,1.5,0.3
Sprite,Foreground,Centre,"sb\etc\l.png",227,117 C,0,72546,,40,61,98 F,2,72546,72946,1,0 S,2,72546,72946,1.5,0.3
Sprite,Foreground,Centre,"sb\etc\l.png",227,117 C,0,72682,,40,61,98 F,2,72682,73082,1,0 S,2,72682,73082,1.5,0.3
Sprite,Foreground,Centre,"sb\etc\l.png",224,270 C,0,73091,,40,61,98 F,2,73091,73491,1,0 S,2,73091,73491,1.5,0.3
Sprite,Foreground,Centre,"sb\etc\l.png",284,318 C,0,73227,,40,61,98 F,2,73227,73627,1,0 S,2,73227,73627,1.5,0.3
Sprite,Foreground,Centre,"sb\etc\l.png",261,420 C,0,73773,,40,61,98 F,2,73773,74173,1,0 S,2,73773,74173,1.5,0.3
Sprite,Foreground,Centre,"sb\etc\ring.png",383,349 C,0,172500,,157,23,30 F,2,172500,172700,1,0 S,2,172500,172700,1.2,0.24
Sprite,Foreground,Centre,"sb\etc\ring.png",444,117 C,0,172909,,157,23,30 F,2,172909,173109,1,0 S,2,172909,173109,1.2,0.24
Sprite,Foreground,Centre,"sb\etc\ring.png",214,163 C,0,173318,,157,23,30 F,2,173318,173518,1,0 S,2,173318,173518,1.2,0.24
Sprite,Foreground,Centre,"sb\etc\ring.png",367,189 C,0,173591,,157,23,30 F,2,173591,173791,1,0 S,2,173591,173791,1.2,0.24
Sprite,Foreground,Centre,"sb\etc\ring.png",122,238 C,0,174137,,157,23,30 F,2,174137,174337,1,0 S,2,174137,174337,1.2,0.24
Sprite,Foreground,Centre,"sb\etc\ring.png",105,376 C,0,174409,,157,23,30 F,2,174409,174609,1,0 S,2,174409,174609,1.2,0.24
Sprite,Foreground,Centre,"sb\etc\ring.png",252,428 C,0,174682,,40,126,199 F,2,174682,174882,1,0 S,2,174682,174882,1.2,0.24
Sprite,Foreground,Centre,"sb\etc\ring.png",320,248 C,0,174750,,40,126,199 F,2,174750,174950,1,0 S,2,174750,174950,1.2,0.24
Sprite,Foreground,Centre,"sb\etc\l.png",119,398 C,0,128864,,159,83,121 F,2,128864,129064,1,0 S,2,128864,129064,1,0.2
Sprite,Foreground,Centre,"sb\etc\l.png",0,0 C,0,132682,,40,61,98 M,0,132682,132716,226,303,220.9553,287.5903 F,2,132682,133154,1,0 S,2,132682,133154,1,0.2 M,0,132716,132750,220.9553,287.5903,217.7974,271.7114 M,0,132750,132784,217.7974,271.7114,216.8942,255.5424 M,0,132784,132818,216.8942,255.5424,218.2651,239.3998 M,0,132818,132852,218.2651,239.3998,216.8942,255.5424 M,0,132852,132886,216.8942,255.5424,217.7974,271.7114 M,0,132886,132920,217.7974,271.7114,220.9553,287.5903 M,0,132920,132954,220.9553,287.5903,226,303
Sprite,Foreground,Centre,"sb\etc\l.png",0,0 C,0,133227,,40,61,98 M,0,133227,133261,341,388,357.1607,389.7011 F,2,133227,133563,1,0 S,2,133227,133563,1,0.2 M,0,133261,133295,357.1607,389.7011,373.3214,391.4023 M,0,133295,133329,373.3214,391.4023,389.4821,393.1034 M,0,133329,133363,389.4821,393.1034,405.6429,394.8045
Sprite,Foreground,Centre,"sb\etc\l.png",0,0 C,0,133500,,40,61,98 M,0,133500,133534,466,345,482.1607,346.7011 F,2,133500,133836,1,0 S,2,133500,133836,1,0.2 M,0,133534,133568,482.1607,346.7011,498.3214,348.4023 M,0,133568,133602,498.3214,348.4023,514.4822,350.1034 M,0,133602,133636,514.4822,350.1034,530.6428,351.8045
Sprite,Foreground,Centre,"sb\etc\l.png",0,0 C,0,133773,,40,61,98 M,0,133773,133807,572,285,569.4774,268.947 F,2,133773,134245,1,0 S,2,133773,134245,1,0.2 M,0,133807,133841,569.4774,268.947,566.9548,252.894 M,0,133841,133875,566.9548,252.894,564.4321,236.841 M,0,133875,133909,564.4321,236.841,561.9095,220.788 M,0,133909,133943,561.9095,220.788,559.387,204.735 M,0,133943,133977,559.387,204.735,556.8643,188.682 M,0,133977,134011,556.8643,188.682,554.3417,172.629 M,0,134011,134045,554.3417,172.629,551.8191,156.576
Sprite,Foreground,Centre,"sb\etc\l.png",506,92 C,0,134182,,40,61,98 F,2,134182,134382,1,0 S,2,134182,134382,1,0.2
Sprite,Foreground,Centre,"sb\etc\l.png",0,0 C,0,137591,,157,23,30 M,0,137591,137625,192,168,177.7177,160.6415 F,2,137591,137927,1,0 S,2,137591,137927,1,0.2 M,0,137625,137659,177.7177,160.6415,162.0637,157.6692 M,0,137659,137693,162.0637,157.6692,146.2922,159.9678 M,0,137693,137727,146.2922,159.9678,132.128,167.2896
Sprite,Foreground,Centre,"sb\etc\l.png",77,223 C,0,137864,,157,23,30 F,2,137864,138064,1,0 S,2,137864,138064,1,0.2
Sprite,Foreground,Centre,"sb\etc\l.png",0,0 C,0,138137,,40,126,199 M,0,138137,138171,200,318,203.444,333.8808 F,2,138137,138473,1,0 S,2,138137,138473,1,0.2 M,0,138171,138205,203.444,333.8808,206.8881,349.7617 M,0,138205,138239,206.8881,349.7617,210.3321,365.6425 M,0,138239,138273,210.3321,365.6425,213.7762,381.5234
Sprite,Foreground,Centre,"sb\etc\l.png",0,0 C,0,138409,,40,126,199 M,0,138409,138443,290,371,286.5274,355.1254 F,2,138409,138745,1,0 S,2,138409,138745,1,0.2 M,0,138443,138477,286.5274,355.1254,283.0549,339.2508 M,0,138477,138511,283.0549,339.2508,279.5823,323.3761 M,0,138511,138545,279.5823,323.3761,276.1097,307.5015
Sprite,Foreground,Centre,"sb\etc\l.png",0,0 C,0,139773,,159,83,121 M,0,139773,139807,482,198,487.7617,183.0019 F,2,139773,140109,1,0 S,2,139773,140109,1,0.2 M,0,139807,139841,487.7617,183.0019,489.2092,167.1288 M,0,139841,139875,489.2092,167.1288,485.5584,151.5954 M,0,139875,139909,485.5584,151.5954,477.1679,137.9919
Sprite,Foreground,Centre,"sb\etc\l.png",420,83 C,0,140046,,159,83,121 F,2,140046,140246,1,0 S,2,140046,140246,1,0.2
Sprite,Foreground,Centre,"sb\etc\l.png",0,0 C,0,140318,,40,61,98 M,0,140318,140352,280,152,263.8978,149.8133 F,2,140318,140654,1,0 S,2,140318,140654,1,0.2 M,0,140352,140386,263.8978,149.8133,247.7956,147.6266 M,0,140386,140420,247.7956,147.6266,231.6934,145.4398 M,0,140420,140454,231.6934,145.4398,215.5912,143.2531
Sprite,Foreground,Centre,"sb\etc\l.png",0,0 C,0,140591,,40,61,98 M,0,140591,140625,195,219,211.1245,221.0156 F,2,140591,140927,1,0 S,2,140591,140927,1,0.2 M,0,140625,140659,211.1245,221.0156,227.249,223.0311 M,0,140659,140693,227.249,223.0311,243.3736,225.0467 M,0,140693,140727,243.3736,225.0467,259,227
Sprite,Foreground,Centre,"sb\etc\l.png",0,0 C,0,141955,,157,23,30 M,0,141955,141989,479,399,485.7556,384.2658 F,2,141955,142291,1,0 S,2,141955,142291,1,0.2 M,0,141989,142023,485.7556,384.2658,488.8575,368.3596 M,0,142023,142057,488.8575,368.3596,488.1332,352.1732 M,0,142057,142091,488.1332,352.1732,483.6249,336.6137
Sprite,Foreground,Centre,"sb\etc\l.png",433,283 C,0,142227,,157,23,30 F,2,142227,142427,1,0 S,2,142227,142427,1,0.2
Sprite,Foreground,Centre,"sb\etc\l.png",433,283 C,0,142364,,157,23,30 F,2,142364,142564,1,0 S,2,142364,142564,1,0.2
Sprite,Foreground,Centre,"sb\etc\l.png",0,0 C,0,142500,,157,23,30 M,0,142500,142534,433,283,416.8307,281.3831 F,2,142500,142836,1,0 S,2,142500,142836,1,0.2 M,0,142534,142568,416.8307,281.3831,400.6613,279.7661 M,0,142568,142602,400.6613,279.7661,384.4919,278.1492 M,0,142602,142636,384.4919,278.1492,368.3226,276.5323
Sprite,Foreground,Centre,"sb\etc\l.png",0,0 C,0,142773,,157,23,30 M,0,142773,142807,300,316,283.8306,314.3831 F,2,142773,143109,1,0 S,2,142773,143109,1,0.2 M,0,142807,142841,283.8306,314.3831,267.6613,312.7661 M,0,142841,142875,267.6613,312.7661,251.4919,311.1492 M,0,142875,142909,251.4919,311.1492,235.3226,309.5323
Sprite,Foreground,Centre,"sb\etc\l.png",164,342 C,0,143046,,40,126,199 F,2,143046,143246,1,0 S,2,143046,143246,1,0.2
Sprite,Foreground,Centre,"sb\etc\l.png",0,0 C,0,143318,,40,126,199 M,0,143318,143352,87,206,85.60501,189.8338 F,2,143318,143654,1,0 S,2,143318,143654,1,0.2 M,0,143352,143386,85.60501,189.8338,85.82937,173.6258 M,0,143386,143420,85.82937,173.6258,87.93343,157.5515 M,0,143420,143454,87.93343,157.5515,91.88945,141.8275
Sprite,Foreground,Centre,"sb\etc\l.png",0,0 C,0,143591,,40,126,199 M,0,143591,143625,148,87,164.1412,85.12311 F,2,143591,144063,1,0 S,2,143591,144063,1,0.2 M,0,143625,143659,164.1412,85.12311,180.2825,83.24622 M,0,143659,143693,180.2825,83.24622,196.4237,81.36933 M,0,143693,143727,196.4237,81.36933,212.565,79.49245 M,0,143727,143761,212.565,79.49245,228.7062,77.61555 M,0,143761,143795,228.7062,77.61555,244.8475,75.73866 M,0,143795,143829,244.8475,75.73866,260.9887,73.86178 M,0,143829,143863,260.9887,73.86178,277,72
Sprite,Foreground,Centre,"sb\etc\l.png",0,0 C,0,144137,,159,83,121 M,0,144137,144171,228,220,217.2908,208.0019 F,2,144137,144609,1,0 S,2,144137,144609,1,0.2 M,0,144171,144205,217.2908,208.0019,210.198,193.7009 M,0,144205,144239,210.198,193.7009,207.8292,177.9038 M,0,144239,144273,207.8292,177.9038,210.42,162.126 M,0,144273,144307,210.42,162.126,207.8292,177.9038 M,0,144307,144341,207.8292,177.9038,210.198,193.7009 M,0,144341,144375,210.198,193.7009,217.2908,208.0019 M,0,144375,144409,217.2908,208.0019,228,220
Sprite,Foreground,Centre,"sb\etc\l.png",0,0 C,0,144682,,159,83,121 M,0,144682,144716,248,374,258.7092,362.0019 F,2,144682,145154,1,0 S,2,144682,145154,1,0.2 M,0,144716,144750,258.7092,362.0019,265.8019,347.7008 M,0,144750,144784,265.8019,347.7008,268.1708,331.9038 M,0,144784,144818,268.1708,331.9038,265.58,316.126 M,0,144818,144852,265.58,316.126,268.1708,331.9038 M,0,144852,144886,268.1708,331.9038,265.8019,347.7008 M,0,144886,144920,265.8019,347.7008,258.7092,362.0019 M,0,144920,144954,258.7092,362.0019,248,374
Sprite,Foreground,Centre,"sb\etc\l.png",387,300 C,0,145227,,40,61,98 F,2,145227,145427,1,0 S,2,145227,145427,1,0.2
Sprite,Foreground,Centre,"sb\etc\l.png",0,0 C,0,145364,,40,61,98 M,0,145364,145398,387,300,403.1548,298.244 F,2,145364,145836,1,0 S,2,145364,145836,1,0.2 M,0,145398,145432,403.1548,298.244,419.3097,296.4881 M,0,145432,145466,419.3097,296.4881,435.4645,294.7321 M,0,145466,145500,435.4645,294.7321,451.6194,292.9761 M,0,145500,145534,451.6194,292.9761,467.7742,291.2202 M,0,145534,145568,467.7742,291.2202,483.9291,289.4642 M,0,145568,145602,483.9291,289.4642,500.0839,287.7083 M,0,145602,145636,500.0839,287.7083,516.2388,285.9523
Sprite,Foreground,Centre,"sb\etc\l.png",0,0 C,0,145773,,40,61,98 M,0,145773,145807,564,224,567.1212,208.0769 F,2,145773,146109,1,0 S,2,145773,146109,1,0.2 M,0,145807,145841,567.1212,208.0769,567.2285,191.8513 M,0,145841,145875,567.2285,191.8513,564.3184,175.8887 M,0,145875,145909,564.3184,175.8887,558.4923,160.7454
Sprite,Foreground,Centre,"sb\etc\l.png",481,145 C,0,146046,,40,61,98 F,2,146046,146246,1,0 S,2,146046,146246,1,0.2
Sprite,Foreground,Centre,"sb\etc\l.png",0,0 C,0,146318,,157,23,30 M,0,146318,146352,340,99,323.7653,98.55254 F,2,146318,146790,1,0 S,2,146318,146790,1,0.2 M,0,146352,146386,323.7653,98.55254,307.6458,100.4231 M,0,146386,146420,307.6458,100.4231,292.2897,105.6156 M,0,146420,146454,292.2897,105.6156,278.4315,114.0605 M,0,146454,146488,278.4315,114.0605,265.1651,123.4408 M,0,146488,146522,265.1651,123.4408,250.694,130.7579 M,0,146522,146556,250.694,130.7579,234.9361,134.5899 M,0,146556,146590,234.9361,134.5899,218.7272,135.5055
Sprite,Foreground,Centre,"sb\etc\l.png",0,0 C,0,146727,,157,23,30 M,0,146727,146761,154,90,162.0195,104.1254 F,2,146727,147199,1,0 S,2,146727,147199,1,0.2 M,0,146761,146795,162.0195,104.1254,169.2327,118.6734 M,0,146795,146829,169.2327,118.6734,175.4915,133.6569 M,0,146829,146863,175.4915,133.6569,180.7697,149.0135 M,0,146863,146897,180.7697,149.0135,185.0453,164.6792 M,0,146897,146931,185.0453,164.6792,188.3004,180.5885 M,0,146931,146965,188.3004,180.5885,190.5214,196.6752 M,0,146965,146999,190.5214,196.6752,191.699,212.8721
Sprite,Foreground,Centre,"sb\etc\l.png",0,0 C,0,147137,,157,23,30 M,0,147137,147171,158,284,158.2425,300.2482 F,2,147137,147473,1,0 S,2,147137,147473,1,0.2 M,0,147171,147205,158.2425,300.2482,158.485,316.4964 M,0,147205,147239,158.485,316.4964,158.7275,332.7446 M,0,147239,147273,158.7275,332.7446,158.97,348.9928
Sprite,Foreground,Centre,"sb\etc\l.png",0,0 C,0,147409,,40,126,199 M,0,147409,147443,105,405,118.173,414.4068 F,2,147409,147881,1,0 S,2,147409,147881,1,0.2 M,0,147443,147477,118.173,414.4068,132.724,421.3923 M,0,147477,147511,132.724,421.3923,148.3651,425.3789 M,0,147511,147545,148.3651,425.3789,164.4853,426.2107 M,0,147545,147579,164.4853,426.2107,180.4547,423.8548 M,0,147579,147613,180.4547,423.8548,195.6493,418.4031 M,0,147613,147647,195.6493,418.4031,209.4753,410.0684 M,0,147647,147681,209.4753,410.0684,221.3923,399.1759
Sprite,Foreground,Centre,"sb\etc\l.png",288,356 C,0,147818,,40,126,199 F,2,147818,148018,1,0 S,2,147818,148018,1,0.2
Sprite,Foreground,Centre,"sb\etc\l.png",0,0 C,0,147955,,40,126,199 M,0,147955,147989,288,356,304.2337,356.7269 F,2,147955,148427,1,0 S,2,147955,148427,1,0.2 M,0,147989,148023,304.2337,356.7269,320.4675,357.4538 M,0,148023,148057,320.4675,357.4538,336.7012,358.1807 M,0,148057,148091,336.7012,358.1807,352.9349,358.9075 M,0,148091,148125,352.9349,358.9075,369.1687,359.6344 M,0,148125,148159,369.1687,359.6344,385.4024,360.3613 M,0,148159,148193,385.4024,360.3613,401.6361,361.0882 M,0,148193,148227,401.6361,361.0882,417.8699,361.8151
Sprite,Foreground,Centre,"sb\etc\l.png",0,0 C,0,148500,,159,83,121 M,0,148500,148534,351,220,360.6761,232.9196 F,2,148500,148972,1,0 S,2,148500,148972,1,0.2 M,0,148534,148568,360.6761,232.9196,372.8968,243.3436 M,0,148568,148602,372.8968,243.3436,387.3596,250.3371 M,0,148602,148636,387.3596,250.3371,403.125,253.4442 M,0,148636,148670,403.125,253.4442,419.1684,252.4607 M,0,148670,148704,419.1684,252.4607,434.4465,247.4476 M,0,148704,148738,434.4465,247.4476,447.9649,238.7276 M,0,148738,148772,447.9649,238.7276,458.8424,226.8641
Sprite,Foreground,Centre,"sb\etc\l.png",0,0 C,0,148909,,159,83,121 M,0,148909,148943,492,156,476.3185,151.8039 F,2,148909,149381,1,0 S,2,148909,149381,1,0.2 M,0,148943,148977,476.3185,151.8039,461.6984,144.7839 M,0,148977,149011,461.6984,144.7839,448.894,134.821 M,0,149011,149045,448.894,134.821,437.3727,123.3632 M,0,149045,149079,437.3727,123.3632,425.1783,112.6461 M,0,149079,149113,425.1783,112.6461,411.2097,104.4033 M,0,149113,149147,411.2097,104.4033,395.9137,98.97836 M,0,149147,149181,395.9137,98.97836,379.9944,95.76534
Sprite,Foreground,Centre,"sb\etc\l.png",0,0 C,0,149318,,159,83,121 M,0,149318,149352,302,105,287.4656,112.2672 F,2,149318,149654,1,0 S,2,149318,149654,1,0.2 M,0,149352,149386,287.4656,112.2672,272.9311,119.5344 M,0,149386,149420,272.9311,119.5344,257.0752,117.0736 M,0,149420,149454,257.0752,117.0736,241.1289,113.9468
Sprite,Foreground,Centre,"sb\etc\l.png",0,0 C,0,149591,,159,83,121 M,0,149591,149625,163,105,164.1859,121.2067 F,2,149591,149927,1,0 S,2,149591,149927,1,0.2 M,0,149625,149659,164.1859,121.2067,165.3717,137.4133 M,0,149659,149693,165.3717,137.4133,166.5576,153.62 M,0,149693,149727,166.5576,153.62,167.7434,169.8267
Sprite,Foreground,Centre,"sb\etc\l.png",0,0 C,0,149864,,159,83,121 M,0,149864,149898,115,227,113.8141,243.2067 F,2,149864,150200,1,0 S,2,149864,150200,1,0.2 M,0,149898,149932,113.8141,243.2067,112.6283,259.4133 M,0,149932,149966,112.6283,259.4133,111.4424,275.62 M,0,149966,150000,111.4424,275.62,110.2566,291.8267
Sprite,Foreground,Centre,"sb\etc\l.png",181,325 C,0,150137,,159,83,121 F,2,150137,150337,1,0 S,2,150137,150337,1,0.2
Sprite,Foreground,Centre,"sb\etc\l.png",68,431 C,0,150409,,159,83,121 F,2,150409,150609,1,0 S,2,150409,150609,1,0.2
Sprite,Foreground,Centre,"sb\etc\l.png",0,0 C,0,150682,,40,61,98 M,0,150682,150716,222,405,235.6199,396.2444 F,2,150682,151154,1,0 S,2,150682,151154,1,0.2 M,0,150716,150750,235.6199,396.2444,247.5822,385.3961 M,0,150750,150784,247.5822,385.3961,257.2814,372.4841 M,0,150784,150818,257.2814,372.4841,264.3687,357.9723 M,0,150818,150852,264.3687,357.9723,268.5888,342.3825 M,0,150852,150886,268.5888,342.3825,269.7897,326.2751 M,0,150886,150920,269.7897,326.2751,267.9276,310.2291 M,0,150920,150954,267.9276,310.2291,263.069,294.8217
Sprite,Foreground,Centre,"sb\etc\l.png",0,0 C,0,151091,,40,61,98 M,0,151091,151125,330,254,343.0883,263.631 F,2,151091,151563,1,0 S,2,151091,151563,1,0.2 M,0,151125,151159,343.0883,263.631,356.1767,273.2621 M,0,151159,151193,356.1767,273.2621,369.2651,282.8932 M,0,151193,151227,369.2651,282.8932,382.3535,292.5242 M,0,151227,151261,382.3535,292.5242,395.5402,283.9799 M,0,151261,151295,395.5402,283.9799,408.732,274.491 M,0,151295,151329,408.732,274.491,421.9238,265.0022 M,0,151329,151363,421.9238,265.0022,435.1156,255.5133
Sprite,Foreground,Centre,"sb\etc\l.png",0,0 C,0,151500,,40,61,98 M,0,151500,151534,496,206,503.6093,220.307 F,2,151500,151836,1,0 S,2,151500,151836,1,0.2 M,0,151534,151568,503.6093,220.307,509.112,235.5139 M,0,151568,151602,509.112,235.5139,512.0613,251.4163 M,0,151602,151636,512.0613,251.4163,512.3776,267.5892
Sprite,Foreground,Centre,"sb\etc\l.png",0,0 C,0,151773,,40,61,98 M,0,151773,151807,470,334,456.8669,343.5699 F,2,151773,152245,1,0 S,2,151773,152245,1,0.2 M,0,151807,151841,456.8669,343.5699,443.7337,353.1398 M,0,151841,151875,443.7337,353.1398,430.6006,362.7097 M,0,151875,151909,430.6006,362.7097,417.4674,372.2796 M,0,151909,151943,417.4674,372.2796,404.3343,381.8495 M,0,151943,151977,404.3343,381.8495,391.2011,391.4194 M,0,151977,152011,391.2011,391.4194,378.0679,400.9893 M,0,152011,152045,378.0679,400.9893,364.9348,410.5591
Sprite,Foreground,Centre,"sb\etc\l.png",293,391 C,0,152182,,40,61,98 F,2,152182,152382,1,0 S,2,152182,152382,1,0.2
Sprite,Foreground,Centre,"sb\etc\l.png",0,0 C,0,152318,,40,61,98 M,0,152318,152352,293,391,276.8474,389.3495 F,2,152318,152790,1,0 S,2,152318,152790,1,0.2 M,0,152352,152386,276.8474,389.3495,260.6865,390.6286 M,0,152386,152420,260.6865,390.6286,245.5157,396.2676 M,0,152420,152454,245.5157,396.2676,232.1304,405.4522 M,0,152454,152488,232.1304,405.4522,218.9308,414.9171 M,0,152488,152522,218.9308,414.9171,204.3212,421.9557 M,0,152522,152556,204.3212,421.9557,188.551,425.7649 M,0,152556,152590,188.551,425.7649,172.3587,426.9716
Sprite,Foreground,Centre,"sb\etc\l.png",0,0 C,0,152864,,157,23,30 M,0,152864,152898,90,293,91.47121,276.8167 F,2,152864,153336,1,0 S,2,152864,153336,1,0.2 M,0,152898,152932,91.47121,276.8167,92.94241,260.6335 M,0,152932,152966,92.94241,260.6335,94.41362,244.4502 M,0,152966,153000,94.41362,244.4502,95.88483,228.2669 M,0,153000,153034,95.88483,228.2669,97.35603,212.0837 M,0,153034,153068,97.35603,212.0837,98.82724,195.9004 M,0,153068,153102,98.82724,195.9004,100.2984,179.7171 M,0,153102,153136,100.2984,179.7171,101.7696,163.5339
Sprite,Foreground,Centre,"sb\etc\l.png",0,0 C,0,153273,,157,23,30 M,0,153273,153307,172,130,185.3072,139.3264 F,2,153273,153745,1,0 S,2,153273,153745,1,0.2 M,0,153307,153341,185.3072,139.3264,198.6143,148.6528 M,0,153341,153375,198.6143,148.6528,211.9215,157.9792 M,0,153375,153409,211.9215,157.9792,225.2287,167.3056 M,0,153409,153443,225.2287,167.3056,238.5359,176.632 M,0,153443,153477,238.5359,176.632,251.843,185.9584 M,0,153477,153511,251.843,185.9584,265.1502,195.2848 M,0,153511,153545,265.1502,195.2848,278.4574,204.6112
Sprite,Foreground,Centre,"sb\etc\l.png",356,204 C,0,153682,,157,23,30 F,2,153682,153882,1,0 S,2,153682,153882,1,0.2
Sprite,Foreground,Centre,"sb\etc\l.png",0,0 C,0,153955,,157,23,30 M,0,153955,153989,448,78,463.5865,73.54321 F,2,153955,154427,1,0 S,2,153955,154427,1,0.2 M,0,153989,154023,463.5865,73.54321,479.7714,72.70897 M,0,154023,154057,479.7714,72.70897,495.7243,75.53802 M,0,154057,154091,495.7243,75.53802,510.6271,81.88323 M,0,154091,154125,510.6271,81.88323,523.7158,91.41724 M,0,154125,154159,523.7158,91.41724,534.3202,103.6493 M,0,154159,154193,534.3202,103.6493,541.8974,117.9506 M,0,154193,154227,541.8974,117.9506,546.0603,133.5866
Sprite,Foreground,Centre,"sb\etc\l.png",0,0 C,0,154500,,157,23,30 M,0,154500,154534,454,259,438.4135,263.4568 F,2,154500,154972,1,0 S,2,154500,154972,1,0.2 M,0,154534,154568,438.4135,263.4568,422.2286,264.291 M,0,154568,154602,422.2286,264.291,406.2757,261.462 M,0,154602,154636,406.2757,261.462,391.3729,255.1168 M,0,154636,154670,391.3729,255.1168,378.2841,245.5828 M,0,154670,154704,378.2841,245.5828,367.6798,233.3507 M,0,154704,154738,367.6798,233.3507,360.1026,219.0493 M,0,154738,154772,360.1026,219.0493,355.9397,203.4134
Sprite,Foreground,Centre,"sb\etc\l.png",0,0 C,0,155046,,40,126,199 M,0,155046,155080,381,357,377.9279,372.899 F,2,155046,156064,1,0 S,2,155046,156064,1,0.2 M,0,155080,155114,377.9279,372.899,372.2822,388.0318 M,0,155114,155148,372.2822,388.0318,363.8788,401.8252 M,0,155148,155182,363.8788,401.8252,353.0204,413.7823 M,0,155182,155216,353.0204,413.7823,340.0982,423.4721 M,0,155216,155250,340.0982,423.4721,325.5778,430.5458 M,0,155250,155284,325.5778,430.5458,309.9823,434.7482 M,0,155284,155318,309.9823,434.7482,293.8736,435.9282 M,0,155318,155352,293.8736,435.9282,277.8322,434.043 M,0,155352,155386,277.8322,434.043,262.4358,429.1606 M,0,155386,155421,262.4358,429.1606,248.2393,421.4569 M,0,155421,155455,248.2393,421.4569,235.5011,411.46 M,0,155455,155489,235.5011,411.46,248.2393,421.4569 M,0,155489,155523,248.2393,421.4569,262.4358,429.1606 M,0,155523,155557,262.4358,429.1606,277.8322,434.043 M,0,155557,155591,277.8322,434.043,293.8736,435.9282 M,0,155591,155625,293.8736,435.9282,309.9823,434.7482 M,0,155625,155659,309.9823,434.7482,325.5778,430.5458 M,0,155659,155693,325.5778,430.5458,340.0982,423.4721 M,0,155693,155727,340.0982,423.4721,353.0204,413.7823 M,0,155727,155761,353.0204,413.7823,363.8788,401.8252 M,0,155761,155796,363.8788,401.8252,372.2822,388.0318 M,0,155796,155830,372.2822,388.0318,377.9279,372.899 M,0,155830,155864,377.9279,372.899,381,357
Sprite,Foreground,Centre,"sb\etc\l.png",0,0 C,0,156137,,40,126,199 M,0,156137,156171,337,207,324.3534,196.8871 F,2,156137,157155,1,0 S,2,156137,157155,1,0.2 M,0,156171,156205,324.3534,196.8871,310.243,189.0288 M,0,156205,156239,310.243,189.0288,294.9004,183.9828 M,0,156239,156273,294.9004,183.9828,278.8801,181.9313 M,0,156273,156307,278.8801,181.9313,262.761,182.9485 M,0,156307,156341,262.761,182.9485,247.1255,186.9977 M,0,156341,156375,247.1255,186.9977,232.5388,193.9326 M,0,156375,156409,232.5388,193.9326,219.5279,203.5026 M,0,156409,156443,219.5279,203.5026,208.563,215.362 M,0,156443,156477,208.563,215.362,200.0404,229.0821 M,0,156477,156512,200.0404,229.0821,194.2682,244.1673 M,0,156512,156546,194.2682,244.1673,191.1112,260.0488 M,0,156546,156580,191.1112,260.0488,194.2682,244.1673 M,0,156580,156614,194.2682,244.1673,200.0404,229.0821 M,0,156614,156648,200.0404,229.0821,208.563,215.362 M,0,156648,156682,208.563,215.362,219.5279,203.5026 M,0,156682,156716,219.5279,203.5026,232.5388,193.9326 M,0,156716,156750,232.5388,193.9326,247.1255,186.9977 M,0,156750,156784,247.1255,186.9977,262.761,182.9485 M,0,156784,156818,262.761,182.9485,278.8801,181.9313 M,0,156818,156852,278.8801,181.9313,294.9004,183.9828 M,0,156852,156887,294.9004,183.9828,310.243,189.0288 M,0,156887,156921,310.243,189.0288,324.3534,196.8871 M,0,156921,156955,324.3534,196.8871,337,207
Sprite,Foreground,Centre,"sb\etc\l.png",0,0 C,0,157227,,159,83,121 M,0,157227,157261,456,306,440.114,309.4199 F,2,157227,157699,1,0 S,2,157227,157699,1,0.2 M,0,157261,157295,440.114,309.4199,424.2279,312.8398 M,0,157295,157329,424.2279,312.8398,408.3419,316.2597 M,0,157329,157363,408.3419,316.2597,392.4558,319.6797 M,0,157363,157397,392.4558,319.6797,376.5697,323.0996 M,0,157397,157431,376.5697,323.0996,360.6837,326.5195 M,0,157431,157465,360.6837,326.5195,344.7976,329.9394 M,0,157465,157499,344.7976,329.9394,328.9116,333.3593
Sprite,Foreground,Centre,"sb\etc\l.png",0,0 C,0,157637,,159,83,121 M,0,157637,157671,298,406,294.5801,390.114 F,2,157637,158109,1,0 S,2,157637,158109,1,0.2 M,0,157671,157705,294.5801,390.114,291.1602,374.2279 M,0,157705,157739,291.1602,374.2279,287.7403,358.3419 M,0,157739,157773,287.7403,358.3419,284.3203,342.4558 M,0,157773,157807,284.3203,342.4558,280.9004,326.5697 M,0,157807,157841,280.9004,326.5697,277.4805,310.6837 M,0,157841,157875,277.4805,310.6837,274.0606,294.7976 M,0,157875,157909,274.0606,294.7976,270.6407,278.9116
Sprite,Foreground,Centre,"sb\etc\l.png",0,0 C,0,158046,,159,83,121 M,0,158046,158080,257,201,272.8674,197.4944 F,2,158046,158382,1,0 S,2,158046,158382,1,0.2 M,0,158080,158114,272.8674,197.4944,288.7347,193.9888 M,0,158114,158148,288.7347,193.9888,304.6021,190.4833 M,0,158148,158182,304.6021,190.4833,320.4695,186.9777
Sprite,Foreground,Centre,"sb\etc\l.png",329,109 C,0,158318,,159,83,121 F,2,158318,158518,1,0 S,2,158318,158518,1,0.2
Sprite,Foreground,Centre,"sb\etc\l.png",173,97 C,0,158591,,159,83,121 F,2,158591,158791,1,0 S,2,158591,158791,1,0.2
Sprite,Foreground,Centre,"sb\etc\l.png",159,252 C,0,158864,,159,83,121 F,2,158864,159064,1,0 S,2,158864,159064,1,0.2
Sprite,Foreground,Centre,"sb\etc\l.png",315,264 C,0,159137,,159,83,121 F,2,159137,159337,1,0 S,2,159137,159337,1,0.2
Sprite,Foreground,Centre,"sb\etc\l.png",0,0 C,0,159409,,40,61,98 M,0,159409,159443,225,391,236.4925,402.3885 F,2,159409,160018,1,0 S,2,159409,160018,1,0.2 M,0,159443,159477,236.4925,402.3885,249.8169,411.4756 M,0,159477,159511,249.8169,411.4756,264.7386,417.5967 M,0,159511,159545,264.7386,417.5967,280.607,420.4845 M,0,159545,159579,280.607,420.4845,296.7298,420.013 M,0,159579,159613,296.7298,420.013,312.4038,416.2022 M,0,159613,159647,312.4038,416.2022,326.9452,409.2181 M,0,159647,159681,326.9452,409.2181,339.7195,399.3648 M,0,159681,159715,339.7195,399.3648,350.1693,387.0717 M,0,159715,159749,350.1693,387.0717,357.8381,372.8745 M,0,159749,159784,357.8381,372.8745,362.3908,357.3922 M,0,159784,159818,362.3908,357.3922,363.6281,341.2998
Sprite,Foreground,Centre,"sb\etc\l.png",0,0 C,0,159955,,40,61,98 M,0,159955,159989,347,264,341.392,248.8528 F,2,159955,160427,1,0 S,2,159955,160427,1,0.2 M,0,159989,160023,341.392,248.8528,339.2048,232.9215 M,0,160023,160057,339.2048,232.9215,341.0189,216.9434 M,0,160057,160091,341.0189,216.9434,346.7218,201.9079 M,0,160091,160125,346.7218,201.9079,355.9605,188.7459 M,0,160125,160159,355.9605,188.7459,368.163,178.2723 M,0,160159,160193,368.163,178.2723,382.5737,171.1359 M,0,160193,160227,382.5737,171.1359,398.3004,167.7784
Sprite,Foreground,Centre,"sb\etc\l.png",0,0 C,0,160500,,40,61,98 M,0,160500,160534,528,81,513.4656,88.26722 F,2,160500,161109,1,0 S,2,160500,161109,1,0.2 M,0,160534,160568,513.4656,88.26722,498.9311,95.53444 M,0,160568,160602,498.9311,95.53444,484.3967,102.8017 M,0,160602,160636,484.3967,102.8017,469.8622,110.0689 M,0,160636,160670,469.8622,110.0689,471.1927,124.8036 M,0,160670,160704,471.1927,124.8036,474.8545,140.6356 M,0,160704,160738,474.8545,140.6356,478.5163,156.4676 M,0,160738,160772,478.5163,156.4676,482.1782,172.2997 M,0,160772,160806,482.1782,172.2997,485.84,188.1317 M,0,160806,160840,485.84,188.1317,489.5018,203.9637 M,0,160840,160875,489.5018,203.9637,493.1637,219.7958 M,0,160875,160909,493.1637,219.7958,496.8255,235.6278
Sprite,Foreground,Centre,"sb\etc\l.png",0,0 C,0,161046,,40,61,98 M,0,161046,161080,541,300,539.0446,316.1319 F,2,161046,161518,1,0 S,2,161046,161518,1,0.2 M,0,161080,161114,539.0446,316.1319,537.0892,332.2639 M,0,161114,161148,537.0892,332.2639,535.1339,348.3958 M,0,161148,161182,535.1339,348.3958,533.1785,364.5277 M,0,161182,161216,533.1785,364.5277,531.2231,380.6596 M,0,161216,161250,531.2231,380.6596,529.2677,396.7915 M,0,161250,161284,529.2677,396.7915,527.3123,412.9235 M,0,161284,161318,527.3123,412.9235,525.3569,429.0554
Sprite,Foreground,Centre,"sb\etc\l.png",0,0 C,0,161591,,157,23,30 M,0,161591,161625,370,407,368.1091,390.8792 F,2,161591,161927,1,0 S,2,161591,161927,1,0.2 M,0,161625,161659,368.1091,390.8792,364.8627,374.9883 M,0,161659,161693,364.8627,374.9883,360.0471,359.4969 M,0,161693,161727,360.0471,359.4969,353.7747,344.5225
Sprite,Foreground,Centre,"sb\etc\l.png",293,293 C,0,161864,,157,23,30 F,2,161864,162064,1,0 S,2,161864,162064,1,0.2
Sprite,Foreground,Centre,"sb\etc\l.png",0,0 C,0,162000,,157,23,30 M,0,162000,162034,293,293,294.8909,276.8792 F,2,162000,162336,1,0 S,2,162000,162336,1,0.2 M,0,162034,162068,294.8909,276.8792,298.1373,260.9883 M,0,162068,162102,298.1373,260.9883,302.9529,245.4969 M,0,162102,162136,302.9529,245.4969,309.2252,230.5225
Sprite,Foreground,Centre,"sb\etc\l.png",372,182 C,0,162273,,157,23,30 F,2,162273,162473,1,0 S,2,162273,162473,1,0.2
Sprite,Foreground,Centre,"sb\etc\l.png",0,0 C,0,162409,,157,23,30 M,0,162409,162443,372,182,370.1091,165.8792 F,2,162409,162745,1,0 S,2,162409,162745,1,0.2 M,0,162443,162477,370.1091,165.8792,366.8627,149.9883 M,0,162477,162511,366.8627,149.9883,362.0471,134.4969 M,0,162511,162545,362.0471,134.4969,355.7747,119.5225
Sprite,Foreground,Centre,"sb\etc\l.png",0,0 C,0,162682,,40,126,199 M,0,162682,162716,280,99,263.7959,97.77914 F,2,162682,163154,1,0 S,2,162682,163154,1,0.2 M,0,162716,162750,263.7959,97.77914,247.5919,96.55829 M,0,162750,162784,247.5919,96.55829,231.3878,95.33743 M,0,162784,162818,231.3878,95.33743,215.1837,94.11658 M,0,162818,162852,215.1837,94.11658,198.9796,92.89572 M,0,162852,162886,198.9796,92.89572,182.7756,91.67487 M,0,162886,162920,182.7756,91.67487,166.5715,90.45402 M,0,162920,162954,166.5715,90.45402,150.3674,89.23316
Sprite,Foreground,Centre,"sb\etc\l.png",0,0 C,0,163227,,40,126,199 M,0,163227,163261,76,226,92.21059,227.131 F,2,163227,163699,1,0 S,2,163227,163699,1,0.2 M,0,163261,163295,92.21059,227.131,108.4212,228.2619 M,0,163295,163329,108.4212,228.2619,124.6318,229.3929 M,0,163329,163363,124.6318,229.3929,140.8424,230.5239 M,0,163363,163397,140.8424,230.5239,157.053,231.6549 M,0,163397,163431,157.053,231.6549,173.2636,232.7858 M,0,163431,163465,173.2636,232.7858,189.4742,233.9168 M,0,163465,163499,189.4742,233.9168,205,235
Sprite,Foreground,Centre,"sb\etc\l.png",242,387 C,0,163773,,159,83,121 F,2,163773,163973,1,0 S,2,163773,163973,1,0.2
Sprite,Foreground,Centre,"sb\etc\l.png",320,248 C,0,163909,,159,83,121 F,2,163909,168337,1,0 S,2,163909,168337,1,0.2
Sprite,Foreground,Centre,"sb\etc\l.png",0,0 C,0,171409,,40,61,98 M,0,171409,171443,362,244,346.2352,240.0588 F,2,171409,171972,1,0 S,2,171409,171972,1,0.2 M,0,171443,171477,346.2352,240.0588,330.4704,236.1176 M,0,171477,171511,330.4704,236.1176,314.7056,232.1764 M,0,171511,171545,314.7056,232.1764,298.9407,228.2352 M,0,171545,171579,298.9407,228.2352,283.1759,224.294 M,0,171579,171613,283.1759,224.294,288.4308,225.6077 M,0,171613,171647,288.4308,225.6077,304.1957,229.5489 M,0,171647,171681,304.1957,229.5489,319.9605,233.4901 M,0,171681,171715,319.9605,233.4901,335.7253,237.4313 M,0,171715,171749,335.7253,237.4313,351.4901,241.3725 M,0,171749,171772,351.4901,241.3725,362,244
Sprite,Foreground,Centre,"sb\etc\l.png",0,0 C,0,171955,,40,61,98 M,0,171955,171989,460,279,475.7648,282.9412 F,2,171955,172518,1,0 S,2,171955,172518,1,0.2 M,0,171989,172023,475.7648,282.9412,491.5296,286.8824 M,0,172023,172057,491.5296,286.8824,507.2944,290.8236 M,0,172057,172091,507.2944,290.8236,523.0593,294.7648 M,0,172091,172125,523.0593,294.7648,538.8241,298.706 M,0,172125,172159,538.8241,298.706,533.5692,297.3923 M,0,172159,172193,533.5692,297.3923,517.8043,293.4511 M,0,172193,172227,517.8043,293.4511,502.0395,289.5099 M,0,172227,172261,502.0395,289.5099,486.2747,285.5687 M,0,172261,172295,486.2747,285.5687,470.5099,281.6275 M,0,172295,172318,470.5099,281.6275,460,279
Sprite,Foreground,Centre,"sb\etc\ring.png",397,270 C,0,52500,,40,126,199 F,2,52500,52700,1,0 S,2,52500,52700,1.2,0.24
Sprite,Foreground,Centre,"sb\etc\ring.png",566,431 C,0,52909,,40,126,199 F,2,52909,53109,1,0 S,2,52909,53109,1.2,0.24
Sprite,Foreground,Centre,"sb\etc\ring.png",576,195 C,0,53318,,40,126,199 F,2,53318,53518,1,0 S,2,53318,53518,1.2,0.24
Sprite,Foreground,Centre,"sb\etc\ring.png",479,317 C,0,53591,,159,83,121 F,2,53591,53791,1,0 S,2,53591,53791,1.2,0.24
Sprite,Foreground,Centre,"sb\etc\ring.png",261,213 C,0,54273,,159,83,121 F,2,54273,54473,1,0 S,2,54273,54473,1.2,0.24
Sprite,Foreground,Centre,"sb\etc\ring.png",261,213 C,0,54409,,159,83,121 F,2,54409,54609,1,0 S,2,54409,54609,1.2,0.24
Sprite,Foreground,Centre,"sb\etc\ring.png",320,248 C,0,54955,,159,83,121 F,2,54955,55155,1,0 S,2,54955,55155,1.2,0.24
Sprite,Foreground,Centre,"sb\etc\l.png",253,197 C,0,111409,,40,126,199 F,2,111409,111809,1,0 S,2,111409,111809,1.5,0.3
Sprite,Foreground,Centre,"sb\etc\l.png",319,247 C,0,112091,,40,126,199 F,2,112091,112491,1,0 S,2,112091,112491,1.5,0.3
Sprite,Foreground,Centre,"sb\etc\l.png",319,247 C,0,112227,,40,126,199 F,2,112227,112627,1,0 S,2,112227,112627,1.5,0.3
Sprite,Foreground,Centre,"sb\etc\l.png",293,387 C,0,112500,,159,83,121 F,2,112500,112900,1,0 S,2,112500,112900,1.5,0.3
Sprite,Foreground,Centre,"sb\etc\l.png",406,279 C,0,112773,,159,83,121 F,2,112773,113173,1,0 S,2,112773,113173,1.5,0.3
Sprite,Foreground,Centre,"sb\etc\l.png",511,395 C,0,113046,,159,83,121 F,2,113046,113446,1,0 S,2,113046,113446,1.5,0.3
Sprite,Foreground,Centre,"sb\etc\l.png",560,246 C,0,113318,,159,83,121 F,2,113318,113718,1,0 S,2,113318,113718,1.5,0.3
Sprite,Foreground,Centre,"sb\etc\l.png",545,106 C,0,113591,,40,61,98 F,2,113591,113991,1,0 S,2,113591,113991,1.5,0.3
Sprite,Foreground,Centre,"sb\etc\l.png",321,211 C,0,114137,,40,61,98 F,2,114137,114537,1,0 S,2,114137,114537,1.5,0.3
Sprite,Foreground,Centre,"sb\etc\l.png",184,231 C,0,114409,,40,61,98 F,2,114409,114809,1,0 S,2,114409,114809,1.5,0.3
Sprite,Foreground,Centre,"sb\etc\l.png",175,373 C,0,114682,,157,23,30 F,2,114682,115082,1,0 S,2,114682,115082,1.5,0.3
Sprite,Foreground,Centre,"sb\etc\l.png",95,238 C,0,114955,,157,23,30 F,2,114955,115355,1,0 S,2,114955,115355,1.5,0.3
Sprite,Foreground,Centre,"sb\etc\l.png",215,139 C,0,115227,,157,23,30 F,2,115227,115627,1,0 S,2,115227,115627,1.5,0.3
Sprite,Foreground,Centre,"sb\etc\l.png",286,277 C,0,115500,,157,23,30 F,2,115500,115900,1,0 S,2,115500,115900,1.5,0.3
Sprite,Foreground,Centre,"sb\etc\l.png",394,210 C,0,115773,,40,126,199 F,2,115773,116173,1,0 S,2,115773,116173,1.5,0.3
Sprite,Foreground,Centre,"sb\etc\l.png",289,413 C,0,116318,,40,126,199 F,2,116318,116718,1,0 S,2,116318,116718,1.5,0.3
Sprite,Foreground,Centre,"sb\etc\l.png",289,413 C,0,116455,,40,126,199 F,2,116455,116855,1,0 S,2,116455,116855,1.5,0.3
Sprite,Foreground,Centre,"sb\etc\l.png",289,413 C,0,116591,,40,126,199 F,2,116591,116991,1,0 S,2,116591,116991,1.5,0.3
Sprite,Foreground,Centre,"sb\etc\l.png",152,378 C,0,116864,,159,83,121 F,2,116864,117264,1,0 S,2,116864,117264,1.5,0.3
Sprite,Foreground,Centre,"sb\etc\l.png",76,258 C,0,117137,,159,83,121 F,2,117137,117537,1,0 S,2,117137,117537,1.5,0.3
Sprite,Foreground,Centre,"sb\etc\l.png",107,128 C,0,117409,,159,83,121 F,2,117409,117809,1,0 S,2,117409,117809,1.5,0.3
Sprite,Foreground,Centre,"sb\etc\l.png",385,120 C,0,117955,,40,61,98 F,2,117955,118355,1,0 S,2,117955,118355,1.5,0.3
Sprite,Foreground,Centre,"sb\etc\l.png",488,237 C,0,118500,,40,61,98 F,2,118500,118900,1,0 S,2,118500,118900,1.5,0.3
Sprite,Foreground,Centre,"sb\etc\l.png",331,260 C,0,119046,,40,61,98 F,2,119046,119446,1,0 S,2,119046,119446,1.5,0.3
Sprite,Foreground,Centre,"sb\etc\l.png",87,231 C,0,119591,,40,61,98 F,2,119591,119991,1,0 S,2,119591,119991,1.5,0.3
Sprite,Foreground,Centre,"sb\etc\l.png",291,75 C,0,120137,,157,23,30 F,2,120137,120537,1,0 S,2,120137,120537,1.5,0.3
Sprite,Foreground,Centre,"sb\etc\l.png",500,82 C,0,120546,,157,23,30 F,2,120546,120946,1,0 S,2,120546,120946,1.5,0.3
Sprite,Foreground,Centre,"sb\etc\l.png",500,82 C,0,120682,,157,23,30 F,2,120682,121082,1,0 S,2,120682,121082,1.5,0.3
Sprite,Foreground,Centre,"sb\etc\l.png",562,205 C,0,120955,,157,23,30 F,2,120955,121355,1,0 S,2,120955,121355,1.5,0.3
Sprite,Foreground,Centre,"sb\etc\l.png",497,324 C,0,121227,,40,126,199 F,2,121227,121627,1,0 S,2,121227,121627,1.5,0.3
Sprite,Foreground,Centre,"sb\etc\l.png",348,274 C,0,121500,,40,126,199 F,2,121500,121900,1,0 S,2,121500,121900,1.5,0.3
Sprite,Foreground,Centre,"sb\etc\l.png",224,370 C,0,121773,,40,126,199 F,2,121773,122173,1,0 S,2,121773,122173,1.5,0.3
Sprite,Foreground,Centre,"sb\etc\l.png",110,313 C,0,122046,,40,126,199 F,2,122046,122446,1,0 S,2,122046,122446,1.5,0.3
Sprite,Foreground,Centre,"sb\etc\l.png",169,198 C,0,122318,,159,83,121 F,2,122318,122718,1,0 S,2,122318,122718,1.5,0.3
Sprite,Foreground,Centre,"sb\etc\l.png",294,164 C,0,122864,,159,83,121 F,2,122864,123264,1,0 S,2,122864,123264,1.5,0.3
Sprite,Foreground,Centre,"sb\etc\l.png",294,164 C,0,123000,,159,83,121 F,2,123000,123400,1,0 S,2,123000,123400,1.5,0.3
Sprite,Foreground,Centre,"sb\etc\l.png",294,164 C,0,123137,,159,83,121 F,2,123137,123537,1,0 S,2,123137,123537,1.5,0.3
Sprite,Foreground,Centre,"sb\etc\l.png",417,219 C,0,123409,,40,61,98 F,2,123409,123809,1,0 S,2,123409,123809,1.5,0.3
Sprite,Foreground,Centre,"sb\etc\l.png",328,248 C,0,124227,,40,61,98 F,2,124227,124627,1,0 S,2,124227,124627,1.5,0.3
Sprite,Foreground,Centre,"sb\etc\l.png",390,355 C,0,124500,,40,61,98 F,2,124500,124900,1,0 S,2,124500,124900,1.5,0.3
Sprite,Foreground,Centre,"sb\etc\l.png",185,356 C,0,124909,,40,61,98 F,2,124909,125309,1,0 S,2,124909,125309,1.5,0.3
Sprite,Foreground,Centre,"sb\etc\l.png",185,356 C,0,125046,,40,61,98 F,2,125046,125446,1,0 S,2,125046,125446,1.5,0.3
Sprite,Foreground,Centre,"sb\etc\l.png",154,209 C,0,125318,,40,61,98 F,2,125318,125718,1,0 S,2,125318,125718,1.5,0.3
Sprite,Foreground,Centre,"sb\etc\l.png",167,82 C,0,125591,,157,23,30 F,2,125591,125991,1,0 S,2,125591,125991,1.5,0.3
Sprite,Foreground,Centre,"sb\etc\l.png",290,135 C,0,125863,,157,23,30 F,2,125863,126263,1,0 S,2,125863,126263,1.5,0.3
Sprite,Foreground,Centre,"sb\etc\l.png",389,219 C,0,126137,,157,23,30 F,2,126137,126537,1,0 S,2,126137,126537,1.5,0.3
Sprite,Foreground,Centre,"sb\etc\l.png",451,375 C,0,126682,,40,126,199 F,2,126682,127082,1,0 S,2,126682,127082,1.5,0.3
Sprite,Foreground,Centre,"sb\etc\l.png",477,221 C,0,127227,,40,126,199 F,2,127227,127627,1,0 S,2,127227,127627,1.5,0.3
Sprite,Foreground,Centre,"sb\etc\l.png",337,149 C,0,127773,,40,126,199 F,2,127773,128173,1,0 S,2,127773,128173,1.5,0.3
Sprite,Foreground,Centre,"sb\etc\l.png",149,114 C,0,128182,,40,126,199 F,2,128182,128582,1,0 S,2,128182,128582,1.5,0.3
Sprite,Foreground,Centre,"sb\etc\l.png",149,114 C,0,128318,,159,83,121 F,2,128318,128718,1,0 S,2,128318,128718,1.5,0.3
Sprite,Foreground,Centre,"sb\etc\l.png",133,256 C,0,128591,,159,83,121 F,2,128591,128991,1,0 S,2,128591,128991,1.5,0.3
Sprite,Foreground,Centre,"sb\etc\l.png",429,387 C,0,176864,,159,83,121 F,2,176864,177264,1,0 S,2,176864,177264,1.5,0.3
Sprite,Foreground,Centre,"sb\etc\l.png",446,183 C,0,177273,,159,83,121 F,2,177273,177673,1,0 S,2,177273,177673,1.5,0.3
Sprite,Foreground,Centre,"sb\etc\l.png",446,183 C,0,177409,,159,83,121 F,2,177409,177809,1,0 S,2,177409,177809,1.5,0.3
Sprite,Foreground,Centre,"sb\etc\l.png",364,88 C,0,177682,,159,83,121 F,2,177682,178082,1,0 S,2,177682,178082,1.5,0.3
Sprite,Foreground,Centre,"sb\etc\l.png",297,205 C,0,177955,,40,61,98 F,2,177955,178355,1,0 S,2,177955,178355,1.5,0.3
Sprite,Foreground,Centre,"sb\etc\l.png",123,103 C,0,178364,,40,61,98 F,2,178364,178764,1,0 S,2,178364,178764,1.5,0.3
Sprite,Foreground,Centre,"sb\etc\l.png",106,258 C,0,178637,,40,61,98 F,2,178637,179037,1,0 S,2,178637,179037,1.5,0.3
Sprite,Foreground,Centre,"sb\etc\l.png",191,354 C,0,178909,,40,61,98 F,2,178909,179309,1,0 S,2,178909,179309,1.5,0.3
Sprite,Foreground,Centre,"sb\etc\l.png",167,428 C,0,179046,,157,23,30 F,2,179046,179446,1,0 S,2,179046,179446,1.5,0.3
Sprite,Foreground,Centre,"sb\etc\l.png",357,370 C,0,179455,,157,23,30 F,2,179455,179855,1,0 S,2,179455,179855,1.5,0.3
Sprite,Foreground,Centre,"sb\etc\l.png",357,370 C,0,179591,,157,23,30 F,2,179591,179991,1,0 S,2,179591,179991,1.5,0.3
Sprite,Foreground,Centre,"sb\etc\l.png",431,310 C,0,179864,,157,23,30 F,2,179864,180264,1,0 S,2,179864,180264,1.5,0.3
Sprite,Foreground,Centre,"sb\etc\l.png",325,229 C,0,180137,,157,23,30 F,2,180137,180537,1,0 S,2,180137,180537,1.5,0.3
Sprite,Foreground,Centre,"sb\etc\l.png",185,354 C,0,180955,,157,23,30 F,2,180955,181355,1,0 S,2,180955,181355,1.5,0.3
Sprite,Foreground,Centre,"sb\etc\l.png",121,227 C,0,181227,,40,126,199 F,2,181227,181627,1,0 S,2,181227,181627,1.5,0.3
Sprite,Foreground,Centre,"sb\etc\l.png",125,414 C,0,181637,,40,126,199 F,2,181637,182037,1,0 S,2,181637,182037,1.5,0.3
Sprite,Foreground,Centre,"sb\etc\l.png",125,414 C,0,181773,,40,126,199 F,2,181773,182173,1,0 S,2,181773,182173,1.5,0.3
Sprite,Foreground,Centre,"sb\etc\l.png",253,403 C,0,182046,,40,126,199 F,2,182046,182446,1,0 S,2,182046,182446,1.5,0.3
Sprite,Foreground,Centre,"sb\etc\l.png",390,393 C,0,182318,,40,126,199 F,2,182318,182718,1,0 S,2,182318,182718,1.5,0.3
Sprite,Foreground,Centre,"sb\etc\l.png",398,315 C,0,182727,,40,126,199 F,2,182727,183127,1,0 S,2,182727,183127,1.5,0.3
Sprite,Foreground,Centre,"sb\etc\l.png",395,236 C,0,183137,,40,126,199 F,2,183137,183537,1,0 S,2,183137,183537,1.5,0.3
Sprite,Foreground,Centre,"sb\etc\l.png",256,306 C,0,183409,,159,83,121 F,2,183409,183809,1,0 S,2,183409,183809,1.5,0.3
Sprite,Foreground,Centre,"sb\etc\l.png",186,124 C,0,183818,,159,83,121 F,2,183818,184218,1,0 S,2,183818,184218,1.5,0.3
Sprite,Foreground,Centre,"sb\etc\l.png",186,124 C,0,183955,,159,83,121 F,2,183955,184355,1,0 S,2,183955,184355,1.5,0.3
Sprite,Foreground,Centre,"sb\etc\l.png",117,300 C,0,184364,,159,83,121 F,2,184364,184764,1,0 S,2,184364,184764,1.5,0.3
Sprite,Foreground,Centre,"sb\etc\l.png",130,377 C,0,184500,,159,83,121 F,2,184500,184900,1,0 S,2,184500,184900,1.5,0.3
Sprite,Foreground,Centre,"sb\etc\l.png",393,395 C,0,185046,,159,83,121 F,2,185046,185446,1,0 S,2,185046,185446,1.5,0.3
Sprite,Foreground,Centre,"sb\etc\l.png",373,109 C,0,185591,,40,61,98 F,2,185591,185991,1,0 S,2,185591,185991,1.5,0.3
Sprite,Foreground,Centre,"sb\etc\l.png",546,216 C,0,186000,,40,61,98 F,2,186000,186400,1,0 S,2,186000,186400,1.5,0.3
Sprite,Foreground,Centre,"sb\etc\l.png",546,216 C,0,186137,,40,61,98 F,2,186137,186537,1,0 S,2,186137,186537,1.5,0.3
Sprite,Foreground,Centre,"sb\etc\l.png",468,305 C,0,186409,,40,61,98 F,2,186409,186809,1,0 S,2,186409,186809,1.5,0.3
Sprite,Foreground,Centre,"sb\etc\l.png",527,424 C,0,186682,,40,61,98 F,2,186682,187082,1,0 S,2,186682,187082,1.5,0.3
Sprite,Foreground,Centre,"sb\etc\l.png",370,341 C,0,187091,,40,61,98 F,2,187091,187491,1,0 S,2,187091,187491,1.5,0.3
Sprite,Foreground,Centre,"sb\etc\l.png",192,429 C,0,187364,,40,61,98 F,2,187364,187764,1,0 S,2,187364,187764,1.5,0.3
Sprite,Foreground,Centre,"sb\etc\l.png",169,307 C,0,187637,,40,61,98 F,2,187637,188037,1,0 S,2,187637,188037,1.5,0.3
Sprite,Foreground,Centre,"sb\etc\l.png",232,263 C,0,187773,,157,23,30 F,2,187773,188173,1,0 S,2,187773,188173,1.5,0.3
Sprite,Foreground,Centre,"sb\etc\l.png",139,107 C,0,188182,,157,23,30 F,2,188182,188582,1,0 S,2,188182,188582,1.5,0.3
Sprite,Foreground,Centre,"sb\etc\l.png",139,107 C,0,188318,,157,23,30 F,2,188318,188718,1,0 S,2,188318,188718,1.5,0.3
Sprite,Foreground,Centre,"sb\etc\l.png",67,216 C,0,188591,,157,23,30 F,2,188591,188991,1,0 S,2,188591,188991,1.5,0.3
Sprite,Foreground,Centre,"sb\etc\l.png",76,355 C,0,188864,,157,23,30 F,2,188864,189264,1,0 S,2,188864,189264,1.5,0.3
Sprite,Foreground,Centre,"sb\etc\l.png",429,266 C,0,189682,,157,23,30 F,2,189682,190082,1,0 S,2,189682,190082,1.5,0.3
Sprite,Foreground,Centre,"sb\etc\l.png",513,344 C,0,189955,,40,126,199 F,2,189955,190355,1,0 S,2,189955,190355,1.5,0.3
Sprite,Foreground,Centre,"sb\etc\l.png",308,365 C,0,190364,,40,126,199 F,2,190364,190764,1,0 S,2,190364,190764,1.5,0.3
Sprite,Foreground,Centre,"sb\etc\l.png",286,290 C,0,190500,,40,126,199 F,2,190500,190900,1,0 S,2,190500,190900,1.5,0.3
Sprite,Foreground,Centre,"sb\etc\l.png",347,167 C,0,191046,,40,126,199 F,2,191046,191446,1,0 S,2,191046,191446,1.5,0.3
Sprite,Foreground,Centre,"sb\etc\l.png",154,165 C,0,191455,,40,126,199 F,2,191455,191855,1,0 S,2,191455,191855,1.5,0.3
Sprite,Foreground,Centre,"sb\etc\l.png",154,165 C,0,191591,,40,126,199 F,2,191591,191991,1,0 S,2,191591,191991,1.5,0.3
Sprite,Foreground,Centre,"sb\etc\l.png",100,286 C,0,191864,,40,126,199 F,2,191864,192264,1,0 S,2,191864,192264,1.5,0.3
Sprite,Foreground,Centre,"sb\etc\l.png",209,399 C,0,192137,,159,83,121 F,2,192137,192537,1,0 S,2,192137,192537,1.5,0.3
Sprite,Foreground,Centre,"sb\etc\l.png",413,379 C,0,192546,,159,83,121 F,2,192546,192946,1,0 S,2,192546,192946,1.5,0.3
Sprite,Foreground,Centre,"sb\etc\l.png",413,379 C,0,192682,,159,83,121 F,2,192682,193082,1,0 S,2,192682,193082,1.5,0.3
Sprite,Foreground,Centre,"sb\etc\l.png",560,308 C,0,193091,,159,83,121 F,2,193091,193491,1,0 S,2,193091,193491,1.5,0.3
//Storyboard Layer 4 (Overlay)
//Storyboard Sound Samples

[TimingPoints]
137,272.727272727273,4,2,1,30,1,0
8318,-100,4,2,2,60,0,0
8864,-100,4,2,2,60,0,0
25977,-100,4,2,2,5,0,0
26046,-100,4,2,2,60,0,0
26318,-100,4,2,2,70,0,0
35046,-100,4,2,2,65,0,0
51477,-100,4,2,2,5,0,0
51546,-100,4,2,2,65,0,0
52500,-100,4,2,2,75,0,0
54000,-100,4,2,2,5,0,0
54137,-100,4,2,2,75,0,0
56046,-100,4,2,2,70,0,0
56387,-100,4,2,2,5,0,0
56455,-100,4,2,2,70,0,0
56727,-100,4,2,2,5,0,0
56864,-100,4,2,2,90,0,1
57068,-100,4,2,2,5,0,1
57137,-100,4,2,2,90,0,1
59250,-100,4,2,2,5,0,1
59318,-100,4,2,2,90,0,1
60887,-100,4,2,2,5,0,1
60955,-100,4,2,2,90,0,1
61432,-100,4,2,2,5,0,1
61500,-100,4,2,2,90,0,1
65796,-100,4,2,2,5,0,1
65864,-100,4,2,2,90,0,1
67977,-100,4,2,2,5,0,1
68046,-100,4,2,2,90,0,1
73909,-100,4,2,2,70,0,1
74046,-100,4,2,2,90,0,1
74318,-100,4,2,2,90,0,0
83046,-125,4,2,2,55,0,0
89591,-100,4,2,2,60,0,0
91773,-100,4,2,2,65,0,0
110591,-100,4,2,2,65,0,0
110864,-100,4,2,2,70,0,0
111409,-100,4,2,2,90,0,1
111614,-100,4,2,2,5,0,1
111682,-100,4,2,2,90,0,1
113796,-100,4,2,2,5,0,1
113864,-100,4,2,2,90,0,1
114887,-100,4,2,2,5,0,1
114955,-100,4,2,2,90,0,1
115432,-100,4,2,2,5,0,1
115500,-100,4,2,2,90,0,1
115977,-100,4,2,2,5,0,1
116046,-100,4,2,2,90,0,1
120341,-100,4,2,2,5,0,1
120409,-100,4,2,2,90,0,1
121432,-100,4,2,2,5,0,1
121500,-100,4,2,2,90,0,1
122523,-100,4,2,2,5,0,1
122591,-100,4,2,2,90,0,1
128864,-100,4,2,2,65,0,0
144137,-100,4,2,2,65,0,0
145364,-100,4,2,2,65,0,0
146318,-100,4,2,2,85,0,0
150341,-100,4,2,2,5,0,0
150409,-100,4,2,2,85,0,0
155046,-100,4,2,2,75,0,0
163773,-100,4,2,2,65,0,0
172500,-100,4,2,2,75,0,0
174000,-100,4,2,2,5,0,0
174137,-100,4,2,2,75,0,0
174546,-100,4,2,2,5,0,0
174682,-100,4,2,2,75,0,0
176387,-100,4,2,2,5,0,0
176455,-100,4,2,2,75,0,0
176727,-100,4,2,2,5,0,0
176864,-100,4,2,2,90,0,1
177068,-100,4,2,2,5,0,1
177137,-100,4,2,2,90,0,1
179250,-100,4,2,2,5,0,1
179318,-100,4,2,2,90,0,1
180887,-100,4,2,2,5,0,1
180955,-100,4,2,2,90,0,1
181432,-100,4,2,2,5,0,1
181500,-100,4,2,2,90,0,1
185796,-100,4,2,2,5,0,1
185864,-100,4,2,2,90,0,1
187977,-100,4,2,2,5,0,1
188046,-100,4,2,2,90,0,1
193227,-100,4,2,2,90,0,0
193296,-100,4,2,2,5,0,0
193637,-100,4,2,2,90,0,0
193705,-100,4,2,2,5,0,0
194046,-100,4,2,2,90,0,0
194114,-100,4,2,2,5,0,0
194455,-100,4,2,2,90,0,0
194591,-100,4,2,2,60,0,0
194864,-100,4,2,2,60,0,0
195000,-100,4,2,2,5,0,0
195137,-100,4,2,2,60,0,0
195273,-100,4,2,2,5,0,0

[Colours]
Combo1 : 40,61,98
Combo2 : 157,23,30
Combo3 : 40,126,199
Combo4 : 159,83,121

[HitObjects]
133,52,8864,6,0,L|148:203,1,130,6|0,3:2|3:2,0:0:0:0:
98,244,9273,1,2,3:2:0:0:
98,244,9409,2,0,P|193:249|225:205,1,130,8|2,3:2|3:2,0:0:0:0:
318,114,9955,6,0,B|355:128|355:128|341:245,1,130,2|0,3:2|3:2,0:0:0:0:
322,295,10364,1,0,3:2:0:0:
322,295,10500,2,0,P|335:328|379:345,1,65,10|0,3:2|3:2,0:0:0:0:
437,344,10773,1,0,3:2:0:0:
468,190,11046,6,0,B|447:166|458:131|458:131|473:88|441:59,1,130,6|0,3:2|3:2,0:0:0:0:
373,47,11455,1,2,3:2:0:0:
373,47,11591,2,0,L|234:35,1,130,8|2,3:2|3:2,0:0:0:0:
88,57,12137,6,0,P|74:120|-5:142,1,130,2|2,3:2|3:2,0:0:0:0:
138,246,12682,2,0,P|152:183|231:161,1,130,10|2,3:2|3:2,0:0:0:0:
267,106,13091,1,0,3:2:0:0:
285,183,13227,6,0,L|426:166,1,130,6|0,3:2|3:2,0:0:0:0:
478,213,13637,1,2,3:2:0:0:
478,213,13773,2,0,P|493:154|431:91,1,130,8|2,3:2|3:2,0:0:0:0:
321,18,14318,6,0,P|281:54|202:32,1,130,2|0,3:2|3:2,0:0:0:0:
134,54,14727,1,0,3:2:0:0:
134,54,14864,2,0,P|141:102|142:140,1,65,10|0,3:2|3:2,0:0:0:0:
84,171,15137,1,0,3:2:0:0:
236,203,15409,6,0,B|172:206|202:250|129:281,1,130,6|0,3:2|3:2,0:0:0:0:
61,287,15818,1,2,3:2:0:0:
61,287,15955,2,0,P|124:302|159:362,1,130,8|2,3:2|3:2,0:0:0:0:
311,327,16500,6,0,B|375:310|375:310|428:356,1,130,2|2,3:2|3:2,0:0:0:0:
483,301,16909,1,0,3:2:0:0:
483,301,17046,2,0,L|472:217,1,65,10|0,3:2|3:2,0:0:0:0:
408,195,17318,2,0,L|397:111,1,65,2|0,3:2|3:2,0:0:0:0:
443,65,17591,6,0,P|393:50|325:98,1,130,6|0,3:2|3:2,0:0:0:0:
274,143,18000,1,2,3:2:0:0:
274,143,18137,2,0,L|140:120,1,130,8|2,3:2|3:2,0:0:0:0:
70,257,18682,6,0,B|150:239|128:302|218:287,1,130,2|0,3:2|3:2,0:0:0:0:
250,238,19091,1,0,3:2:0:0:
250,238,19227,2,0,P|271:296|218:364,1,130,10|0,3:2|3:2,0:0:0:0:
396,362,19773,6,0,B|399:314|399:314|418:292|418:292|425:211,1,130,6|0,3:2|3:2,0:0:0:0:
386,175,20182,1,2,3:2:0:0:
386,175,20318,2,0,P|424:187|495:134,1,130,8|2,3:2|3:2,0:0:0:0:
360,55,20864,6,0,L|215:35,1,130,2|2,3:2|3:2,0:0:0:0:
257,192,21409,2,0,L|402:172,1,130,10|2,3:2|3:2,0:0:0:0:
433,236,21818,1,0,3:2:0:0:
393,303,21955,6,0,B|347:297|347:297|310:306|310:306|248:298,1,130,6|0,3:2|3:2,0:0:0:0:
186,294,22364,1,2,3:2:0:0:
186,294,22500,2,0,P|163:338|72:330,1,130,8|2,3:2|3:2,0:0:0:0:
37,196,23046,6,0,B|43:169|77:149|77:149|74:104|41:79,1,130,2|0,3:2|3:2,0:0:0:0:
110,36,23455,1,0,3:2:0:0:
110,36,23591,2,0,L|181:31,1,65,10|0,3:2|3:2,0:0:0:0:
230,86,23864,1,0,3:2:0:0:
370,17,24137,6,0,P|346:72|360:157,1,130,10|10,0:2|3:2,0:0:0:0:
406,204,24546,1,0,3:0:0:0:
406,204,24682,2,0,B|400:266|400:266|392:280|392:280|388:334,1,130,10|10,3:2|3:2,0:0:0:0:
285,214,25227,5,14,0:2:0:0:
107,63,26046,2,0,P|134:119|128:142,1,65,8|0,0:2|3:2,0:0:0:0:
195,172,26318,6,0,P|133:164|43:159,1,130,6|0,3:2|3:2,0:0:0:0:
8,107,26727,2,0,B|34:142|34:142|6:231,1,130,10|8,0:2|0:2,0:0:0:0:
61,282,27137,2,0,P|76:310|84:351,1,65,2|8,3:2|0:2,0:0:0:0:
161,348,27409,6,0,L|313:332,1,130,2|0,3:2|3:2,0:0:0:0:
346,279,27818,1,8,0:2:0:0:
415,315,27955,2,0,P|424:279|356:201,1,130,2|0,3:2|3:2,0:0:0:0:
294,72,28500,6,0,P|372:87|409:39,1,130,2|0,3:2|3:2,0:0:0:0:
479,36,28909,2,0,B|485:59|481:117|410:159,1,130,10|8,0:2|0:2,0:0:0:0:
375,206,29318,2,0,P|400:223|422:258,1,65,2|8,3:2|0:2,0:0:0:0:
479,301,29591,6,0,L|329:286,1,130,2|2,3:2|3:2,0:0:0:0:
209,358,30137,2,0,L|338:370,1,130,2|2,3:2|3:2,0:0:0:0:
223,265,30682,6,0,P|165:253|111:306,1,130,6|0,3:2|3:2,0:0:0:0:
70,361,31091,2,0,P|80:297|41:220,1,130,10|8,0:2|0:2,0:0:0:0:
97,170,31500,2,0,P|91:131|114:85,1,65,2|8,3:2|0:2,0:0:0:0:
72,33,31773,6,0,P|160:74|207:52,1,130,2|0,3:2|3:2,0:0:0:0:
246,124,32182,1,8,0:2:0:0:
246,124,32318,2,0,L|400:152,1,130,2|0,3:2|3:2,0:0:0:0:
505,62,32864,6,0,P|466:107|463:198,1,130,2|0,3:2|3:2,0:0:0:0:
396,225,33273,2,0,P|435:270|438:361,1,130,10|8,0:2|0:2,0:0:0:0:
368,357,33682,1,2,3:2:0:0:
239,267,33955,6,0,P|173:285|158:347,1,130,0|2,3:2|3:2,0:0:0:0:
3,366,34500,2,0,P|63:276|57:250,1,130,2|0,3:2|3:2,0:0:0:0:
12,113,35046,6,0,P|-9:66|43:-12,1,130,6|0,3:2|3:2,0:0:0:0:
68,62,35455,1,10,0:2:0:0:
206,132,35727,1,10,0:2:0:0:
329,34,36000,1,10,0:2:0:0:
329,34,36137,2,0,P|361:58|378:166,1,130,2|2,3:2|3:2,0:0:0:0:
492,254,36682,2,0,P|460:278|443:386,1,130,2|2,3:2|3:2,0:0:0:0:
320,255,37227,5,2,3:2:0:0:
195,348,37500,1,2,3:2:0:0:
195,348,37637,2,0,B|128:331|138:381|58:366,1,130,10|8,0:2|0:2,0:0:0:0:
23,304,38046,1,2,3:2:0:0:
98,168,38318,2,0,L|44:43,1,130,2|2,3:2|3:2,0:0:0:0:
201,23,38864,2,0,L|252:142,1,130,2|2,3:2|3:2,0:0:0:0:
217,294,39409,6,0,B|250:243|250:243|330:245,1,130,6|0,3:2|3:2,0:0:0:0:
380,293,39818,1,10,0:2:0:0:
430,145,40091,1,10,0:2:0:0:
466,296,40364,2,0,P|448:352|377:385,1,130,10|8,0:2|0:2,0:0:0:0:
316,352,40773,1,2,3:2:0:0:
160,363,41046,2,0,L|10:373,1,130,2|2,3:2|3:2,0:0:0:0:
12,295,41455,1,8,0:2:0:0:
32,220,41591,6,0,L|182:230,1,130,2|2,3:2|3:2,0:0:0:0:
310,178,42137,2,0,L|460:188,1,130,0|2,3:2|3:2,0:0:0:0:
342,64,42682,2,0,L|322:0,1,65,4|4,3:2|3:2,0:0:0:0:
244,2,42955,2,0,L|224:64,1,65,6|4,3:2|3:2,0:0:0:0:
147,55,43227,2,0,P|149:88|168:118,2,65,6|4|6,3:2|3:2|3:2,0:0:0:0:
261,160,43773,6,0,P|317:115|344:51,1,130,6|0,3:2|3:2,0:0:0:0:
398,9,44182,2,0,L|393:153,1,130,10|10,0:2|0:2,0:0:0:0:
393,217,44591,1,2,3:2:0:0:
393,217,44727,2,0,P|420:254|393:335,1,130,10|8,0:2|0:2,0:0:0:0:
320,321,45137,1,2,3:2:0:0:
164,317,45409,1,2,3:2:0:0:
247,185,45682,1,2,3:2:0:0:
92,207,45955,6,0,P|85:163|66:127,1,65,2|8,3:2|0:2,0:0:0:0:
29,82,46227,2,0,P|54:108|130:72,1,130,0|0,3:2|3:2,0:0:0:0:
200,42,46637,1,8,0:2:0:0:
200,42,46773,2,0,P|229:70|275:90,1,65,2|8,3:2|0:2,0:0:0:0:
306,27,47046,2,0,L|283:160,1,130,2|2,3:2|3:2,0:0:0:0:
343,299,47591,2,0,L|365:170,1,130,2|2,3:2|3:2,0:0:0:0:
434,30,48137,6,0,P|420:95|470:151,1,130,6|0,3:2|3:2,0:0:0:0:
488,214,48546,2,0,B|482:262|482:262|472:292|472:292|466:351,1,130,10|10,0:2|0:2,0:0:0:0:
397,373,48955,1,2,3:2:0:0:
397,373,49091,2,0,B|328:364|348:398|265:383,1,130,10|8,0:2|0:2,0:0:0:0:
224,319,49500,1,2,3:2:0:0:
74,364,49773,1,2,3:2:0:0:
132,219,50046,1,2,3:2:0:0:
282,174,50318,6,0,P|332:188|365:175,1,65,2|8,3:2|0:2,0:0:0:0:
407,231,50591,2,0,P|393:175|381:92,1,130,2|2,3:2|3:2,0:0:0:0:
436,47,51000,1,8,0:2:0:0:
436,47,51137,1,2,3:2:0:0:
280,35,51409,6,0,L|200:38,1,65,6|8,3:2|0:2,0:0:0:0:
173,103,51682,2,0,L|108:100,1,65,10|8,0:2|0:2,0:0:0:0:
101,178,51955,2,0,L|165:180,1,65,2|0,3:2|3:2,0:0:0:0:
201,250,52228,2,0,L|265:252,1,65,4|4,0:2|0:2,0:0:0:0:
333,214,52500,5,6,0:2:0:0:
502,375,52909,1,2,0:2:0:0:
512,139,53318,1,2,0:2:0:0:
415,261,53591,6,0,P|421:180|270:148,1,260,2|2,0:2|0:2,0:0:0:0:
197,157,54273,1,2,0:2:0:0:
197,157,54409,2,0,L|65:139,1,130,2|2,0:2|3:2,0:0:0:0:
256,192,54955,12,10,56046,0:2:0:0:
147,53,56864,6,0,L|162:198,1,130,6|2,3:2|3:2,0:0:0:0:
130,257,57273,1,10,0:2:0:0:
130,257,57409,2,0,L|139:344,1,65,2|10,3:2|0:2,0:0:0:0:
210,347,57682,2,0,L|216:282,1,65,2|10,3:2|0:2,0:0:0:0:
279,235,57955,6,0,P|319:221|393:281,1,130,2|0,3:2|3:2,0:0:0:0:
428,331,58364,1,10,0:2:0:0:
466,179,58637,2,0,P|456:131|444:102,1,65,10|2,0:2|3:2,0:0:0:0:
454,38,58909,1,10,0:2:0:0:
381,8,59046,6,0,B|343:67|310:22|270:96,1,130,2|2,3:2|3:2,0:0:0:0:
211,121,59455,1,10,0:2:0:0:
211,121,59591,2,0,L|140:105,1,65,2|10,3:2|0:2,0:0:0:0:
123,181,59864,2,0,L|186:195,1,65,2|10,3:2|0:2,0:0:0:0:
260,222,60137,2,0,P|337:218|323:313,1,195,2|10,3:2|0:2,0:0:0:0:
391,86,60955,2,0,P|412:126|425:171,1,65,2|0,3:2|3:2,0:0:0:0:
455,213,61227,6,0,P|465:142|487:74,1,130,6|2,3:2|3:2,0:0:0:0:
447,15,61637,1,8,0:2:0:0:
447,15,61773,2,0,P|407:-4|378:-2,1,65,2|10,3:2|0:2,0:0:0:0:
321,38,62046,2,0,P|281:57|252:55,1,65,2|10,3:2|0:2,0:0:0:0:
183,46,62318,2,0,L|90:37,2,65,2|10|2,3:2|0:2|3:2,0:0:0:0:
181,124,62727,2,0,L|88:115,2,65,10|2|10,0:2|3:2|0:2,0:0:0:0:
180,202,63137,1,2,3:2:0:0:
320,134,63409,6,0,P|308:197|370:253,1,130,6|10,3:2|3:2,0:0:0:0:
390,316,63818,1,10,3:2:0:0:
390,316,63955,2,0,L|397:163,1,130,2|10,3:2|3:2,0:0:0:0:
459,140,64364,1,10,3:2:0:0:
446,63,64500,2,0,P|401:20|313:17,1,130,6|0,3:2|3:2,0:0:0:0:
183,45,65046,2,0,L|192:198,1,130,2|0,3:2|3:2,0:0:0:0:
178,330,65591,6,0,P|114:321|67:277,1,130,6|2,3:2|3:2,0:0:0:0:
36,205,66000,1,8,0:2:0:0:
36,205,66137,2,0,L|49:117,1,65,2|10,3:2|0:2,0:0:0:0:
122,131,66409,2,0,L|109:43,1,65,2|10,3:2|0:2,0:0:0:0:
54,13,66682,2,0,L|192:23,1,130,2|0,3:2|3:2,0:0:0:0:
241,74,67091,1,10,0:2:0:0:
384,11,67364,2,0,P|361:58|364:94,1,65,10|2,0:2|3:2,0:0:0:0:
409,130,67637,1,10,0:2:0:0:
347,177,67773,6,0,B|373:205|373:205|360:319,1,130,2|2,3:2|3:2,0:0:0:0:
437,333,68182,1,8,0:2:0:0:
437,333,68318,2,0,L|445:262,1,65,2|10,3:2|0:2,0:0:0:0:
489,204,68591,2,0,L|497:133,1,65,2|10,3:2|0:2,0:0:0:0:
486,60,68864,2,0,B|422:36|420:84|356:69|356:69|289:49,1,195,2|10,3:2|0:2,0:0:0:0:
120,204,69682,2,0,P|132:153|127:122,1,65,2|0,3:2|3:2,0:0:0:0:
68,93,69955,6,0,L|199:96,1,130,14|10,0:2|0:2,0:0:0:0:
277,79,70364,1,0,3:2:0:0:
293,154,70500,2,0,L|283:237,3,65,10|2|10|2,0:2|3:2|0:2|3:2,0:0:0:0:
229,273,71046,2,0,P|308:294|351:262,1,130,14|10,0:2|0:2,0:0:0:0:
422,275,71455,1,2,3:2:0:0:
422,275,71591,2,0,P|419:234|423:196,1,65,10|2,0:2|3:2,0:0:0:0:
476,154,71864,1,10,0:2:0:0:
367,41,72137,6,0,B|304:37|304:37|298:39|298:39|221:35,1,130,6|2,3:2|3:2,0:0:0:0:
163,61,72546,1,2,3:2:0:0:
163,61,72682,2,0,B|118:46|102:86|93:123|135:165,1,130,2|2,3:2|3:2,0:0:0:0:
160,214,73091,1,2,3:2:0:0:
220,262,73227,2,0,P|153:255|131:374,1,195,14|10,0:2|0:2,0:0:0:0:
197,364,73773,2,0,B|310:394|278:302|400:338,1,195,10|4,3:2|0:3,0:0:0:0:
451,367,74318,5,6,0:2:0:0:
293,51,83046,6,0,P|289:83|137:148,1,208,6|8,3:2|3:2,0:0:0:0:
187,54,83864,1,2,3:2:0:0:
79,117,84137,2,0,B|60:173|96:211|96:211|143:251|104:324,1,208,2|8,0:0|0:0,0:0:0:0:
359,274,85227,6,0,B|317:297|308:361|308:361|269:318|209:315,1,208,6|8,3:2|3:2,0:0:0:0:
265,222,86046,1,2,3:2:0:0:
381,178,86318,2,0,P|362:124|353:62,1,104,2|2,0:2|0:2,0:0:0:0:
244,16,86864,2,0,P|234:67|217:115,1,104,8|2,0:2|0:2,0:0:0:0:
94,139,87409,6,0,B|43:118|43:118|59:203|59:203|57:208|57:208|71:276,1,208,6|8,3:2|3:2,0:0:0:0:
186,309,88227,1,2,3:2:0:0:
79,374,88500,2,0,B|173:388|171:315|290:335,1,208,2|8,0:0|0:0,0:0:0:0:
287,18,89591,6,0,B|305:211|305:211|280:180|230:171,1,260,8|8,3:2|3:2,0:0:0:0:
119,262,90409,1,8,3:2:0:0:
46,124,90682,1,4,3:2:0:0:
46,124,91773,6,0,L|178:107,1,130,6|0,3:2|3:2,0:0:0:0:
250,127,92182,2,0,P|267:170|262:202,1,65,10|0,0:2|3:2,0:0:0:0:
203,233,92455,1,10,0:2:0:0:
280,367,92727,6,0,B|305:323|305:323|302:292|302:292|337:249,1,130,10|8,0:2|0:2,0:0:0:0:
407,226,93137,2,0,P|419:191|406:153,1,65,2|8,3:2|0:2,0:0:0:0:
405,87,93409,2,0,P|368:94|342:124,1,65,2|8,3:2|0:2,0:0:0:0:
270,121,93682,1,2,3:2:0:0:
218,268,93955,6,0,B|209:283|209:283|202:334,2,65,2|8|0,3:2|0:2|3:2,0:0:0:0:
170,205,94364,2,0,L|14:178,1,130,10|8,0:2|0:2,0:0:0:0:
16,109,94773,1,2,3:2:0:0:
16,109,94909,1,8,0:2:0:0:
16,109,95046,6,0,B|30:78|30:78|75:65,1,65,2|8,3:2|0:2,0:0:0:0:
125,27,95318,2,0,B|145:52|145:52|251:65,2,130,2|2|2,3:2|3:2|3:2,0:0:0:0:
174,175,96137,6,0,B|167:213|167:213|196:318,1,130,6|0,3:2|3:2,0:0:0:0:
246,356,96546,2,0,L|323:353,1,65,10|0,0:2|3:2,0:0:0:0:
392,364,96818,1,10,0:2:0:0:
504,255,97091,6,0,L|352:236,1,130,10|8,0:2|0:2,0:0:0:0:
315,187,97500,1,2,3:2:0:0:
269,37,97773,1,2,3:2:0:0:
163,151,98046,2,0,P|120:153|82:133,1,65,2|8,3:2|0:2,0:0:0:0:
50,85,98318,6,0,L|64:236,1,130,2|2,3:2|3:2,0:0:0:0:
114,272,98727,2,0,B|139:292|139:292|195:296,2,65,8|0|8,0:2|3:2|0:2,0:0:0:0:
38,294,99137,1,2,3:2:0:0:
178,207,99409,6,0,L|193:130,5,43.3333333333333,10|0|0|8|0|0,3:2|0:0|0:0|3:2|0:0|0:0,0:0:0:0:
220,204,99955,2,0,L|235:111,1,65,8|8,3:2|3:2,0:0:0:0:
308,144,100227,2,0,L|297:208,1,65,8|8,3:2|3:2,0:0:0:0:
362,252,100500,6,0,L|510:226,1,130,6|0,3:2|3:2,0:0:0:0:
493,152,100909,2,0,P|463:103|371:100,1,130,2|0,3:2|3:2,0:0:0:0:
318,73,101318,2,0,L|244:63,2,65,2|0|6,3:2|3:2|3:2,0:0:0:0:
184,154,101864,6,0,B|156:137|156:137|117:146,1,65,2|0,3:2|3:2,0:0:0:0:
79,208,102137,2,0,B|78:240|78:240|105:270,1,65,10|0,3:2|3:2,0:0:0:0:
176,278,102409,2,0,B|204:262|204:262|216:223,1,65,2|0,3:2|3:2,0:0:0:0:
285,200,102682,6,0,B|309:222|309:222|406:230,1,130,14|0,3:2|3:2,0:0:0:0:
462,175,103091,2,0,L|433:327,1,130,14|0,3:2|3:2,0:0:0:0:
412,376,103500,1,14,3:2:0:0:
314,261,103773,5,14,3:2:0:0:
157,261,104046,1,14,3:2:0:0:
58,381,104318,1,14,3:2:0:0:
9,232,104591,2,0,P|2:189|7:162,1,65,14|0,3:2|3:2,0:0:0:0:
83,162,104864,6,0,P|129:135|142:46,1,130,6|0,3:2|3:2,0:0:0:0:
88,13,105273,2,0,L|227:31,1,130,2|0,3:2|3:2,0:0:0:0:
250,100,105682,1,2,3:2:0:0:
392,36,105955,6,0,B|406:70|406:70|417:169,1,130,2|2,3:2|3:2,0:0:0:0:
392,239,106364,1,0,3:2:0:0:
392,239,106500,2,0,P|444:239|475:223,1,65,14|0,3:2|3:2,0:0:0:0:
501,171,106773,1,2,3:2:0:0:
366,95,107046,6,0,L|395:28,2,65,14|0|0,3:2|3:2|3:2,0:0:0:0:
308,148,107455,2,0,L|279:215,2,65,14|0|0,3:2|3:2|3:2,0:0:0:0:
261,84,107864,1,14,3:2:0:0:
121,154,108137,6,0,L|52:142,1,65,12|8,3:2|0:2,0:0:0:0:
39,218,108409,2,0,L|103:229,1,65,10|8,0:2|0:2,0:0:0:0:
151,290,108682,2,0,P|192:264|337:265,1,195,2|0,3:2|3:2,0:0:0:0:
400,304,109227,1,4,0:2:0:0:
256,192,109296,12,4,110455,0:2:0:0:
189,141,111409,6,0,P|132:107|53:87,2,130,6|2|2,3:2|3:2|3:2,0:0:0:0:
255,191,112091,1,10,0:2:0:0:
255,191,112227,2,0,L|247:267,1,65,2|10,3:2|0:2,0:0:0:0:
229,331,112500,5,2,3:2:0:0:
342,223,112773,1,0,3:2:0:0:
447,339,113046,1,0,3:2:0:0:
496,190,113318,2,0,L|504:117,1,65,2|10,3:2|0:2,0:0:0:0:
481,50,113591,6,0,P|443:22|370:46,1,130,2|2,3:2|3:2,0:0:0:0:
257,155,114137,2,0,L|190:145,1,65,2|10,3:2|0:2,0:0:0:0:
120,175,114409,2,0,L|110:242,1,65,2|10,3:2|0:2,0:0:0:0:
111,317,114682,5,2,3:2:0:0:
31,182,114955,1,0,3:2:0:0:
151,83,115227,1,0,3:2:0:0:
222,221,115500,2,0,P|260:225|297:213,1,65,2|0,3:2|3:2,0:0:0:0:
330,154,115773,6,0,L|301:353,1,195,6|8,3:2|0:2,0:0:0:0:
225,357,116318,1,2,3:2:0:0:
225,357,116455,1,10,0:2:0:0:
225,357,116591,2,0,P|171:354|139:338,1,65,2|10,3:2|0:2,0:0:0:0:
88,322,116864,6,0,P|63:273|61:238,1,65,2|8,3:2|0:2,0:0:0:0:
12,202,117137,2,0,P|41:156|71:137,1,65,2|10,3:2|0:2,0:0:0:0:
43,72,117409,2,0,P|129:76|180:102,1,130,2|2,3:2|3:2,0:0:0:0:
321,64,117955,6,0,L|316:-7,2,65,2|10|10,3:2|3:2|3:2,0:0:0:0:
424,181,118500,2,0,L|419:245,2,65,2|2|10,3:2|3:2|3:2,0:0:0:0:
267,204,119046,2,0,B|188:224|188:224|155:214|155:214|67:234,1,195,6|2,3:2|3:2,0:0:0:0:
23,175,119591,2,0,P|23:126|102:99,1,130,2|0,3:2|3:2,0:0:0:0:
227,19,120137,6,0,L|371:40,1,130,6|2,3:2|3:2,0:0:0:0:
436,26,120546,1,8,0:2:0:0:
436,26,120682,2,0,B|451:57|451:57|451:97,1,65,2|10,3:2|0:2,0:0:0:0:
498,149,120955,2,0,B|478:177|478:177|444:197,1,65,2|10,3:2|0:2,0:0:0:0:
433,268,121227,5,2,3:2:0:0:
284,218,121500,1,0,3:2:0:0:
160,314,121773,2,0,P|131:324|93:313,1,65,0|10,3:2|0:2,0:0:0:0:
46,257,122046,2,0,P|38:225|48:195,1,65,2|10,3:2|0:2,0:0:0:0:
105,142,122318,6,0,L|93:1,1,130,2|2,3:2|3:2,0:0:0:0:
230,108,122864,1,2,3:2:0:0:
230,108,123000,1,10,0:2:0:0:
230,108,123137,2,0,P|287:110|306:117,1,65,2|10,3:2|0:2,0:0:0:0:
353,163,123409,6,0,P|391:171|345:64,1,260,2|0,3:2|3:2,0:0:0:0:
264,192,124227,2,0,P|259:246|269:259,1,65,2|0,3:2|3:2,0:0:0:0:
326,299,124500,2,0,L|170:290,1,130,14|10,0:2|0:2,0:0:0:0:
122,288,124909,1,0,3:2:0:0:
122,288,125046,2,0,P|98:249|97:219,1,65,10|2,0:2|3:2,0:0:0:0:
90,153,125318,2,0,P|111:112|137:96,1,65,10|2,0:2|3:2,0:0:0:0:
103,26,125591,6,0,P|148:24|175:38,1,65,14|2,0:2|3:2,0:0:0:0:
226,79,125863,2,0,P|249:118|251:148,1,65,10|2,0:2|3:2,0:0:0:0:
325,163,126137,2,0,P|287:231|244:258,1,130,10|10,0:2|0:2,0:0:0:0:
387,319,126682,6,0,L|458:334,2,65,6|2|2,3:2|3:2|3:2,0:0:0:0:
413,165,127227,2,0,L|476:151,2,65,2|2|2,3:2|3:2|3:2,0:0:0:0:
273,93,127773,2,0,B|243:62|243:62|138:34,1,130,6|0,3:2|3:2,0:0:0:0:
85,58,128182,1,2,3:2:0:0:
85,58,128318,6,0,L|74:140,1,65,2|2,3:2|3:2,0:0:0:0:
69,200,128591,2,0,L|58:282,1,65,0|2,3:2|3:2,0:0:0:0:
55,342,128864,1,2,3:2:0:0:
162,247,132682,6,0,P|153:211|157:170,2,65,10|0|0,0:2|3:2|3:2,0:0:0:0:
277,332,133227,2,0,L|353:340,1,65,6|2,3:2|3:2,0:0:0:0:
402,289,133500,2,0,L|478:297,1,65,0|0,3:2|3:2,0:0:0:0:
508,229,133773,2,0,L|486:89,1,130,8|0,0:2|3:2,0:0:0:0:
442,36,134182,1,0,3:2:0:0:
128,112,137591,6,0,P|87:102|60:118,1,65,0|0,3:2|3:2,0:0:0:0:
13,167,137864,1,2,3:2:0:0:
136,262,138137,6,0,L|154:345,1,65,10|0,0:2|3:2,0:0:0:0:
226,315,138409,2,0,L|212:251,1,65,2|2,3:2|3:2,0:0:0:0:
418,142,139773,6,0,P|422:95|388:66,1,65,2|2,3:2|3:2,0:0:0:0:
356,27,140046,1,2,3:2:0:0:
216,96,140318,6,0,L|135:85,1,65,10|2,0:2|3:2,0:0:0:0:
131,163,140591,2,0,L|195:171,1,65,2|2,3:2|3:2,0:0:0:0:
415,343,141955,6,0,P|425:304|412:267,1,65,4|2,3:2|3:2,0:0:0:0:
369,227,142227,1,0,3:2:0:0:
369,227,142364,1,0,3:2:0:0:
369,227,142500,2,0,L|289:219,1,65,10|0,0:2|3:2,0:0:0:0:
236,260,142773,2,0,L|156:252,1,65,2|0,3:2|3:2,0:0:0:0:
100,286,143046,5,2,3:2:0:0:
23,150,143318,2,0,P|24:100|32:74,1,65,0|0,3:2|3:2,0:0:0:0:
84,31,143591,2,0,L|213:16,1,130,10|2,0:2|3:2,0:0:0:0:
164,164,144137,6,0,P|145:136|151:95,2,65,10|8|10,3:2|3:2|3:2,0:0:0:0:
184,318,144682,2,0,P|203:290|197:249,2,65,10|8|10,3:2|3:2|3:2,0:0:0:0:
323,244,145227,5,10,3:2:0:0:
323,244,145364,2,0,L|461:229,1,130,6|0,3:2|3:2,0:0:0:0:
500,168,145773,2,0,P|502:127|486:91,1,65,2|0,3:2|3:2,0:0:0:0:
417,89,146046,1,0,3:2:0:0:
276,43,146318,6,0,B|202:37|219:85|144:79,1,130,2|2,3:2|3:2,0:0:0:0:
90,34,146727,2,0,P|111:76|128:169,1,130,10|10,0:2|0:2,0:0:0:0:
94,228,147137,2,0,L|95:295,1,65,0|10,3:2|0:2,0:0:0:0:
41,349,147409,6,0,P|124:366|172:321,1,130,2|2,3:2|3:2,0:0:0:0:
224,300,147818,1,10,0:2:0:0:
224,300,147955,2,0,L|358:306,1,130,2|2,3:2|3:2,0:0:0:0:
287,164,148500,6,0,P|355:197|406:144,1,130,2|2,3:2|3:2,0:0:0:0:
428,100,148909,2,0,B|365:88|386:43|298:38,1,130,10|10,0:2|0:2,0:0:0:0:
238,49,149318,2,0,B|208:64|208:64|157:54,1,65,2|10,3:2|0:2,0:0:0:0:
99,49,149591,2,0,L|105:131,1,65,2|10,3:2|0:2,0:0:0:0:
51,171,149864,2,0,L|45:253,1,65,2|10,3:2|0:2,0:0:0:0:
117,269,150137,1,0,3:2:0:0:
4,375,150409,1,2,3:2:0:0:
158,349,150682,6,0,P|200:304|190:222,1,130,2|2,3:2|3:2,0:0:0:0:
266,198,151091,2,0,B|319:237|319:237|376:196,1,130,10|10,0:2|0:2,0:0:0:0:
432,150,151500,2,0,P|448:192|443:239,1,65,2|10,3:2|0:2,0:0:0:0:
406,278,151773,2,0,L|277:372,1,130,2|2,3:2|3:2,0:0:0:0:
229,335,152182,1,10,0:2:0:0:
229,335,152318,2,0,B|157:323|179:379|88:370,1,130,2|2,3:2|3:2,0:0:0:0:
26,237,152864,6,0,L|39:94,1,130,2|0,3:2|3:2,0:0:0:0:
108,74,153273,2,0,L|225:156,1,130,2|10,3:2|0:2,0:0:0:0:
292,148,153682,1,2,3:2:0:0:
384,22,153955,2,0,P|447:26|482:100,1,130,2|0,3:2|3:2,0:0:0:0:
390,203,154500,2,0,P|327:199|292:125,1,130,0|0,3:2|3:2,0:0:0:0:
317,301,155046,6,0,P|282:364|171:355,2,195,6|2|0,3:2|0:2|0:2,0:0:0:0:
273,151,156137,2,0,P|182:131|127:205,2,195,2|2|2,3:2|0:2|0:2,0:0:0:0:
392,250,157227,6,0,L|248:281,1,130,10|2,0:2|3:2,0:0:0:0:
234,350,157637,2,0,L|203:206,1,130,10|2,0:2|3:2,0:0:0:0:
193,145,158046,2,0,L|279:126,1,65,10|0,0:2|0:2,0:0:0:0:
265,53,158318,1,10,3:2:0:0:
109,41,158591,1,10,0:2:0:0:
95,196,158864,1,10,0:2:0:0:
251,208,159137,1,10,0:2:0:0:
161,335,159409,6,0,P|257:357|297:266,1,195,2|0,3:2|0:2,0:0:0:0:
283,208,159955,2,0,P|285:141|351:112,1,130,8|0,0:2|0:2,0:0:0:0:
464,25,160500,2,0,B|404:55|404:55|438:202,1,195,2|2,3:2|0:2,0:0:0:0:
477,244,161046,2,0,L|461:376,1,130,10|2,0:2|0:2,0:0:0:0:
306,351,161591,6,0,P|300:315|287:283,1,65,10|2,3:2|3:2,0:0:0:0:
229,237,161864,1,2,3:2:0:0:
229,237,162000,2,0,P|235:201|248:169,1,65,10|2,3:2|3:2,0:0:0:0:
308,126,162273,1,2,3:2:0:0:
308,126,162409,2,0,P|302:90|289:58,1,65,10|2,3:2|3:2,0:0:0:0:
216,43,162682,6,0,L|70:32,1,130,10|10,0:2|0:2,0:0:0:0:
12,170,163227,2,0,L|141:179,1,130,10|2,0:2|3:2,0:0:0:0:
178,331,163773,5,6,3:2:0:0:
256,192,163909,12,2,168137,3:2:0:0:
298,188,171409,6,0,L|174:157,2,86.6666666666667,8|8|8,3:2|3:2|3:2,0:0:0:0:
396,223,171955,2,0,L|480:244,2,86.6666666666667,8|8|8,3:2|3:2|3:2,0:0:0:0:
319,293,172500,5,6,3:2:0:0:
380,61,172909,1,2,0:2:0:0:
150,107,173318,1,2,0:2:0:0:
303,133,173591,2,0,B|210:122|239:220|111:207,1,195,2|0,0:2|0:0,0:0:0:0:
58,182,174137,2,0,P|53:221|69:258,1,65,2|2,0:2|0:2,0:0:0:0:
41,320,174409,1,2,0:2:0:0:
188,372,174682,5,2,3:2:0:0:
256,192,174750,12,10,175773,3:2:0:0:
365,331,176864,6,0,L|350:186,1,130,6|2,3:2|3:2,0:0:0:0:
382,127,177273,1,8,0:2:0:0:
382,127,177409,2,0,P|374:87|373:40,1,65,2|10,3:2|0:2,0:0:0:0:
300,32,177682,2,0,P|298:66|294:97,1,65,2|10,3:2|0:2,0:0:0:0:
233,149,177955,6,0,B|169:150|191:95|111:100,1,130,2|0,3:2|3:2,0:0:0:0:
59,47,178364,1,10,0:2:0:0:
42,202,178637,2,0,P|52:250|64:279,1,65,10|2,0:2|3:2,0:0:0:0:
127,298,178909,1,10,0:2:0:0:
103,372,179046,6,0,P|158:339|229:353,1,130,2|2,3:2|3:2,0:0:0:0:
293,314,179455,1,8,0:2:0:0:
293,314,179591,2,0,B|322:334|322:334|364:330,1,65,2|10,3:2|0:2,0:0:0:0:
367,254,179864,2,0,B|338:234|338:234|296:238,1,65,2|10,3:2|0:2,0:0:0:0:
261,173,180137,2,0,P|184:177|198:82,1,195,2|10,3:2|0:2,0:0:0:0:
121,298,180955,2,0,L|87:213,1,65,2|0,3:2|3:2,0:0:0:0:
57,171,181227,6,0,B|19:202|19:202|25:310,1,130,6|2,3:2|3:2,0:0:0:0:
61,358,181637,1,8,0:2:0:0:
61,358,181773,2,0,P|99:380|128:380,1,65,2|10,3:2|0:2,0:0:0:0:
189,347,182046,2,0,P|229:328|258:330,1,65,2|10,3:2|0:2,0:0:0:0:
326,337,182318,2,0,L|419:346,2,65,2|10|2,3:2|0:2|3:2,0:0:0:0:
334,259,182727,2,0,L|427:268,2,65,10|2|10,0:2|3:2|0:2,0:0:0:0:
331,180,183137,1,2,3:2:0:0:
192,250,183409,6,0,P|204:187|142:131,1,130,2|10,3:2|3:3,0:0:0:0:
122,68,183818,1,10,0:3:0:0:
122,68,183955,2,0,L|115:221,1,130,10|10,3:3|3:3,0:0:0:0:
53,244,184364,1,10,0:3:0:0:
66,321,184500,2,0,P|111:364|199:367,1,130,6|2,3:2|3:2,0:0:0:0:
329,339,185046,2,0,L|320:186,1,130,2|2,3:2|3:2,0:0:0:0:
309,53,185591,6,0,P|373:62|420:106,1,130,6|2,3:2|3:2,0:0:0:0:
482,160,186000,1,8,0:2:0:0:
482,160,186137,2,0,L|477:249,1,65,2|10,3:2|0:2,0:0:0:0:
404,249,186409,2,0,L|409:338,1,65,2|10,3:2|0:2,0:0:0:0:
463,368,186682,2,0,L|325:358,1,130,2|0,3:2|3:2,0:0:0:0:
306,285,187091,1,10,0:2:0:0:
180,377,187364,2,0,P|203:330|200:294,1,65,10|2,0:2|3:2,0:0:0:0:
136,277,187637,1,10,0:2:0:0:
168,207,187773,6,0,B|142:179|142:179|155:65,1,130,2|2,3:2|3:2,0:0:0:0:
75,51,188182,1,8,0:2:0:0:
75,51,188318,2,0,B|60:82|60:82|67:122,1,65,2|10,3:2|0:2,0:0:0:0:
3,160,188591,2,0,B|18:191|18:191|11:231,1,65,2|10,3:2|0:2,0:0:0:0:
12,299,188864,2,0,B|45:357|45:357|201:339,1,195,2|10,3:2|0:2,0:0:0:0:
365,210,189682,2,0,L|454:213,1,65,2|0,3:2|3:2,0:0:0:0:
449,288,189955,6,0,L|318:285,1,130,6|10,3:2|3:2,0:0:0:0:
244,309,190364,1,10,3:2:0:0:
222,234,190500,2,0,L|232:151,3,65,10|10|10|8,3:2|3:2|3:2|3:2,0:0:0:0:
283,111,191046,2,0,P|204:90|161:122,1,130,14|10,3:2|3:2,0:0:0:0:
90,109,191455,1,10,3:2:0:0:
90,109,191591,2,0,P|93:150|89:188,1,65,10|10,3:2|3:2,0:0:0:0:
36,230,191864,1,8,3:2:0:0:
145,343,192137,6,0,B|208:347|208:347|214:345|214:345|291:349,1,130,6|2,3:2|3:2,0:0:0:0:
349,323,192546,1,2,3:2:0:0:
349,323,192682,2,0,B|382:332|403:356|403:356|426:329|465:317,1,130,14|2,3:2|3:2,0:0:0:0:
496,252,193091,1,2,3:2:0:0:
437,201,193227,5,6,3:2:0:0:
205,161,193637,1,6,3:2:0:0:
291,378,194046,1,6,3:2:0:0:
59,338,194455,2,0,P|88:324|188:311,1,130,6|0,3:2|3:2,0:0:0:0:
291,378,194864,5,10,3:2:0:0:
407,273,195137,1,10,3:2:0:0:
