osu file format v14

[General]
AudioFilename: audio.ogg
AudioLeadIn: 0
PreviewTime: 62147
Countdown: 0
SampleSet: Normal
StackLeniency: 0.7
Mode: 1
LetterboxInBreaks: 0
WidescreenStoryboard: 1

[Editor]
DistanceSpacing: 1.2
BeatDivisor: 1
GridSize: 32
TimelineZoom: 1.099999

[Metadata]
Title:Flowering Night Fever Guitar Inst-hen
TitleUnicode:Flowering Night Fever ギターインスト版
Artist:UNDEAD CORPORATION
ArtistUnicode:UNDEAD CORPORATION
Creator:Greenshell
Version:Kantan
Source:東方花映塚 ~ Phantasmagoria of Flower View.
Tags:fa featured artist zun team shanghai alice 上海アリス幻樂団 瞬殺 touhou project Kaeidzuka sakuya izayoi 十六夜 咲夜 フラワリングナイト 瞬殺 shunsatsu reitaisai 12 instrumental speed metal guitar
BeatmapID:3217018
BeatmapSetID:1506936

[Difficulty]
HPDrainRate:7.5
CircleSize:3
OverallDifficulty:3.5
ApproachRate:10
SliderMultiplier:1
SliderTickRate:1

[Events]
//Background and Video events
0,0,"bg.jpg",0,75
//Break Periods
//Storyboard Layer 0 (Background)
//Storyboard Layer 1 (Fail)
//Storyboard Layer 2 (Pass)
//Storyboard Layer 3 (Foreground)
//Storyboard Layer 4 (Overlay)
//Storyboard Sound Samples

[TimingPoints]
166,206.896551724138,4,1,0,85,1,0
21683,206.896551724138,3,1,0,85,1,0
23545,206.896551724138,4,1,0,85,1,0
25200,206.896551724138,3,1,0,85,1,0
27062,206.896551724138,4,1,0,85,1,0
28717,206.896551724138,3,1,0,85,1,0
30579,206.896551724138,4,1,0,85,1,0
32234,206.896551724138,3,1,0,85,1,0
34096,206.896551724138,4,1,0,85,1,0
35751,206.896551724138,4,1,0,85,1,0
62233,-100,4,1,0,85,0,1
75475,-100,4,1,0,85,0,0
95337,206.896551724138,3,1,0,85,1,0
97199,206.896551724138,4,1,0,85,1,0
98854,206.896551724138,3,1,0,85,1,0
100716,206.896551724138,4,1,0,85,1,0
102371,206.896551724138,3,1,0,85,1,0
104233,206.896551724138,4,1,0,85,1,0
105888,206.896551724138,3,1,0,85,1,0
107750,206.896551724138,4,1,0,85,1,0
109405,206.896551724138,4,1,0,85,1,0
122646,-100,4,1,0,85,0,1
135887,-100,4,1,0,85,0,0
155749,-100,4,1,0,85,0,1
178922,-100,4,1,0,85,0,0
205405,-100,4,1,0,85,0,1
231887,-100,4,1,0,85,0,0

[HitObjects]
224,160,166,5,0,0:0:0:0:
288,160,579,1,8,0:0:0:0:
224,160,993,1,0,0:0:0:0:
224,160,1200,1,0,0:0:0:0:
288,160,1407,1,8,0:0:0:0:
224,224,1821,1,4,0:0:0:0:
224,224,3476,1,4,0:0:0:0:
224,160,4303,1,0,0:0:0:0:
288,160,4717,1,8,0:0:0:0:
224,160,5131,1,0,0:0:0:0:
224,160,5545,1,0,0:0:0:0:
288,160,5959,1,8,0:0:0:0:
224,160,6372,1,0,0:0:0:0:
288,160,6786,1,8,0:0:0:0:
288,160,7407,1,8,0:0:0:0:
288,160,8028,1,8,0:0:0:0:
224,224,8441,1,4,0:0:0:0:
288,160,9269,1,8,0:0:0:0:
288,160,9683,1,8,0:0:0:0:
224,160,10097,1,0,0:0:0:0:
288,160,10924,1,8,0:0:0:0:
288,160,11338,1,8,0:0:0:0:
224,160,11752,1,0,0:0:0:0:
224,160,12166,1,0,0:0:0:0:
288,160,12579,1,8,0:0:0:0:
288,160,12993,1,8,0:0:0:0:
288,160,13407,1,8,0:0:0:0:
288,160,14028,1,8,0:0:0:0:
288,160,14648,1,8,0:0:0:0:
224,224,15062,1,4,0:0:0:0:
288,160,15890,1,8,0:0:0:0:
288,160,16303,1,8,0:0:0:0:
224,160,16717,1,0,0:0:0:0:
224,160,17131,1,0,0:0:0:0:
288,160,17545,1,8,0:0:0:0:
288,160,17959,1,8,0:0:0:0:
224,160,18372,1,0,0:0:0:0:
288,160,19200,1,8,0:0:0:0:
288,160,19614,1,8,0:0:0:0:
224,160,20028,1,0,0:0:0:0:
288,160,20338,1,8,0:0:0:0:
288,160,20855,1,8,0:0:0:0:
224,160,21166,1,0,0:0:0:0:
224,160,21683,1,0,0:0:0:0:
288,224,22096,1,12,0:0:0:0:
224,160,23958,1,0,0:0:0:0:
224,160,24372,1,0,0:0:0:0:
288,160,24786,1,8,0:0:0:0:
224,224,25200,1,4,0:0:0:0:
288,160,25613,1,8,0:0:0:0:
224,160,26234,1,0,0:0:0:0:
288,160,26855,1,8,0:0:0:0:
288,160,27475,1,8,0:0:0:0:
224,160,27682,1,0,0:0:0:0:
288,160,28096,1,8,0:0:0:0:
224,224,28717,1,4,0:0:0:0:
288,160,29130,1,8,0:0:0:0:
224,160,29751,1,0,0:0:0:0:
288,160,30372,1,8,0:0:0:0:
224,160,30992,1,0,0:0:0:0:
224,160,31199,1,0,0:0:0:0:
288,160,31613,1,8,0:0:0:0:
224,224,32234,1,4,0:0:0:0:
288,160,32647,1,8,0:0:0:0:
224,160,33268,1,0,0:0:0:0:
288,160,33889,1,8,0:0:0:0:
288,160,34509,1,8,0:0:0:0:
224,160,34716,1,0,0:0:0:0:
288,160,35130,1,8,0:0:0:0:
224,224,35751,1,4,0:0:0:0:
288,160,36578,1,8,0:0:0:0:
288,160,36992,1,8,0:0:0:0:
224,160,37406,1,0,0:0:0:0:
288,160,38233,1,8,0:0:0:0:
288,160,38647,1,8,0:0:0:0:
224,160,39061,1,0,0:0:0:0:
288,160,39475,1,8,0:0:0:0:
224,160,39888,1,0,0:0:0:0:
224,160,40302,1,0,0:0:0:0:
288,160,40716,1,8,0:0:0:0:
288,160,41337,1,8,0:0:0:0:
288,160,41957,1,8,0:0:0:0:
224,224,42371,1,4,0:0:0:0:
288,160,43199,1,8,0:0:0:0:
288,160,43613,1,8,0:0:0:0:
224,160,44026,1,0,0:0:0:0:
288,160,44440,1,8,0:0:0:0:
224,160,44854,1,0,0:0:0:0:
288,160,45268,1,8,0:0:0:0:
224,160,45682,1,0,0:0:0:0:
288,160,46509,1,8,0:0:0:0:
288,160,46716,1,8,0:0:0:0:
288,160,46923,1,8,0:0:0:0:
224,160,47337,1,0,0:0:0:0:
288,160,48164,1,8,0:0:0:0:
288,160,48992,1,8,0:0:0:0:
224,160,49406,1,0,0:0:0:0:
288,160,49819,1,8,0:0:0:0:
224,160,50233,1,0,0:0:0:0:
288,160,50647,1,8,0:0:0:0:
224,160,51475,1,0,0:0:0:0:
288,160,52302,1,8,0:0:0:0:
224,160,52716,1,0,0:0:0:0:
288,160,53130,1,8,0:0:0:0:
224,160,53544,1,0,0:0:0:0:
288,160,53957,1,8,0:0:0:0:
288,160,55199,1,8,0:0:0:0:
288,160,55613,1,8,0:0:0:0:
224,160,56026,1,0,0:0:0:0:
288,160,56440,1,8,0:0:0:0:
224,160,56854,1,0,0:0:0:0:
288,160,57268,1,8,0:0:0:0:
224,160,58095,1,0,0:0:0:0:
288,160,58923,1,8,0:0:0:0:
224,160,59337,1,0,0:0:0:0:
288,160,59751,1,8,0:0:0:0:
288,160,60164,1,8,0:0:0:0:
224,160,60578,1,0,0:0:0:0:
288,160,61406,1,8,0:0:0:0:
288,160,61716,1,8,0:0:0:0:
224,224,62233,1,4,0:0:0:0:
224,160,62647,1,0,0:0:0:0:
288,160,63061,1,8,0:0:0:0:
288,160,63475,1,8,0:0:0:0:
224,160,63888,1,0,0:0:0:0:
224,160,64302,1,0,0:0:0:0:
288,160,64716,1,8,0:0:0:0:
288,224,65544,1,12,0:0:0:0:
288,160,65957,1,8,0:0:0:0:
224,160,66371,1,0,0:0:0:0:
224,160,66785,1,0,0:0:0:0:
288,160,67199,1,8,0:0:0:0:
288,160,67613,1,8,0:0:0:0:
224,160,68026,1,0,0:0:0:0:
224,224,68854,1,4,0:0:0:0:
224,160,69268,1,0,0:0:0:0:
288,160,69682,1,8,0:0:0:0:
224,160,70095,1,0,0:0:0:0:
288,160,70509,1,8,0:0:0:0:
288,160,70923,1,8,0:0:0:0:
224,160,71337,1,0,0:0:0:0:
320,224,72164,1,12,0:0:0:0:
288,160,72578,1,8,0:0:0:0:
224,160,72992,1,0,0:0:0:0:
288,160,73406,1,8,0:0:0:0:
224,160,73819,1,0,0:0:0:0:
224,160,74233,1,0,0:0:0:0:
288,160,74647,1,8,0:0:0:0:
224,224,75475,1,4,0:0:0:0:
288,160,76302,1,8,0:0:0:0:
288,160,76716,1,8,0:0:0:0:
224,160,77130,1,0,0:0:0:0:
288,160,77957,1,8,0:0:0:0:
288,160,78371,1,8,0:0:0:0:
224,160,78785,1,0,0:0:0:0:
224,160,79613,1,0,0:0:0:0:
288,160,80440,1,8,0:0:0:0:
288,160,81061,1,8,0:0:0:0:
288,160,81682,1,8,0:0:0:0:
224,224,82095,1,4,0:0:0:0:
288,160,82923,1,8,0:0:0:0:
288,160,83337,1,8,0:0:0:0:
224,160,83751,1,0,0:0:0:0:
288,160,84578,1,8,0:0:0:0:
288,160,84992,1,8,0:0:0:0:
224,160,85406,1,0,0:0:0:0:
224,160,85819,1,0,0:0:0:0:
288,160,86233,1,8,0:0:0:0:
288,160,86647,1,8,0:0:0:0:
288,160,87061,1,8,0:0:0:0:
288,160,87682,1,8,0:0:0:0:
288,160,88302,1,8,0:0:0:0:
224,224,88716,1,4,0:0:0:0:
288,160,89544,1,8,0:0:0:0:
288,160,89957,1,8,0:0:0:0:
224,160,90371,1,0,0:0:0:0:
224,160,90785,1,0,0:0:0:0:
288,160,91199,1,8,0:0:0:0:
288,160,91613,1,8,0:0:0:0:
224,160,92026,1,0,0:0:0:0:
288,160,92854,1,8,0:0:0:0:
288,160,93268,1,8,0:0:0:0:
224,160,93682,1,0,0:0:0:0:
288,160,93992,1,8,0:0:0:0:
288,160,94509,1,8,0:0:0:0:
224,160,94819,1,0,0:0:0:0:
224,160,95337,5,0,0:0:0:0:
288,160,95750,1,8,0:0:0:0:
224,160,96371,1,0,0:0:0:0:
288,160,96992,1,8,0:0:0:0:
224,160,97819,1,0,0:0:0:0:
288,160,98233,1,8,0:0:0:0:
224,160,98854,1,0,0:0:0:0:
288,160,99267,1,8,0:0:0:0:
224,160,99888,1,0,0:0:0:0:
288,160,100509,1,8,0:0:0:0:
288,160,101336,1,8,0:0:0:0:
288,160,101750,1,8,0:0:0:0:
224,160,102371,1,0,0:0:0:0:
288,160,102784,1,8,0:0:0:0:
224,160,103405,1,0,0:0:0:0:
288,160,104026,1,8,0:0:0:0:
224,160,104853,1,0,0:0:0:0:
288,160,105267,1,8,0:0:0:0:
224,160,105888,1,0,0:0:0:0:
288,160,106301,1,8,0:0:0:0:
224,160,106922,1,0,0:0:0:0:
288,160,107543,1,8,0:0:0:0:
224,160,108370,1,0,0:0:0:0:
288,160,108991,1,8,0:0:0:0:
288,160,109405,1,8,0:0:0:0:
224,160,109818,1,0,0:0:0:0:
288,160,110232,1,8,0:0:0:0:
224,160,110646,1,0,0:0:0:0:
288,160,111060,1,8,0:0:0:0:
224,160,111887,1,0,0:0:0:0:
224,160,112301,1,0,0:0:0:0:
288,160,112715,1,8,0:0:0:0:
224,160,113129,1,0,0:0:0:0:
288,160,113542,1,8,0:0:0:0:
224,160,113956,1,0,0:0:0:0:
288,160,114370,1,8,0:0:0:0:
288,160,115611,1,8,0:0:0:0:
224,160,116025,1,0,0:0:0:0:
288,160,116439,1,8,0:0:0:0:
224,160,116853,1,0,0:0:0:0:
288,160,117267,1,8,0:0:0:0:
224,160,117680,1,0,0:0:0:0:
224,160,118508,1,0,0:0:0:0:
224,160,118922,1,0,0:0:0:0:
288,160,119336,1,8,0:0:0:0:
288,160,119749,1,8,0:0:0:0:
288,160,120163,1,8,0:0:0:0:
288,160,120577,1,8,0:0:0:0:
224,160,120991,1,0,0:0:0:0:
224,160,121405,1,0,0:0:0:0:
224,160,121611,1,0,0:0:0:0:
288,160,121818,1,8,0:0:0:0:
224,224,122646,1,4,0:0:0:0:
224,160,123060,1,0,0:0:0:0:
288,160,123473,1,8,0:0:0:0:
288,160,123887,1,8,0:0:0:0:
224,160,124301,1,0,0:0:0:0:
224,160,124715,1,0,0:0:0:0:
288,160,125129,1,8,0:0:0:0:
288,224,125956,1,12,0:0:0:0:
288,160,126370,1,8,0:0:0:0:
224,160,126784,1,0,0:0:0:0:
224,160,127198,1,0,0:0:0:0:
288,160,127611,1,8,0:0:0:0:
288,160,128025,1,8,0:0:0:0:
224,160,128439,1,0,0:0:0:0:
224,224,129267,1,4,0:0:0:0:
224,160,129680,1,0,0:0:0:0:
288,160,130094,1,8,0:0:0:0:
224,160,130508,1,0,0:0:0:0:
288,160,130922,1,8,0:0:0:0:
288,160,131336,1,8,0:0:0:0:
224,160,131749,1,0,0:0:0:0:
288,224,132577,1,12,0:0:0:0:
288,160,132991,1,8,0:0:0:0:
224,160,133405,1,0,0:0:0:0:
288,160,133818,1,8,0:0:0:0:
224,160,134232,1,0,0:0:0:0:
224,160,134646,1,0,0:0:0:0:
288,160,135060,1,8,0:0:0:0:
224,224,135887,1,4,0:0:0:0:
288,160,136301,1,8,0:0:0:0:
288,160,137129,1,8,0:0:0:0:
224,160,137542,1,0,0:0:0:0:
288,160,137956,1,8,0:0:0:0:
288,160,138784,1,8,0:0:0:0:
224,224,139198,1,4,0:0:0:0:
288,160,139611,1,8,0:0:0:0:
288,160,140439,1,8,0:0:0:0:
224,160,140853,1,0,0:0:0:0:
288,160,141267,1,8,0:0:0:0:
288,160,141680,1,8,0:0:0:0:
224,224,142508,1,4,0:0:0:0:
224,160,143336,1,0,0:0:0:0:
288,160,143749,1,8,0:0:0:0:
224,160,144163,1,0,0:0:0:0:
224,160,144370,1,0,0:0:0:0:
288,160,144577,1,8,0:0:0:0:
224,160,144991,1,0,0:0:0:0:
224,224,145818,1,4,0:0:0:0:
288,160,146646,1,8,0:0:0:0:
224,160,147060,1,0,0:0:0:0:
288,160,147473,1,8,0:0:0:0:
288,160,147680,1,8,0:0:0:0:
224,160,147887,1,0,0:0:0:0:
288,160,148301,1,8,0:0:0:0:
224,224,149129,1,4,0:0:0:0:
288,160,149956,1,8,0:0:0:0:
288,160,150370,1,8,0:0:0:0:
224,160,150784,1,0,0:0:0:0:
224,160,150991,1,0,0:0:0:0:
288,160,151198,1,8,0:0:0:0:
224,160,151611,1,0,0:0:0:0:
224,224,152439,1,4,0:0:0:0:
288,160,153267,1,8,0:0:0:0:
288,160,153680,1,8,0:0:0:0:
288,160,154094,1,8,0:0:0:0:
288,160,154301,1,8,0:0:0:0:
288,160,154508,1,8,0:0:0:0:
288,160,154922,1,8,0:0:0:0:
224,160,155749,1,0,0:0:0:0:
288,160,156163,1,8,0:0:0:0:
224,160,156577,1,0,0:0:0:0:
224,160,156784,1,0,0:0:0:0:
288,160,156991,1,8,0:0:0:0:
224,160,157405,1,0,0:0:0:0:
288,160,157818,1,8,0:0:0:0:
224,160,158025,1,0,0:0:0:0:
288,160,158232,1,8,0:0:0:0:
288,160,159060,1,8,0:0:0:0:
288,160,159473,1,8,0:0:0:0:
224,160,159887,1,0,0:0:0:0:
224,160,160094,1,0,0:0:0:0:
288,160,160301,1,8,0:0:0:0:
224,160,160715,1,0,0:0:0:0:
288,160,161129,1,8,0:0:0:0:
288,160,161336,1,8,0:0:0:0:
224,160,161542,1,0,0:0:0:0:
224,160,162370,1,0,0:0:0:0:
288,160,162784,1,8,0:0:0:0:
224,160,163198,1,0,0:0:0:0:
224,160,163405,1,0,0:0:0:0:
288,160,163611,1,8,0:0:0:0:
224,160,164025,1,0,0:0:0:0:
224,160,164439,1,0,0:0:0:0:
224,160,164646,1,0,0:0:0:0:
288,160,164853,1,8,0:0:0:0:
288,160,165680,1,8,0:0:0:0:
224,160,166094,1,0,0:0:0:0:
288,160,166508,1,8,0:0:0:0:
224,160,166922,1,0,0:0:0:0:
288,160,167336,1,8,0:0:0:0:
288,160,167542,1,8,0:0:0:0:
288,160,167749,1,8,0:0:0:0:
288,160,168163,1,8,0:0:0:0:
224,160,168991,1,0,0:0:0:0:
224,160,169405,1,0,0:0:0:0:
288,160,169818,1,8,0:0:0:0:
288,160,170232,1,8,0:0:0:0:
224,160,170646,1,0,0:0:0:0:
224,160,170853,1,0,0:0:0:0:
288,160,171060,1,8,0:0:0:0:
288,160,171473,1,8,0:0:0:0:
224,160,172301,1,0,0:0:0:0:
288,160,172715,1,8,0:0:0:0:
224,160,173129,1,0,0:0:0:0:
288,160,173542,1,8,0:0:0:0:
288,160,173956,1,8,0:0:0:0:
288,160,174784,1,8,0:0:0:0:
224,160,175611,1,0,0:0:0:0:
224,160,176025,1,0,0:0:0:0:
288,160,176439,1,8,0:0:0:0:
288,160,176853,1,8,0:0:0:0:
224,160,177267,1,0,0:0:0:0:
224,160,177473,1,0,0:0:0:0:
288,160,177680,1,8,0:0:0:0:
224,160,178094,1,0,0:0:0:0:
224,160,178301,1,0,0:0:0:0:
288,160,178508,1,8,0:0:0:0:
224,224,178922,1,4,0:0:0:0:
224,224,180577,1,4,0:0:0:0:
288,160,181405,1,8,0:0:0:0:
288,160,181818,1,8,0:0:0:0:
224,224,182232,1,4,0:0:0:0:
224,160,183060,1,0,0:0:0:0:
224,160,183473,1,0,0:0:0:0:
288,160,183887,1,8,0:0:0:0:
288,160,184508,1,8,0:0:0:0:
288,160,185129,1,8,0:0:0:0:
224,224,185542,1,4,0:0:0:0:
288,160,186370,1,8,0:0:0:0:
288,160,186784,1,8,0:0:0:0:
224,160,187198,1,0,0:0:0:0:
224,160,187611,1,0,0:0:0:0:
288,160,188025,1,8,0:0:0:0:
288,160,188439,1,8,0:0:0:0:
224,160,188853,1,0,0:0:0:0:
288,160,189680,1,8,0:0:0:0:
288,160,190094,1,8,0:0:0:0:
224,160,190508,1,0,0:0:0:0:
288,160,190818,1,8,0:0:0:0:
288,160,191336,1,8,0:0:0:0:
224,160,191646,1,0,0:0:0:0:
288,160,192163,1,8,0:0:0:0:
224,160,192577,1,0,0:0:0:0:
288,160,192991,1,8,0:0:0:0:
224,160,193405,1,0,0:0:0:0:
288,160,193818,1,8,0:0:0:0:
224,160,194646,1,0,0:0:0:0:
224,160,194853,1,0,0:0:0:0:
224,160,195060,1,0,0:0:0:0:
288,160,195473,1,8,0:0:0:0:
224,160,195887,1,0,0:0:0:0:
288,160,196301,1,8,0:0:0:0:
224,160,196715,1,0,0:0:0:0:
288,160,197129,1,8,0:0:0:0:
288,160,198370,1,8,0:0:0:0:
288,160,198784,1,8,0:0:0:0:
224,160,199198,1,0,0:0:0:0:
288,160,199611,1,8,0:0:0:0:
224,160,200025,1,0,0:0:0:0:
288,160,200439,1,8,0:0:0:0:
224,160,201267,1,0,0:0:0:0:
224,160,201473,1,0,0:0:0:0:
224,160,201680,1,0,0:0:0:0:
288,160,202094,1,8,0:0:0:0:
224,160,202508,1,0,0:0:0:0:
288,160,202922,1,8,0:0:0:0:
288,160,203129,1,8,0:0:0:0:
288,160,203336,1,8,0:0:0:0:
224,224,203749,1,4,0:0:0:0:
288,160,204991,1,8,0:0:0:0:
224,224,205405,1,4,0:0:0:0:
224,160,205818,1,0,0:0:0:0:
288,160,206232,1,8,0:0:0:0:
288,160,206646,1,8,0:0:0:0:
224,160,207060,1,0,0:0:0:0:
224,160,207473,1,0,0:0:0:0:
288,160,207887,1,8,0:0:0:0:
288,224,208715,1,12,0:0:0:0:
288,160,209129,1,8,0:0:0:0:
224,160,209542,1,0,0:0:0:0:
224,160,209956,1,0,0:0:0:0:
288,160,210370,1,8,0:0:0:0:
288,160,210784,1,8,0:0:0:0:
224,160,211198,1,0,0:0:0:0:
224,224,212025,1,4,0:0:0:0:
224,160,212439,1,0,0:0:0:0:
288,160,212853,1,8,0:0:0:0:
224,160,213267,1,0,0:0:0:0:
288,160,213680,1,8,0:0:0:0:
288,160,214094,1,8,0:0:0:0:
224,160,214508,1,0,0:0:0:0:
288,224,215336,1,12,0:0:0:0:
288,160,215749,1,8,0:0:0:0:
224,160,216163,1,0,0:0:0:0:
288,160,216577,1,8,0:0:0:0:
224,160,216991,1,0,0:0:0:0:
224,160,217405,1,0,0:0:0:0:
288,160,217818,1,8,0:0:0:0:
224,160,218646,1,0,0:0:0:0:
288,160,219060,1,8,0:0:0:0:
288,160,219473,1,8,0:0:0:0:
288,160,219887,1,8,0:0:0:0:
224,160,220301,1,0,0:0:0:0:
288,160,220715,1,8,0:0:0:0:
224,160,221129,1,0,0:0:0:0:
288,160,221956,1,8,0:0:0:0:
288,160,222370,1,8,0:0:0:0:
288,160,222784,1,8,0:0:0:0:
288,160,223198,1,8,0:0:0:0:
224,160,223611,1,0,0:0:0:0:
288,160,224025,1,8,0:0:0:0:
288,160,224439,1,8,0:0:0:0:
224,160,225267,1,0,0:0:0:0:
288,160,225680,1,8,0:0:0:0:
288,160,226094,1,8,0:0:0:0:
224,160,226508,1,0,0:0:0:0:
288,160,226922,1,8,0:0:0:0:
288,160,227336,1,0,0:0:0:0:
288,160,227749,1,8,0:0:0:0:
224,160,228577,1,0,0:0:0:0:
288,160,228991,1,8,0:0:0:0:
288,160,229405,1,8,0:0:0:0:
224,160,229818,1,0,0:0:0:0:
288,160,230232,1,8,0:0:0:0:
224,160,230439,1,0,0:0:0:0:
288,160,230646,1,8,0:0:0:0:
224,160,231060,1,0,0:0:0:0:
224,160,231267,1,0,0:0:0:0:
288,160,231473,1,8,0:0:0:0:
224,224,231887,1,4,0:0:0:0:
