osu file format v14

[General]
AudioFilename: audio.ogg
AudioLeadIn: 0
PreviewTime: 62147
Countdown: 0
SampleSet: Normal
StackLeniency: 0.7
Mode: 1
LetterboxInBreaks: 0
WidescreenStoryboard: 1

[Editor]
DistanceSpacing: 1.2
BeatDivisor: 12
GridSize: 32
TimelineZoom: 2.799999

[Metadata]
Title:Flowering Night Fever Guitar Inst-hen
TitleUnicode:Flowering Night Fever ギターインスト版
Artist:UNDEAD CORPORATION
ArtistUnicode:UNDEAD CORPORATION
Creator:Greenshell
Version:Inner Oni
Source:東方花映塚 ~ Phantasmagoria of Flower View.
Tags:fa featured artist zun team shanghai alice 上海アリス幻樂団 瞬殺 touhou project Kaeidzuka sakuya izayoi 十六夜 咲夜 フラワリングナイト 瞬殺 shunsatsu reitaisai 12 instrumental speed metal guitar
BeatmapID:3217017
BeatmapSetID:1506936

[Difficulty]
HPDrainRate:5
CircleSize:3
OverallDifficulty:6.5
ApproachRate:10
SliderMultiplier:1.4
SliderTickRate:1

[Events]
//Background and Video events
0,0,"bg.jpg",0,75
//Break Periods
//Storyboard Layer 0 (Background)
//Storyboard Layer 1 (Fail)
//Storyboard Layer 2 (Pass)
//Storyboard Layer 3 (Foreground)
//Storyboard Layer 4 (Overlay)
//Storyboard Sound Samples

[TimingPoints]
166,206.896551724138,4,1,0,85,1,0
21683,206.896551724138,3,1,0,85,1,0
23545,206.896551724138,4,1,0,85,1,0
25200,206.896551724138,3,1,0,85,1,0
27062,206.896551724138,4,1,0,85,1,0
28717,206.896551724138,3,1,0,85,1,0
30579,206.896551724138,4,1,0,85,1,0
32234,206.896551724138,3,1,0,85,1,0
34096,206.896551724138,4,1,0,85,1,0
35751,206.896551724138,4,1,0,85,1,0
62233,-100,4,1,0,85,0,1
75475,-100,4,1,0,85,0,0
75656,-133.333333333333,4,1,0,85,0,0
75759,-131.578947368421,4,1,0,85,0,0
75863,-129.87012987013,4,1,0,85,0,0
75966,-128.205128205128,4,1,0,85,0,0
76069,-126.582278481013,4,1,0,85,0,0
76173,-125,4,1,0,85,0,0
76276,-123.456790123457,4,1,0,85,0,0
76380,-121.951219512195,4,1,0,85,0,0
76483,-120.481927710843,4,1,0,85,0,0
76587,-119.047619047619,4,1,0,85,0,0
76690,-117.647058823529,4,1,0,85,0,0
76794,-116.279069767442,4,1,0,85,0,0
76897,-114.942528735632,4,1,0,85,0,0
77001,-113.636363636364,4,1,0,85,0,0
77104,-112.359550561798,4,1,0,85,0,0
77207,-111.111111111111,4,1,0,85,0,0
77311,-109.89010989011,4,1,0,85,0,0
77414,-108.695652173913,4,1,0,85,0,0
77518,-107.52688172043,4,1,0,85,0,0
77621,-106.382978723404,4,1,0,85,0,0
77725,-105.263157894737,4,1,0,85,0,0
77828,-104.166666666667,4,1,0,85,0,0
77932,-103.092783505155,4,1,0,85,0,0
78035,-102.040816326531,4,1,0,85,0,0
78138,-101.010101010101,4,1,0,85,0,0
78242,-100,4,1,0,85,0,0
78345,-99.009900990099,4,1,0,85,0,0
79147,-142.857142857143,4,1,0,85,0,0
80414,-125,4,1,0,85,0,0
80518,-123.456790123457,4,1,0,85,0,0
80621,-121.951219512195,4,1,0,85,0,0
80725,-120.481927710843,4,1,0,85,0,0
80828,-119.047619047619,4,1,0,85,0,0
80932,-117.647058823529,4,1,0,85,0,0
81035,-116.279069767442,4,1,0,85,0,0
81138,-114.942528735632,4,1,0,85,0,0
81242,-113.636363636364,4,1,0,85,0,0
81345,-112.359550561798,4,1,0,85,0,0
81423,-111.111111111111,4,1,0,85,0,0
81552,-109.89010989011,4,1,0,85,0,0
81656,-108.695652173913,4,1,0,85,0,0
81759,-106.382978723404,4,1,0,85,0,0
81863,-104.166666666667,4,1,0,85,0,0
81966,-102.040816326531,4,1,0,85,0,0
82069,-100,4,1,0,85,0,0
95337,206.896551724138,3,1,0,85,1,0
95337,-125,3,1,0,85,0,0
97199,206.896551724138,4,1,0,85,1,0
97199,-125,4,1,0,85,0,0
98854,206.896551724138,3,1,0,85,1,0
98854,-117.647058823529,3,1,0,85,0,0
100716,206.896551724138,4,1,0,85,1,0
100716,-117.647058823529,4,1,0,85,0,0
102371,206.896551724138,3,1,0,85,1,0
102371,-111.111111111111,3,1,0,85,0,0
104233,206.896551724138,4,1,0,85,1,0
104233,-111.111111111111,4,1,0,85,0,0
105888,206.896551724138,3,1,0,85,1,0
105888,-105.263157894737,3,1,0,85,0,0
107750,206.896551724138,4,1,0,85,1,0
107750,-105.263157894737,4,1,0,85,0,0
109405,206.896551724138,4,1,0,85,1,0
109405,-100,4,1,0,85,0,0
122646,-100,4,1,0,85,0,1
135887,-90.9090909090909,4,1,0,85,0,0
136042,-125,4,1,0,85,0,0
139146,-90.9090909090909,4,1,0,85,0,0
139249,-125,4,1,0,85,0,0
142456,-90.9090909090909,4,1,0,85,0,0
142560,-125,4,1,0,85,0,0
145767,-90.9090909090909,4,1,0,85,0,0
145870,-125,4,1,0,85,0,0
149077,-90.9090909090909,4,1,0,85,0,0
149180,-125,4,1,0,85,0,0
155749,-99.9999999999999,4,1,0,85,0,1
178922,-100,4,1,0,85,0,0
202999,-98.5221674876847,4,1,0,85,0,0
203103,-97.0873786407767,4,1,0,85,0,0
203206,-95.6937799043062,4,1,0,85,0,0
203310,-94.3396226415094,4,1,0,85,0,0
203413,-93.0232558139535,4,1,0,85,0,0
203517,-91.743119266055,4,1,0,85,0,0
203620,-90.4977375565611,4,1,0,85,0,0
203723,-88.4955752212389,4,1,0,85,0,0
204525,-115.384615384615,4,1,0,85,0,0
204965,-125,4,1,0,85,0,0
205379,-100,4,1,0,85,0,0
205405,-100,4,1,0,85,0,1
231887,-90.9090909090909,4,1,0,85,0,0

[HitObjects]
224,160,166,5,0,0:0:0:0:
224,160,372,1,0,0:0:0:0:
224,160,476,1,0,0:0:0:0:
288,160,579,1,8,0:0:0:0:
288,160,631,1,8,0:0:0:0:
288,160,683,1,8,0:0:0:0:
224,160,786,1,8,0:0:0:0:
288,160,890,1,8,0:0:0:0:
224,160,993,1,0,0:0:0:0:
288,160,1200,1,8,0:0:0:0:
288,160,1303,1,8,0:0:0:0:
224,160,1407,1,0,0:0:0:0:
224,160,1459,1,0,0:0:0:0:
224,160,1510,1,0,0:0:0:0:
288,160,1614,1,8,0:0:0:0:
288,160,1717,1,8,0:0:0:0:
224,224,1821,1,4,0:0:0:0:
224,224,3476,1,4,0:0:0:0:
224,160,3683,5,0,0:0:0:0:
288,160,3786,1,8,0:0:0:0:
224,160,3890,1,0,0:0:0:0:
288,160,3993,1,8,0:0:0:0:
288,160,4045,1,8,0:0:0:0:
224,160,4097,1,0,0:0:0:0:
288,160,4200,1,8,0:0:0:0:
224,160,4303,1,0,0:0:0:0:
224,160,4510,1,0,0:0:0:0:
288,160,4614,1,8,0:0:0:0:
288,160,4717,1,8,0:0:0:0:
224,160,4821,1,0,0:0:0:0:
288,160,4924,1,8,0:0:0:0:
288,160,4976,1,8,0:0:0:0:
288,160,5028,1,8,0:0:0:0:
224,160,5131,1,0,0:0:0:0:
224,160,5338,1,0,0:0:0:0:
288,160,5441,1,8,0:0:0:0:
224,160,5545,1,0,0:0:0:0:
224,160,5597,1,0,0:0:0:0:
288,160,5648,1,8,0:0:0:0:
224,160,5752,1,0,0:0:0:0:
224,160,5855,1,0,0:0:0:0:
288,160,5959,1,8,0:0:0:0:
224,160,6166,1,0,0:0:0:0:
288,160,6269,1,8,0:0:0:0:
288,160,6372,1,8,0:0:0:0:
224,160,6476,1,0,0:0:0:0:
288,160,6579,1,8,0:0:0:0:
224,160,6683,1,0,0:0:0:0:
288,160,6786,1,8,0:0:0:0:
224,160,6890,1,0,0:0:0:0:
224,160,6941,1,0,0:0:0:0:
224,160,6993,1,0,0:0:0:0:
288,160,7097,1,8,0:0:0:0:
224,160,7303,1,0,0:0:0:0:
288,160,7407,1,8,0:0:0:0:
224,160,7510,1,0,0:0:0:0:
224,160,7562,1,0,0:0:0:0:
224,160,7614,1,0,0:0:0:0:
224,160,7666,1,0,0:0:0:0:
288,160,7717,1,8,0:0:0:0:
224,160,7821,1,0,0:0:0:0:
288,160,7924,1,8,0:0:0:0:
224,160,8028,1,0,0:0:0:0:
288,160,8234,1,8,0:0:0:0:
288,160,8338,1,8,0:0:0:0:
224,224,8441,1,4,0:0:0:0:
224,160,8648,1,0,0:0:0:0:
288,160,8752,1,8,0:0:0:0:
224,160,8855,1,0,0:0:0:0:
224,160,8907,1,0,0:0:0:0:
288,160,8959,1,8,0:0:0:0:
224,160,9062,1,0,0:0:0:0:
224,160,9166,1,0,0:0:0:0:
288,160,9269,1,8,0:0:0:0:
224,160,9476,1,0,0:0:0:0:
288,160,9579,1,8,0:0:0:0:
224,160,9683,1,0,0:0:0:0:
224,160,9786,1,0,0:0:0:0:
288,160,9890,1,8,0:0:0:0:
288,160,9993,1,8,0:0:0:0:
224,160,10097,1,0,0:0:0:0:
224,160,10303,5,0,0:0:0:0:
288,160,10407,1,8,0:0:0:0:
224,160,10510,1,0,0:0:0:0:
288,160,10614,1,8,0:0:0:0:
288,160,10666,1,8,0:0:0:0:
224,160,10717,1,0,0:0:0:0:
288,160,10821,1,8,0:0:0:0:
224,160,10924,1,0,0:0:0:0:
224,160,11131,1,0,0:0:0:0:
288,160,11234,1,8,0:0:0:0:
288,160,11338,1,8,0:0:0:0:
224,160,11441,1,0,0:0:0:0:
288,160,11545,1,8,0:0:0:0:
288,160,11597,1,8,0:0:0:0:
288,160,11648,1,8,0:0:0:0:
224,160,11752,1,0,0:0:0:0:
224,160,11959,1,0,0:0:0:0:
288,160,12062,1,8,0:0:0:0:
224,160,12166,1,0,0:0:0:0:
224,160,12217,1,0,0:0:0:0:
288,160,12269,1,8,0:0:0:0:
224,160,12372,1,0,0:0:0:0:
224,160,12476,1,0,0:0:0:0:
288,160,12579,1,8,0:0:0:0:
224,160,12786,1,0,0:0:0:0:
288,160,12890,1,8,0:0:0:0:
224,160,12993,1,0,0:0:0:0:
224,160,13097,1,0,0:0:0:0:
288,160,13200,1,8,0:0:0:0:
224,160,13303,1,0,0:0:0:0:
288,160,13407,1,8,0:0:0:0:
288,160,13510,1,8,0:0:0:0:
288,160,13614,1,8,0:0:0:0:
224,160,13717,1,0,0:0:0:0:
224,160,13924,1,0,0:0:0:0:
288,160,14028,1,8,0:0:0:0:
288,160,14131,1,8,0:0:0:0:
288,160,14234,1,8,0:0:0:0:
224,160,14338,1,0,0:0:0:0:
224,160,14545,1,0,0:0:0:0:
288,160,14648,1,8,0:0:0:0:
224,160,14752,1,0,0:0:0:0:
224,160,14803,1,0,0:0:0:0:
288,160,14855,1,8,0:0:0:0:
288,160,14959,1,8,0:0:0:0:
224,224,15062,1,4,0:0:0:0:
224,160,15269,1,0,0:0:0:0:
288,160,15372,1,8,0:0:0:0:
224,160,15476,1,0,0:0:0:0:
224,160,15528,1,0,0:0:0:0:
288,160,15579,1,8,0:0:0:0:
224,160,15683,1,0,0:0:0:0:
224,160,15786,1,0,0:0:0:0:
288,160,15890,1,8,0:0:0:0:
224,160,16097,1,0,0:0:0:0:
288,160,16200,1,8,0:0:0:0:
288,160,16303,1,8,0:0:0:0:
224,160,16407,1,0,0:0:0:0:
288,160,16510,1,8,0:0:0:0:
288,160,16614,1,8,0:0:0:0:
224,160,16717,1,0,0:0:0:0:
224,160,16924,5,0,0:0:0:0:
288,160,17028,1,8,0:0:0:0:
224,160,17131,1,0,0:0:0:0:
288,160,17234,1,8,0:0:0:0:
288,160,17286,1,8,0:0:0:0:
224,160,17338,1,0,0:0:0:0:
288,160,17441,1,8,0:0:0:0:
224,160,17545,1,0,0:0:0:0:
224,160,17752,1,0,0:0:0:0:
288,160,17855,1,8,0:0:0:0:
288,160,17959,1,8,0:0:0:0:
224,160,18062,1,0,0:0:0:0:
288,160,18166,1,8,0:0:0:0:
288,160,18217,1,8,0:0:0:0:
288,160,18269,1,8,0:0:0:0:
224,160,18372,1,0,0:0:0:0:
224,160,18579,1,0,0:0:0:0:
288,160,18683,1,8,0:0:0:0:
224,160,18786,1,0,0:0:0:0:
224,160,18838,1,0,0:0:0:0:
288,160,18890,1,8,0:0:0:0:
224,160,18993,1,0,0:0:0:0:
224,160,19097,1,0,0:0:0:0:
288,160,19200,1,8,0:0:0:0:
288,160,19303,1,8,0:0:0:0:
224,160,19407,1,0,0:0:0:0:
288,160,19510,1,8,0:0:0:0:
288,160,19614,1,8,0:0:0:0:
224,160,19717,1,0,0:0:0:0:
224,160,19769,1,0,0:0:0:0:
288,160,19821,1,8,0:0:0:0:
224,160,20028,1,0,0:0:0:0:
224,160,20079,1,0,0:0:0:0:
224,160,20131,1,0,0:0:0:0:
224,160,20234,1,0,0:0:0:0:
288,160,20338,1,8,0:0:0:0:
288,160,20390,1,8,0:0:0:0:
288,160,20441,1,8,0:0:0:0:
288,160,20545,1,8,0:0:0:0:
224,160,20648,1,0,0:0:0:0:
288,160,20855,1,8,0:0:0:0:
288,160,20907,1,8,0:0:0:0:
288,160,20959,1,8,0:0:0:0:
288,160,21062,1,8,0:0:0:0:
224,160,21166,1,0,0:0:0:0:
224,160,21217,1,0,0:0:0:0:
224,160,21269,1,0,0:0:0:0:
224,160,21372,1,0,0:0:0:0:
288,160,21476,1,8,0:0:0:0:
224,160,21683,1,0,0:0:0:0:
224,160,21786,1,0,0:0:0:0:
224,160,21889,1,0,0:0:0:0:
224,160,21993,1,0,0:0:0:0:
288,224,22096,1,12,0:0:0:0:
224,160,23958,1,0,0:0:0:0:
224,160,24062,1,0,0:0:0:0:
224,160,24165,1,0,0:0:0:0:
224,160,24269,1,0,0:0:0:0:
224,160,24372,1,0,0:0:0:0:
224,160,24476,1,0,0:0:0:0:
224,160,24579,1,0,0:0:0:0:
224,160,24682,1,0,0:0:0:0:
288,224,24786,1,12,0:0:0:0:
224,224,25200,1,4,0:0:0:0:
288,160,25406,1,8,0:0:0:0:
224,160,25510,1,0,0:0:0:0:
288,160,25613,1,8,0:0:0:0:
288,160,25717,1,8,0:0:0:0:
224,160,25820,1,0,0:0:0:0:
288,160,25924,1,8,0:0:0:0:
224,160,26027,1,0,0:0:0:0:
288,160,26234,1,8,0:0:0:0:
288,160,26337,1,8,0:0:0:0:
224,160,26441,1,0,0:0:0:0:
224,160,26544,1,0,0:0:0:0:
288,160,26648,1,8,0:0:0:0:
224,160,26751,1,0,0:0:0:0:
288,160,26855,1,8,0:0:0:0:
288,160,26958,1,8,0:0:0:0:
224,160,27062,1,0,0:0:0:0:
288,160,27268,1,8,0:0:0:0:
224,160,27372,1,0,0:0:0:0:
288,160,27475,1,8,0:0:0:0:
224,160,27579,1,0,0:0:0:0:
224,160,27630,1,0,0:0:0:0:
288,160,27682,1,8,0:0:0:0:
224,160,27786,1,0,0:0:0:0:
288,160,27889,1,8,0:0:0:0:
288,160,27941,1,8,0:0:0:0:
224,160,27993,1,0,0:0:0:0:
288,160,28096,1,8,0:0:0:0:
224,160,28199,1,0,0:0:0:0:
288,160,28303,1,8,0:0:0:0:
224,160,28406,1,0,0:0:0:0:
288,160,28510,1,8,0:0:0:0:
224,224,28717,1,4,0:0:0:0:
288,160,28923,1,8,0:0:0:0:
224,160,29027,1,0,0:0:0:0:
288,160,29130,1,8,0:0:0:0:
288,160,29234,1,8,0:0:0:0:
224,160,29337,1,0,0:0:0:0:
288,160,29441,1,8,0:0:0:0:
224,160,29544,1,0,0:0:0:0:
224,160,29751,1,0,0:0:0:0:
224,160,29854,1,8,0:0:0:0:
224,160,29958,1,0,0:0:0:0:
224,160,30061,1,0,0:0:0:0:
224,160,30165,1,8,0:0:0:0:
224,160,30268,1,0,0:0:0:0:
288,160,30372,1,8,0:0:0:0:
288,160,30475,1,8,0:0:0:0:
224,160,30579,1,0,0:0:0:0:
288,160,30785,1,8,0:0:0:0:
288,160,30889,1,8,0:0:0:0:
224,160,30992,1,0,0:0:0:0:
288,160,31096,1,8,0:0:0:0:
224,160,31199,1,0,0:0:0:0:
224,160,31406,1,0,0:0:0:0:
288,160,31510,1,8,0:0:0:0:
224,160,31613,1,0,0:0:0:0:
224,160,31665,1,0,0:0:0:0:
288,160,31716,1,8,0:0:0:0:
224,160,31820,1,0,0:0:0:0:
288,160,31923,1,8,0:0:0:0:
288,160,32027,1,8,0:0:0:0:
288,160,32130,1,8,0:0:0:0:
224,224,32234,1,4,0:0:0:0:
288,160,32440,1,8,0:0:0:0:
224,160,32544,1,0,0:0:0:0:
288,160,32647,1,8,0:0:0:0:
288,160,32751,1,8,0:0:0:0:
224,160,32854,1,0,0:0:0:0:
288,160,32958,1,8,0:0:0:0:
224,160,33061,1,0,0:0:0:0:
288,160,33268,1,8,0:0:0:0:
288,160,33371,1,8,0:0:0:0:
224,160,33475,1,0,0:0:0:0:
224,160,33578,1,0,0:0:0:0:
288,160,33682,1,8,0:0:0:0:
224,160,33785,1,0,0:0:0:0:
288,160,33889,1,8,0:0:0:0:
288,160,33992,1,8,0:0:0:0:
224,160,34096,1,0,0:0:0:0:
288,160,34302,1,8,0:0:0:0:
224,160,34406,1,0,0:0:0:0:
288,160,34509,1,8,0:0:0:0:
288,160,34613,1,8,0:0:0:0:
224,160,34716,1,0,0:0:0:0:
224,160,34923,1,0,0:0:0:0:
288,160,35027,1,8,0:0:0:0:
224,160,35130,1,0,0:0:0:0:
224,160,35233,1,0,0:0:0:0:
288,160,35337,1,8,0:0:0:0:
224,160,35440,1,0,0:0:0:0:
288,160,35544,1,8,0:0:0:0:
288,160,35647,1,8,0:0:0:0:
224,224,35751,1,4,0:0:0:0:
224,160,35957,1,0,0:0:0:0:
288,160,36061,1,8,0:0:0:0:
224,160,36164,1,0,0:0:0:0:
224,160,36216,1,0,0:0:0:0:
288,160,36268,1,8,0:0:0:0:
224,160,36371,1,0,0:0:0:0:
224,160,36475,1,0,0:0:0:0:
288,160,36578,1,8,0:0:0:0:
224,160,36785,1,0,0:0:0:0:
288,160,36888,1,8,0:0:0:0:
224,160,36992,1,0,0:0:0:0:
224,160,37095,1,0,0:0:0:0:
288,160,37199,1,8,0:0:0:0:
288,160,37302,1,8,0:0:0:0:
224,160,37406,1,0,0:0:0:0:
224,160,37613,1,0,0:0:0:0:
288,160,37716,1,8,0:0:0:0:
224,160,37819,1,0,0:0:0:0:
288,160,37923,1,8,0:0:0:0:
288,160,37975,1,8,0:0:0:0:
224,160,38026,1,0,0:0:0:0:
288,160,38130,1,8,0:0:0:0:
224,160,38233,1,0,0:0:0:0:
224,160,38440,1,0,0:0:0:0:
288,160,38544,1,8,0:0:0:0:
288,160,38647,1,8,0:0:0:0:
224,160,38751,1,0,0:0:0:0:
288,160,38854,1,8,0:0:0:0:
288,160,38906,1,8,0:0:0:0:
288,160,38957,1,8,0:0:0:0:
224,160,39061,1,0,0:0:0:0:
224,160,39268,1,0,0:0:0:0:
288,160,39371,1,8,0:0:0:0:
224,160,39475,1,0,0:0:0:0:
224,160,39526,1,0,0:0:0:0:
288,160,39578,1,8,0:0:0:0:
224,160,39682,1,0,0:0:0:0:
224,160,39785,1,0,0:0:0:0:
288,160,39888,1,8,0:0:0:0:
224,160,40095,1,0,0:0:0:0:
288,160,40199,1,8,0:0:0:0:
288,160,40302,1,8,0:0:0:0:
224,160,40406,1,0,0:0:0:0:
288,160,40509,1,8,0:0:0:0:
224,160,40613,1,0,0:0:0:0:
288,160,40716,1,8,0:0:0:0:
224,160,40819,1,0,0:0:0:0:
224,160,40871,1,0,0:0:0:0:
224,160,40923,1,0,0:0:0:0:
288,160,41026,1,8,0:0:0:0:
224,160,41233,1,0,0:0:0:0:
288,160,41337,1,8,0:0:0:0:
224,160,41440,1,0,0:0:0:0:
224,160,41492,1,0,0:0:0:0:
224,160,41544,1,0,0:0:0:0:
224,160,41595,1,0,0:0:0:0:
288,160,41647,1,8,0:0:0:0:
224,160,41751,1,0,0:0:0:0:
288,160,41854,1,8,0:0:0:0:
288,160,41957,1,8,0:0:0:0:
288,160,42061,1,8,0:0:0:0:
288,160,42164,1,8,0:0:0:0:
288,160,42268,1,8,0:0:0:0:
224,224,42371,1,4,0:0:0:0:
224,160,42578,1,0,0:0:0:0:
288,160,42682,1,8,0:0:0:0:
224,160,42785,1,0,0:0:0:0:
224,160,42837,1,0,0:0:0:0:
288,160,42888,1,8,0:0:0:0:
224,160,42992,1,0,0:0:0:0:
288,160,43095,1,8,0:0:0:0:
224,160,43199,1,0,0:0:0:0:
288,160,43406,1,8,0:0:0:0:
224,160,43509,1,0,0:0:0:0:
288,160,43613,1,8,0:0:0:0:
224,160,43716,1,0,0:0:0:0:
224,160,43768,1,0,0:0:0:0:
288,160,43819,1,8,0:0:0:0:
288,160,43923,1,8,0:0:0:0:
224,160,44026,1,0,0:0:0:0:
224,160,44233,1,0,0:0:0:0:
288,160,44337,1,8,0:0:0:0:
224,160,44440,1,0,0:0:0:0:
224,160,44492,1,0,0:0:0:0:
288,160,44544,1,8,0:0:0:0:
224,160,44647,1,0,0:0:0:0:
288,160,44751,1,8,0:0:0:0:
288,160,44854,1,8,0:0:0:0:
224,160,45061,1,0,0:0:0:0:
288,160,45164,1,8,0:0:0:0:
224,160,45268,1,0,0:0:0:0:
224,160,45319,1,0,0:0:0:0:
224,160,45371,1,0,0:0:0:0:
224,160,45423,1,0,0:0:0:0:
288,160,45475,1,8,0:0:0:0:
288,160,45578,1,8,0:0:0:0:
224,160,45682,1,0,0:0:0:0:
224,160,45888,1,0,0:0:0:0:
288,160,45992,1,8,0:0:0:0:
224,160,46095,1,0,0:0:0:0:
224,160,46147,1,0,0:0:0:0:
288,160,46199,1,8,0:0:0:0:
224,160,46302,1,0,0:0:0:0:
224,160,46406,1,0,0:0:0:0:
288,160,46509,1,8,0:0:0:0:
288,160,46613,1,8,0:0:0:0:
224,160,46716,1,0,0:0:0:0:
288,160,46819,1,8,0:0:0:0:
288,160,46923,1,8,0:0:0:0:
224,160,47026,1,0,0:0:0:0:
224,160,47078,1,0,0:0:0:0:
288,160,47130,1,8,0:0:0:0:
224,224,47337,1,4,0:0:0:0:
224,160,47544,1,0,0:0:0:0:
288,224,47647,1,12,0:0:0:0:
288,160,47854,1,8,0:0:0:0:
224,224,47957,1,4,0:0:0:0:
288,160,48164,1,8,0:0:0:0:
224,160,48268,1,0,0:0:0:0:
224,160,48319,1,0,0:0:0:0:
224,160,48371,1,0,0:0:0:0:
288,160,48475,1,8,0:0:0:0:
224,160,48578,1,0,0:0:0:0:
224,160,48630,1,0,0:0:0:0:
224,160,48682,1,0,0:0:0:0:
288,160,48785,1,8,0:0:0:0:
288,160,48992,1,8,0:0:0:0:
288,160,49199,1,8,0:0:0:0:
224,160,49302,1,0,0:0:0:0:
224,160,49354,1,0,0:0:0:0:
288,160,49406,1,8,0:0:0:0:
224,160,49509,1,0,0:0:0:0:
288,160,49613,1,8,0:0:0:0:
288,160,49819,1,8,0:0:0:0:
224,160,49923,1,0,0:0:0:0:
288,160,50026,1,8,0:0:0:0:
224,160,50130,1,0,0:0:0:0:
224,160,50182,1,0,0:0:0:0:
288,160,50233,1,8,0:0:0:0:
224,160,50337,1,0,0:0:0:0:
288,160,50440,1,8,0:0:0:0:
288,160,50647,1,8,0:0:0:0:
288,160,50751,1,8,0:0:0:0:
224,160,50854,1,0,0:0:0:0:
224,160,50957,1,0,0:0:0:0:
288,160,51061,1,8,0:0:0:0:
288,160,51164,1,8,0:0:0:0:
288,160,51268,1,8,0:0:0:0:
288,160,51371,1,8,0:0:0:0:
224,160,51475,1,0,0:0:0:0:
288,160,51682,1,8,0:0:0:0:
224,160,51785,1,0,0:0:0:0:
288,160,51888,1,8,0:0:0:0:
288,160,51992,1,8,0:0:0:0:
224,160,52095,1,0,0:0:0:0:
224,160,52199,1,0,0:0:0:0:
288,160,52302,1,8,0:0:0:0:
288,160,52509,1,8,0:0:0:0:
224,160,52613,1,0,0:0:0:0:
224,160,52664,1,0,0:0:0:0:
288,160,52716,1,8,0:0:0:0:
224,160,52819,1,0,0:0:0:0:
288,160,52923,1,8,0:0:0:0:
288,160,53130,1,8,0:0:0:0:
224,160,53233,1,0,0:0:0:0:
288,160,53337,1,8,0:0:0:0:
224,160,53440,1,0,0:0:0:0:
224,160,53492,1,0,0:0:0:0:
288,160,53544,1,8,0:0:0:0:
224,160,53647,1,0,0:0:0:0:
288,160,53751,1,8,0:0:0:0:
288,160,53957,1,8,0:0:0:0:
288,160,54061,1,8,0:0:0:0:
288,160,54268,1,8,0:0:0:0:
288,160,54371,1,8,0:0:0:0:
288,160,54578,1,8,0:0:0:0:
288,160,54682,1,8,0:0:0:0:
288,160,54888,1,8,0:0:0:0:
288,160,54992,1,8,0:0:0:0:
288,160,55199,1,8,0:0:0:0:
288,160,55302,1,8,0:0:0:0:
288,160,55406,1,8,0:0:0:0:
288,160,55509,1,8,0:0:0:0:
288,160,55613,1,8,0:0:0:0:
288,160,55819,1,8,0:0:0:0:
224,160,55923,1,0,0:0:0:0:
224,160,55975,1,0,0:0:0:0:
288,160,56026,1,8,0:0:0:0:
224,160,56130,1,0,0:0:0:0:
288,160,56233,1,8,0:0:0:0:
288,160,56440,1,8,0:0:0:0:
224,160,56544,1,0,0:0:0:0:
288,160,56647,1,8,0:0:0:0:
224,160,56751,1,0,0:0:0:0:
224,160,56802,1,0,0:0:0:0:
288,160,56854,1,8,0:0:0:0:
224,160,56957,1,0,0:0:0:0:
288,160,57061,1,8,0:0:0:0:
288,160,57268,1,8,0:0:0:0:
288,160,57371,1,8,0:0:0:0:
224,160,57475,1,0,0:0:0:0:
224,160,57578,1,0,0:0:0:0:
288,160,57682,1,8,0:0:0:0:
288,160,57785,1,8,0:0:0:0:
288,160,57888,1,8,0:0:0:0:
288,160,57992,1,8,0:0:0:0:
224,160,58095,1,0,0:0:0:0:
288,160,58302,1,8,0:0:0:0:
224,160,58406,1,0,0:0:0:0:
288,160,58509,1,8,0:0:0:0:
288,160,58613,1,8,0:0:0:0:
224,160,58716,1,0,0:0:0:0:
224,160,58819,1,0,0:0:0:0:
288,160,58923,1,8,0:0:0:0:
224,160,59130,1,0,0:0:0:0:
224,160,59233,1,0,0:0:0:0:
288,160,59337,1,8,0:0:0:0:
288,160,59440,1,8,0:0:0:0:
224,160,59544,1,0,0:0:0:0:
224,160,59647,1,0,0:0:0:0:
288,160,59751,1,8,0:0:0:0:
288,160,59802,1,8,0:0:0:0:
224,160,59854,1,0,0:0:0:0:
288,160,59957,1,8,0:0:0:0:
224,160,60061,1,0,0:0:0:0:
224,160,60113,1,0,0:0:0:0:
288,160,60164,1,8,0:0:0:0:
224,160,60268,1,0,0:0:0:0:
288,160,60371,1,8,0:0:0:0:
288,160,60475,1,8,0:0:0:0:
224,160,60578,1,0,0:0:0:0:
288,160,60785,1,8,0:0:0:0:
224,160,60888,1,0,0:0:0:0:
224,160,60940,1,0,0:0:0:0:
288,160,60992,1,8,0:0:0:0:
224,160,61095,1,0,0:0:0:0:
288,160,61199,1,8,0:0:0:0:
224,160,61302,1,0,0:0:0:0:
288,160,61406,1,8,0:0:0:0:
224,160,61509,1,0,0:0:0:0:
224,160,61561,1,0,0:0:0:0:
224,160,61613,1,0,0:0:0:0:
288,160,61716,1,8,0:0:0:0:
224,160,61819,1,0,0:0:0:0:
224,160,61871,1,0,0:0:0:0:
224,160,61923,1,0,0:0:0:0:
224,160,61975,1,0,0:0:0:0:
288,160,62026,1,8,0:0:0:0:
224,224,62233,1,4,0:0:0:0:
224,160,62440,1,0,0:0:0:0:
288,160,62647,1,8,0:0:0:0:
288,160,62699,1,8,0:0:0:0:
288,160,62751,1,8,0:0:0:0:
224,160,62854,1,0,0:0:0:0:
224,160,62957,1,0,0:0:0:0:
288,224,63061,1,12,0:0:0:0:
288,160,63268,1,8,0:0:0:0:
224,160,63475,1,0,0:0:0:0:
224,160,63526,1,0,0:0:0:0:
224,160,63578,1,0,0:0:0:0:
288,160,63682,1,8,0:0:0:0:
288,160,63785,1,8,0:0:0:0:
224,224,63888,1,4,0:0:0:0:
224,160,64095,1,0,0:0:0:0:
288,160,64302,1,8,0:0:0:0:
288,160,64354,1,8,0:0:0:0:
288,160,64406,1,8,0:0:0:0:
224,160,64509,1,0,0:0:0:0:
224,160,64613,1,0,0:0:0:0:
288,224,64716,1,12,0:0:0:0:
224,160,64923,1,0,0:0:0:0:
288,160,65130,1,8,0:0:0:0:
224,160,65233,1,0,0:0:0:0:
288,160,65337,1,8,0:0:0:0:
224,224,65544,1,4,0:0:0:0:
224,160,65751,1,0,0:0:0:0:
288,160,65957,1,8,0:0:0:0:
288,160,66009,1,8,0:0:0:0:
224,160,66061,1,0,0:0:0:0:
288,160,66164,1,8,0:0:0:0:
224,160,66268,1,0,0:0:0:0:
288,224,66371,1,12,0:0:0:0:
288,160,66578,1,8,0:0:0:0:
224,160,66785,1,0,0:0:0:0:
224,160,66837,1,0,0:0:0:0:
288,160,66888,1,8,0:0:0:0:
224,160,66992,1,0,0:0:0:0:
288,160,67095,1,8,0:0:0:0:
224,224,67199,1,4,0:0:0:0:
288,160,67406,1,8,0:0:0:0:
288,160,67613,1,8,0:0:0:0:
288,160,67664,1,8,0:0:0:0:
224,160,67716,1,0,0:0:0:0:
288,160,67819,1,8,0:0:0:0:
224,160,67923,1,0,0:0:0:0:
288,224,68026,1,12,0:0:0:0:
288,160,68233,1,8,0:0:0:0:
224,160,68337,1,0,0:0:0:0:
288,160,68440,1,8,0:0:0:0:
288,160,68492,1,8,0:0:0:0:
224,160,68544,1,0,0:0:0:0:
224,160,68595,1,0,0:0:0:0:
288,160,68647,1,8,0:0:0:0:
224,224,68854,1,4,0:0:0:0:
224,160,69061,1,0,0:0:0:0:
288,160,69268,1,8,0:0:0:0:
224,160,69319,1,0,0:0:0:0:
288,160,69371,1,8,0:0:0:0:
224,160,69475,1,0,0:0:0:0:
224,160,69578,1,0,0:0:0:0:
288,224,69682,1,12,0:0:0:0:
288,160,69888,1,8,0:0:0:0:
224,160,70095,1,0,0:0:0:0:
288,160,70147,1,8,0:0:0:0:
224,160,70199,1,0,0:0:0:0:
288,160,70302,1,8,0:0:0:0:
288,160,70406,1,8,0:0:0:0:
224,224,70509,1,4,0:0:0:0:
224,160,70716,1,0,0:0:0:0:
288,160,70923,1,8,0:0:0:0:
224,160,70975,1,0,0:0:0:0:
288,160,71026,1,8,0:0:0:0:
224,160,71130,1,0,0:0:0:0:
224,160,71233,1,0,0:0:0:0:
288,224,71337,1,12,0:0:0:0:
224,160,71544,1,0,0:0:0:0:
288,160,71751,1,8,0:0:0:0:
224,160,71854,1,0,0:0:0:0:
288,160,71957,1,8,0:0:0:0:
224,224,72164,1,4,0:0:0:0:
224,160,72371,1,0,0:0:0:0:
288,160,72578,1,8,0:0:0:0:
224,160,72630,1,0,0:0:0:0:
224,160,72682,1,0,0:0:0:0:
288,160,72785,1,8,0:0:0:0:
224,160,72888,1,0,0:0:0:0:
288,224,72992,1,12,0:0:0:0:
288,160,73199,1,8,0:0:0:0:
224,160,73406,1,0,0:0:0:0:
288,160,73457,1,8,0:0:0:0:
288,160,73509,1,8,0:0:0:0:
224,160,73613,1,0,0:0:0:0:
288,160,73716,1,8,0:0:0:0:
224,224,73819,1,4,0:0:0:0:
288,160,74026,1,8,0:0:0:0:
288,160,74233,1,8,0:0:0:0:
224,160,74285,1,0,0:0:0:0:
224,160,74337,1,0,0:0:0:0:
288,160,74440,1,8,0:0:0:0:
224,160,74544,1,0,0:0:0:0:
288,160,74647,1,8,0:0:0:0:
288,160,74751,1,8,0:0:0:0:
288,160,74854,1,8,0:0:0:0:
288,160,74957,1,8,0:0:0:0:
224,160,75061,1,0,0:0:0:0:
288,160,75268,1,8,0:0:0:0:
288,160,75319,1,8,0:0:0:0:
288,160,75371,1,8,0:0:0:0:
288,160,75423,1,8,0:0:0:0:
224,160,75475,1,0,0:0:0:0:
288,160,75682,5,8,0:0:0:0:
288,160,75888,1,8,0:0:0:0:
288,160,75992,1,8,0:0:0:0:
288,160,76095,1,8,0:0:0:0:
288,160,76199,1,8,0:0:0:0:
288,160,76302,1,8,0:0:0:0:
288,160,76406,1,8,0:0:0:0:
288,160,76509,1,8,0:0:0:0:
288,160,76613,1,8,0:0:0:0:
288,160,76716,1,8,0:0:0:0:
288,160,76819,1,8,0:0:0:0:
288,160,76923,1,8,0:0:0:0:
288,160,77026,1,8,0:0:0:0:
224,160,77130,1,0,0:0:0:0:
288,160,77337,1,8,0:0:0:0:
288,160,77440,1,8,0:0:0:0:
288,160,77544,1,8,0:0:0:0:
288,160,77647,1,8,0:0:0:0:
288,160,77751,1,8,0:0:0:0:
288,160,77854,1,8,0:0:0:0:
288,160,77957,1,8,0:0:0:0:
288,160,78061,1,8,0:0:0:0:
288,160,78164,1,8,0:0:0:0:
288,160,78268,1,8,0:0:0:0:
224,160,78371,1,0,0:0:0:0:
224,160,78423,1,0,0:0:0:0:
224,160,78475,1,0,0:0:0:0:
288,160,78578,1,8,0:0:0:0:
288,160,78682,1,8,0:0:0:0:
224,160,78785,1,0,0:0:0:0:
288,160,79199,1,8,0:0:0:0:
224,160,79613,1,0,0:0:0:0:
288,160,80026,1,8,0:0:0:0:
224,160,80233,1,0,0:0:0:0:
288,160,80440,1,8,0:0:0:0:
288,160,80544,1,8,0:0:0:0:
288,160,80647,1,8,0:0:0:0:
224,160,80751,1,0,0:0:0:0:
224,160,80957,1,0,0:0:0:0:
288,160,81061,1,8,0:0:0:0:
288,160,81164,1,8,0:0:0:0:
288,160,81268,1,8,0:0:0:0:
224,160,81371,1,0,0:0:0:0:
224,160,81578,1,0,0:0:0:0:
288,160,81682,1,8,0:0:0:0:
288,160,81785,1,8,0:0:0:0:
288,160,81888,1,8,0:0:0:0:
288,160,81992,1,8,0:0:0:0:
224,224,82095,1,4,0:0:0:0:
224,160,82302,1,0,0:0:0:0:
288,160,82406,1,8,0:0:0:0:
224,160,82509,1,0,0:0:0:0:
224,160,82561,1,0,0:0:0:0:
288,160,82613,1,8,0:0:0:0:
224,160,82716,1,0,0:0:0:0:
224,160,82819,1,0,0:0:0:0:
288,160,82923,1,8,0:0:0:0:
288,160,83130,1,8,0:0:0:0:
224,160,83233,1,0,0:0:0:0:
288,160,83337,1,8,0:0:0:0:
288,160,83388,1,8,0:0:0:0:
288,160,83440,1,8,0:0:0:0:
224,160,83544,1,0,0:0:0:0:
288,160,83647,1,8,0:0:0:0:
224,160,83751,1,0,0:0:0:0:
224,160,83957,1,0,0:0:0:0:
288,160,84061,1,8,0:0:0:0:
224,160,84164,1,0,0:0:0:0:
288,160,84268,1,8,0:0:0:0:
288,160,84319,1,8,0:0:0:0:
224,160,84371,1,0,0:0:0:0:
288,160,84475,1,8,0:0:0:0:
224,160,84578,1,0,0:0:0:0:
288,160,84785,1,8,0:0:0:0:
224,160,84888,1,0,0:0:0:0:
288,160,84992,1,8,0:0:0:0:
224,160,85095,1,0,0:0:0:0:
288,160,85199,1,8,0:0:0:0:
288,160,85251,1,8,0:0:0:0:
288,160,85302,1,8,0:0:0:0:
288,160,85354,1,8,0:0:0:0:
224,160,85406,1,0,0:0:0:0:
224,160,85613,1,0,0:0:0:0:
288,160,85716,1,8,0:0:0:0:
224,160,85819,1,0,0:0:0:0:
224,160,85871,1,0,0:0:0:0:
288,160,85923,1,8,0:0:0:0:
224,160,86026,1,0,0:0:0:0:
224,160,86130,1,0,0:0:0:0:
288,160,86233,1,8,0:0:0:0:
288,160,86440,1,8,0:0:0:0:
224,160,86544,1,0,0:0:0:0:
288,160,86647,1,8,0:0:0:0:
288,160,86699,1,8,0:0:0:0:
288,160,86751,1,8,0:0:0:0:
224,160,86854,1,0,0:0:0:0:
224,160,86957,1,0,0:0:0:0:
288,160,87061,1,8,0:0:0:0:
288,160,87164,1,8,0:0:0:0:
288,160,87268,1,8,0:0:0:0:
224,160,87371,1,0,0:0:0:0:
224,160,87578,1,0,0:0:0:0:
288,160,87682,1,8,0:0:0:0:
288,160,87785,1,8,0:0:0:0:
288,160,87888,1,8,0:0:0:0:
224,160,87992,1,0,0:0:0:0:
224,160,88199,1,0,0:0:0:0:
288,160,88302,1,8,0:0:0:0:
224,160,88406,1,0,0:0:0:0:
224,160,88457,1,0,0:0:0:0:
288,160,88509,1,8,0:0:0:0:
288,160,88613,1,8,0:0:0:0:
224,224,88716,1,4,0:0:0:0:
224,160,88923,1,0,0:0:0:0:
288,160,89026,1,8,0:0:0:0:
224,160,89130,1,0,0:0:0:0:
224,160,89182,1,0,0:0:0:0:
288,160,89233,1,8,0:0:0:0:
224,160,89337,1,0,0:0:0:0:
224,160,89440,1,0,0:0:0:0:
288,160,89544,1,8,0:0:0:0:
288,160,89751,1,8,0:0:0:0:
224,160,89854,1,0,0:0:0:0:
288,160,89957,1,8,0:0:0:0:
288,160,90009,1,8,0:0:0:0:
288,160,90061,1,8,0:0:0:0:
224,160,90164,1,0,0:0:0:0:
288,160,90268,1,8,0:0:0:0:
224,160,90371,1,0,0:0:0:0:
224,160,90578,1,0,0:0:0:0:
288,160,90682,1,8,0:0:0:0:
224,160,90785,1,0,0:0:0:0:
288,160,90888,1,8,0:0:0:0:
288,160,90940,1,8,0:0:0:0:
224,160,90992,1,0,0:0:0:0:
288,160,91095,1,8,0:0:0:0:
224,160,91199,1,0,0:0:0:0:
288,160,91406,1,8,0:0:0:0:
224,160,91509,1,0,0:0:0:0:
288,160,91613,1,8,0:0:0:0:
224,160,91716,1,0,0:0:0:0:
288,160,91819,1,8,0:0:0:0:
288,160,91871,1,8,0:0:0:0:
288,160,91923,1,8,0:0:0:0:
288,160,91975,1,8,0:0:0:0:
224,160,92026,1,0,0:0:0:0:
224,160,92233,1,0,0:0:0:0:
288,160,92337,1,8,0:0:0:0:
224,160,92440,1,0,0:0:0:0:
224,160,92492,1,0,0:0:0:0:
288,160,92544,1,8,0:0:0:0:
224,160,92647,1,0,0:0:0:0:
224,160,92751,1,0,0:0:0:0:
288,160,92854,1,8,0:0:0:0:
288,160,92957,1,8,0:0:0:0:
224,160,93061,1,0,0:0:0:0:
288,160,93164,1,8,0:0:0:0:
288,160,93268,1,8,0:0:0:0:
224,160,93371,1,0,0:0:0:0:
224,160,93423,1,0,0:0:0:0:
288,160,93475,1,8,0:0:0:0:
224,160,93682,1,0,0:0:0:0:
224,160,93733,1,0,0:0:0:0:
224,160,93785,1,0,0:0:0:0:
224,160,93888,1,0,0:0:0:0:
288,160,93992,1,8,0:0:0:0:
288,160,94044,1,8,0:0:0:0:
288,160,94095,1,8,0:0:0:0:
288,160,94199,1,8,0:0:0:0:
224,160,94302,1,0,0:0:0:0:
288,160,94509,1,8,0:0:0:0:
288,160,94561,1,8,0:0:0:0:
288,160,94613,1,8,0:0:0:0:
288,160,94716,1,8,0:0:0:0:
224,160,94819,1,0,0:0:0:0:
224,160,94871,1,0,0:0:0:0:
224,160,94923,1,0,0:0:0:0:
224,160,95026,1,0,0:0:0:0:
288,160,95130,1,8,0:0:0:0:
224,160,95337,1,0,0:0:0:0:
224,160,95440,1,0,0:0:0:0:
224,160,95543,1,0,0:0:0:0:
224,160,95647,1,0,0:0:0:0:
288,160,95750,1,8,0:0:0:0:
224,160,95957,1,0,0:0:0:0:
288,160,96061,1,8,0:0:0:0:
224,160,96164,1,0,0:0:0:0:
224,160,96268,1,0,0:0:0:0:
288,160,96371,1,8,0:0:0:0:
224,160,96578,1,0,0:0:0:0:
224,160,96681,1,0,0:0:0:0:
288,160,96785,1,8,0:0:0:0:
224,160,96888,1,0,0:0:0:0:
288,160,96992,1,8,0:0:0:0:
224,160,97199,1,0,0:0:0:0:
288,160,97405,1,8,0:0:0:0:
288,160,97509,1,8,0:0:0:0:
224,160,97612,1,0,0:0:0:0:
288,160,97716,1,8,0:0:0:0:
224,160,97819,1,0,0:0:0:0:
224,160,98026,1,0,0:0:0:0:
224,160,98130,1,0,0:0:0:0:
288,160,98233,1,8,0:0:0:0:
224,160,98336,1,0,0:0:0:0:
288,160,98440,1,8,0:0:0:0:
224,160,98543,1,0,0:0:0:0:
288,160,98647,1,8,0:0:0:0:
224,160,98854,1,0,0:0:0:0:
224,160,98957,1,0,0:0:0:0:
224,160,99060,1,0,0:0:0:0:
224,160,99164,1,0,0:0:0:0:
288,160,99267,1,8,0:0:0:0:
224,160,99474,1,0,0:0:0:0:
288,160,99578,1,8,0:0:0:0:
224,160,99681,1,0,0:0:0:0:
224,160,99785,1,0,0:0:0:0:
288,160,99888,1,8,0:0:0:0:
224,160,100095,1,0,0:0:0:0:
224,160,100198,1,0,0:0:0:0:
288,160,100302,1,8,0:0:0:0:
224,160,100405,1,0,0:0:0:0:
288,160,100509,1,8,0:0:0:0:
288,160,100612,1,8,0:0:0:0:
224,160,100716,1,0,0:0:0:0:
288,160,100922,1,8,0:0:0:0:
224,160,101026,1,0,0:0:0:0:
288,160,101129,1,8,0:0:0:0:
288,160,101233,1,8,0:0:0:0:
224,160,101336,1,0,0:0:0:0:
288,160,101543,1,8,0:0:0:0:
224,160,101647,1,0,0:0:0:0:
288,160,101750,1,8,0:0:0:0:
288,160,101853,1,8,0:0:0:0:
224,160,101957,1,0,0:0:0:0:
224,160,102060,1,0,0:0:0:0:
288,160,102164,1,8,0:0:0:0:
224,160,102371,1,0,0:0:0:0:
224,160,102474,1,0,0:0:0:0:
288,160,102577,1,8,0:0:0:0:
224,160,102681,1,0,0:0:0:0:
288,160,102784,1,8,0:0:0:0:
288,160,102888,1,8,0:0:0:0:
224,160,102991,1,0,0:0:0:0:
288,160,103095,1,8,0:0:0:0:
224,160,103198,1,0,0:0:0:0:
288,160,103405,1,8,0:0:0:0:
288,160,103508,1,8,0:0:0:0:
224,160,103612,1,0,0:0:0:0:
288,160,103715,1,8,0:0:0:0:
224,160,103819,1,0,0:0:0:0:
224,160,103922,1,0,0:0:0:0:
288,160,104026,1,8,0:0:0:0:
288,160,104129,1,8,0:0:0:0:
224,160,104233,1,0,0:0:0:0:
288,160,104439,1,8,0:0:0:0:
224,160,104543,1,0,0:0:0:0:
288,160,104646,1,8,0:0:0:0:
224,160,104750,1,0,0:0:0:0:
224,160,104853,1,0,0:0:0:0:
288,160,104957,1,8,0:0:0:0:
224,160,105060,1,0,0:0:0:0:
288,160,105267,1,8,0:0:0:0:
224,160,105370,1,0,0:0:0:0:
288,160,105474,1,8,0:0:0:0:
224,160,105577,1,0,0:0:0:0:
288,160,105681,1,8,0:0:0:0:
224,160,105888,1,0,0:0:0:0:
288,160,105991,1,8,0:0:0:0:
288,160,106094,1,8,0:0:0:0:
224,160,106198,1,0,0:0:0:0:
288,160,106301,1,8,0:0:0:0:
288,160,106405,1,8,0:0:0:0:
224,160,106508,1,0,0:0:0:0:
288,160,106612,1,8,0:0:0:0:
224,160,106715,1,0,0:0:0:0:
288,160,106922,1,8,0:0:0:0:
224,160,107025,1,0,0:0:0:0:
224,160,107129,1,0,0:0:0:0:
288,160,107232,1,8,0:0:0:0:
224,160,107336,1,0,0:0:0:0:
224,160,107439,1,0,0:0:0:0:
288,160,107543,1,8,0:0:0:0:
288,160,107750,1,8,0:0:0:0:
288,160,107853,1,8,0:0:0:0:
288,160,107956,1,8,0:0:0:0:
288,160,108060,1,8,0:0:0:0:
224,160,108163,1,0,0:0:0:0:
224,160,108370,1,0,0:0:0:0:
224,160,108474,1,0,0:0:0:0:
224,160,108577,1,0,0:0:0:0:
224,160,108681,1,0,0:0:0:0:
224,160,108784,1,0,0:0:0:0:
224,160,108887,1,0,0:0:0:0:
288,224,108991,1,12,0:0:0:0:
288,160,109405,1,8,0:0:0:0:
288,160,109611,1,8,0:0:0:0:
224,160,109715,1,0,0:0:0:0:
224,160,109767,1,0,0:0:0:0:
288,160,109818,1,8,0:0:0:0:
224,160,109922,1,0,0:0:0:0:
288,160,110025,1,8,0:0:0:0:
288,160,110232,1,8,0:0:0:0:
224,160,110336,1,0,0:0:0:0:
288,160,110439,1,8,0:0:0:0:
224,160,110542,1,0,0:0:0:0:
224,160,110594,1,0,0:0:0:0:
288,160,110646,1,8,0:0:0:0:
224,160,110749,1,0,0:0:0:0:
288,160,110853,1,8,0:0:0:0:
288,160,111060,1,8,0:0:0:0:
288,160,111163,1,8,0:0:0:0:
224,160,111267,1,0,0:0:0:0:
224,160,111370,1,0,0:0:0:0:
288,160,111473,1,8,0:0:0:0:
288,160,111577,1,8,0:0:0:0:
288,160,111680,1,8,0:0:0:0:
288,160,111784,1,8,0:0:0:0:
224,160,111887,1,0,0:0:0:0:
224,160,111991,1,0,0:0:0:0:
288,160,112094,1,8,0:0:0:0:
224,160,112198,1,0,0:0:0:0:
288,160,112301,1,8,0:0:0:0:
288,160,112405,1,8,0:0:0:0:
224,160,112508,1,0,0:0:0:0:
224,160,112611,1,0,0:0:0:0:
288,160,112715,1,8,0:0:0:0:
288,160,112922,1,8,0:0:0:0:
224,160,113025,1,0,0:0:0:0:
224,160,113077,1,0,0:0:0:0:
288,160,113129,1,8,0:0:0:0:
224,160,113232,1,0,0:0:0:0:
288,160,113336,1,8,0:0:0:0:
288,160,113542,1,8,0:0:0:0:
224,160,113646,1,0,0:0:0:0:
288,160,113749,1,8,0:0:0:0:
224,160,113853,1,0,0:0:0:0:
224,160,113905,1,0,0:0:0:0:
288,160,113956,1,8,0:0:0:0:
224,160,114060,1,0,0:0:0:0:
288,160,114163,1,8,0:0:0:0:
288,160,114370,1,8,0:0:0:0:
288,160,114473,1,8,0:0:0:0:
288,160,114680,1,8,0:0:0:0:
288,160,114784,1,8,0:0:0:0:
288,160,114991,1,8,0:0:0:0:
288,160,115094,1,8,0:0:0:0:
288,160,115301,1,8,0:0:0:0:
288,160,115405,1,8,0:0:0:0:
288,160,115611,1,8,0:0:0:0:
288,160,115715,1,8,0:0:0:0:
288,160,115818,1,8,0:0:0:0:
288,160,115922,1,8,0:0:0:0:
224,160,116025,1,0,0:0:0:0:
224,160,116232,1,0,0:0:0:0:
288,160,116336,1,8,0:0:0:0:
224,160,116439,1,0,0:0:0:0:
224,160,116491,1,0,0:0:0:0:
288,160,116542,1,8,0:0:0:0:
224,160,116646,1,0,0:0:0:0:
224,160,116853,1,0,0:0:0:0:
288,160,116956,1,8,0:0:0:0:
224,160,117060,1,0,0:0:0:0:
288,160,117163,1,8,0:0:0:0:
288,160,117215,1,8,0:0:0:0:
224,160,117267,1,0,0:0:0:0:
288,160,117370,1,8,0:0:0:0:
224,160,117473,1,0,0:0:0:0:
288,160,117680,1,8,0:0:0:0:
288,160,117784,1,8,0:0:0:0:
224,160,117887,1,0,0:0:0:0:
224,160,117991,1,0,0:0:0:0:
288,160,118094,1,8,0:0:0:0:
288,160,118198,1,8,0:0:0:0:
288,160,118301,1,8,0:0:0:0:
288,160,118405,1,8,0:0:0:0:
224,160,118508,1,0,0:0:0:0:
224,160,118611,1,0,0:0:0:0:
288,160,118715,1,8,0:0:0:0:
224,160,118818,1,0,0:0:0:0:
288,160,118922,1,8,0:0:0:0:
288,160,118973,1,8,0:0:0:0:
288,160,119025,1,8,0:0:0:0:
288,160,119077,1,8,0:0:0:0:
224,160,119129,1,0,0:0:0:0:
224,160,119232,1,0,0:0:0:0:
288,160,119336,1,8,0:0:0:0:
288,160,119542,1,8,0:0:0:0:
288,160,119646,1,8,0:0:0:0:
288,160,119749,1,8,0:0:0:0:
288,160,119853,1,8,0:0:0:0:
288,160,119956,1,8,0:0:0:0:
288,160,120060,1,8,0:0:0:0:
224,224,120163,1,4,0:0:0:0:
288,160,120370,1,8,0:0:0:0:
288,160,120473,1,8,0:0:0:0:
288,160,120577,1,8,0:0:0:0:
288,160,120680,1,8,0:0:0:0:
288,160,120784,1,8,0:0:0:0:
288,160,120887,1,8,0:0:0:0:
224,160,120991,1,0,0:0:0:0:
288,160,121198,1,8,0:0:0:0:
224,160,121301,1,0,0:0:0:0:
288,160,121405,1,8,0:0:0:0:
288,160,121456,1,8,0:0:0:0:
224,160,121508,1,0,0:0:0:0:
288,160,121611,1,8,0:0:0:0:
224,160,121715,1,0,0:0:0:0:
288,160,121818,1,8,0:0:0:0:
288,160,121870,1,8,0:0:0:0:
288,160,121922,1,8,0:0:0:0:
288,160,121973,1,8,0:0:0:0:
224,160,122025,1,0,0:0:0:0:
224,160,122129,1,0,0:0:0:0:
288,224,122232,1,12,0:0:0:0:
224,224,122646,1,4,0:0:0:0:
224,160,122853,1,0,0:0:0:0:
288,160,123060,1,8,0:0:0:0:
288,160,123111,1,8,0:0:0:0:
288,160,123163,1,8,0:0:0:0:
224,160,123267,1,0,0:0:0:0:
224,160,123370,1,0,0:0:0:0:
288,224,123473,1,12,0:0:0:0:
288,160,123680,1,8,0:0:0:0:
224,160,123887,1,0,0:0:0:0:
224,160,123939,1,0,0:0:0:0:
224,160,123991,1,0,0:0:0:0:
288,160,124094,1,8,0:0:0:0:
288,160,124198,1,8,0:0:0:0:
224,224,124301,1,4,0:0:0:0:
224,160,124508,1,0,0:0:0:0:
288,160,124715,1,8,0:0:0:0:
288,160,124767,1,8,0:0:0:0:
288,160,124818,1,8,0:0:0:0:
224,160,124922,1,0,0:0:0:0:
224,160,125025,1,0,0:0:0:0:
288,224,125129,1,12,0:0:0:0:
224,160,125336,1,0,0:0:0:0:
288,160,125542,1,8,0:0:0:0:
224,160,125646,1,0,0:0:0:0:
288,160,125749,1,8,0:0:0:0:
224,224,125956,1,4,0:0:0:0:
224,160,126163,1,0,0:0:0:0:
288,160,126370,1,8,0:0:0:0:
288,160,126422,1,8,0:0:0:0:
224,160,126473,1,0,0:0:0:0:
288,160,126577,1,8,0:0:0:0:
224,160,126680,1,0,0:0:0:0:
288,224,126784,1,12,0:0:0:0:
288,160,126991,1,8,0:0:0:0:
224,160,127198,1,0,0:0:0:0:
224,160,127249,1,0,0:0:0:0:
288,160,127301,1,8,0:0:0:0:
224,160,127405,1,0,0:0:0:0:
288,160,127508,1,8,0:0:0:0:
224,224,127611,1,4,0:0:0:0:
224,160,127818,1,0,0:0:0:0:
288,160,128025,1,8,0:0:0:0:
288,160,128077,1,8,0:0:0:0:
224,160,128129,1,0,0:0:0:0:
288,160,128232,1,8,0:0:0:0:
224,160,128336,1,0,0:0:0:0:
288,224,128439,1,12,0:0:0:0:
288,160,128646,1,8,0:0:0:0:
288,160,128749,1,8,0:0:0:0:
224,160,128853,1,0,0:0:0:0:
224,160,128956,1,0,0:0:0:0:
288,160,129060,1,8,0:0:0:0:
224,224,129267,1,4,0:0:0:0:
224,160,129473,1,0,0:0:0:0:
288,160,129680,1,8,0:0:0:0:
224,160,129732,1,0,0:0:0:0:
288,160,129784,1,8,0:0:0:0:
224,160,129887,1,0,0:0:0:0:
224,160,129991,1,0,0:0:0:0:
288,224,130094,1,12,0:0:0:0:
288,160,130301,1,8,0:0:0:0:
224,160,130508,1,0,0:0:0:0:
288,160,130560,1,8,0:0:0:0:
224,160,130611,1,0,0:0:0:0:
288,160,130715,1,8,0:0:0:0:
288,160,130818,1,8,0:0:0:0:
224,224,130922,1,4,0:0:0:0:
224,160,131129,1,0,0:0:0:0:
288,160,131336,1,8,0:0:0:0:
224,160,131387,1,0,0:0:0:0:
288,160,131439,1,8,0:0:0:0:
224,160,131542,1,0,0:0:0:0:
224,160,131646,1,0,0:0:0:0:
288,224,131749,1,12,0:0:0:0:
224,160,131956,1,0,0:0:0:0:
288,160,132163,1,8,0:0:0:0:
224,160,132267,1,0,0:0:0:0:
288,160,132370,1,8,0:0:0:0:
224,224,132577,1,4,0:0:0:0:
224,160,132784,1,0,0:0:0:0:
288,160,132991,1,8,0:0:0:0:
224,160,133042,1,0,0:0:0:0:
224,160,133094,1,0,0:0:0:0:
288,160,133198,1,8,0:0:0:0:
224,160,133301,1,0,0:0:0:0:
288,224,133405,1,12,0:0:0:0:
288,160,133611,1,8,0:0:0:0:
224,160,133818,1,0,0:0:0:0:
288,160,133870,1,8,0:0:0:0:
288,160,133922,1,8,0:0:0:0:
224,160,134025,1,0,0:0:0:0:
288,160,134129,1,8,0:0:0:0:
224,224,134232,1,4,0:0:0:0:
224,160,134439,1,0,0:0:0:0:
288,160,134646,1,8,0:0:0:0:
224,160,134698,1,0,0:0:0:0:
224,160,134749,1,0,0:0:0:0:
288,160,134853,1,8,0:0:0:0:
224,160,134956,1,0,0:0:0:0:
288,160,135060,1,8,0:0:0:0:
224,160,135163,1,0,0:0:0:0:
224,160,135267,1,0,0:0:0:0:
224,224,135370,1,8,0:0:0:0:
224,160,135473,1,0,0:0:0:0:
224,160,135577,1,0,0:0:0:0:
288,160,135680,1,8,0:0:0:0:
224,160,135887,5,4,0:0:0:0:
224,160,136094,1,0,0:0:0:0:
224,160,136198,1,0,0:0:0:0:
288,160,136301,1,8,0:0:0:0:
224,160,136508,1,0,0:0:0:0:
224,160,136611,1,0,0:0:0:0:
224,160,136715,1,0,0:0:0:0:
224,160,136818,1,0,0:0:0:0:
224,160,136922,1,0,0:0:0:0:
288,160,137129,1,8,0:0:0:0:
288,160,137336,1,8,0:0:0:0:
288,160,137439,1,8,0:0:0:0:
224,160,137542,1,0,0:0:0:0:
224,160,137646,1,0,0:0:0:0:
288,160,137749,1,8,0:0:0:0:
224,160,137853,1,0,0:0:0:0:
288,160,137956,1,8,0:0:0:0:
224,160,138163,1,0,0:0:0:0:
224,160,138267,1,0,0:0:0:0:
288,160,138370,1,8,0:0:0:0:
224,160,138577,1,0,0:0:0:0:
288,160,138680,1,8,0:0:0:0:
288,160,138887,1,8,0:0:0:0:
224,160,138991,1,0,0:0:0:0:
288,224,139198,1,12,0:0:0:0:
224,160,139405,1,0,0:0:0:0:
224,160,139508,1,0,0:0:0:0:
288,160,139611,1,8,0:0:0:0:
288,160,139818,1,8,0:0:0:0:
288,160,139922,1,8,0:0:0:0:
224,160,140025,1,0,0:0:0:0:
288,160,140129,1,8,0:0:0:0:
224,160,140232,1,0,0:0:0:0:
288,160,140439,1,8,0:0:0:0:
224,160,140646,1,0,0:0:0:0:
288,160,140749,1,8,0:0:0:0:
224,160,140853,1,0,0:0:0:0:
224,160,140956,1,0,0:0:0:0:
224,160,141060,1,0,0:0:0:0:
224,160,141163,1,0,0:0:0:0:
288,160,141267,1,8,0:0:0:0:
224,160,141473,1,0,0:0:0:0:
224,160,141577,1,0,0:0:0:0:
288,160,141680,1,8,0:0:0:0:
224,160,141887,1,0,0:0:0:0:
288,160,141991,1,8,0:0:0:0:
224,160,142198,1,0,0:0:0:0:
288,160,142301,1,8,0:0:0:0:
224,224,142508,1,4,0:0:0:0:
224,160,142715,5,0,0:0:0:0:
288,160,142922,1,8,0:0:0:0:
288,160,142991,1,8,0:0:0:0:
288,160,143060,1,8,0:0:0:0:
224,160,143129,1,0,0:0:0:0:
224,160,143232,1,0,0:0:0:0:
288,160,143336,1,8,0:0:0:0:
224,160,143439,1,0,0:0:0:0:
288,160,143542,1,8,0:0:0:0:
288,160,143646,1,8,0:0:0:0:
224,160,143749,1,0,0:0:0:0:
224,160,143853,1,0,0:0:0:0:
288,160,143956,1,8,0:0:0:0:
288,160,144060,1,8,0:0:0:0:
224,160,144163,1,0,0:0:0:0:
224,160,144370,1,0,0:0:0:0:
224,160,144473,1,0,0:0:0:0:
288,160,144577,1,8,0:0:0:0:
288,160,144680,1,8,0:0:0:0:
224,160,144784,1,0,0:0:0:0:
224,160,144887,1,0,0:0:0:0:
288,160,144991,1,8,0:0:0:0:
224,160,145198,1,0,0:0:0:0:
288,160,145301,1,8,0:0:0:0:
224,160,145508,1,0,0:0:0:0:
288,160,145611,1,8,0:0:0:0:
288,224,145818,1,12,0:0:0:0:
224,160,146025,5,0,0:0:0:0:
224,160,146129,1,0,0:0:0:0:
288,160,146232,1,8,0:0:0:0:
224,160,146336,1,0,0:0:0:0:
224,160,146439,1,0,0:0:0:0:
224,160,146542,1,0,0:0:0:0:
288,160,146646,1,8,0:0:0:0:
288,160,146749,1,8,0:0:0:0:
224,160,146853,1,0,0:0:0:0:
224,160,146956,1,0,0:0:0:0:
288,160,147060,1,8,0:0:0:0:
288,160,147267,1,8,0:0:0:0:
288,160,147370,1,8,0:0:0:0:
224,160,147473,1,0,0:0:0:0:
288,160,147577,1,8,0:0:0:0:
224,160,147680,1,0,0:0:0:0:
224,160,147784,1,0,0:0:0:0:
288,160,147887,1,8,0:0:0:0:
288,160,148094,1,8,0:0:0:0:
288,160,148198,1,8,0:0:0:0:
288,160,148301,1,8,0:0:0:0:
224,160,148508,1,0,0:0:0:0:
288,160,148611,1,8,0:0:0:0:
288,160,148818,1,8,0:0:0:0:
224,160,148922,1,0,0:0:0:0:
288,224,149129,1,12,0:0:0:0:
224,160,149336,5,0,0:0:0:0:
288,160,149542,1,8,0:0:0:0:
288,160,149749,1,8,0:0:0:0:
224,160,149853,1,0,0:0:0:0:
224,160,149956,1,0,0:0:0:0:
288,160,150060,1,8,0:0:0:0:
288,160,150163,1,8,0:0:0:0:
224,160,150267,1,0,0:0:0:0:
288,160,150370,1,8,0:0:0:0:
288,160,150473,1,8,0:0:0:0:
224,160,150577,1,0,0:0:0:0:
288,160,150680,1,8,0:0:0:0:
224,160,150784,1,0,0:0:0:0:
224,160,150991,1,0,0:0:0:0:
224,160,151094,1,0,0:0:0:0:
288,160,151198,1,8,0:0:0:0:
288,160,151405,1,8,0:0:0:0:
224,160,151508,1,0,0:0:0:0:
288,160,151611,1,8,0:0:0:0:
224,160,151818,1,0,0:0:0:0:
288,160,151922,1,8,0:0:0:0:
224,160,152129,1,0,0:0:0:0:
288,160,152232,1,8,0:0:0:0:
224,160,152439,1,0,0:0:0:0:
224,160,152508,1,0,0:0:0:0:
288,160,152577,1,8,0:0:0:0:
288,160,152646,1,8,0:0:0:0:
224,160,152715,1,0,0:0:0:0:
288,160,152853,1,8,0:0:0:0:
224,160,152991,1,0,0:0:0:0:
288,160,153060,1,8,0:0:0:0:
224,160,153129,1,0,0:0:0:0:
224,160,153198,1,0,0:0:0:0:
288,160,153267,1,8,0:0:0:0:
224,160,153405,1,0,0:0:0:0:
224,160,153473,1,0,0:0:0:0:
224,160,153542,1,0,0:0:0:0:
288,160,153680,1,8,0:0:0:0:
224,160,153818,1,0,0:0:0:0:
224,160,153887,1,0,0:0:0:0:
224,160,153956,1,0,0:0:0:0:
224,160,154025,1,0,0:0:0:0:
288,160,154094,1,8,0:0:0:0:
288,160,154232,1,8,0:0:0:0:
288,160,154301,1,8,0:0:0:0:
224,160,154370,1,0,0:0:0:0:
224,160,154439,1,0,0:0:0:0:
288,160,154508,1,8,0:0:0:0:
288,160,154577,1,8,0:0:0:0:
224,160,154646,1,0,0:0:0:0:
224,160,154715,1,0,0:0:0:0:
224,160,154784,1,0,0:0:0:0:
224,160,154853,1,0,0:0:0:0:
288,160,154922,1,8,0:0:0:0:
224,160,155129,1,0,0:0:0:0:
288,160,155232,1,8,0:0:0:0:
224,160,155439,1,0,0:0:0:0:
288,160,155542,1,8,0:0:0:0:
224,160,155749,1,0,0:0:0:0:
224,160,155801,1,0,0:0:0:0:
224,160,155853,1,0,0:0:0:0:
224,160,155905,1,0,0:0:0:0:
288,160,155956,1,8,0:0:0:0:
224,160,156060,1,0,0:0:0:0:
288,160,156163,1,8,0:0:0:0:
288,160,156267,1,8,0:0:0:0:
224,160,156370,1,0,0:0:0:0:
288,160,156473,1,8,0:0:0:0:
224,160,156577,1,0,0:0:0:0:
224,160,156629,1,0,0:0:0:0:
224,160,156680,1,0,0:0:0:0:
224,160,156732,1,0,0:0:0:0:
288,160,156784,1,8,0:0:0:0:
224,160,156887,1,0,0:0:0:0:
288,160,156991,1,8,0:0:0:0:
288,160,157094,1,8,0:0:0:0:
224,160,157198,1,0,0:0:0:0:
288,160,157405,1,8,0:0:0:0:
288,160,157456,1,8,0:0:0:0:
288,160,157508,1,8,0:0:0:0:
288,160,157560,1,8,0:0:0:0:
224,160,157611,1,0,0:0:0:0:
224,160,157715,1,0,0:0:0:0:
288,160,157818,1,8,0:0:0:0:
288,160,157922,1,8,0:0:0:0:
224,160,158025,1,0,0:0:0:0:
224,160,158129,1,0,0:0:0:0:
288,160,158232,1,8,0:0:0:0:
288,160,158284,1,8,0:0:0:0:
288,160,158336,1,8,0:0:0:0:
288,160,158387,1,8,0:0:0:0:
224,160,158439,1,0,0:0:0:0:
224,160,158542,1,0,0:0:0:0:
288,160,158646,1,8,0:0:0:0:
224,160,158853,1,0,0:0:0:0:
288,160,159060,1,8,0:0:0:0:
288,160,159163,1,8,0:0:0:0:
224,160,159267,1,0,0:0:0:0:
224,160,159370,1,0,0:0:0:0:
288,160,159473,1,8,0:0:0:0:
224,160,159577,1,0,0:0:0:0:
288,160,159680,1,8,0:0:0:0:
288,160,159784,1,8,0:0:0:0:
224,160,159887,1,0,0:0:0:0:
288,160,159991,1,8,0:0:0:0:
224,160,160094,1,0,0:0:0:0:
224,160,160198,1,0,0:0:0:0:
288,160,160301,1,8,0:0:0:0:
288,160,160508,1,8,0:0:0:0:
288,160,160611,1,8,0:0:0:0:
224,160,160715,1,0,0:0:0:0:
288,160,160818,1,8,0:0:0:0:
288,160,160922,1,8,0:0:0:0:
224,160,161025,1,0,0:0:0:0:
288,160,161129,1,8,0:0:0:0:
288,160,161232,1,8,0:0:0:0:
224,160,161336,1,0,0:0:0:0:
224,160,161439,1,0,0:0:0:0:
288,160,161542,1,8,0:0:0:0:
224,160,161749,1,0,0:0:0:0:
288,160,161853,1,8,0:0:0:0:
224,160,161956,1,0,0:0:0:0:
224,160,162060,1,0,0:0:0:0:
288,160,162163,1,8,0:0:0:0:
224,160,162370,1,0,0:0:0:0:
288,160,162577,1,8,0:0:0:0:
224,160,162646,1,0,0:0:0:0:
224,160,162715,1,0,0:0:0:0:
288,160,162784,1,8,0:0:0:0:
288,160,162887,1,8,0:0:0:0:
224,160,162991,1,0,0:0:0:0:
288,160,163094,1,8,0:0:0:0:
224,160,163198,1,0,0:0:0:0:
224,160,163405,1,0,0:0:0:0:
288,160,163508,1,8,0:0:0:0:
288,160,163560,1,8,0:0:0:0:
224,160,163611,1,0,0:0:0:0:
288,160,163715,1,8,0:0:0:0:
224,160,163818,1,0,0:0:0:0:
224,160,163870,1,0,0:0:0:0:
224,160,163922,1,0,0:0:0:0:
224,160,163973,1,0,0:0:0:0:
288,160,164025,1,8,0:0:0:0:
224,160,164232,1,0,0:0:0:0:
288,160,164336,1,0,0:0:0:0:
288,160,164439,1,8,0:0:0:0:
224,160,164542,1,0,0:0:0:0:
224,160,164594,1,0,0:0:0:0:
288,160,164646,1,8,0:0:0:0:
288,160,164749,1,8,0:0:0:0:
224,160,164853,1,0,0:0:0:0:
224,160,164922,1,0,0:0:0:0:
224,160,164991,1,0,0:0:0:0:
288,160,165060,1,8,0:0:0:0:
288,160,165129,1,8,0:0:0:0:
288,160,165198,1,8,0:0:0:0:
224,160,165267,1,0,0:0:0:0:
224,160,165370,1,0,0:0:0:0:
288,160,165473,1,8,0:0:0:0:
288,160,165680,1,8,0:0:0:0:
224,160,165887,1,0,0:0:0:0:
224,160,165991,1,0,0:0:0:0:
288,160,166094,1,8,0:0:0:0:
288,160,166198,1,8,0:0:0:0:
224,160,166301,1,0,0:0:0:0:
288,160,166508,1,8,0:0:0:0:
224,160,166611,1,0,0:0:0:0:
288,160,166715,1,8,0:0:0:0:
224,160,166818,1,0,0:0:0:0:
288,160,166922,1,8,0:0:0:0:
288,160,167025,1,8,0:0:0:0:
224,160,167129,1,0,0:0:0:0:
288,160,167336,1,8,0:0:0:0:
288,160,167439,1,8,0:0:0:0:
224,160,167542,1,0,0:0:0:0:
288,160,167646,1,8,0:0:0:0:
288,160,167749,1,8,0:0:0:0:
224,160,167853,1,0,0:0:0:0:
288,160,167956,1,8,0:0:0:0:
288,160,168163,1,8,0:0:0:0:
288,160,168215,1,8,0:0:0:0:
288,160,168267,1,8,0:0:0:0:
224,160,168370,1,0,0:0:0:0:
288,160,168473,1,8,0:0:0:0:
224,160,168577,1,0,0:0:0:0:
224,160,168629,1,0,0:0:0:0:
224,160,168680,1,0,0:0:0:0:
224,160,168732,1,0,0:0:0:0:
288,160,168784,1,8,0:0:0:0:
224,160,168991,1,0,0:0:0:0:
224,160,169198,1,0,0:0:0:0:
288,160,169301,1,8,0:0:0:0:
224,160,169405,1,0,0:0:0:0:
224,160,169456,1,0,0:0:0:0:
288,160,169508,1,8,0:0:0:0:
224,160,169611,1,0,0:0:0:0:
288,160,169715,1,8,0:0:0:0:
288,160,169818,1,8,0:0:0:0:
224,160,170025,1,0,0:0:0:0:
224,160,170129,1,0,0:0:0:0:
288,160,170232,1,8,0:0:0:0:
224,160,170336,1,0,0:0:0:0:
288,160,170439,1,8,0:0:0:0:
288,160,170646,1,8,0:0:0:0:
288,160,170749,1,8,0:0:0:0:
224,160,170853,1,0,0:0:0:0:
224,160,170956,1,0,0:0:0:0:
288,160,171060,1,8,0:0:0:0:
224,160,171163,1,0,0:0:0:0:
288,160,171267,1,8,0:0:0:0:
224,160,171370,1,0,0:0:0:0:
288,160,171473,1,8,0:0:0:0:
288,160,171577,1,8,0:0:0:0:
288,160,171680,1,8,0:0:0:0:
288,160,171784,1,8,0:0:0:0:
224,160,171887,1,0,0:0:0:0:
224,160,171991,1,0,0:0:0:0:
288,160,172094,1,8,0:0:0:0:
224,160,172301,1,0,0:0:0:0:
288,160,172405,1,8,0:0:0:0:
288,160,172508,1,8,0:0:0:0:
288,160,172611,1,8,0:0:0:0:
224,160,172715,1,0,0:0:0:0:
288,160,172818,1,8,0:0:0:0:
288,160,172922,1,8,0:0:0:0:
288,160,173025,1,8,0:0:0:0:
224,160,173129,1,0,0:0:0:0:
288,160,173232,1,8,0:0:0:0:
288,160,173336,1,8,0:0:0:0:
288,160,173439,1,8,0:0:0:0:
224,160,173542,1,0,0:0:0:0:
224,160,173646,1,0,0:0:0:0:
288,160,173749,1,8,0:0:0:0:
288,160,173956,1,8,0:0:0:0:
224,160,174060,1,0,0:0:0:0:
224,160,174163,1,0,0:0:0:0:
288,160,174267,1,8,0:0:0:0:
224,160,174473,1,0,0:0:0:0:
288,160,174577,1,8,0:0:0:0:
224,160,174680,1,0,0:0:0:0:
288,160,174784,1,8,0:0:0:0:
224,160,174991,1,0,0:0:0:0:
288,160,175094,1,8,0:0:0:0:
288,160,175146,1,8,0:0:0:0:
224,160,175198,1,0,0:0:0:0:
224,160,175301,1,0,0:0:0:0:
288,160,175405,1,8,0:0:0:0:
288,160,175508,1,8,0:0:0:0:
224,160,175611,1,0,0:0:0:0:
288,160,175818,1,8,0:0:0:0:
224,160,175922,1,0,0:0:0:0:
288,160,176025,1,8,0:0:0:0:
288,160,176129,1,8,0:0:0:0:
288,160,176180,1,8,0:0:0:0:
224,160,176232,1,0,0:0:0:0:
288,160,176336,1,8,0:0:0:0:
224,160,176439,1,0,0:0:0:0:
224,160,176491,1,0,0:0:0:0:
224,160,176542,1,0,0:0:0:0:
288,160,176646,1,8,0:0:0:0:
224,160,176749,1,0,0:0:0:0:
288,160,176853,1,8,0:0:0:0:
288,160,176905,1,8,0:0:0:0:
224,160,176956,1,0,0:0:0:0:
224,160,177008,1,0,0:0:0:0:
288,160,177060,1,8,0:0:0:0:
288,160,177163,1,8,0:0:0:0:
224,160,177267,1,0,0:0:0:0:
288,160,177473,1,8,0:0:0:0:
224,160,177577,1,0,0:0:0:0:
288,160,177680,1,8,0:0:0:0:
224,160,177784,1,0,0:0:0:0:
224,160,177836,1,0,0:0:0:0:
288,160,177887,1,8,0:0:0:0:
224,160,177991,1,0,0:0:0:0:
288,160,178094,1,8,0:0:0:0:
288,160,178146,1,8,0:0:0:0:
288,160,178198,1,8,0:0:0:0:
224,160,178301,1,0,0:0:0:0:
288,160,178405,1,8,0:0:0:0:
224,160,178508,1,0,0:0:0:0:
224,160,178560,1,0,0:0:0:0:
224,160,178611,1,0,0:0:0:0:
224,160,178663,1,0,0:0:0:0:
288,160,178715,1,8,0:0:0:0:
288,160,178818,1,8,0:0:0:0:
224,224,178922,1,4,0:0:0:0:
224,224,180577,1,4,0:0:0:0:
288,160,181405,1,8,0:0:0:0:
288,160,181456,1,8,0:0:0:0:
224,160,181508,1,0,0:0:0:0:
288,160,181611,1,8,0:0:0:0:
224,160,181715,1,0,0:0:0:0:
224,160,181767,1,0,0:0:0:0:
288,160,181818,1,8,0:0:0:0:
224,160,181922,1,0,0:0:0:0:
288,160,182025,1,8,0:0:0:0:
288,160,182129,1,8,0:0:0:0:
224,224,182232,1,4,0:0:0:0:
224,160,182439,1,0,0:0:0:0:
288,160,182542,1,8,0:0:0:0:
224,160,182646,1,0,0:0:0:0:
224,160,182698,1,0,0:0:0:0:
288,160,182749,1,8,0:0:0:0:
224,160,182853,1,0,0:0:0:0:
224,160,182956,1,0,0:0:0:0:
288,160,183060,1,8,0:0:0:0:
288,160,183267,1,8,0:0:0:0:
224,160,183370,1,0,0:0:0:0:
288,160,183473,1,8,0:0:0:0:
288,160,183525,1,8,0:0:0:0:
288,160,183577,1,8,0:0:0:0:
224,160,183680,1,0,0:0:0:0:
224,160,183784,1,0,0:0:0:0:
288,160,183887,1,8,0:0:0:0:
288,160,183991,1,8,0:0:0:0:
224,160,184094,1,0,0:0:0:0:
288,160,184198,1,8,0:0:0:0:
224,160,184301,1,0,0:0:0:0:
288,160,184508,1,8,0:0:0:0:
288,160,184611,1,8,0:0:0:0:
224,160,184715,1,0,0:0:0:0:
288,160,184818,1,8,0:0:0:0:
224,160,184922,1,0,0:0:0:0:
288,160,185129,1,8,0:0:0:0:
224,160,185232,1,0,0:0:0:0:
224,160,185284,1,0,0:0:0:0:
288,160,185336,1,8,0:0:0:0:
288,160,185439,1,8,0:0:0:0:
224,224,185542,1,4,0:0:0:0:
224,160,185749,1,0,0:0:0:0:
288,160,185853,1,8,0:0:0:0:
224,160,185956,1,0,0:0:0:0:
224,160,186008,1,0,0:0:0:0:
288,160,186060,1,8,0:0:0:0:
224,160,186163,1,0,0:0:0:0:
224,160,186267,1,0,0:0:0:0:
288,160,186370,1,8,0:0:0:0:
288,160,186577,1,8,0:0:0:0:
224,160,186680,1,0,0:0:0:0:
288,160,186784,1,8,0:0:0:0:
224,160,186887,1,0,0:0:0:0:
224,160,186939,1,0,0:0:0:0:
288,160,186991,1,8,0:0:0:0:
288,160,187094,1,8,0:0:0:0:
224,224,187198,1,4,0:0:0:0:
224,160,187405,5,0,0:0:0:0:
288,160,187508,1,8,0:0:0:0:
224,160,187611,1,0,0:0:0:0:
224,160,187663,1,0,0:0:0:0:
288,160,187715,1,8,0:0:0:0:
224,160,187818,1,0,0:0:0:0:
224,160,187922,1,0,0:0:0:0:
288,160,188025,1,8,0:0:0:0:
288,160,188232,1,8,0:0:0:0:
224,160,188336,1,0,0:0:0:0:
224,160,188387,1,0,0:0:0:0:
288,160,188439,1,8,0:0:0:0:
224,160,188542,1,0,0:0:0:0:
288,160,188646,1,8,0:0:0:0:
288,160,188698,1,8,0:0:0:0:
288,160,188749,1,8,0:0:0:0:
288,160,188801,1,8,0:0:0:0:
224,160,188853,1,0,0:0:0:0:
224,160,189060,1,0,0:0:0:0:
288,160,189163,1,8,0:0:0:0:
224,160,189267,1,0,0:0:0:0:
224,160,189318,1,0,0:0:0:0:
288,160,189370,1,8,0:0:0:0:
224,160,189473,1,0,0:0:0:0:
224,160,189577,1,0,0:0:0:0:
288,160,189680,1,8,0:0:0:0:
288,160,189784,1,8,0:0:0:0:
224,160,189887,1,0,0:0:0:0:
288,160,189991,1,8,0:0:0:0:
288,160,190094,1,8,0:0:0:0:
224,160,190198,1,0,0:0:0:0:
224,160,190249,1,0,0:0:0:0:
288,160,190301,1,8,0:0:0:0:
224,224,190508,1,4,0:0:0:0:
224,160,190715,1,0,0:0:0:0:
288,224,190818,1,12,0:0:0:0:
288,160,191025,1,8,0:0:0:0:
224,224,191129,1,4,0:0:0:0:
288,160,191336,1,8,0:0:0:0:
224,160,191439,1,0,0:0:0:0:
224,160,191491,1,0,0:0:0:0:
224,160,191542,1,0,0:0:0:0:
288,160,191646,1,8,0:0:0:0:
224,160,191749,1,0,0:0:0:0:
224,160,191801,1,0,0:0:0:0:
224,160,191853,1,0,0:0:0:0:
288,160,191956,1,8,0:0:0:0:
288,160,192163,1,8,0:0:0:0:
288,160,192370,1,8,0:0:0:0:
224,160,192473,1,0,0:0:0:0:
224,160,192525,1,0,0:0:0:0:
288,160,192577,1,8,0:0:0:0:
224,160,192680,1,0,0:0:0:0:
288,160,192784,1,8,0:0:0:0:
288,160,192991,1,8,0:0:0:0:
224,160,193094,1,0,0:0:0:0:
288,160,193198,1,8,0:0:0:0:
224,160,193301,1,0,0:0:0:0:
224,160,193353,1,0,0:0:0:0:
288,160,193405,1,8,0:0:0:0:
224,160,193508,1,0,0:0:0:0:
288,160,193611,1,8,0:0:0:0:
288,160,193818,1,8,0:0:0:0:
288,160,193922,1,8,0:0:0:0:
224,160,194025,1,0,0:0:0:0:
224,160,194129,1,0,0:0:0:0:
288,160,194232,1,8,0:0:0:0:
288,160,194336,1,8,0:0:0:0:
288,160,194439,1,8,0:0:0:0:
288,160,194542,1,8,0:0:0:0:
224,160,194646,1,0,0:0:0:0:
224,160,194749,1,0,0:0:0:0:
288,160,194853,1,8,0:0:0:0:
224,160,194956,1,0,0:0:0:0:
288,160,195060,1,8,0:0:0:0:
288,160,195111,1,8,0:0:0:0:
288,160,195163,1,8,0:0:0:0:
224,160,195267,1,0,0:0:0:0:
224,160,195370,1,0,0:0:0:0:
288,160,195473,1,8,0:0:0:0:
288,160,195680,1,8,0:0:0:0:
224,160,195784,1,0,0:0:0:0:
224,160,195836,1,0,0:0:0:0:
288,160,195887,1,8,0:0:0:0:
224,160,195991,1,0,0:0:0:0:
288,160,196094,1,8,0:0:0:0:
288,160,196301,1,8,0:0:0:0:
224,160,196405,1,0,0:0:0:0:
288,160,196508,1,8,0:0:0:0:
224,160,196611,1,0,0:0:0:0:
224,160,196663,1,0,0:0:0:0:
288,160,196715,1,8,0:0:0:0:
224,160,196818,1,0,0:0:0:0:
288,160,196922,1,8,0:0:0:0:
288,160,197129,1,8,0:0:0:0:
288,160,197232,1,8,0:0:0:0:
288,160,197439,1,8,0:0:0:0:
288,160,197542,1,8,0:0:0:0:
288,160,197749,1,8,0:0:0:0:
288,160,197853,1,8,0:0:0:0:
288,160,198060,1,8,0:0:0:0:
288,160,198163,1,8,0:0:0:0:
288,160,198370,1,8,0:0:0:0:
288,160,198473,1,8,0:0:0:0:
288,160,198577,1,8,0:0:0:0:
288,160,198680,1,8,0:0:0:0:
288,160,198784,1,8,0:0:0:0:
288,160,198991,1,8,0:0:0:0:
224,160,199094,1,0,0:0:0:0:
224,160,199146,1,0,0:0:0:0:
288,160,199198,1,8,0:0:0:0:
224,160,199301,1,0,0:0:0:0:
288,160,199405,1,8,0:0:0:0:
288,160,199611,1,8,0:0:0:0:
224,160,199715,1,0,0:0:0:0:
288,160,199818,1,8,0:0:0:0:
224,160,199922,1,0,0:0:0:0:
224,160,199973,1,0,0:0:0:0:
288,160,200025,1,8,0:0:0:0:
224,160,200129,1,0,0:0:0:0:
288,160,200232,1,8,0:0:0:0:
288,160,200439,1,8,0:0:0:0:
288,160,200542,1,8,0:0:0:0:
224,160,200646,1,0,0:0:0:0:
224,160,200749,1,0,0:0:0:0:
288,160,200853,1,8,0:0:0:0:
288,160,200956,1,8,0:0:0:0:
288,160,201060,1,8,0:0:0:0:
288,160,201163,1,8,0:0:0:0:
224,160,201267,1,0,0:0:0:0:
224,160,201370,1,0,0:0:0:0:
288,160,201473,1,8,0:0:0:0:
224,160,201577,1,0,0:0:0:0:
288,160,201680,1,8,0:0:0:0:
288,160,201732,1,8,0:0:0:0:
288,160,201784,1,8,0:0:0:0:
224,160,201887,1,0,0:0:0:0:
224,160,201991,1,0,0:0:0:0:
288,160,202094,1,8,0:0:0:0:
288,160,202301,1,8,0:0:0:0:
224,160,202405,1,0,0:0:0:0:
288,160,202508,1,8,0:0:0:0:
288,160,202560,1,8,0:0:0:0:
224,160,202611,1,0,0:0:0:0:
288,160,202715,1,8,0:0:0:0:
224,160,202818,1,0,0:0:0:0:
224,160,202870,1,0,0:0:0:0:
288,160,202922,1,8,0:0:0:0:
288,160,203025,1,8,0:0:0:0:
288,160,203129,1,8,0:0:0:0:
288,160,203232,1,8,0:0:0:0:
288,160,203336,1,8,0:0:0:0:
288,160,203439,1,8,0:0:0:0:
288,160,203542,1,8,0:0:0:0:
288,160,203646,1,8,0:0:0:0:
224,224,203749,1,4,0:0:0:0:
288,160,204991,1,8,0:0:0:0:
224,224,205405,1,4,0:0:0:0:
224,160,205611,1,0,0:0:0:0:
288,160,205818,1,8,0:0:0:0:
288,160,205870,1,8,0:0:0:0:
288,160,205922,1,8,0:0:0:0:
224,160,206025,1,0,0:0:0:0:
224,160,206129,1,0,0:0:0:0:
288,224,206232,1,12,0:0:0:0:
288,160,206439,1,8,0:0:0:0:
224,160,206646,1,0,0:0:0:0:
224,160,206698,1,0,0:0:0:0:
224,160,206749,1,0,0:0:0:0:
288,160,206853,1,8,0:0:0:0:
288,160,206956,1,8,0:0:0:0:
224,224,207060,1,4,0:0:0:0:
224,160,207267,1,0,0:0:0:0:
288,160,207473,1,8,0:0:0:0:
288,160,207525,1,8,0:0:0:0:
288,160,207577,1,8,0:0:0:0:
224,160,207680,1,0,0:0:0:0:
224,160,207784,1,0,0:0:0:0:
288,224,207887,1,12,0:0:0:0:
224,160,208094,1,0,0:0:0:0:
288,160,208301,1,8,0:0:0:0:
224,160,208405,1,0,0:0:0:0:
288,160,208508,1,8,0:0:0:0:
224,224,208715,1,4,0:0:0:0:
224,160,208922,1,0,0:0:0:0:
288,160,209129,1,8,0:0:0:0:
288,160,209180,1,8,0:0:0:0:
224,160,209232,1,0,0:0:0:0:
288,160,209336,1,8,0:0:0:0:
224,160,209439,1,0,0:0:0:0:
288,224,209542,1,12,0:0:0:0:
288,160,209749,1,8,0:0:0:0:
224,160,209956,1,0,0:0:0:0:
224,160,210008,1,0,0:0:0:0:
288,160,210060,1,8,0:0:0:0:
224,160,210163,1,0,0:0:0:0:
288,160,210267,1,8,0:0:0:0:
224,224,210370,1,4,0:0:0:0:
224,160,210577,1,0,0:0:0:0:
288,160,210784,1,8,0:0:0:0:
288,160,210836,1,8,0:0:0:0:
224,160,210887,1,0,0:0:0:0:
288,160,210991,1,8,0:0:0:0:
224,160,211094,1,0,0:0:0:0:
288,160,211198,1,8,0:0:0:0:
288,160,211301,1,8,0:0:0:0:
224,160,211405,1,0,0:0:0:0:
288,160,211508,1,8,0:0:0:0:
288,160,211611,1,8,0:0:0:0:
224,160,211715,1,0,0:0:0:0:
224,160,211767,1,0,0:0:0:0:
288,160,211818,1,8,0:0:0:0:
224,224,212025,1,4,0:0:0:0:
224,160,212232,1,0,0:0:0:0:
288,160,212439,1,8,0:0:0:0:
224,160,212491,1,0,0:0:0:0:
288,160,212542,1,8,0:0:0:0:
224,160,212646,1,0,0:0:0:0:
224,160,212749,1,0,0:0:0:0:
288,224,212853,1,12,0:0:0:0:
288,160,213060,1,8,0:0:0:0:
224,160,213267,1,0,0:0:0:0:
288,160,213318,1,8,0:0:0:0:
224,160,213370,1,0,0:0:0:0:
288,160,213473,1,8,0:0:0:0:
288,160,213577,1,8,0:0:0:0:
224,224,213680,1,4,0:0:0:0:
224,160,213887,1,0,0:0:0:0:
288,160,214094,1,8,0:0:0:0:
224,160,214146,1,0,0:0:0:0:
288,160,214198,1,8,0:0:0:0:
224,160,214301,1,0,0:0:0:0:
224,160,214405,1,0,0:0:0:0:
288,224,214508,1,12,0:0:0:0:
224,160,214715,1,0,0:0:0:0:
288,160,214922,1,8,0:0:0:0:
224,160,215025,1,0,0:0:0:0:
288,160,215129,1,8,0:0:0:0:
224,224,215336,1,4,0:0:0:0:
224,160,215542,1,0,0:0:0:0:
288,160,215749,1,8,0:0:0:0:
224,160,215801,1,0,0:0:0:0:
224,160,215853,1,0,0:0:0:0:
288,160,215956,1,8,0:0:0:0:
224,160,216060,1,0,0:0:0:0:
288,224,216163,1,12,0:0:0:0:
288,160,216370,1,8,0:0:0:0:
224,160,216577,1,0,0:0:0:0:
288,160,216629,1,8,0:0:0:0:
288,160,216680,1,8,0:0:0:0:
224,160,216784,1,0,0:0:0:0:
288,160,216887,1,8,0:0:0:0:
224,224,216991,1,4,0:0:0:0:
224,160,217198,1,0,0:0:0:0:
288,160,217405,1,8,0:0:0:0:
224,160,217456,1,0,0:0:0:0:
224,160,217508,1,0,0:0:0:0:
288,160,217611,1,8,0:0:0:0:
224,160,217715,1,0,0:0:0:0:
288,160,217818,1,8,0:0:0:0:
224,160,217922,1,0,0:0:0:0:
288,160,218025,1,8,0:0:0:0:
288,160,218129,1,8,0:0:0:0:
224,160,218232,1,0,0:0:0:0:
224,160,218336,1,0,0:0:0:0:
288,160,218439,1,8,0:0:0:0:
224,160,218646,1,0,0:0:0:0:
224,160,218715,1,0,0:0:0:0:
224,160,218784,1,0,0:0:0:0:
224,160,218853,1,0,0:0:0:0:
224,160,218922,1,0,0:0:0:0:
224,160,218991,1,0,0:0:0:0:
288,160,219060,1,8,0:0:0:0:
224,160,219267,1,0,0:0:0:0:
288,160,219473,1,8,0:0:0:0:
288,160,219542,1,8,0:0:0:0:
288,160,219611,1,8,0:0:0:0:
224,160,219680,1,0,0:0:0:0:
224,160,219749,1,0,0:0:0:0:
224,160,219818,1,0,0:0:0:0:
288,160,219887,1,8,0:0:0:0:
224,160,220094,1,0,0:0:0:0:
288,160,220301,1,8,0:0:0:0:
288,160,220370,1,8,0:0:0:0:
224,160,220439,1,0,0:0:0:0:
224,160,220508,1,0,0:0:0:0:
224,160,220577,1,0,0:0:0:0:
224,160,220646,1,0,0:0:0:0:
288,160,220715,1,8,0:0:0:0:
224,160,220922,1,0,0:0:0:0:
288,160,221129,1,8,0:0:0:0:
288,160,221198,1,8,0:0:0:0:
288,160,221267,1,8,0:0:0:0:
224,160,221336,1,0,0:0:0:0:
224,160,221405,1,0,0:0:0:0:
224,160,221473,1,0,0:0:0:0:
288,160,221542,1,8,0:0:0:0:
288,160,221611,1,8,0:0:0:0:
288,160,221680,1,8,0:0:0:0:
224,160,221749,1,0,0:0:0:0:
288,160,221956,1,8,0:0:0:0:
224,160,222025,1,0,0:0:0:0:
224,160,222094,1,0,0:0:0:0:
224,160,222163,1,0,0:0:0:0:
224,160,222232,1,0,0:0:0:0:
224,160,222301,1,0,0:0:0:0:
288,160,222370,1,8,0:0:0:0:
224,160,222577,1,0,0:0:0:0:
288,160,222784,1,8,0:0:0:0:
288,160,222853,1,8,0:0:0:0:
288,160,222922,1,8,0:0:0:0:
224,160,222991,1,0,0:0:0:0:
224,160,223060,1,0,0:0:0:0:
224,160,223129,1,0,0:0:0:0:
288,160,223198,1,8,0:0:0:0:
224,160,223405,1,0,0:0:0:0:
288,160,223611,1,8,0:0:0:0:
288,160,223680,1,8,0:0:0:0:
224,160,223749,1,0,0:0:0:0:
224,160,223818,1,0,0:0:0:0:
224,160,223887,1,0,0:0:0:0:
224,160,223956,1,0,0:0:0:0:
288,160,224025,1,8,0:0:0:0:
224,160,224232,1,0,0:0:0:0:
288,160,224439,1,8,0:0:0:0:
224,160,224577,1,0,0:0:0:0:
288,160,224646,1,8,0:0:0:0:
224,160,224784,1,0,0:0:0:0:
224,160,224853,1,0,0:0:0:0:
224,160,224991,1,0,0:0:0:0:
288,160,225060,1,8,0:0:0:0:
288,160,225267,1,8,0:0:0:0:
224,160,225336,1,0,0:0:0:0:
224,160,225405,1,0,0:0:0:0:
288,160,225473,1,8,0:0:0:0:
224,160,225542,1,0,0:0:0:0:
224,160,225611,1,0,0:0:0:0:
288,160,225680,1,8,0:0:0:0:
224,160,225749,1,0,0:0:0:0:
224,160,225818,1,0,0:0:0:0:
288,160,225887,1,8,0:0:0:0:
288,160,226094,1,8,0:0:0:0:
288,160,226163,1,8,0:0:0:0:
224,160,226232,1,0,0:0:0:0:
288,160,226301,1,8,0:0:0:0:
288,160,226370,1,8,0:0:0:0:
224,160,226439,1,0,0:0:0:0:
288,160,226508,1,8,0:0:0:0:
288,160,226577,1,8,0:0:0:0:
224,160,226646,1,0,0:0:0:0:
288,160,226715,1,8,0:0:0:0:
288,160,226922,1,8,0:0:0:0:
288,160,226991,1,8,0:0:0:0:
224,160,227060,1,0,0:0:0:0:
288,160,227129,1,8,0:0:0:0:
224,160,227198,1,0,0:0:0:0:
224,160,227267,1,0,0:0:0:0:
288,160,227336,1,8,0:0:0:0:
288,160,227405,1,8,0:0:0:0:
224,160,227473,1,0,0:0:0:0:
288,160,227542,1,8,0:0:0:0:
288,160,227749,1,8,0:0:0:0:
288,160,227818,1,8,0:0:0:0:
288,160,227887,1,8,0:0:0:0:
224,160,227956,1,0,0:0:0:0:
224,160,228025,1,0,0:0:0:0:
224,160,228094,1,0,0:0:0:0:
288,160,228163,1,8,0:0:0:0:
288,160,228232,1,8,0:0:0:0:
288,160,228301,1,8,0:0:0:0:
224,160,228370,1,0,0:0:0:0:
288,160,228577,1,8,0:0:0:0:
224,160,228646,1,0,0:0:0:0:
224,160,228715,1,0,0:0:0:0:
288,160,228784,1,8,0:0:0:0:
224,160,228853,1,0,0:0:0:0:
224,160,228922,1,0,0:0:0:0:
288,160,228991,1,8,0:0:0:0:
224,160,229060,1,0,0:0:0:0:
224,160,229129,1,0,0:0:0:0:
288,160,229198,1,8,0:0:0:0:
288,160,229405,1,8,0:0:0:0:
288,160,229473,1,8,0:0:0:0:
224,160,229542,1,0,0:0:0:0:
288,160,229611,1,8,0:0:0:0:
224,160,229680,1,0,0:0:0:0:
224,160,229749,1,0,0:0:0:0:
288,160,229818,1,8,0:0:0:0:
288,160,229887,1,8,0:0:0:0:
224,160,229956,1,0,0:0:0:0:
288,160,230025,1,8,0:0:0:0:
288,160,230232,1,8,0:0:0:0:
288,160,230284,1,8,0:0:0:0:
288,160,230336,1,8,0:0:0:0:
288,160,230387,1,8,0:0:0:0:
224,160,230439,1,0,0:0:0:0:
288,160,230646,1,8,0:0:0:0:
224,160,230749,1,0,0:0:0:0:
288,160,230853,1,8,0:0:0:0:
288,160,230905,1,8,0:0:0:0:
288,160,230956,1,8,0:0:0:0:
288,160,231008,1,8,0:0:0:0:
224,160,231060,1,0,0:0:0:0:
288,160,231163,1,8,0:0:0:0:
224,160,231267,1,0,0:0:0:0:
224,160,231318,1,0,0:0:0:0:
224,160,231370,1,0,0:0:0:0:
224,160,231422,1,0,0:0:0:0:
288,160,231473,1,8,0:0:0:0:
224,160,231577,1,0,0:0:0:0:
288,160,231680,1,8,0:0:0:0:
224,224,231887,1,4,0:0:0:0:
