osu file format v14

[General]
AudioFilename: Flowering Night Fever.mp3
AudioLeadIn: 2000
PreviewTime: 62049
Countdown: 0
SampleSet: None
StackLeniency: 0.3
Mode: 0
LetterboxInBreaks: 0
WidescreenStoryboard: 0

[Editor]
Bookmarks: 1687,3342,21549,35618,48859,62100,75342,95204,118376,131618,144859
DistanceSpacing: 1.3
BeatDivisor: 8
GridSize: 4
TimelineZoom: 1.9

[Metadata]
Title:Flowering Night Fever
TitleUnicode:Flowering Night Fever
Artist:UNDEAD CORPORATION
ArtistUnicode:UNDEAD CORPORATION
Creator:Alheak
Version:pishi's Lunatic
Source:東方花映塚 ~ Phantasmagoria of Flower View.
Tags:dtm9 nowa ekoro pishifat GoldenWolf zun team shanghai alice 上海アリス幻樂団 瞬殺 touhou project Kaeidzuka 花映塚 Phantasmagoria of Flower View sakuya izayoi 十六夜 咲夜 フラワリングナイト 瞬殺 shunsatsu reitaisai 12 instrumental speed metal guitar woof
BeatmapID:895806
BeatmapSetID:393663

[Difficulty]
HPDrainRate:5
CircleSize:2
OverallDifficulty:8.6
ApproachRate:9.6
SliderMultiplier:1.6
SliderTickRate:2

[Events]
//Background and Video events
0,0,"bg.jpg",0,0
//Break Periods
2,75542,81246
//Storyboard Layer 0 (Background)
//Storyboard Layer 1 (Fail)
//Storyboard Layer 2 (Pass)
//Storyboard Layer 3 (Foreground)
//Storyboard Sound Samples

[TimingPoints]
32,206.896551724138,4,3,1,70,1,0
1273,-100,4,3,2,70,0,0
1480,-100,4,3,3,70,0,0
1687,-100,4,3,1,70,0,0
6963,-117.647058823529,4,3,1,70,0,0
7894,-133.333333333333,4,3,1,70,0,0
8307,-100,4,3,1,70,0,0
13583,-117.647058823529,4,3,1,70,0,0
15238,-100,4,3,1,70,0,0
21549,206.896551724138,3,3,1,70,1,0
21549,-133.333333333333,3,3,1,70,0,0
24859,-153.846153846153,3,3,1,70,0,0
25066,206.896551724138,3,3,1,70,1,0
28584,206.896551724138,3,3,1,70,1,0
31894,-117.64705882353,3,3,1,70,0,0
32101,206.896551724138,3,3,1,70,1,0
35618,206.896551724138,4,3,1,70,1,0
40893,-117.647058823529,4,3,1,70,0,0
41824,-133.333333333333,4,3,1,70,0,0
42549,-100,4,3,1,70,0,0
48859,-117.647058823529,4,3,1,70,0,0
50514,-100,4,3,1,70,0,0
52169,-117.647058823529,4,3,1,70,0,0
57135,-100,4,3,1,70,0,0
58790,-117.647058823529,4,3,1,70,0,0
62100,-100,4,3,1,85,0,1
75342,-100,4,3,1,70,0,0
81962,-111.111111111111,4,3,1,70,0,0
95204,-105.263157894737,4,3,1,70,0,0
97686,-100,4,3,1,70,0,0
98514,-105.263157894737,4,3,1,70,0,0
105135,-111.111111111111,4,3,1,70,0,0
118376,-100,4,3,1,70,0,0
131618,-117.647058823529,4,3,1,70,0,0
133273,-100,4,3,1,70,0,0
134928,-117.647058823529,4,3,1,70,0,0
139893,-100,4,3,1,70,0,0
141549,-117.647058823529,4,3,1,70,0,0
142376,-90.9090909090909,4,3,1,70,0,0
143204,-500,4,3,1,70,0,0
144859,-100,4,3,1,85,0,1
157273,-90.9090909090909,4,3,1,85,0,1
158049,-100,4,3,1,85,0,0
158100,-117.647058823529,4,3,1,85,0,1
164721,-100,4,3,1,85,0,1
169997,-100,4,3,2,85,0,1
170307,-100,4,3,3,85,0,1
170514,-100,4,3,1,85,0,1
171342,-100,4,3,1,70,0,0
172169,-100,4,3,1,60,0,0
172997,-100,4,3,1,50,0,0
174652,-100,4,3,1,40,0,0
176307,-100,4,3,1,30,0,0
177963,-100,4,3,1,20,0,0
179618,-100,4,3,1,10,0,0
181273,-100,4,3,1,5,0,0

[Colours]
Combo1 : 150,0,50
Combo2 : 190,180,200
Combo3 : 130,120,160
Combo4 : 199,1,51

[HitObjects]
0,59,32,5,0,0:0:0:0:
76,125,135,2,0,B|149:94|149:94|250:107,1,160,2|2,0:0|0:0,0:0:0:0:
291,188,445,2,0,L|234:202,1,40,2|2,0:0|0:0,0:0:0:0:
297,208,549,2,0,L|239:222,1,40,2|2,0:0|0:0,0:0:0:0:
303,232,652,2,0,P|354:271|387:278,1,80,8|8,0:0|0:0,0:0:0:0:
491,184,859,2,0,L|540:173,1,40,8|2,0:0|0:0,0:0:0:0:
481,162,963,2,0,L|543:149,1,40,2|2,0:0|0:0,0:0:0:0:
468,143,1066,2,0,P|407:161|383:179,1,80,8|8,0:0|0:0,0:0:0:0:
469,299,1273,6,0,L|508:292,3,40,8|8|8|8,0:0|0:0|0:0|0:0,0:0:0:0:
368,275,1480,2,0,L|328:268,3,40,8|8|8|8,0:0|0:0|0:0|0:0,0:0:0:0:
394,377,1687,37,4,0:0:0:0:
73,115,3342,5,4,0:0:0:0:
10,193,3445,1,8,0:0:0:0:
117,211,3549,1,0,0:0:0:0:
117,211,3652,2,0,P|156:281|134:368,1,160,8|8,0:0|0:0,0:0:0:0:
179,123,3963,2,0,P|218:127|260:147,1,80,0|8,0:0|0:0,0:0:0:0:
276,337,4169,37,0,0:0:0:0:
276,337,4273,2,0,P|328:341|386:327,1,80,8|0,0:0|0:0,0:0:0:0:
472,193,4480,1,8,0:0:0:0:
472,193,4583,2,0,P|434:225|380:242,1,80,0|8,0:0|0:0,0:0:0:0:
229,99,4790,1,0,0:0:0:0:
229,99,4894,2,0,P|291:138|395:124,1,160,8|8,0:0|0:0,0:0:0:0:
177,6,5204,5,0,0:0:0:0:
121,94,5307,2,0,L|127:181,1,80,8|0,0:0|0:0,0:0:0:0:
164,355,5515,1,8,0:0:0:0:
108,267,5618,2,0,L|113:187,1,80,0|8,0:0|0:0,0:0:0:0:
346,111,5825,37,0,0:0:0:0:
278,185,5928,2,0,B|218:191|218:191|183:167|183:167|97:176,1,160,8|8,0:0|0:0,0:0:0:0:
306,349,6238,2,0,P|321:325|332:245,1,80,0|8,0:0|0:0,0:0:0:0:
246,83,6445,1,0,0:0:0:0:
278,185,6549,1,8,0:0:0:0:
346,111,6652,6,0,L|350:52,1,40,0|0,0:0|0:0,0:0:0:0:
374,100,6756,2,0,L|383:55,1,40,0|0,0:0|0:0,0:0:0:0:
405,108,6859,2,0,L|418:62,1,40,0|0,0:0|0:0,0:0:0:0:
427,128,6963,38,0,B|435:219,1,68.0000012969971,12|0,0:0|0:0,0:0:0:0:
357,364,7169,1,12,0:0:0:0:
436,299,7273,2,0,L|530:286,2,68.0000012969971,0|0|0,0:0|0:0|0:0,0:0:0:0:
197,286,7583,6,0,L|190:194,1,68.0000012969971,12|0,0:0|0:0,0:0:0:0:
246,83,7790,1,12,0:0:0:0:
120,144,7894,38,0,P|97:173|89:209,1,60.0000022888184
130,365,8100,2,0,P|105:335|94:299,1,60.0000022888184,0|0,0:0|0:0,0:0:0:0:
216,179,8307,5,4,0:0:0:0:
280,259,8411,1,8,0:0:0:0:
324,167,8514,1,0,0:0:0:0:
324,167,8618,2,0,P|412:152|483:215,1,160,8|8,0:0|0:0,0:0:0:0:
391,333,8928,2,0,L|381:227,1,80,0|8,0:0|0:0,0:0:0:0:
457,61,9135,37,0,0:0:0:0:
363,17,9238,2,0,P|311:32|277:60,1,80,8|0,0:0|0:0,0:0:0:0:
216,179,9445,1,8,0:0:0:0:
117,151,9549,2,0,P|106:107|108:58,1,80,0|8,0:0|0:0,0:0:0:0:
315,147,9756,1,0,0:0:0:0:
300,244,9859,1,8,0:0:0:0:
140,251,9963,5,4,0:0:0:0:
216,179,10066,1,8,0:0:0:0:
305,249,10169,1,0,0:0:0:0:
305,249,10273,2,0,L|485:263,1,160,8|8,0:0|0:0,0:0:0:0:
356,80,10583,2,0,P|318:133|311:169,1,80,0|8,0:0|0:0,0:0:0:0:
265,363,10790,37,0,0:0:0:0:
168,323,10894,2,0,P|142:272|141:222,1,80,8|0,0:0|0:0,0:0:0:0:
231,39,11100,1,8,0:0:0:0:
132,73,11204,2,0,P|108:122|104:166,1,80,0|8,0:0|0:0,0:0:0:0:
342,291,11411,1,0,0:0:0:0:
347,191,11514,2,0,P|292:151|195:176,1,160,8|8,0:0|0:0,0:0:0:0:
79,325,11825,5,0,0:0:0:0:
79,325,11928,2,0,L|-16:334,1,80,8|0,0:0|0:0,0:0:0:0:
61,141,12135,1,8,0:0:0:0:
61,141,12238,2,0,P|107:200|114:233,1,80,0|8,0:0|0:0,0:0:0:0:
169,376,12445,37,0,0:0:0:0:
268,353,12549,2,0,P|310:292|300:175,1,160,8|8,0:0|0:0,0:0:0:0:
430,52,12859,2,0,P|407:90|397:145,1,80,0|8,0:0|0:0,0:0:0:0:
476,295,13066,1,0,0:0:0:0:
495,198,13169,1,8,0:0:0:0:
473,316,13273,5,0,0:0:0:0:
375,344,13376,1,8,0:0:0:0:
304,271,13480,1,0,0:0:0:0:
208,300,13583,2,0,P|146:302|50:260,1,136.000002593994,8|8,0:0|0:0,0:0:0:0:
174,96,13894,37,0,0:0:0:0:
158,197,13997,1,8,0:0:0:0:
76,128,14100,1,0,0:0:0:0:
187,82,14204,2,0,P|248:80|332:116,1,136.000002593994,8|8,0:0|0:0,0:0:0:0:
426,240,14514,5,0,0:0:0:0:
416,141,14618,1,0,0:0:0:0:
421,259,14721,1,0,0:0:0:0:
512,185,14825,1,0,0:0:0:0:
487,341,14928,37,4,0:0:0:0:
385,356,15032,1,8,0:0:0:0:
321,273,15135,1,0,0:0:0:0:
321,273,15238,2,0,B|243:268|243:268|176:314,1,160,8|8,0:0|0:0,0:0:0:0:
151,208,15549,2,0,L|159:106,1,80,0|8,0:0|0:0,0:0:0:0:
385,56,15756,5,0,0:0:0:0:
336,145,15859,2,0,P|278:160|237:154,1,80,8|0,0:0|0:0,0:0:0:0:
170,19,16066,1,8,0:0:0:0:
170,19,16169,2,0,P|218:40|249:69,1,80,0|8,0:0|0:0,0:0:0:0:
266,266,16376,1,0,0:0:0:0:
173,216,16480,1,8,0:0:0:0:
94,379,16583,37,4,0:0:0:0:
177,323,16686,1,8,0:0:0:0:
85,275,16790,1,0,0:0:0:0:
85,275,16894,2,0,P|71:204|114:128,1,160,8|8,0:0|0:0,0:0:0:0:
266,266,17204,2,0,L|366:275,1,80,0|8,0:0|0:0,0:0:0:0:
415,155,17411,5,0,0:0:0:0:
415,155,17514,2,0,P|361:155|317:174,1,80,8|0,0:0|0:0,0:0:0:0:
177,323,17721,1,8,0:0:0:0:
173,216,17825,2,0,P|208:182|256:164,1,80,0|8,0:0|0:0,0:0:0:0:
413,363,18032,1,0,0:0:0:0:
318,325,18135,1,8,0:0:0:0:
399,265,18238,37,4,0:0:0:0:
399,265,18342,1,8,0:0:0:0:
399,265,18445,1,0,0:0:0:0:
294,225,18549,2,0,L|277:54,1,160,8|8,0:0|0:0,0:0:0:0:
424,75,18859,2,0,L|411:187,1,80,0|8,0:0|0:0,0:0:0:0:
176,312,19066,5,0,0:0:0:0:
180,211,19169,2,0,P|211:170|250:146,1,80,8|0,0:0|0:0,0:0:0:0:
473,232,19376,1,8,0:0:0:0:
414,154,19480,2,0,P|336:135|313:140,1,80,0|0,0:0|0:0,0:0:0:0:
288,337,19687,1,8,0:0:0:0:
383,301,19790,1,8,0:0:0:0:
301,235,19894,38,0,L|327:306,5,40,4|0|0|0|0|0,0:0|0:0|0:0|0:0|0:0|0:0,0:0:0:0:
213,285,20204,2,0,L|226:324,5,40,8|0|0|0|0|0,0:0|0:0|0:0|0:0|0:0|0:0,0:0:0:0:
120,238,20514,6,0,P|100:240|77:251,3,40,12|0|0|0,0:0|0:0|0:0|0:0,0:0:0:0:
210,180,20721,38,0,L|184:109,5,40
297,129,21031,2,0,L|284:90,5,40,0|0|0|0|0|0,0:0|0:0|0:0|0:0|0:0|0:0,0:0:0:0:
395,170,21342,5,4,0:0:0:0:
395,170,21549,38,0,P|370:208|362:244,1,60.0000022888184
398,377,21755,2,0,P|384:337|361:305,1,60.0000022888184
281,285,21962,1,4,0:0:0:0:
95,117,23824,6,0,P|76:161|93:171,1,60.0000022888184,0|0,0:0|0:0,0:0:0:0:
229,69,24031,2,0,P|248:25|231:15,1,60.0000022888184,0|0,0:0|0:0,0:0:0:0:
186,161,24238,38,0,P|230:180|240:163,1,60.0000022888184
140,37,24445,2,0,P|96:18|86:35,1,60.0000022888184,0|0,0:0|0:0,0:0:0:0:
347,172,24652,5,4,0:0:0:0:
351,73,24859,38,0,L|348:136,1,51.999997619629
325,310,25066,5,0,0:0:0:0:
426,271,25169,1,8,0:0:0:0:
308,321,25272,2,0,L|220:326,1,80,0|8,0:0|0:0,0:0:0:0:
431,168,25479,2,0,P|475:179|530:222,1,80,0|8,0:0|0:0,0:0:0:0:
337,213,25686,37,0,0:0:0:0:
340,108,25790,1,8,0:0:0:0:
329,230,25893,2,0,L|324:327,1,80,0|8,0:0|0:0,0:0:0:0:
434,67,26100,2,0,P|399:20|356:0,1,80,0|8,0:0|0:0,0:0:0:0:
234,122,26307,5,0,0:0:0:0:
340,108,26410,1,8,0:0:0:0:
215,128,26514,2,0,L|111:118,1,80,0|8,0:0|0:0,0:0:0:0:
381,9,26721,2,0,P|413:33|434:67,1,80,0|8,0:0|0:0,0:0:0:0:
297,205,26928,37,0,0:0:0:0:
340,108,27031,1,8,0:0:0:0:
286,222,27134,2,0,L|281:310,1,80,0|8,0:0|0:0,0:0:0:0:
465,179,27341,6,0,L|427:164,3,40,2|2|2|2,0:0|0:0|0:0|0:0,0:0:0:0:
399,255,27548,2,0,L|436:269,3,40,2|2|2|2,0:0|0:0|0:0|0:0,0:0:0:0:
488,172,27755,38,0,L|450:157,3,40,2|2|2|2,0:0|0:0|0:0|0:0,0:0:0:0:
384,264,27962,2,0,L|421:278,3,40,2|2|2|2,0:0|0:0|0:0|0:0,0:0:0:0:
438,379,28169,6,0,P|499:354|524:324,1,80,8|0,0:0|0:0,0:0:0:0:
289,216,28376,1,8,0:0:0:0:
302,315,28479,1,8,0:0:0:0:
186,220,28584,37,4,0:0:0:0:
285,197,28687,1,8,0:0:0:0:
166,227,28790,2,0,B|144:262|144:262|138:328,1,80,0|8,0:0|0:0,0:0:0:0:
302,187,28997,2,0,P|294:133|270:94,1,80,0|8,0:0|0:0,0:0:0:0:
113,141,29204,5,0,0:0:0:0:
186,220,29307,1,8,0:0:0:0:
97,130,29411,2,0,B|83:88|83:88|84:48,1,80,0|8,0:0|0:0,0:0:0:0:
285,197,29618,2,0,P|301:251|295:286,1,80,0|8,0:0|0:0,0:0:0:0:
52,223,29825,37,0,0:0:0:0:
113,141,29928,1,8,0:0:0:0:
42,239,30032,2,0,B|48:284|48:284|77:340,1,80,0|8,0:0|0:0,0:0:0:0:
215,120,30239,2,0,P|199:57|173:28,1,80,0|8,0:0|0:0,0:0:0:0:
143,244,30446,5,0,0:0:0:0:
244,234,30549,1,8,0:0:0:0:
121,248,30652,2,0,L|33:238,1,80,0|12,0:0|0:0,0:0:0:0:
233,134,30859,2,0,P|283:140|323:167,1,80,0|8,0:0|0:0,0:0:0:0:
382,330,31066,37,0,0:0:0:0:
382,330,31170,1,8,0:0:0:0:
382,330,31273,2,0,L|328:320,2,40,0|0|8,0:0|0:0|0:0,0:0:0:0:
308,226,31480,2,0,L|256:235,2,40,0|0|8,0:0|0:0|0:0,0:0:0:0:
233,134,31687,2,0,L|188:155,2,40,0|0|8,0:0|0:0|0:0,0:0:0:0:
347,13,31894,2,0,P|382:59|389:84,1,68.0000012969971,8|8,0:0|0:0,0:0:0:0:
395,320,32101,5,4,0:0:0:0:
463,244,32204,1,8,0:0:0:0:
382,330,32307,2,0,L|282:323,1,80,0|8,0:0|0:0,0:0:0:0:
452,142,32514,2,0,P|486:143|539:169,1,80,0|8,0:0|0:0,0:0:0:0:
288,218,32721,37,0,0:0:0:0:
300,117,32825,1,8,0:0:0:0:
274,231,32928,2,0,L|287:326,1,80,0|8,0:0|0:0,0:0:0:0:
390,58,33135,2,0,P|352:23|297:9,1,80,0|8,0:0|0:0,0:0:0:0:
100,123,33342,5,0,0:0:0:0:
201,149,33445,1,8,0:0:0:0:
80,131,33549,2,0,L|69:31,1,80,0|8,0:0|0:0,0:0:0:0:
300,117,33756,2,0,P|301:171|286:216,1,80,0|8,0:0|0:0,0:0:0:0:
115,319,33963,37,0,0:0:0:0:
130,223,34066,1,8,0:0:0:0:
125,335,34169,2,0,B|162:357|162:357|223:362,1,80,0|8,0:0|0:0,0:0:0:0:
446,246,34376,2,0,P|390:254|349:279,1,80,0|0,0:0|0:0,0:0:0:0:
325,365,34583,5,0,0:0:0:0:
325,365,34687,1,0,0:0:0:0:
325,365,34790,1,0,0:0:0:0:
325,365,34894,1,0,0:0:0:0:
325,365,34997,1,0,0:0:0:0:
325,365,35101,1,0,0:0:0:0:
325,365,35204,37,0,0:0:0:0:
400,301,35307,1,0,0:0:0:0:
321,240,35411,1,0,0:0:0:0:
401,177,35514,1,0,0:0:0:0:
300,244,35618,6,0,B|204:237,1,80,4|8,0:0|0:0,0:0:0:0:
55,207,35824,1,0,0:0:0:0:
55,207,35928,2,0,P|90:186|137:175,1,80,8|0,0:0|0:0,0:0:0:0:
301,141,36135,1,8,0:0:0:0:
301,141,36238,2,0,P|251:122|193:124,1,80,0|8,0:0|0:0,0:0:0:0:
79,326,36445,37,0,0:0:0:0:
79,326,36549,2,0,P|133:279|236:290,1,160,8|8,0:0|0:0,0:0:0:0:
370,368,36859,2,0,P|439:347|464:327,1,80,0|8,0:0|0:0,0:0:0:0:
397,166,37066,1,0,0:0:0:0:
373,264,37169,1,8,0:0:0:0:
294,188,37273,6,0,P|301:121|316:91,1,80,4|8,0:0|0:0,0:0:0:0:
402,60,37480,1,0,0:0:0:0:
402,60,37583,2,0,P|335:68|256:4,1,160,8|8,0:0|0:0,0:0:0:0:
182,133,37893,2,0,L|195:240,1,80,0|8,0:0|0:0,0:0:0:0:
229,342,38100,37,0,0:0:0:0:
133,310,38204,2,0,B|93:258|93:258|78:147,1,160,8|8,0:0|0:0,0:0:0:0:
342,217,38514,2,0,P|325:285|296:315,1,80,0|8,0:0|0:0,0:0:0:0:
182,133,38721,1,0,0:0:0:0:
282,120,38824,2,0,B|381:112|381:112|461:144,1,160,8|8,0:0|0:0,0:0:0:0:
501,308,39135,5,0,0:0:0:0:
501,308,39238,2,0,L|494:209,1,80,8|0,0:0|0:0,0:0:0:0:
442,54,39445,1,8,0:0:0:0:
442,54,39548,2,0,L|435:153,1,80,0|8,0:0|0:0,0:0:0:0:
414,369,39755,37,0,0:0:0:0:
414,369,39859,2,0,P|354:313|330:226,1,160,8|8,0:0|0:0,0:0:0:0:
278,58,40169,2,0,P|243:109|237:164,1,80,0|8,0:0|0:0,0:0:0:0:
252,362,40376,1,0,0:0:0:0:
150,379,40480,1,8,0:0:0:0:
76,304,40583,6,0,L|32:293,1,40,0|0,0:0|0:0,0:0:0:0:
83,280,40686,2,0,L|38:259,1,40,0|0,0:0|0:0,0:0:0:0:
91,258,40790,2,0,L|37:220,1,40,0|0,0:0|0:0,0:0:0:0:
98,240,40893,38,0,L|175:228,1,68.0000012969971,12|0,0:0|0:0,0:0:0:0:
357,255,41100,1,12,0:0:0:0:
262,295,41204,2,0,P|251:336|256:386,2,68.0000012969971,0|0|0,0:0|0:0|0:0,0:0:0:0:
416,172,41514,6,0,L|508:179,1,68.0000012969971,12|0,0:0|0:0,0:0:0:0:
298,100,41721,1,12,0:0:0:0:
357,255,41824,38,0,P|403:275|441:278,1,60.0000022888184,8|8,0:0|0:0,0:0:0:0:
279,92,42031,2,0,P|241:108|216:136,1,60.0000022888184,8|8,0:0|0:0,0:0:0:0:
159,280,42238,5,4,0:0:0:0:
159,280,42342,1,8,0:0:0:0:
159,280,42445,1,0,0:0:0:0:
56,229,42549,2,0,L|40:66,1,160,8|8,0:0|0:0,0:0:0:0:
263,239,42859,2,0,L|256:321,1,80,0|8,0:0|0:0,0:0:0:0:
152,143,43066,37,0,0:0:0:0:
229,79,43169,2,0,P|291:62|327:64,1,80,8|0,0:0|0:0,0:0:0:0:
485,167,43376,1,8,0:0:0:0:
403,226,43480,1,0,0:0:0:0:
403,226,43583,1,8,0:0:0:0:
403,226,43686,1,8,0:0:0:0:
395,118,43790,1,8,0:0:0:0:
303,167,43893,6,0,P|280:220|278:276,1,80,4|8,0:0|0:0,0:0:0:0:
294,366,44100,1,0,0:0:0:0:
294,366,44204,2,0,B|196:358|196:358|125:305,1,160,8|8,0:0|0:0,0:0:0:0:
193,159,44514,2,0,L|180:69,1,80,0|8,0:0|0:0,0:0:0:0:
30,197,44721,37,0,0:0:0:0:
30,197,44824,2,0,P|87:220|143:219,1,80,8|0,0:0|0:0,0:0:0:0:
296,137,45031,1,8,0:0:0:0:
262,234,45135,6,0,L|256:288,3,40,0|0|0|0,0:0|0:0|0:0|0:0,0:0:0:0:
362,220,45342,2,0,L|370:278,3,40,0|0|0|0,0:0|0:0|0:0|0:0,0:0:0:0:
296,137,45549,38,0,P|254:119|189:119,1,80,4|8,0:0|0:0,0:0:0:0:
30,197,45755,1,0,0:0:0:0:
30,197,45859,2,0,L|16:366,1,160,8|8,0:0|0:0,0:0:0:0:
239,298,46169,2,0,L|228:193,1,80,0|8,0:0|0:0,0:0:0:0:
84,113,46376,5,0,0:0:0:0:
84,113,46480,2,0,P|136:134|183:134,1,80,8|0,0:0|0:0,0:0:0:0:
324,6,46686,1,8,0:0:0:0:
324,6,46790,2,0,P|268:16|229:42,1,80,0|8,0:0|0:0,0:0:0:0:
128,236,46997,1,8,0:0:0:0:
230,218,47100,1,8,0:0:0:0:
331,201,47204,38,0,L|439:182,2,80,4|8|0,0:0|0:0|0:0,0:0:0:0:
108,243,47514,2,0,P|56:303|61:387,1,160,8|8,0:0|0:0,0:0:0:0:
219,199,47824,2,0,L|212:101,1,80,4|8,0:0|0:0,0:0:0:0:
156,338,48031,5,0,0:0:0:0:
156,338,48135,2,0,L|215:344,3,40,0|0|0|0,0:0|0:0|0:0|0:0,0:0:0:0:
293,300,48341,1,8,0:0:0:0:
293,300,48445,2,0,L|332:295,3,40,0|0|0|0,0:0|0:0|0:0|0:0,0:0:0:0:
431,331,48652,37,12,0:0:0:0:
431,331,48859,6,0,L|438:241,1,68.0000012969971,8|0,0:0|0:0,0:0:0:0:
362,123,49066,2,0,L|356:190,1,68.0000012969971,8|0,0:0|0:0,0:0:0:0:
198,282,49273,2,0,L|192:214,1,68.0000012969971,8|0,0:0|0:0,0:0:0:0:
245,63,49480,2,0,L|250:130,1,68.0000012969971,8|0,0:0|0:0,0:0:0:0:
272,358,49686,38,0,P|327:372|369:369,1,68.0000012969971,8|0,0:0|0:0,0:0:0:0:
221,176,49893,2,0,P|162:194|138:216,1,68.0000012969971,8|0,0:0|0:0,0:0:0:0:
321,266,50100,2,0,L|325:177,1,68.0000012969971,8|0,0:0|0:0,0:0:0:0:
162,302,50307,2,0,L|168:377,1,68.0000012969971,8|0,0:0|0:0,0:0:0:0:
427,323,50514,5,12,0:0:0:0:
340,274,50618,1,0,0:0:0:0:
444,328,50721,2,0,L|534:321,1,80,0|0,0:0|0:0,0:0:0:0:
353,172,50928,37,0,0:0:0:0:
257,213,51031,1,0,0:0:0:0:
369,167,51135,2,0,L|458:171,1,80,0|0,0:0|0:0,0:0:0:0:
249,351,51342,5,0,0:0:0:0:
167,263,51446,1,0,0:0:0:0:
266,356,51549,2,0,L|356:349,1,80,0|0,0:0|0:0,0:0:0:0:
173,144,51755,37,0,0:0:0:0:
68,228,51858,1,0,0:0:0:0:
189,139,51962,2,0,L|278:143,1,80,0|0,0:0|0:0,0:0:0:0:
124,380,52169,6,0,P|92:370|54:342,1,68.0000012969971,12|0,0:0|0:0,0:0:0:0:
77,247,52376,2,0,P|109:257|137:275,1,68.0000012969971,8|0,0:0|0:0,0:0:0:0:
296,348,52583,2,0,L|303:275,1,68.0000012969971,8|0,0:0|0:0,0:0:0:0:
213,151,52790,2,0,L|224:244,1,68.0000012969971,8|0,0:0|0:0,0:0:0:0:
49,147,52997,38,0,P|57:120|87:80,1,68.0000012969971,8|0,0:0|0:0,0:0:0:0:
208,48,53204,2,0,P|254:55|297:78,1,68.0000012969971,8|0,0:0|0:0,0:0:0:0:
419,210,53411,2,0,P|480:192|497:179,1,68.0000012969971,8|0,0:0|0:0,0:0:0:0:
338,149,53618,2,0,P|317:210|320:238,1,68.0000012969971,8|0,0:0|0:0,0:0:0:0:
274,351,53824,5,12,0:0:0:0:
274,351,53928,1,8,0:0:0:0:
239,34,54135,37,8,0:0:0:0:
239,34,54239,1,8,0:0:0:0:
377,321,54445,5,8,0:0:0:0:
377,321,54549,1,8,0:0:0:0:
136,64,54756,37,8,0:0:0:0:
136,64,54860,1,8,0:0:0:0:
279,255,55066,5,8,0:0:0:0:
319,168,55169,1,8,0:0:0:0:
232,128,55273,1,8,0:0:0:0:
192,215,55376,1,8,0:0:0:0:
327,229,55480,38,0,L|408:221,1,68.0000012969971,12|0,0:0|0:0,0:0:0:0:
407,118,55686,2,0,L|338:125,1,68.0000012969971,8|0,0:0|0:0,0:0:0:0:
172,227,55893,2,0,P|112:204|90:180,1,68.0000012969971,8|0,0:0|0:0,0:0:0:0:
116,36,56100,2,0,P|132:75|135:118,1,68.0000012969971,8|0,0:0|0:0,0:0:0:0:
76,307,56307,6,0,L|2:314,1,68.0000012969971,8|0,0:0|0:0,0:0:0:0:
155,373,56514,2,0,L|228:366,1,68.0000012969971,8|0,0:0|0:0,0:0:0:0:
339,251,56721,2,0,P|310:304|308:333,1,68.0000012969971,8|0,0:0|0:0,0:0:0:0:
442,238,56928,2,0,P|419:184|393:159,1,68.0000012969971,8|0,0:0|0:0,0:0:0:0:
278,91,57135,37,12,0:0:0:0:
261,188,57238,1,0,0:0:0:0:
292,81,57342,2,0,L|284:-21,1,80,0|0,0:0|0:0,0:0:0:0:
135,152,57549,5,0,0:0:0:0:
242,181,57652,1,0,0:0:0:0:
115,148,57755,2,0,L|28:158,1,80,0|0,0:0|0:0,0:0:0:0:
275,285,57962,37,0,0:0:0:0:
259,172,58065,1,0,0:0:0:0:
279,301,58169,2,0,L|270:389,1,80,0|0,0:0|0:0,0:0:0:0:
374,158,58376,5,0,0:0:0:0:
242,181,58480,1,0,0:0:0:0:
394,155,58583,2,0,L|482:163,1,80,0|0,0:0|0:0,0:0:0:0:
175,263,58790,38,0,P|125:243|102:222,1,68.0000012969971
130,79,58997,2,0,P|154:131|156:165,1,68.0000012969971,0|0,0:0|0:0,0:0:0:0:
228,353,59204,2,0,L|307:358,1,68.0000012969971,0|0,0:0|0:0,0:0:0:0:
379,254,59411,2,0,L|300:259,1,68.0000012969971,0|0,0:0|0:0,0:0:0:0:
114,350,59618,6,0,L|60:343,3,34.0000006484985,8|0|0|0,0:0|0:0|0:0|0:0,0:0:0:0:
99,285,59824,2,0,L|45:278,3,34.0000006484985,0|0|0|0,0:0|0:0|0:0|0:0,0:0:0:0:
91,222,60031,2,0,L|37:215,3,34.0000006484985,0|0|0|0,0:0|0:0|0:0|0:0,0:0:0:0:
77,164,60238,2,0,L|23:157,3,34.0000006484985,0|0|0|0,0:0|0:0|0:0|0:0,0:0:0:0:
157,95,60445,38,0,P|213:75|270:82,1,102.000001945496,4|0,0:0|0:0,0:0:0:0:
301,101,60652,2,0,L|308:154,3,34.0000006484985,0|0|0|0,0:0|0:0|0:0|0:0,0:0:0:0:
360,115,60859,2,0,L|367:168,3,34.0000006484985,0|0|0|0,0:0|0:0|0:0|0:0,0:0:0:0:
418,129,61066,2,0,L|425:182,3,34.0000006484985,0|0|0|0,0:0|0:0|0:0|0:0,0:0:0:0:
473,45,61273,5,12,0:0:0:0:
483,35,61583,1,12,0:0:0:0:
493,28,61893,1,12,0:0:0:0:
241,240,62100,6,0,P|230:276|233:332,1,80,0|8,0:0|0:0,0:0:0:0:
343,248,62307,2,0,P|336:200|299:158,1,80,0|8,0:0|0:0,0:0:0:0:
140,220,62514,1,0,0:0:0:0:
106,127,62618,1,8,0:0:0:0:
202,142,62721,1,0,0:0:0:0:
123,232,62824,1,8,0:0:0:0:
93,110,62928,6,0,P|131:63|229:39,2,160,4|0|0,0:0|0:0|0:0,0:0:0:0:
140,220,63445,1,8,0:0:0:0:
202,142,63549,1,0,0:0:0:0:
106,127,63652,1,8,0:0:0:0:
123,232,63755,38,0,P|201:272|221:273,1,80,4|8,0:0|0:0,0:0:0:0:
313,188,63962,2,0,P|359:175|408:181,1,80,0|8,0:0|0:0,0:0:0:0:
496,258,64169,1,0,0:0:0:0:
423,328,64273,1,8,0:0:0:0:
332,288,64376,1,0,0:0:0:0:
255,350,64480,1,8,0:0:0:0:
191,270,64583,6,0,L|176:103,1,160,4|0,0:0|0:0,0:0:0:0:
262,56,64893,1,8,0:0:0:0:
262,56,64997,2,0,P|195:11|104:37,1,160,0|0,0:0|0:0,0:0:0:0:
79,203,65307,1,8,0:0:0:0:
79,203,65411,38,0,L|70:107,1,80,4|8,0:0|0:0,0:0:0:0:
176,110,65618,2,0,L|184:209,1,80,0|8,0:0|0:0,0:0:0:0:
268,327,65824,1,0,0:0:0:0:
289,233,65928,1,8,0:0:0:0:
194,208,66031,1,0,0:0:0:0:
170,304,66135,1,8,0:0:0:0:
283,339,66238,6,0,B|345:344|345:344|379:326|379:326|462:334,2,160,4|0|0,0:0|0:0|0:0,0:0:0:0:
170,304,66755,1,8,0:0:0:0:
236,230,66859,1,0,0:0:0:0:
268,327,66962,1,8,0:0:0:0:
151,292,67066,38,0,P|133:235|138:189,1,80,4|8,0:0|0:0,0:0:0:0:
322,173,67273,2,0,P|340:225|327:284,1,80,0|8,0:0|0:0,0:0:0:0:
226,135,67480,1,0,0:0:0:0:
301,73,67583,1,8,0:0:0:0:
398,107,67686,1,0,0:0:0:0:
473,37,67790,1,8,0:0:0:0:
379,5,67893,5,4,0:0:0:0:
256,290,68100,2,0,L|198:295,3,40,8|0|0|0,0:0|0:0|0:0|0:0,0:0:0:0:
227,234,68307,2,0,L|187:230,3,40,8|0|0|0,0:0|0:0|0:0|0:0,0:0:0:0:
213,173,68514,2,0,L|173:164,3,40,0|0|0|0,0:0|0:0|0:0|0:0,0:0:0:0:
323,203,68721,38,0,L|426:191,1,80,4|8,0:0|0:0,0:0:0:0:
375,96,68928,2,0,L|276:109,1,80,0|8,0:0|0:0,0:0:0:0:
213,173,69135,1,0,0:0:0:0:
114,166,69238,1,8,0:0:0:0:
177,77,69342,1,0,0:0:0:0:
230,180,69445,1,8,0:0:0:0:
159,262,69549,6,0,P|121:271|58:266,1,80,4|8,0:0|0:0,0:0:0:0:
245,188,69755,2,0,P|291:191|336:211,1,80,0|8,0:0|0:0,0:0:0:0:
353,354,69962,1,0,0:0:0:0:
273,291,70066,1,8,0:0:0:0:
337,217,70169,1,0,0:0:0:0:
417,281,70273,1,8,0:0:0:0:
339,364,70376,38,0,L|167:341,2,160,4|0|0,0:0|0:0|0:0,0:0:0:0:
427,309,70893,1,8,0:0:0:0:
334,264,70997,1,0,0:0:0:0:
419,207,71100,1,8,0:0:0:0:
329,165,71204,6,0,P|267:163|187:228,1,160,4|0,0:0|0:0,0:0:0:0:
154,321,71514,1,8,0:0:0:0:
154,321,71618,2,0,P|98:265|97:167,1,160,0|0,0:0|0:0,0:0:0:0:
198,79,71928,1,8,0:0:0:0:
198,79,72031,38,0,L|110:86,1,80,4|8,0:0|0:0,0:0:0:0:
10,177,72238,2,0,L|100:188,1,80,0|8,0:0|0:0,0:0:0:0:
205,214,72445,1,0,0:0:0:0:
217,317,72549,1,8,0:0:0:0:
122,282,72652,1,0,0:0:0:0:
194,197,72755,1,8,0:0:0:0:
302,250,72859,6,0,B|399:257|399:257|472:224,2,160,4|0|0,0:0|0:0|0:0,0:0:0:0:
205,214,73376,1,8,0:0:0:0:
184,113,73480,1,0,0:0:0:0:
257,51,73583,1,8,0:0:0:0:
282,148,73686,37,4,0:0:0:0:
79,76,73893,2,0,L|26:69,3,40,8|0|0|0,0:0|0:0|0:0|0:0,0:0:0:0:
64,131,74100,2,0,L|5:138,3,40,8|0|0|0,0:0|0:0|0:0|0:0,0:0:0:0:
47,182,74307,2,0,L|-11:198,3,40,0|0|0|0,0:0|0:0|0:0|0:0,0:0:0:0:
171,158,74514,5,8,0:0:0:0:
146,264,74618,1,8,0:0:0:0:
262,197,74721,1,8,0:0:0:0:
239,301,74824,1,8,0:0:0:0:
361,233,74928,2,0,L|424:226,7,40,8|0|0|0|0|0|0|0,0:0|0:0|0:0|0:0|0:0|0:0|0:0|0:0,0:0:0:0:
459,223,75342,37,4,0:0:0:0:
350,172,81755,21,12,0:0:0:0:
350,172,81962,2,0,B|307:160|269:180|269:180|236:160|236:160|183:182|131:162,1,215.999993408203,4|0,0:0|0:0,0:0:0:0:
51,24,82376,2,0,P|114:21|186:86,1,143.999995605469,8|0,0:0|0:0,0:0:0:0:
137,271,82686,1,0,0:0:0:0:
49,218,82790,6,0,L|34:110,2,95.9999970703126,0|0|0,0:0|0:0|0:0,0:0:0:0:
69,349,83204,2,0,P|105:369|151:375,1,71.9999978027344,8|0,0:0|0:0,0:0:0:0:
228,321,83411,2,0,P|265:302|308:300,1,71.9999978027344
415,367,83618,38,0,L|532:378,2,95.9999970703126
297,304,84031,2,0,P|284:269|287:212,1,71.9999978027344,8|0,0:0|0:0,0:0:0:0:
323,137,84238,1,0,0:0:0:0:
323,137,84342,1,0,0:0:0:0:
323,137,84445,6,0,P|277:175|178:166,1,143.999995605469,0|0,0:0|0:0,0:0:0:0:
96,31,84755,1,0,0:0:0:0:
96,31,84859,2,0,P|119:77|125:116,1,71.9999978027344,8|0,0:0|0:0,0:0:0:0:
65,264,85066,1,0,0:0:0:0:
65,264,85273,38,0,P|76:219|96:191,1,71.9999978027344,4|0,0:0|0:0,0:0:0:0:
113,357,85480,2,0,P|156:376|213:377,1,71.9999978027344,0|0,0:0|0:0,0:0:0:0:
233,245,85686,2,0,P|186:257|157:281,2,71.9999978027344,8|0|0,0:0|0:0|0:0,0:0:0:0:
333,283,85997,1,0,0:0:0:0:
333,283,86100,6,0,L|410:291,1,71.9999978027344,0|0,0:0|0:0,0:0:0:0:
455,172,86307,2,0,L|377:182,1,71.9999978027344,0|0,0:0|0:0,0:0:0:0:
251,345,86514,1,8,0:0:0:0:
251,345,86721,2,0,P|227:290|226:253,1,71.9999978027344,0|0,0:0|0:0,0:0:0:0:
336,72,86928,38,0,L|429:81,2,71.9999978027344
234,62,87238,1,0,0:0:0:0:
383,181,87342,6,0,L|457:171,2,71.9999978027344,8|0|0,0:0|0:0|0:0,0:0:0:0:
280,201,87652,1,0,0:0:0:0:
459,282,87755,38,0,L|533:250,2,71.9999978027344
367,327,88066,1,0,0:0:0:0:
188,254,88169,6,0,P|177:187|231:109,1,143.999995605469,8|0,0:0|0:0,0:0:0:0:
312,90,88480,1,0,0:0:0:0:
312,90,88583,38,0,B|243:83|243:83|205:52|205:52|146:48|97:94,1,215.999993408203,4|0,0:0|0:0,0:0:0:0:
50,209,88997,1,8,0:0:0:0:
50,209,89100,1,0,0:0:0:0:
50,209,89204,2,0,L|147:197,1,71.9999978027344,0|0,0:0|0:0,0:0:0:0:
338,252,89411,6,0,L|344:335,2,71.9999978027344,0|0|0,0:0|0:0|0:0,0:0:0:0:
330,149,89721,1,0,0:0:0:0:
217,275,89824,38,0,L|211:358,2,71.9999978027344,8|0|0,0:0|0:0|0:0,0:0:0:0:
226,175,90134,1,0,0:0:0:0:
95,302,90238,6,0,L|77:383,2,71.9999978027344,0|0|0,0:0|0:0|0:0,0:0:0:0:
121,200,90548,1,0,0:0:0:0:
211,346,90652,38,0,P|287:353|343:320,1,143.999995605469,8|0,0:0|0:0,0:0:0:0:
283,196,90962,1,0,0:0:0:0:
283,196,91066,6,0,P|323:213|366:214,1,71.9999978027344,0|0,0:0|0:0,0:0:0:0:
502,122,91273,1,0,0:0:0:0:
502,122,91377,2,0,P|465:145|422:153,1,71.9999978027344,0|8,0:0|0:0,0:0:0:0:
284,64,91583,1,0,0:0:0:0:
284,64,91687,2,0,P|322:88|348:119,1,71.9999978027344,0|0,0:0|0:0,0:0:0:0:
436,275,91893,38,0,L|510:279,2,71.9999978027344,4|0|0,0:0|0:0|0:0,0:0:0:0:
351,215,92204,1,0,0:0:0:0:
350,215,92307,2,0,P|307:228|277:253,1,71.9999978027344,8|0,0:0|0:0,0:0:0:0:
198,349,92514,2,0,P|131:337|102:321,1,71.9999978027344,0|0,0:0|0:0,0:0:0:0:
169,172,92721,6,0,L|188:270,2,71.9999978027344,0|0|0,0:0|0:0|0:0,0:0:0:0:
148,74,93031,1,0,0:0:0:0:
21,180,93135,2,0,P|7:235|9:268,1,71.9999978027344,8|0,0:0|0:0,0:0:0:0:
264,311,93342,2,0,P|283:266|282:213,1,71.9999978027344,0|0,0:0|0:0,0:0:0:0:
148,74,93549,37,0,0:0:0:0:
148,74,93652,2,0,L|241:81,1,71.9999978027344,8|0,0:0|0:0,0:0:0:0:
385,34,93859,1,0,0:0:0:0:
385,34,93962,2,0,L|288:28,1,71.9999978027344,8|0,0:0|0:0,0:0:0:0:
204,181,94169,1,8,0:0:0:0:
301,146,94273,1,0,0:0:0:0:
386,210,94376,6,0,B|410:258|410:258|401:372,1,143.999995605469,0|0,0:0|0:0,0:0:0:0:
123,245,94686,2,0,B|99:197|99:197|108:83,1,143.999995605469,8|8,0:0|0:0,0:0:0:0:
312,46,94997,1,0,0:0:0:0:
301,146,95100,1,8,0:0:0:0:
290,248,95204,38,0,L|283:339,1,75.9999979705811,4|8,0:0|0:0,0:0:0:0:
396,289,95411,2,0,L|403:206,1,75.9999979705811,0|8,0:0|0:0,0:0:0:0:
213,88,95618,1,0,0:0:0:0:
213,88,95721,1,8,0:0:0:0:
213,88,95824,2,0,P|184:144|179:185,1,75.9999979705811,0|8,0:0|0:0,0:0:0:0:
171,319,96031,6,0,P|101:338|66:332,1,75.9999979705811,0|8,0:0|0:0,0:0:0:0:
36,219,96238,2,0,P|92:226|120:239,1,75.9999979705811,0|8,0:0|0:0,0:0:0:0:
281,337,96445,1,0,0:0:0:0:
281,337,96549,1,8,0:0:0:0:
281,337,96652,2,0,L|291:248,1,75.9999979705811,0|8,0:0|0:0,0:0:0:0:
311,37,96859,38,0,P|331:74|338:140,1,75.9999979705811,4|8,0:0|0:0,0:0:0:0:
212,185,97066,2,0,P|216:148|240:102,1,75.9999979705811,0|8,0:0|0:0,0:0:0:0:
436,52,97273,1,0,0:0:0:0:
436,52,97376,1,8,0:0:0:0:
436,52,97480,2,0,L|533:62,1,75.9999979705811,0|8,0:0|0:0,0:0:0:0:
227,100,97686,6,0,L|127:91,1,80,4|0,0:0|0:0,0:0:0:0:
310,36,97893,1,0,0:0:0:0:
325,132,97997,1,0,0:0:0:0:
249,198,98100,2,0,B|212:212|173:203|173:203|148:221|148:221|69:201|11:264,1,240,0|8,0:0|0:0,0:0:0:0:
196,380,98514,37,4,0:0:0:0:
196,380,98618,1,8,0:0:0:0:
196,380,98721,2,0,P|211:321|205:277,1,75.9999979705811,0|8,0:0|0:0,0:0:0:0:
63,200,98928,1,0,0:0:0:0:
63,200,99031,1,8,0:0:0:0:
63,200,99135,2,0,P|120:233|163:241,1,75.9999979705811,0|8,0:0|0:0,0:0:0:0:
298,169,99342,5,0,0:0:0:0:
298,169,99445,1,8,0:0:0:0:
298,169,99549,2,0,P|259:182|218:214,1,75.9999979705811,0|8,0:0|0:0,0:0:0:0:
196,379,99755,2,0,L|357:367,1,151.999995941162,0|0,0:0|0:0,0:0:0:0:
512,334,100066,1,8,0:0:0:0:
512,334,100169,38,0,P|464:326|413:295,1,75.9999979705811,4|8,0:0|0:0,0:0:0:0:
403,158,100376,2,0,P|444:133|503:124,1,75.9999979705811,0|8,0:0|0:0,0:0:0:0:
352,253,100583,2,0,L|253:245,1,75.9999979705811,0|8,0:0|0:0,0:0:0:0:
255,76,100790,2,0,L|353:85,1,75.9999979705811,0|8,0:0|0:0,0:0:0:0:
254,350,100997,6,0,B|225:320|232:275|232:275|218:253|218:253|232:176|161:135,1,227.999993911743,4|8,0:0|0:0,0:0:0:0:
104,3,101411,1,0,0:0:0:0:
89,99,101514,1,8,0:0:0:0:
178,146,101618,1,0,0:0:0:0:
255,76,101721,38,0,L|419:91,1,151.999995941162,12|8,0:0|0:0,0:0:0:0:
492,161,102031,2,0,L|496:211,2,50.6666653137207,0|0|0,0:0|0:0|0:0,0:0:0:0:
443,185,102238,2,0,L|438:235,2,50.6666653137207,0|0|0,0:0|0:0|0:0,0:0:0:0:
391,200,102445,2,0,L|378:253,2,50.6666653137207,0|0|0,0:0|0:0|0:0,0:0:0:0:
281,170,102652,5,0,0:0:0:0:
267,185,102721,1,0,0:0:0:0:
259,203,102790,1,0,0:0:0:0:
256,223,102859,2,0,P|272:275|282:286,2,50.6666653137207,0|0|0,0:0|0:0|0:0,0:0:0:0:
260,370,103066,37,0,0:0:0:0:
239,370,103135,1,0,0:0:0:0:
219,365,103204,1,0,0:0:0:0:
202,353,103273,2,0,P|184:333|171:305,2,50.6666653137207,0|0|0,0:0|0:0|0:0,0:0:0:0:
153,149,103480,5,4,0:0:0:0:
132,145,103549,1,0,0:0:0:0:
111,147,103618,1,0,0:0:0:0:
92,155,103686,1,0,0:0:0:0:
77,168,103755,1,0,0:0:0:0:
65,184,103824,1,0,0:0:0:0:
57,203,103893,38,0,L|51:273,2,50.6666653137207
71,301,104100,2,0,L|75:351,2,50.6666653137207,0|0|0,0:0|0:0|0:0,0:0:0:0:
202,353,104307,6,0,P|245:282|227:197,1,151.999995941162,4|0,0:0|0:0,0:0:0:0:
77,138,104618,1,0,0:0:0:0:
77,138,104721,2,0,L|181:152,1,75.9999979705811,0|0,0:0|0:0,0:0:0:0:
255,111,104928,2,0,L|337:104,1,75.9999979705811,0|0,0:0|0:0,0:0:0:0:
487,177,105135,37,4,0:0:0:0:
487,177,105238,1,0,0:0:0:0:
487,177,105342,2,0,P|436:192|405:209,1,71.9999978027344,0|0,0:0|0:0,0:0:0:0:
343,360,105549,1,8,0:0:0:0:
343,360,105652,1,0,0:0:0:0:
343,360,105755,2,0,P|360:313|361:260,1,71.9999978027344,0|0,0:0|0:0,0:0:0:0:
252,13,105962,5,0,0:0:0:0:
255,111,106066,1,0,0:0:0:0:
259,210,106169,2,0,L|264:305,1,71.9999978027344,0|0,0:0|0:0,0:0:0:0:
61,317,106376,1,8,0:0:0:0:
69,217,106480,1,0,0:0:0:0:
78,118,106583,2,0,P|123:86|168:75,1,71.9999978027344,0|0,0:0|0:0,0:0:0:0:
385,140,106790,37,8,0:0:0:0:
446,58,106893,1,0,0:0:0:0:
347,46,106997,1,8,0:0:0:0:
284,124,107100,1,0,0:0:0:0:
319,218,107204,2,0,P|371:240|415:242,1,71.9999978027344,8|0,0:0|0:0,0:0:0:0:
248,25,107411,2,0,P|187:4|147:9,1,71.9999978027344,8|0,0:0|0:0,0:0:0:0:
154,241,107618,6,0,B|190:191|190:191|183:83,1,143.999995605469,12|0,0:0|0:0,0:0:0:0:
72,308,107928,2,0,B|124:342|124:342|235:335,1,143.999995605469,12|0,0:0|0:0,0:0:0:0:
86,162,108238,2,0,L|-12:168,1,71.9999978027344,12|0,0:0|0:0,0:0:0:0:
349,44,108445,38,0,B|399:70|412:113|412:113|382:157|382:157|395:246,1,215.999993408203,0|8,0:0|0:0,0:0:0:0:
443,348,108859,2,0,P|486:361|530:362,1,71.9999978027344,0|8,0:0|0:0,0:0:0:0:
289,202,109066,1,0,0:0:0:0:
234,286,109169,1,8,0:0:0:0:
144,234,109273,6,0,P|103:148|117:77,1,143.999995605469,0|0,0:0|0:0,0:0:0:0:
264,103,109583,1,8,0:0:0:0:
264,103,109686,2,0,P|219:127|196:153,1,71.9999978027344,0|8,0:0|0:0,0:0:0:0:
334,295,109893,2,0,P|359:282|400:228,1,71.9999978027344,0|8,0:0|0:0,0:0:0:0:
363,4,110100,38,0,L|374:175,2,143.999995605469,4|0|0,0:0|0:0|0:0,0:0:0:0:
481,38,110618,1,8,0:0:0:0:
481,38,110721,2,0,L|470:137,1,71.9999978027344,0|8,0:0|0:0,0:0:0:0:
334,295,110928,6,0,P|269:305|194:266,1,143.999995605469,4|0,0:0|0:0,0:0:0:0:
249,138,111238,1,8,0:0:0:0:
249,138,111342,2,0,P|281:205|283:232,1,71.9999978027344,0|8,0:0|0:0,0:0:0:0:
103,299,111549,2,0,P|101:250|119:208,1,71.9999978027344,0|8,0:0|0:0,0:0:0:0:
344,68,111755,37,4,0:0:0:0:
257,12,111859,1,8,0:0:0:0:
357,80,111962,2,0,L|438:86,1,71.9999978027344,0|8,0:0|0:0,0:0:0:0:
151,156,112169,5,0,0:0:0:0:
250,117,112273,1,8,0:0:0:0:
132,170,112376,2,0,L|32:175,1,71.9999978027344,0|8,0:0|0:0,0:0:0:0:
309,286,112583,37,0,0:0:0:0:
221,230,112686,1,8,0:0:0:0:
322,298,112790,2,0,L|409:305,1,71.9999978027344,0|8,0:0|0:0,0:0:0:0:
127,370,112997,5,0,0:0:0:0:
222,332,113100,1,8,0:0:0:0:
108,376,113204,2,0,P|56:365|26:346,1,71.9999978027344,0|8,0:0|0:0,0:0:0:0:
187,101,113411,38,0,B|226:143|226:143|219:256,1,143.999995605469,4|0,0:0|0:0,0:0:0:0:
97,40,113721,2,0,P|158:1|259:12,1,143.999995605469,8|8,0:0|0:0,0:0:0:0:
119,180,114031,2,0,L|24:187,1,71.9999978027344,0|8,0:0|0:0,0:0:0:0:
327,271,114238,6,0,L|494:254,1,143.999995605469,4|0,0:0|0:0,0:0:0:0:
245,367,114549,1,8,0:0:0:0:
245,367,114652,2,0,L|337:378,1,71.9999978027344,0|8,0:0|0:0,0:0:0:0:
266,143,114859,2,0,P|240:209|244:237,1,71.9999978027344,0|8,0:0|0:0,0:0:0:0:
448,58,115066,38,0,L|362:49,1,71.9999978027344,4|8,0:0|0:0,0:0:0:0:
181,86,115273,1,0,0:0:0:0:
271,39,115376,1,8,0:0:0:0:
161,95,115480,2,0,L|80:104,1,71.9999978027344,0|8,0:0|0:0,0:0:0:0:
376,50,115686,2,0,P|397:89|406:150,1,71.9999978027344,0|8,0:0|0:0,0:0:0:0:
236,258,115893,6,0,L|187:253,3,35.9999989013672,0|0|0|0,0:0|0:0|0:0|0:0,0:0:0:0:
335,220,116100,2,0,L|384:215,3,35.9999989013672,0|0|0|0,0:0|0:0|0:0|0:0,0:0:0:0:
225,155,116307,38,0,L|178:136,1,35.9999989013672,8|0,0:0|0:0,0:0:0:0:
244,131,116411,2,0,L|194:110,1,35.9999989013672,0|0,0:0|0:0,0:0:0:0:
265,110,116514,6,0,L|298:123,1,35.9999989013672,12|0,0:0|0:0,0:0:0:0:
281,88,116618,2,0,L|314:101,1,35.9999989013672,0|0,0:0|0:0,0:0:0:0:
298,67,116721,38,0,B|236:26|236:26|146:31,1,143.999995605469,4|0,0:0|0:0,0:0:0:0:
74,76,117031,1,0,0:0:0:0:
124,172,117135,2,0,L|130:221,3,35.9999989013672
23,209,117342,2,0,L|17:258,3,35.9999989013672,8|0|0|0,0:0|0:0|0:0|0:0,0:0:0:0:
94,329,117549,6,0,L|110:376,1,35.9999989013672,8|0,0:0|0:0,0:0:0:0:
124,315,117652,2,0,L|130:365,1,35.9999989013672
156,309,117755,2,0,L|153:362,1,35.9999989013672
191,307,117859,2,0,L|176:360,1,35.9999989013672,0|0,0:0|0:0,0:0:0:0:
221,315,117962,38,0,P|295:325|310:322,1,71.9999978027344,8|8,0:0|0:0,0:0:0:0:
332,112,118169,2,0,P|276:125|240:150,1,71.9999978027344,8|8,0:0|0:0,0:0:0:0:
489,217,118376,5,12,0:0:0:0:
256,192,120031,37,4,0:0:0:0:
416,56,120859,6,0,L|456:62,3,40,0|0|0|0,0:0|0:0|0:0|0:0,0:0:0:0:
317,94,121066,2,0,L|277:88,3,40,0|0|0|0,0:0|0:0|0:0|0:0,0:0:0:0:
403,157,121273,2,0,L|443:163,3,40,0|0|0|0,0:0|0:0|0:0|0:0,0:0:0:0:
271,219,121480,2,0,P|323:195|338:195,3,40,8|0|0|0,0:0|0:0|0:0|0:0,0:0:0:0:
395,261,121686,38,0,P|414:308|415:355,1,80,4|8,0:0|0:0,0:0:0:0:
156,345,121893,1,0,0:0:0:0:
156,345,121997,2,0,B|253:355|253:355|315:318,1,160,8|8,0:0|0:0,0:0:0:0:
111,183,122307,2,0,P|88:252|95:288,1,80,0|8,0:0|0:0,0:0:0:0:
396,159,122514,5,0,0:0:0:0:
334,77,122618,2,0,L|158:100,1,160,8|8,0:0|0:0,0:0:0:0:
0,56,122928,2,0,P|56:72|99:103,1,80,0|8,0:0|0:0,0:0:0:0:
270,269,123135,1,0,0:0:0:0:
296,174,123238,1,8,0:0:0:0:
262,289,123342,37,4,0:0:0:0:
338,365,123445,1,0,0:0:0:0:
436,332,123549,1,0,0:0:0:0:
447,229,123652,2,0,B|440:171|440:171|410:137|410:137|398:58,1,160,12|0,0:0|0:0,0:0:0:0:
262,289,123962,5,12,0:0:0:0:
161,254,124066,1,0,0:0:0:0:
240,189,124169,1,0,0:0:0:0:
181,356,124273,2,0,P|112:348|55:255,1,160,12|0,0:0|0:0,0:0:0:0:
185,45,124583,38,0,L|200:81,1,40,8|0,0:0|0:0,0:0:0:0:
150,64,124686,2,0,L|174:95,1,40,0|0,0:0|0:0,0:0:0:0:
122,94,124790,2,0,L|154:117,1,40,0|0,0:0|0:0,0:0:0:0:
104,130,124893,2,0,L|141:144,1,40,0|0,0:0|0:0,0:0:0:0:
97,167,124997,6,0,L|212:175,1,80,4|8,0:0|0:0,0:0:0:0:
400,173,125204,1,0,0:0:0:0:
400,173,125307,2,0,B|349:224|349:224|362:333,1,160,8|8,0:0|0:0,0:0:0:0:
479,99,125618,2,0,P|428:71|377:67,1,80,0|8,0:0|0:0,0:0:0:0:
181,171,125824,37,0,0:0:0:0:
83,82,125928,2,0,L|252:60,1,160,8|8,0:0|0:0,0:0:0:0:
92,228,126238,2,0,L|46:221,3,40,8|0|0|0,0:0|0:0|0:0|0:0,0:0:0:0:
188,273,126445,2,0,L|234:266,3,40,8|0|0|0,0:0|0:0|0:0|0:0,0:0:0:0:
99,329,126652,5,12,0:0:0:0:
187,375,126755,1,8,0:0:0:0:
288,353,126859,1,0,0:0:0:0:
288,353,126962,2,0,P|292:260|316:191,1,160,8|8,0:0|0:0,0:0:0:0:
483,130,127273,2,0,L|390:145,1,80,0|8,0:0|0:0,0:0:0:0:
134,61,127480,37,12,0:0:0:0:
234,86,127583,1,0,0:0:0:0:
113,55,127686,2,0,P|50:75|20:104,1,80,12|0,0:0|0:0,0:0:0:0:
151,266,127893,5,12,0:0:0:0:
163,162,127997,1,0,0:0:0:0:
148,286,128100,37,12,0:0:0:0:
250,232,128204,1,0,0:0:0:0:
62,202,128307,6,0,L|-31:209,1,80,4|8,0:0|0:0,0:0:0:0:
0,358,128514,1,0,0:0:0:0:
0,358,128618,2,0,B|42:319|42:319|159:307,1,160,8|8,0:0|0:0,0:0:0:0:
340,370,128928,2,0,L|439:380,1,80,0|8,0:0|0:0,0:0:0:0:
371,155,129135,37,8,0:0:0:0:
263,237,129238,2,0,P|248:284|259:333,1,80,8|0,0:0|0:0,0:0:0:0:
451,225,129445,5,8,0:0:0:0:
268,134,129549,2,0,L|260:72,3,40,8|0|0|0,0:0|0:0|0:0|0:0,0:0:0:0:
360,55,129755,2,0,L|365:15,3,40,0|0|0|0,0:0|0:0|0:0|0:0,0:0:0:0:
371,155,129962,38,0,P|453:164|518:125,1,160,4|0,0:0|0:0,0:0:0:0:
184,20,130273,2,0,B|151:68|151:68|165:171,1,160,4|0,0:0|0:0,0:0:0:0:
94,328,130583,2,0,L|98:224,1,80,4|0,0:0|0:0,0:0:0:0:
371,155,130790,6,0,B|366:211|366:211|334:244|334:244|326:324,1,160,4|8,0:0|0:0,0:0:0:0:
464,106,131100,2,0,P|398:54|315:63,1,160,0|8,0:0|0:0,0:0:0:0:
164,168,131411,1,0,0:0:0:0:
164,168,131618,38,0,L|156:89,1,68.0000012969971,12|0,0:0|0:0,0:0:0:0:
371,155,131824,2,0,L|363:252,1,68.0000012969971,8|0,0:0|0:0,0:0:0:0:
141,287,132031,2,0,P|198:270|234:273,1,68.0000012969971,8|0,0:0|0:0,0:0:0:0:
368,330,132238,2,0,P|313:317|281:295,1,68.0000012969971,8|0,0:0|0:0,0:0:0:0:
258,50,132445,6,0,L|266:146,1,68.0000012969971,8|0,0:0|0:0,0:0:0:0:
466,98,132652,2,0,L|454:4,1,68.0000012969971,8|0,0:0|0:0,0:0:0:0:
340,208,132859,2,0,P|396:228|432:224,1,68.0000012969971,8|0,0:0|0:0,0:0:0:0:
165,102,133066,2,0,P|145:153|148:197,1,68.0000012969971,8|0,0:0|0:0,0:0:0:0:
284,336,133273,37,12,0:0:0:0:
239,233,133376,1,0,0:0:0:0:
293,351,133480,2,0,L|380:363,1,80,0|0,0:0|0:0,0:0:0:0:
442,207,133686,5,0,0:0:0:0:
342,255,133789,1,0,0:0:0:0:
459,194,133893,2,0,L|469:107,1,80,0|0,0:0|0:0,0:0:0:0:
279,58,134100,37,0,0:0:0:0:
351,149,134204,1,0,0:0:0:0:
259,49,134307,2,0,L|155:41,1,80,0|0,0:0|0:0,0:0:0:0:
139,230,134514,5,0,0:0:0:0:
244,158,134618,1,0,0:0:0:0:
125,246,134721,2,0,L|117:346,1,80,0|0,0:0|0:0,0:0:0:0:
453,158,134928,38,0,P|437:86|422:66,1,68.0000012969971,12|0,0:0|0:0,0:0:0:0:
244,158,135135,2,0,P|256:223|269:246,1,68.0000012969971,8|0,0:0|0:0,0:0:0:0:
344,64,135342,2,0,L|268:57,1,68.0000012969971,8|0,0:0|0:0,0:0:0:0:
356,268,135549,2,0,L|439:258,1,68.0000012969971,8|0,0:0|0:0,0:0:0:0:
144,119,135755,6,0,L|134:216,1,68.0000012969971,8|0,0:0|0:0,0:0:0:0:
38,313,135962,2,0,L|46:226,1,68.0000012969971,8|0,0:0|0:0,0:0:0:0:
244,158,136169,2,0,P|271:215|274:247,1,68.0000012969971,8|0,0:0|0:0,0:0:0:0:
41,105,136376,2,0,P|59:54|81:29,1,68.0000012969971,8|0,0:0|0:0,0:0:0:0:
468,139,136583,37,4,0:0:0:0:
468,139,136686,1,0,0:0:0:0:
44,245,136893,5,0,0:0:0:0:
44,245,136996,1,0,0:0:0:0:
444,245,137205,37,0,0:0:0:0:
444,245,137308,1,0,0:0:0:0:
71,135,137515,5,0,0:0:0:0:
71,135,137618,1,0,0:0:0:0:
295,246,137824,37,8,0:0:0:0:
309,151,137927,1,8,0:0:0:0:
215,137,138031,1,8,0:0:0:0:
200,231,138134,1,8,0:0:0:0:
326,142,138238,6,0,P|314:64|305:48,1,68.0000012969971,12|0,0:0|0:0,0:0:0:0:
189,244,138445,2,0,P|205:314|209:321,1,68.0000012969971,8|0,0:0|0:0,0:0:0:0:
205,122,138652,2,0,L|128:117,1,68.0000012969971,8|0,0:0|0:0,0:0:0:0:
309,261,138859,2,0,L|387:267,1,68.0000012969971,8|0,0:0|0:0,0:0:0:0:
384,60,139066,38,0,P|339:66|297:89,1,68.0000012969971,8|0,0:0|0:0,0:0:0:0:
189,244,139273,2,0,P|155:257|113:261,1,68.0000012969971,8|0,0:0|0:0,0:0:0:0:
178,60,139480,2,0,P|201:100|203:142,1,68.0000012969971,8|0,0:0|0:0,0:0:0:0:
257,352,139686,2,0,P|306:364|352:362,1,68.0000012969971,8|0,0:0|0:0,0:0:0:0:
424,177,139893,5,4,0:0:0:0:
329,211,139997,1,0,0:0:0:0:
441,171,140100,2,0,L|525:162,1,80,0|0,0:0|0:0,0:0:0:0:
248,68,140307,37,0,0:0:0:0:
347,108,140411,1,0,0:0:0:0:
227,59,140514,2,0,L|147:52,1,80,0|0,0:0|0:0,0:0:0:0:
278,315,140721,5,0,0:0:0:0:
329,211,140824,1,0,0:0:0:0:
263,328,140928,2,0,L|173:337,1,80,0|0,0:0|0:0,0:0:0:0:
87,136,141135,37,0,0:0:0:0:
197,197,141238,1,0,0:0:0:0:
67,130,141342,2,0,L|-21:125,1,80,0|0,0:0|0:0,0:0:0:0:
21,305,141549,6,0,P|71:297|109:279,1,68.0000012969971,4|0,0:0|0:0,0:0:0:0:
183,93,141755,2,0,P|238:76|276:79,1,68.0000012969971,8|0,0:0|0:0,0:0:0:0:
507,155,141962,2,0,L|516:212,3,34.0000006484985,0|0|0|0,0:0|0:0|0:0|0:0,0:0:0:0:
423,90,142169,2,0,L|428:56,3,34.0000006484985,0|0|0|0,0:0|0:0|0:0|0:0,0:0:0:0:
411,193,142376,37,8,0:0:0:0:
322,240,142480,1,8,0:0:0:0:
254,163,142583,2,0,L|247:75,1,88.000002685547,8|8,0:0|0:0,0:0:0:0:
0,240,142790,5,8,0:0:0:0:
87,292,142894,1,8,0:0:0:0:
144,210,142997,2,0,L|151:118,1,88.000002685547,8|8,0:0|0:0,0:0:0:0:
451,304,143204,38,0,P|409:360|422:291,1,192,4|8,0:0|0:0,0:0:0:0:
224,280,144859,22,0,L|217:359,1,80,4|8,0:0|0:0,0:0:0:0:
153,204,145066,2,0,L|146:124,1,80,0|8,0:0|0:0,0:0:0:0:
372,164,145273,1,0,0:0:0:0:
406,257,145377,1,8,0:0:0:0:
310,242,145480,1,0,0:0:0:0:
389,152,145583,1,8,0:0:0:0:
419,274,145687,6,0,P|381:321|283:345,2,160,4|0|0,0:0|0:0|0:0,0:0:0:0:
372,164,146204,1,8,0:0:0:0:
310,242,146308,1,0,0:0:0:0:
406,257,146411,1,8,0:0:0:0:
389,152,146514,38,0,P|311:112|291:111,1,80,4|8,0:0|0:0,0:0:0:0:
199,196,146721,2,0,P|153:209|104:203,1,80,0|8,0:0|0:0,0:0:0:0:
16,126,146928,1,0,0:0:0:0:
89,56,147032,1,8,0:0:0:0:
180,96,147135,1,0,0:0:0:0:
257,34,147239,1,8,0:0:0:0:
321,114,147342,6,0,L|336:281,1,160,4|0,0:0|0:0,0:0:0:0:
250,328,147652,1,8,0:0:0:0:
250,328,147756,2,0,P|317:373|408:347,1,160,4|0,0:0|0:0,0:0:0:0:
433,181,148066,1,8,0:0:0:0:
433,181,148170,38,0,L|442:277,1,80,4|8,0:0|0:0,0:0:0:0:
336,274,148377,2,0,L|328:175,1,80,0|8,0:0|0:0,0:0:0:0:
244,57,148583,1,0,0:0:0:0:
223,151,148687,1,8,0:0:0:0:
318,176,148790,1,0,0:0:0:0:
342,80,148894,1,8,0:0:0:0:
229,45,148997,6,0,B|167:40|167:40|133:58|133:58|50:50,2,160,4|0|0,0:0|0:0|0:0,0:0:0:0:
342,80,149514,1,8,0:0:0:0:
276,154,149618,1,0,0:0:0:0:
244,57,149721,1,8,0:0:0:0:
361,92,149825,38,0,P|379:149|374:195,1,80,4|8,0:0|0:0,0:0:0:0:
190,211,150032,2,0,P|172:159|185:100,1,80,0|8,0:0|0:0,0:0:0:0:
286,249,150239,1,0,0:0:0:0:
211,311,150342,1,8,0:0:0:0:
114,277,150445,1,0,0:0:0:0:
39,347,150549,1,8,0:0:0:0:
133,379,150652,5,8,0:0:0:0:
256,94,150859,2,0,L|314:89,3,40,0|0|8|0,0:0|0:0|0:0|0:0,0:0:0:0:
285,150,151066,2,0,L|325:154,3,40,0|0|0|0,0:0|0:0|0:0|0:0,0:0:0:0:
299,211,151273,2,0,L|339:220,3,40,4|0|0|0,0:0|0:0|0:0|0:0,0:0:0:0:
189,181,151480,38,0,L|86:193,1,80,12|8,0:0|0:0,0:0:0:0:
137,288,151687,2,0,L|236:275,1,80,0|8,0:0|0:0,0:0:0:0:
299,211,151894,1,0,0:0:0:0:
398,218,151997,1,8,0:0:0:0:
335,307,152101,1,0,0:0:0:0:
282,204,152204,1,8,0:0:0:0:
353,122,152308,6,0,P|391:113|454:118,1,80,4|8,0:0|0:0,0:0:0:0:
267,196,152514,2,0,P|221:193|176:173,1,80,0|8,0:0|0:0,0:0:0:0:
159,30,152721,1,0,0:0:0:0:
239,93,152825,1,8,0:0:0:0:
175,167,152928,1,0,0:0:0:0:
95,103,153032,1,8,0:0:0:0:
173,20,153135,38,0,L|345:43,2,160,4|0|0,0:0|0:0|0:0,0:0:0:0:
85,75,153652,1,8,0:0:0:0:
178,120,153756,1,0,0:0:0:0:
93,177,153859,1,8,0:0:0:0:
183,219,153963,6,0,P|245:221|325:156,1,160,4|0,0:0|0:0,0:0:0:0:
358,63,154273,1,8,0:0:0:0:
358,63,154377,2,0,P|414:119|415:217,1,160,4|0,0:0|0:0,0:0:0:0:
314,305,154687,1,8,0:0:0:0:
314,305,154790,38,0,L|402:298,1,80,4|8,0:0|0:0,0:0:0:0:
502,207,154997,2,0,L|412:196,1,80,0|8,0:0|0:0,0:0:0:0:
307,170,155204,1,0,0:0:0:0:
295,67,155308,1,8,0:0:0:0:
390,102,155411,1,0,0:0:0:0:
318,187,155514,1,8,0:0:0:0:
210,134,155618,6,0,B|113:127|113:127|40:160,2,160,4|0|0,0:0|0:0|0:0,0:0:0:0:
307,170,156135,1,8,0:0:0:0:
328,271,156239,1,0,0:0:0:0:
255,333,156342,1,0,0:0:0:0:
230,236,156445,37,4,0:0:0:0:
433,308,156652,2,0,L|486:315,3,40,0|0|8|0,0:0|0:0|0:0|0:0,0:0:0:0:
448,253,156859,2,0,L|507:246,3,40,4|0|8|0,0:0|0:0|0:0|0:0,0:0:0:0:
465,202,157066,2,0,L|523:186,3,40,0|0|8|0,0:0|0:0|0:0|0:0,0:0:0:0:
388,114,157273,6,0,B|292:107,1,88.000002685547,4|8,0:0|0:0,0:0:0:0:
57,269,157480,2,0,B|185:280,1,88.000002685547,4|8,0:0|0:0,0:0:0:0:
339,211,157686,37,0,0:0:0:0:
241,199,157790,1,8,0:0:0:0:
276,293,157893,1,0,0:0:0:0:
276,293,158100,6,0,B|335:325|335:325|418:312,2,136.000002593994,4|0|8,0:0|0:0|0:0,0:0:0:0:
241,199,158618,1,0,0:0:0:0:
297,117,158721,2,0,P|345:103|386:103,1,68.0000012969971,0|0,0:0|0:0,0:0:0:0:
223,204,158928,38,0,L|71:213,2,136.000002593994,4|0|8,0:0|0:0|0:0,0:0:0:0:
328,217,159445,1,0,0:0:0:0:
426,232,159549,2,0,P|441:269|442:310,1,68.0000012969971,0|0,0:0|0:0,0:0:0:0:
258,109,159755,6,0,P|310:72|385:72,2,136.000002593994,4|0|8,0:0|0:0|0:0,0:0:0:0:
229,208,160273,1,0,0:0:0:0:
135,249,160376,2,0,L|54:253,1,68.0000012969971,0|0,0:0|0:0,0:0:0:0:
328,217,160583,38,0,B|357:277|357:277|346:360,1,136.000002593994,4|0,0:0|0:0,0:0:0:0:
155,377,160893,1,0,0:0:0:0:
155,377,160997,2,0,B|125:315|125:315|137:230,1,136.000002593994,12|0,0:0|0:0,0:0:0:0:
218,158,161307,1,0,0:0:0:0:
218,158,161411,6,0,L|70:144,2,136.000002593994,4|0|8,0:0|0:0|0:0,0:0:0:0:
305,107,161928,1,0,0:0:0:0:
252,18,162031,2,0,P|192:29|162:48,1,68.0000012969971,0|0,0:0|0:0,0:0:0:0:
309,206,162238,38,0,P|385:205|442:153,2,136.000002593994,4|0|8,0:0|0:0|0:0,0:0:0:0:
218,158,162755,1,0,0:0:0:0:
125,199,162859,2,0,P|114:240|117:287,1,68.0000012969971,0|0,0:0|0:0,0:0:0:0:
341,106,163066,6,0,B|286:62|286:62|209:51,2,136.000002593994,4|0|8,0:0|0:0|0:0,0:0:0:0:
368,204,163583,1,0,0:0:0:0:
393,300,163686,2,0,L|469:308,1,68.0000012969971,0|0,0:0|0:0,0:0:0:0:
264,182,163893,38,0,L|207:189,2,45.3333341979981,8|0|0,0:0|0:0|0:0,0:0:0:0:
250,243,164100,2,0,L|193:250,2,45.3333341979981,0|0|0,0:0|0:0|0:0,0:0:0:0:
242,302,164307,2,0,L|185:309,2,45.3333341979981,0|0|0,0:0|0:0|0:0,0:0:0:0:
228,363,164514,2,0,L|171:370,2,45.3333341979981,0|0|0,0:0|0:0|0:0,0:0:0:0:
401,219,164721,6,0,L|504:231,1,80,12|0,0:0|0:0,0:0:0:0:
426,329,164928,2,0,L|327:316,1,80,8|0,0:0|0:0,0:0:0:0:
213,211,165135,1,8,0:0:0:0:
114,218,165238,1,0,0:0:0:0:
177,307,165342,1,8,0:0:0:0:
230,204,165445,1,0,0:0:0:0:
159,122,165549,38,0,P|121:113|58:118,1,80,12|0,0:0|0:0,0:0:0:0:
245,196,165755,2,0,P|291:193|336:173,1,80,8|0,0:0|0:0,0:0:0:0:
353,30,165962,1,8,0:0:0:0:
273,93,166066,1,0,0:0:0:0:
337,167,166169,1,8,0:0:0:0:
417,103,166273,1,0,0:0:0:0:
339,20,166376,6,0,B|282:13|282:13|239:33|239:33|163:26,2,160,12|8|8,0:0|0:0|0:0,0:0:0:0:
427,75,166893,1,0,0:0:0:0:
334,120,166997,1,8,0:0:0:0:
419,177,167100,1,0,0:0:0:0:
329,219,167204,38,0,P|267:221|187:156,1,160,12|8,0:0|0:0,0:0:0:0:
154,63,167514,1,0,0:0:0:0:
154,63,167618,2,0,P|98:119|97:217,1,160,12|8,0:0|0:0,0:0:0:0:
198,305,167928,1,0,0:0:0:0:
198,305,168031,6,0,L|110:298,1,80,12|0,0:0|0:0,0:0:0:0:
10,207,168238,2,0,L|100:196,1,80,8|0,0:0|0:0,0:0:0:0:
205,170,168445,1,12,0:0:0:0:
217,67,168549,1,0,0:0:0:0:
122,102,168652,1,8,0:0:0:0:
194,187,168755,1,0,0:0:0:0:
302,134,168859,38,0,B|394:124,1,80,12|0,0:0|0:0,0:0:0:0:
467,243,169066,2,0,B|375:233,1,80,8|0,0:0|0:0,0:0:0:0:
205,170,169273,1,4,0:0:0:0:
184,271,169377,1,8,0:0:0:0:
257,333,169480,1,0,0:0:0:0:
282,236,169583,1,0,0:0:0:0:
199,151,169686,5,12,0:0:0:0:
437,305,169893,2,0,L|476:310,3,40,0|0|8|8,0:0|0:0|0:0|0:0,0:0:0:0:
452,250,170100,2,0,L|491:245,3,40,8|8|8|8,0:0|0:0|0:0|0:0,0:0:0:0:
469,199,170307,2,0,L|507:188,3,40,8|8|8|8,0:0|0:0|0:0|0:0,0:0:0:0:
393,118,170514,38,0,L|353:123,3,40
378,63,170721,2,0,L|338:58,3,40,0|0|0|0,0:0|0:0|0:0|0:0,0:0:0:0:
491,80,170928,5,12,0:0:0:0:
299,334,171135,1,12,0:0:0:0:
170,47,171342,1,4,0:0:0:0:
256,192,171393,12,0,181273,0:0:0:0:
