osu file format v14

[General]
AudioFilename: Flowering Night Fever.mp3
AudioLeadIn: 2000
PreviewTime: 62049
Countdown: 0
SampleSet: None
StackLeniency: 0.2
Mode: 0
LetterboxInBreaks: 0
WidescreenStoryboard: 0

[Editor]
Bookmarks: 1687,3342,21549,35618,48859,62100,75342,95204,118376,131618,144859
DistanceSpacing: 1
BeatDivisor: 2
GridSize: 4
TimelineZoom: 1.3

[Metadata]
Title:Flowering Night Fever
TitleUnicode:Flowering Night Fever
Artist:UNDEAD CORPORATION
ArtistUnicode:UNDEAD CORPORATION
Creator:Alheak
Version:Normal
Source:東方花映塚 ~ Phantasmagoria of Flower View.
Tags:dtm9 nowa ekoro pishifat GoldenWolf zun team shanghai alice 上海アリス幻樂団 瞬殺 touhou project Kaeidzuka 花映塚 Phantasmagoria of Flower View sakuya izayoi 十六夜 咲夜 フラワリングナイト 瞬殺 shunsatsu reitaisai 12 instrumental speed metal guitar woof
BeatmapID:857521
BeatmapSetID:393663

[Difficulty]
HPDrainRate:3
CircleSize:3
OverallDifficulty:3
ApproachRate:4
SliderMultiplier:0.6
SliderTickRate:1

[Events]
//Background and Video events
0,0,"bg.jpg",0,0
//Break Periods
2,75542,79815
//Storyboard Layer 0 (Background)
//Storyboard Layer 1 (Fail)
//Storyboard Layer 2 (Pass)
//Storyboard Layer 3 (Foreground)
//Storyboard Sound Samples

[TimingPoints]
32,206.896551724138,4,3,1,70,1,0
1273,-100,4,3,2,70,0,0
1480,-100,4,3,3,70,0,0
1687,-100,4,3,1,70,0,0
21549,206.896551724138,3,3,1,70,1,0
25066,206.896551724138,3,3,1,70,1,0
28584,206.896551724138,3,3,1,70,1,0
32101,206.896551724138,3,3,1,70,1,0
35618,206.896551724138,4,3,1,70,1,0
62100,-100,4,3,1,85,0,1
75342,-100,4,3,1,70,0,0
144859,-100,4,3,1,85,0,1
158049,-100,4,3,1,85,0,0
158100,-100,4,3,1,85,0,1
169997,-100,4,3,2,85,0,1
170307,-100,4,3,3,85,0,1
170514,-100,4,3,1,85,0,1
171342,-100,4,3,1,70,0,0
172169,-100,4,3,1,60,0,0
172997,-100,4,3,1,50,0,0
173824,-100,4,3,1,40,0,0
174652,-100,4,3,1,25,0,0
175480,-100,4,3,1,10,0,0
176307,-100,4,3,1,5,0,0

[Colours]
Combo1 : 154,3,49
Combo2 : 190,180,200
Combo3 : 130,120,160
Combo4 : 247,21,61

[HitObjects]
162,144,32,6,0,B|238:153|238:153|286:145,1,120,0|2,0:0|0:0,0:0:0:0:
353,241,859,2,0,B|277:232|277:232|229:240,2,120,8|8|4,0:0|0:0|0:0,0:0:0:0:
141,104,3342,6,0,B|201:96|201:96|261:112,1,120,4|0,0:0|0:0,0:0:0:0:
376,93,4169,2,0,P|336:146|334:204,1,120
390,303,4997,38,0,B|271:285,1,120,4|0,0:0|0:0,0:0:0:0:
161,333,5825,2,0,B|114:213,1,120
152,105,6652,5,0,0:0:0:0:
329,137,7273,1,0,0:0:0:0:
152,105,7894,1,0,0:0:0:0:
193,218,8307,38,0,P|199:279|178:334,1,120,4|0,0:0|0:0,0:0:0:0:
298,343,9135,2,0,P|290:284|312:229,1,120
281,112,9963,6,0,L|409:95,1,120,4|0,0:0|0:0,0:0:0:0:
473,190,10790,2,0,L|423:307,1,120
315,346,11618,38,0,B|259:325|259:325|192:339,1,120,4|0,0:0|0:0,0:0:0:0:
112,255,12445,2,0,P|76:208|74:149,1,120
162,66,13273,5,0,0:0:0:0:
335,114,13894,1,0,0:0:0:0:
162,66,14514,1,8,0:0:0:0:
254,142,14928,38,0,P|281:196|274:252,1,120,4|0,0:0|0:0,0:0:0:0:
216,359,15756,2,0,B|272:341|272:341|332:351,1,120
390,246,16583,6,0,B|444:256|444:256|510:232,1,120,4|0,0:0|0:0,0:0:0:0:
479,116,17411,2,0,P|451:69|374:46,1,120
277,11,18238,38,0,L|263:134,1,120,4|0,0:0|0:0,0:0:0:0:
202,233,19066,2,0,L|215:327,2,90,0|8|8,0:0|0:0|0:0,0:0:0:0:
153,197,19894,6,0,B|145:138|145:138|125:99|82:77|37:93,1,180,4|12,0:0|0:0,0:0:0:0:
10,139,20721,2,0,B|27:258|27:258|5:324,1,180,0|4,0:0|0:0,0:0:0:0:
27,371,21549,38,0,P|73:336|150:346,1,120,0|4,0:0|0:0,0:0:0:0:
371,144,23825,6,0,B|368:178|368:178|394:198|407:231|403:262,2,120,0|0|4,0:0|0:0|0:0,0:0:0:0:
315,250,25066,37,0,0:0:0:0:
202,291,25480,2,0,P|149:281|100:228,1,120,0|0,0:0|0:0,0:0:0:0:
112,175,26100,2,0,B|123:100|123:100|113:56,1,120,0|0,0:0|0:0,0:0:0:0:
172,70,26721,2,0,B|217:55|255:75|255:75|302:71,1,120
348,64,27341,5,2,0:0:0:0:
206,172,27962,1,2,0:0:0:0:
348,64,28583,1,4,0:0:0:0:
332,186,28997,38,0,B|340:218|356:238|378:254|378:254|389:276|390:295,1,120
349,333,29618,2,0,P|300:296|265:239,1,120,0|0,0:0|0:0,0:0:0:0:
247,191,30238,2,0,B|260:133|260:133|253:66,1,120
205,36,30859,5,0,0:0:0:0:
27,66,31480,1,0,0:0:0:0:
205,36,32101,1,4,0:0:0:0:
168,151,32514,38,0,P|162:210|197:264,1,120
245,289,33135,2,0,L|366:283,1,120,0|0,0:0|0:0,0:0:0:0:
401,235,33756,2,0,P|407:176|372:122,1,120,0|0,0:0|0:0,0:0:0:0:
323,98,34376,6,0,B|279:77|279:77|226:22,2,120,0|0|0,0:0|0:0|0:0,0:0:0:0:
287,212,35618,38,0,B|233:249|171:220|171:220,1,120,4|0,0:0|0:0,0:0:0:0:
53,238,36445,2,0,L|72:105,1,120
190,120,37273,6,0,B|173:1,1,120,4|0,0:0|0:0,0:0:0:0:
291,24,38100,2,0,P|350:20|401:49,1,120
385,168,38928,38,0,B|369:227|369:227|303:200,1,120,4|0,0:0|0:0,0:0:0:0:
243,301,39756,2,0,B|188:278|188:278|171:336,1,120
83,255,40583,5,0,0:0:0:0:
37,80,41204,1,0,0:0:0:0:
83,255,41824,1,8,0:0:0:0:
196,215,42238,38,0,B|205:155|205:155|261:129,1,120,4|0,0:0|0:0,0:0:0:0:
332,34,43066,2,0,P|391:25|446:65,1,120,0|8,0:0|0:0,0:0:0:0:
473,171,43894,6,0,B|509:220|509:220|499:278,1,120,4|0,0:0|0:0,0:0:0:0:
390,330,44721,2,0,B|267:305,1,120
189,218,45549,38,0,L|313:192,1,120,4|0,0:0|0:0,0:0:0:0:
386,104,46376,2,0,P|305:72|253:86,1,120,0|8,0:0|0:0,0:0:0:0:
175,9,47204,6,0,B|150:125|150:125|101:168,1,180,4|4,0:0|0:0,0:0:0:0:
140,212,48031,2,0,P|137:290|214:357,1,180
268,368,48859,38,0,L|393:353,1,120,8|8,0:0|0:0,0:0:0:0:
342,242,49687,2,0,L|442:166,1,120,8|8,0:0|0:0,0:0:0:0:
356,82,50514,6,0,B|240:50|240:50|117:62,1,240,12|0,0:0|0:0,0:0:0:0:
41,151,51756,1,0,0:0:0:0:
157,179,52169,38,0,P|205:206|238:260,1,120,12|8,0:0|0:0,0:0:0:0:
205,375,52997,2,0,P|157:348|124:294,1,120,8|8,0:0|0:0,0:0:0:0:
30,217,53825,6,0,B|34:192|34:192|53:161|53:161|56:132,1,90,12|8,0:0|0:0,0:0:0:0:
145,126,54445,2,0,B|149:101|149:101|168:70|168:70|171:41,1,90,12|8,0:0|0:0,0:0:0:0:
252,2,55066,1,8,0:0:0:0:
288,116,55480,38,0,B|353:97|353:97|412:104,1,120,12|8,0:0|0:0,0:0:0:0:
417,224,56307,2,0,B|352:243|352:243|293:236,1,120,8|8,0:0|0:0,0:0:0:0:
191,187,57135,6,0,P|205:311|308:358,1,240,12|0,0:0|0:0,0:0:0:0:
418,352,58376,1,0,0:0:0:0:
476,247,58790,38,0,B|489:221|491:188|482:161|482:161|455:132,1,120
342,111,59618,2,0,P|256:181|170:111,1,240,8|4,0:0|0:0,0:0:0:0:
256,336,61273,5,12,0:0:0:0:
169,110,62100,6,0,P|220:121|301:116,1,120
345,102,62721,1,0,0:0:0:0:
404,113,62928,2,0,B|395:194|395:194|403:232,1,120,4|0,0:0|0:0,0:0:0:0:
419,289,63549,1,0,0:0:0:0:
385,338,63756,6,0,P|334:349|253:344,1,120,4|0,0:0|0:0,0:0:0:0:
209,327,64376,1,0,0:0:0:0:
149,333,64583,2,0,P|113:349|86:369,2,60,4|0|0,0:0|0:0|0:0,0:0:0:0:
62,251,65411,38,0,B|70:176|70:176|60:125,1,120,4|0,0:0|0:0,0:0:0:0:
105,90,66032,1,0,0:0:0:0:
164,93,66238,2,0,B|156:168|156:168|166:219,1,120,4|0,0:0|0:0,0:0:0:0:
199,261,66859,1,0,0:0:0:0:
253,287,67066,6,0,P|311:292|370:279,1,120,4|0,0:0|0:0,0:0:0:0:
419,242,67687,1,0,0:0:0:0:
447,189,67894,2,0,B|484:186|484:186|518:192,2,60,4|8|8,0:0|0:0|0:0,0:0:0:0:
427,70,68721,38,0,B|402:82|371:82|343:69|343:69|305:71,1,120,4|0,0:0|0:0,0:0:0:0:
250,81,69342,1,0,0:0:0:0:
190,70,69549,2,0,B|157:69|157:69|129:82|98:82|73:70,1,120,4|0,0:0|0:0,0:0:0:0:
31,113,70169,1,0,0:0:0:0:
24,172,70376,6,0,P|39:228|77:276,1,120,4|0,0:0|0:0,0:0:0:0:
136,285,70997,1,0,0:0:0:0:
190,259,71204,2,0,P|222:254|253:257,2,60,4|0|0,0:0|0:0|0:0,0:0:0:0:
178,138,72032,38,0,P|234:124|302:128,1,120,4|0,0:0|0:0,0:0:0:0:
353,143,72652,1,0,0:0:0:0:
404,174,72859,2,0,B|396:255|396:255|405:301,1,120,4|0,0:0|0:0,0:0:0:0:
360,334,73480,1,0,0:0:0:0:
314,373,73687,6,0,P|255:369|194:346,1,120,4|8,0:0|0:0,0:0:0:0:
157,303,74307,1,0,0:0:0:0:
165,243,74514,2,0,B|200:192|174:124,1,120,8|8,0:0|0:0,0:0:0:0:
65,177,75342,5,4,0:0:0:0:
322,137,81135,6,0,B|353:141|353:141|382:138|382:138|418:143,2,90,8|8|12,0:0|0:0|0:0,0:0:0:0:
262,127,81963,38,0,B|210:96|210:96|151:87,1,120,4|8,0:0|0:0,0:0:0:0:
172,205,82790,2,0,L|274:267,1,120,0|8,0:0|0:0,0:0:0:0:
326,298,83411,1,0,0:0:0:0:
378,328,83618,6,0,P|373:297|388:210,1,120,0|8,0:0|0:0,0:0:0:0:
451,108,84445,2,0,P|465:50|463:9,2,90,0|0|0,0:0|0:0|0:0,0:0:0:0:
392,122,85273,38,0,B|348:128|348:128|322:143|322:143|274:150,1,120,4|8,0:0|0:0,0:0:0:0:
174,87,86100,2,0,B|217:80|217:80|243:65|243:65|288:58,1,120,0|8,0:0|0:0,0:0:0:0:
392,122,86928,6,0,P|390:182|357:237,1,120,0|8,0:0|0:0,0:0:0:0:
252,285,87756,2,0,L|242:387,2,90,0|0|0,0:0|0:0|0:0,0:0:0:0:
225,230,88583,38,0,B|218:202|218:202|199:180|164:174|132:182,1,120,4|8,0:0|0:0,0:0:0:0:
53,91,89411,2,0,B|60:63|60:63|79:41|114:35|146:43,1,120,0|8,0:0|0:0,0:0:0:0:
203,55,90031,1,0,0:0:0:0:
261,70,90238,6,0,P|323:80|388:64,1,120,0|8,0:0|0:0,0:0:0:0:
451,163,91066,2,0,B|461:199|461:199|455:260,2,90,0|0|0,0:0|0:0|0:0,0:0:0:0:
391,159,91893,38,0,L|266:176,1,120,4|8,0:0|0:0,0:0:0:0:
171,241,92721,2,0,L|46:224,1,120,0|8,0:0|0:0,0:0:0:0:
65,283,93342,1,0,0:0:0:0:
79,342,93549,6,0,B|120:354|120:354|196:344,1,120,0|8,0:0|0:0,0:0:0:0:
283,262,94376,2,0,B|286:225|286:225|271:174,2,90,0|8|0,0:0|0:0|0:0,0:0:0:0:
300,320,95204,38,0,B|307:348|307:348|326:370|361:376|393:368,1,120,4|0,0:0|0:0,0:0:0:0:
480,287,96031,2,0,L|471:162,1,120,0|0,0:0|0:0,0:0:0:0:
382,86,96859,6,0,B|339:79|339:79|313:64|313:64|268:57,1,120,4|0,0:0|0:0,0:0:0:0:
213,84,97480,1,0,0:0:0:0:
160,112,97686,2,0,B|202:146|202:146|266:157,1,120,4|0,0:0|0:0,0:0:0:0:
312,197,98307,1,0,0:0:0:0:
353,241,98514,38,0,P|345:304|244:366,2,180,4|0|0,0:0|0:0|0:0,0:0:0:0:
256,169,100169,6,0,B|152:193|152:193|95:242,1,180,4|0,0:0|0:0,0:0:0:0:
47,275,100997,2,0,B|61:239|61:198|50:157|50:157|67:90,1,180,4|0,0:0|0:0,0:0:0:0:
84,42,101824,38,0,B|106:54|137:59|167:53|167:53|194:35|233:31|269:39,2,180,4|0|0,0:0|0:0|0:0,0:0:0:0:
144,145,103480,6,0,B|160:205|160:205|146:338,1,180,4|0,0:0|0:0,0:0:0:0:
196,357,104307,2,0,B|246:371|297:362|332:333|332:333|348:290,1,180,4|0,0:0|0:0,0:0:0:0:
364,241,105135,38,0,B|384:193|384:193|402:179|416:157|420:135,1,120,4|8,0:0|0:0,0:0:0:0:
305,100,105962,2,0,B|231:90|231:90|182:96,1,120,0|8,0:0|0:0,0:0:0:0:
115,192,106790,6,0,B|189:202|189:202|238:196,1,120,8|8,0:0|0:0,0:0:0:0:
353,186,107618,2,0,P|389:151|403:109,2,90,12|12|12,0:0|0:0|0:0,0:0:0:0:
334,243,108445,38,0,B|263:283|263:283|161:296,2,180
290,130,110100,6,0,P|301:67|407:6,1,180,4|0,0:0|0:0,0:0:0:0:
449,25,110928,2,0,B|464:82|464:82|451:205,1,180,4|0,0:0|0:0,0:0:0:0:
443,261,111755,38,0,B|405:251|364:256|325:272|325:272|297:277|266:264,2,180,4|0|0,0:0|0:0|0:0,0:0:0:0:
367,165,113411,6,0,B|339:166|309:177|309:177|273:159|225:167|197:195,1,180,4|0,0:0|0:0,0:0:0:0:
157,239,114238,2,0,P|163:146|133:64,1,180,4|0,0:0|0:0,0:0:0:0:
73,67,115066,38,0,B|30:75|30:75|62:117|80:162|65:212,2,180,4|0|8,0:0|0:0|0:0,0:0:0:0:
187,30,116721,6,0,L|319:40,1,120,4|0,0:0|0:0,0:0:0:0:
355,148,117549,2,0,B|270:154|270:154|227:172,1,120,8|8,0:0|0:0,0:0:0:0:
300,270,118376,37,12,0:0:0:0:
317,268,120031,5,4,0:0:0:0:
79,306,120859,2,0,B|65:187|65:187|72:127,1,180,0|8,0:0|0:0,0:0:0:0:
108,79,121686,38,0,P|201:95|227:125,1,120,4|0,0:0|0:0,0:0:0:0:
330,70,122514,2,0,B|315:198,1,120
299,308,123342,5,4,0:0:0:0:
139,225,123962,1,12,0:0:0:0:
299,308,124583,1,8,0:0:0:0:
418,297,124997,38,0,P|450:265|462:189,1,120,4|0,0:0|0:0,0:0:0:0:
414,84,125824,2,0,B|361:106|361:106|291:94,1,120,0|8,0:0|0:0,0:0:0:0:
205,170,126652,6,0,B|143:158|143:158|90:180,1,120,12|0,0:0|0:0,0:0:0:0:
10,270,127480,2,0,P|57:298|125:294,1,120,12|12,0:0|0:0,0:0:0:0:
234,333,128307,38,0,B|355:317,1,120,4|0,0:0|0:0,0:0:0:0:
414,213,129135,2,0,P|452:243|469:287,2,90,8|8|0,0:0|0:0|0:0,0:0:0:0:
382,162,129962,6,0,B|325:156|325:156|266:176|266:176|206:171,1,180,4|4,0:0|0:0,0:0:0:0:
145,165,130790,2,0,P|208:228|200:322,1,180,4|0,0:0|0:0,0:0:0:0:
182,368,131618,38,0,P|239:356|309:360,1,120,12|8,0:0|0:0,0:0:0:0:
395,285,132445,2,0,P|337:259|291:225,1,120,8|8,0:3|0:0,0:0:0:0:
209,140,133273,6,0,B|153:120|153:120|86:130|39:178|41:244,1,240,12|0,0:0|0:0,0:0:0:0:
75,355,134514,1,0,0:0:0:0:
157,267,134928,38,0,B|222:239|222:239|277:235,1,120,12|8,0:0|0:0,0:0:0:0:
352,323,135755,2,0,B|401:319|401:319|466:291,1,120,8|8,0:0|0:0,0:0:0:0:
410,183,136583,6,0,P|434:147|440:79,1,90,4|8,0:0|0:0,0:0:0:0:
352,101,137204,2,0,P|354:57|325:-4,1,90,4|8,0:0|0:0,0:0:0:0:
262,61,137824,1,8,0:0:0:0:
211,170,138238,38,0,B|182:177|182:177|121:165|121:165|94:172,1,120,12|8,0:0|0:0,0:0:0:0:
102,292,139066,2,0,B|192:309|192:309|219:302,1,120,8|8,0:0|0:0,0:0:0:0:
331,259,139893,6,0,B|358:252|358:252|448:269,2,120,4|0|0,0:0|0:0|0:0,0:0:0:0:
237,183,141135,1,0,0:0:0:0:
348,138,141549,38,0,B|322:74|322:74|326:15,1,120,4|0,0:0|0:0,0:0:0:0:
209,59,142376,2,0,P|133:112|134:256,1,240,8|4,0:0|0:0,0:0:0:0:
481,328,144445,5,0,0:0:0:0:
426,220,144859,6,0,B|366:229|366:229|296:222,1,120,4|0,0:0|0:0,0:0:0:0:
279,276,145480,1,0,0:0:0:0:
250,329,145686,2,0,B|169:311|169:311|127:315,1,120,4|0,0:0|0:0,0:0:0:0:
73,326,146307,1,0,0:0:0:0:
34,279,146514,6,0,B|23:251|23:251|21:219|35:188|62:169,1,120,4|0,0:0|0:0,0:0:0:0:
116,157,147135,1,0,0:0:0:0:
173,141,147342,2,0,P|182:107|182:74,2,60,4|0|4,0:0|0:0|0:0,0:0:0:0:
290,169,148169,38,0,L|281:300,1,120,4|0,0:0|0:0,0:0:0:0:
333,319,148790,1,0,0:0:0:0:
392,313,148997,2,0,B|416:309|439:295|454:275|454:275|457:224,1,120,4|0,0:0|0:0,0:0:0:0:
428,176,149618,1,0,0:0:0:0:
399,122,149824,6,0,B|402:47|402:47|383:-5,1,120,4|0,0:0|0:0,0:0:0:0:
328,19,150445,1,0,0:0:0:0:
269,30,150652,2,0,L|262:98,2,60,8|0|0,0:0|0:0|0:0,0:0:0:0:
151,43,151480,38,0,P|159:80|140:158,1,120,12|0,0:0|0:0,0:0:0:0:
106,208,152100,1,0,0:0:0:0:
78,261,152307,2,0,P|70:298|89:376,1,120,4|0,0:0|0:0,0:0:0:0:
144,352,152928,1,0,0:0:0:0:
202,338,153135,6,0,B|230:333|257:337|281:350|281:350|321:339,1,120,4|0,0:0|0:0,0:0:0:0:
357,294,153755,1,0,0:0:0:0:
359,234,153962,2,0,P|393:225|420:226,2,60,4|0|4,0:0|0:0|0:0,0:0:0:0:
241,254,154790,38,0,P|268:203|278:133,1,120,4|0,0:0|0:0,0:0:0:0:
267,82,155411,1,0,0:0:0:0:
309,39,155618,2,0,B|387:28|387:28|438:39,1,120,4|0,0:0|0:0,0:0:0:0:
484,55,156238,1,0,0:0:0:0:
477,114,156445,6,0,B|474:158|474:158|497:191|498:236,1,120,4|4,0:0|0:0,0:0:0:0:
442,253,157066,1,0,0:0:0:0:
383,240,157273,2,0,P|333:213|274:225,1,120,4|0,0:0|0:0,0:0:0:0:
200,313,158100,38,0,L|319:299,1,120,4|12,0:0|0:0,0:0:0:0:
373,330,158721,1,0,0:0:0:0:
432,317,158928,2,0,P|465:278|463:196,1,120,4|12,0:0|0:0,0:0:0:0:
441,157,159549,1,0,0:0:0:0:
391,123,159755,6,0,B|355:128|355:128|310:117|280:83,1,120,4|12,0:0|0:0,0:0:0:0:
242,42,160376,1,0,0:0:0:0:
186,65,160583,2,0,P|151:74|115:73,2,60,4|0|12,0:0|0:0|0:0,0:0:0:0:
130,171,161411,38,0,B|120:221|120:221|134:302,1,120,0|12,0:0|0:0,0:0:0:0:
176,329,162031,1,0,0:0:0:0:
235,318,162238,2,0,L|357:331,1,120,4|12,0:0|0:0,0:0:0:0:
404,297,162859,1,0,0:0:0:0:
394,238,163066,6,0,B|360:221|360:221|316:225|277:207,1,120,4|12,0:0|0:0,0:0:0:0:
246,158,163686,1,0,0:0:0:0:
232,99,163893,2,0,P|198:92|163:93,2,60,8|0|0,0:0|0:0|0:0,0:0:0:0:
319,16,164721,38,0,B|314:76|314:76|326:136,1,120,12|8,0:0|0:0,0:0:0:0:
341,192,165342,1,8,0:0:0:0:
357,249,165549,2,0,P|307:253|236:293,1,120,8|8,0:0|0:0,0:0:0:0:
207,330,166169,1,8,0:0:0:0:
177,382,166376,6,0,L|52:362,1,120,8|8,0:0|0:0,0:0:0:0:
30,309,166997,1,8,0:0:0:0:
83,281,167204,2,0,L|146:275,2,60,8|8|8,0:0|0:0|0:0,0:0:0:0:
111,164,168031,38,0,B|126:144|131:112|126:83|126:83|141:41,1,120,12|12,0:0|0:0,0:0:0:0:
196,33,168652,1,12,0:0:0:0:
215,89,168859,2,0,P|212:157|188:214,1,120,12|12,0:0|0:0,0:0:0:0:
147,244,169480,1,12,0:0:0:0:
102,283,169686,6,0,B|144:277|144:277|232:300,1,120,8|8,0:0|0:0,0:0:0:0:
275,318,170307,1,8,0:0:0:0:
332,336,170514,2,0,P|377:299|390:241,1,120,0|12,0:0|0:0,0:0:0:0:
375,183,171135,1,12,0:0:0:0:
360,124,171342,5,4,0:0:0:0:
256,192,171549,12,0,176307,0:0:0:0:
