osu file format v14

[General]
AudioFilename: Flowering Night Fever.mp3
AudioLeadIn: 2000
PreviewTime: 62049
Countdown: 0
SampleSet: None
StackLeniency: 0.2
Mode: 0
LetterboxInBreaks: 0
WidescreenStoryboard: 0

[Editor]
Bookmarks: 48845,77824,95190,118362
DistanceSpacing: 0.6
BeatDivisor: 4
GridSize: 4
TimelineZoom: 3.399999

[Metadata]
Title:Flowering Night Fever
TitleUnicode:Flowering Night Fever
Artist:UNDEAD CORPORATION
ArtistUnicode:UNDEAD CORPORATION
Creator:Alheak
Version:Wolf's Night
Source:東方花映塚 ~ Phantasmagoria of Flower View.
Tags:dtm9 nowa ekoro pishifat GoldenWolf zun team shanghai alice 上海アリス幻樂団 瞬殺 touhou project Kaeidzuka 花映塚 Phantasmagoria of Flower View sakuya izayoi 十六夜 咲夜 フラワリングナイト 瞬殺 shunsatsu reitaisai 12 instrumental speed metal guitar woof
BeatmapID:857624
BeatmapSetID:393663

[Difficulty]
HPDrainRate:5
CircleSize:4.5
OverallDifficulty:10
ApproachRate:10
SliderMultiplier:1.6
SliderTickRate:1

[Events]
//Background and Video events
0,0,"bg.jpg",0,0
//Break Periods
//Storyboard Layer 0 (Background)
//Storyboard Layer 1 (Fail)
//Storyboard Layer 2 (Pass)
//Storyboard Layer 3 (Foreground)
//Storyboard Sound Samples

[TimingPoints]
32,206.896551724138,4,3,1,85,1,0
497,-100,4,3,1,40,0,0
600,-100,4,3,1,85,0,0
911,-100,4,3,1,40,0,0
1014,-100,4,3,1,85,0,0
1273,-100,4,3,2,70,0,0
1480,-100,4,3,3,70,0,0
3342,-100,4,3,1,100,0,0
3394,-100,4,3,1,70,0,0
6756,-100,4,3,2,70,0,0
6859,-100,4,3,4,70,0,0
7480,-100,4,3,1,70,0,0
8307,-100,4,3,1,85,0,0
8359,-100,4,3,1,70,0,0
9963,-100,4,3,1,100,0,0
10014,-100,4,3,1,70,0,0
11618,-100,4,3,1,85,0,0
11669,-100,4,3,1,70,0,0
14928,-100,4,3,1,100,0,0
14980,-100,4,3,1,70,0,0
19997,-100,4,3,2,85,0,0
20100,-100,4,3,4,85,0,0
20514,-100,4,3,1,85,0,0
20618,-100,4,3,4,85,0,0
20773,-100,4,3,3,85,0,0
20928,-100,4,3,4,85,0,0
21032,-100,4,3,2,85,0,0
21135,-100,4,3,1,85,0,0
21549,206.896551724138,3,3,1,85,1,0
24653,-100,3,3,4,85,0,0
25066,206.896551724138,3,3,1,70,1,0
28584,206.896551724138,3,3,1,85,1,0
28687,-100,3,3,1,70,0,0
32101,206.896551724138,3,3,1,85,1,0
32204,-100,3,3,1,70,0,0
34376,-100,3,3,2,85,0,0
34583,-100,3,3,3,85,0,0
34790,-100,3,3,2,85,0,0
34997,-100,3,3,3,85,0,0
35204,-100,3,3,4,70,0,0
35618,206.896551724138,4,3,1,85,1,0
35721,-100,4,3,1,70,0,0
37273,-100,4,3,1,85,0,0
37376,-100,4,3,1,70,0,0
40583,-100,4,3,4,85,0,0
40686,-100,4,3,2,85,0,0
40790,-100,4,3,4,85,0,0
41411,-100,4,3,1,85,0,0
42342,-100,4,3,1,70,0,0
53824,-100,4,3,1,85,0,0
55480,-100,4,3,1,70,0,0
59618,-100,4,3,1,85,0,0
60031,-100,4,3,3,85,0,0
60135,-100,4,3,1,85,0,0
60238,-100,4,3,3,85,0,0
60342,-100,4,3,1,85,0,0
60652,-100,4,3,2,85,0,0
60859,-100,4,3,1,85,0,0
61066,-100,4,3,3,85,0,0
61169,-100,4,3,1,85,0,0
61273,-100,4,3,4,85,0,0
62100,-83.3333333333333,4,3,1,100,0,1
62152,-83.3333333333333,4,3,1,70,0,1
67893,-83.3333333333333,4,3,1,85,0,1
68152,-83.3333333333333,4,3,2,85,0,1
68204,-83.3333333333333,4,3,3,85,0,1
68307,-83.3333333333333,4,3,1,85,0,1
68514,-83.3333333333333,4,3,2,85,0,1
68721,-83.3333333333333,4,3,1,85,0,1
68824,-83.3333333333333,4,3,1,70,0,1
73997,-83.3333333333333,4,3,2,85,0,1
74100,-83.3333333333333,4,3,1,85,0,1
74307,-83.3333333333333,4,3,2,85,0,1
74411,-83.3333333333333,4,3,1,85,0,1
75031,-83.3333333333333,4,3,2,85,0,1
75135,-83.3333333333333,4,3,3,85,0,1
75342,-100,4,3,1,100,0,0
75549,-100,4,3,1,70,0,0
78652,-100,4,3,1,85,0,0
78859,-100,4,3,1,70,0,0
81135,-100,4,3,1,85,0,0
81342,-100,4,3,3,85,0,0
81445,-100,4,3,1,85,0,0
81549,-100,4,3,1,100,0,0
81962,-100,4,3,1,70,0,0
115893,-100,4,3,1,85,0,0
116100,-100,4,3,3,85,0,0
116204,-100,4,3,1,85,0,0
116514,-100,4,3,4,85,0,0
116721,-100,4,3,1,85,0,0
117600,-100,4,3,2,85,0,0
117755,-100,4,3,3,85,0,0
117859,-100,4,3,1,85,0,0
118480,-100,4,3,1,5,0,0
120031,-100,4,3,4,100,0,0
120859,-100,4,3,1,85,0,0
121066,-100,4,3,2,85,0,0
121273,-100,4,3,3,85,0,0
121480,-100,4,3,1,85,0,0
121790,-100,4,3,1,70,0,0
127480,-100,4,3,4,70,0,0
128307,-100,4,3,1,70,0,0
129962,-100,4,3,1,85,0,0
130790,-100,4,3,4,85,0,0
131100,-100,4,3,1,85,0,0
131618,-100,4,3,1,70,0,0
141962,-100,4,3,2,85,0,0
142169,-100,4,3,3,85,0,0
142376,-100,4,3,1,85,0,0
143204,-200,4,3,1,85,0,0
143307,-200,4,3,1,5,0,0
144445,-200,4,3,1,100,0,0
144859,-83.3333333333333,4,3,1,100,0,1
144911,-83.3333333333333,4,3,1,70,0,1
150652,-83.3333333333333,4,3,1,85,0,1
150755,-83.3333333333333,4,3,1,55,0,1
150859,-83.3333333333333,4,3,1,85,0,1
151273,-83.3333333333333,4,3,4,85,0,1
151480,-83.3333333333333,4,3,1,85,0,1
151583,-83.3333333333333,4,3,1,70,0,1
157945,-83.3333333333333,4,3,1,45,0,1
158049,-83.3333333333333,4,3,1,45,0,0
158100,-83.3333333333333,4,3,1,100,0,1
158169,-83.3333333333333,4,3,1,70,0,1
163893,-83.3333333333333,4,3,1,85,0,1
163962,-83.3333333333333,4,3,2,85,0,1
164100,-83.3333333333333,4,3,3,85,0,1
164307,-83.3333333333333,4,3,2,85,0,1
164514,-83.3333333333333,4,3,3,85,0,1
164721,-83.3333333333333,4,3,1,100,0,1
164790,-83.3333333333333,4,3,1,70,0,1
169686,-83.3333333333333,4,3,1,85,0,1
169997,-83.3333333333333,4,3,2,85,0,1
170307,-83.3333333333333,4,3,1,85,0,1
170618,-83.3333333333333,4,3,3,85,0,1
170928,-83.3333333333333,4,3,1,85,0,1
171342,-100,4,3,1,100,0,0
171394,-100,4,3,1,5,0,0

[Colours]
Combo1 : 154,3,49
Combo2 : 190,180,200
Combo3 : 130,120,160
Combo4 : 247,21,61

[HitObjects]
16,172,32,5,0,0:0:0:0:
28,252,135,1,8,0:0:0:0:
152,232,238,1,0,0:0:0:0:
140,312,341,1,8,0:0:0:0:
276,252,445,5,8,0:0:0:0:
273,240,497,1,8,0:0:0:0:
270,228,549,1,8,0:0:0:0:
267,216,600,1,8,0:0:0:0:
264,204,652,2,0,L|272:123,1,80,8|8,0:0|0:0,0:0:0:0:
396,160,859,1,8,0:0:0:0:
399,148,911,1,0,0:0:0:0:
402,136,963,1,8,0:0:0:0:
405,124,1014,1,8,0:0:0:0:
408,112,1066,2,0,L|400:31,1,80,8|8,0:0|0:0,0:0:0:0:
156,8,1273,37,8,0:0:0:0:
160,32,1325,1,8,0:0:0:0:
164,56,1376,1,8,0:0:0:0:
168,80,1428,1,8,0:0:0:0:
208,100,1480,1,8,0:0:0:0:
204,124,1532,1,8,0:0:0:0:
200,148,1583,1,8,0:0:0:0:
196,172,1635,1,8,0:0:0:0:
156,192,1687,5,6,0:0:0:0:
156,192,3342,37,4,0:0:0:0:
160,196,3445,1,8,0:0:0:0:
116,272,3549,1,0,0:0:0:0:
188,320,3652,2,0,L|268:312,1,80,8|0,0:0|0:0,0:0:0:0:
419,175,3859,1,8,0:0:0:0:
347,223,3962,2,0,L|267:215,1,80,0|8,0:0|0:0,0:0:0:0:
236,88,4169,5,0,0:0:0:0:
304,32,4273,2,0,P|344:20|384:16,1,80,8|0,0:0|0:0,0:0:0:0:
224,168,4480,1,8,0:3:0:0:
154,112,4584,2,0,P|113:99|73:96,1,80,0|8,0:3|0:3,0:3:0:0:
234,248,4790,1,0,0:3:0:0:
304,192,4894,1,8,0:0:0:0:
164,340,4997,37,4,0:0:0:0:
160,336,5100,1,8,0:0:0:0:
116,252,5204,1,0,0:0:0:0:
185,185,5307,2,0,L|180:104,1,80,8|0,0:0|0:0,0:0:0:0:
332,69,5514,1,8,0:0:0:0:
263,136,5617,2,0,L|268:217,1,80,0|8,0:0|0:0,0:0:0:0:
479,319,5825,5,0,0:0:0:0:
410,252,5928,2,0,L|415:171,1,80,8|0,0:0|0:0,0:0:0:0:
263,136,6135,1,8,0:0:0:0:
332,203,6238,2,0,L|327:284,1,80,0|8,0:0|0:0,0:0:0:0:
56,308,6445,1,0,0:0:0:0:
44,212,6549,1,8,0:0:0:0:
132,248,6652,37,8,0:0:0:0:
131,260,6704,1,8,0:0:0:0:
130,272,6756,1,8,0:0:0:0:
129,283,6807,1,8,0:0:0:0:
128,295,6859,1,0,0:0:0:0:
127,307,6911,1,0,0:0:0:0:
126,319,6963,1,10,0:0:0:0:
220,320,7066,1,0,0:0:0:0:
219,332,7118,1,0,0:0:0:0:
218,344,7170,1,10,0:0:0:0:
312,345,7273,6,0,P|348:336|392:328,1,80
424,228,7480,1,0,0:0:0:0:
425,216,7532,1,0,0:0:0:0:
426,204,7584,1,10,0:0:0:0:
332,203,7687,1,0,0:0:0:0:
333,191,7739,1,0,0:0:0:0:
334,179,7791,1,10,0:0:0:0:
146,177,7894,37,0,0:0:0:0:
240,178,7997,1,0,0:0:0:0:
140,164,8100,1,0,0:0:0:0:
234,165,8203,1,0,0:0:0:0:
132,152,8307,5,4,0:0:0:0:
124,140,8411,1,8,0:0:0:0:
176,60,8514,1,0,0:0:0:0:
268,88,8618,2,0,L|348:80,1,80,8|0,0:0|0:0,0:0:0:0:
505,158,8825,1,8,0:0:0:0:
413,186,8929,2,0,L|333:178,1,80,0|8,0:0|0:0,0:0:0:0:
160,248,9135,37,0,0:0:0:0:
252,276,9239,2,0,L|332:268,1,80,8|0,0:0|0:0,0:0:0:0:
489,346,9446,1,8,0:0:0:0:
397,374,9550,2,0,L|317:366,1,80,0|8,0:0|0:0,0:0:0:0:
224,192,9756,1,0,0:0:0:0:
268,88,9859,1,8,0:0:0:0:
336,232,9963,5,4,0:0:0:0:
340,240,10066,1,8,0:0:0:0:
432,268,10169,1,0,0:0:0:0:
492,192,10273,2,0,L|484:112,1,80,8|0,0:0|0:0,0:0:0:0:
328,164,10480,1,8,0:0:0:0:
268,88,10584,2,0,L|276:8,1,80,0|8,0:0|0:0,0:0:0:0:
120,296,10790,37,0,0:0:0:0:
60,220,10894,2,0,L|68:140,1,80,8|0,0:0|0:0,0:0:0:0:
224,192,11101,1,8,0:0:0:0:
284,116,11205,2,0,L|276:36,1,80,0|8,0:0|0:0,0:0:0:0:
76,68,11411,1,0,0:0:0:0:
196,112,11514,1,8,0:0:0:0:
296,32,11618,5,4,0:0:0:0:
304,36,11721,1,8,0:0:0:0:
396,68,11825,1,0,0:0:0:0:
488,100,11928,2,0,L|480:184,1,80,8|0,0:0|0:0,0:0:0:0:
264,272,12135,1,8,0:0:0:0:
356,240,12238,2,0,L|348:156,1,80,0|8,0:0|0:0,0:0:0:0:
132,68,12446,37,0,0:0:0:0:
224,100,12549,2,0,L|216:184,1,80,8|0,0:0|0:0,0:0:0:0:
0,272,12756,1,8,0:0:0:0:
92,240,12859,2,0,L|84:156,1,80,0|8,0:0|0:0,0:0:0:0:
0,272,13066,1,0,0:0:0:0:
69,335,13169,1,8,0:0:0:0:
162,306,13273,5,0,0:0:0:0:
181,211,13376,1,8,0:0:0:0:
110,147,13480,1,0,0:0:0:0:
19,175,13583,2,0,B|12:204|12:204|16:220|16:220|8:252,2,80,8|0|8,0:0|0:0|0:0,0:0:0:0:
181,211,13894,37,0,0:0:0:0:
276,196,13997,1,8,0:0:0:0:
328,116,14100,1,0,0:0:0:0:
423,101,14204,2,0,B|452:96|452:96|472:84|472:84|500:80,2,80,8|0|8,0:0|0:0|0:0,0:0:0:0:
212,40,14514,5,10,0:0:0:0:
228,136,14618,1,10,0:0:0:0:
204,52,14721,1,10,0:0:0:0:
220,148,14825,1,10,0:0:0:0:
108,40,14928,37,4,0:0:0:0:
112,44,15032,1,8,0:0:0:0:
140,136,15135,1,0,0:0:0:0:
108,228,15238,2,0,L|124:308,1,80,8|0,0:0|0:0,0:0:0:0:
344,286,15445,1,8,0:0:0:0:
312,194,15548,2,0,L|328:114,1,80,0|8,0:0|0:0,0:0:0:0:
204,52,15756,5,2,0:0:0:0:
236,144,15859,2,0,L|220:224,1,80,8|0,0:0|0:0,0:0:0:0:
0,202,16066,1,8,0:0:0:0:
32,110,16169,2,0,L|16:30,1,80,0|8,0:0|0:0,0:0:0:0:
112,296,16376,1,0,0:0:0:0:
232,284,16480,1,8,0:0:0:0:
312,194,16583,37,2,0:0:0:0:
328,200,16687,1,8,0:0:0:0:
420,224,16790,1,0,0:0:0:0:
500,168,16894,2,0,L|504:88,1,80,8|0,0:0|0:0,0:0:0:0:
296,188,17100,1,8,0:0:0:0:
216,132,17204,2,0,L|212:52,1,80,0|8,0:0|0:0,0:0:0:0:
336,359,17411,5,2,0:0:0:0:
416,303,17515,2,0,L|420:223,1,80,8|0,0:0|0:0,0:0:0:0:
212,323,17721,1,8,0:0:0:0:
132,267,17825,2,0,L|128:187,1,80,0|8,0:0|0:0,0:0:0:0:
348,208,18032,1,0,0:0:0:0:
348,56,18135,1,8,0:0:0:0:
216,132,18238,37,4,0:0:0:0:
220,136,18342,1,8,0:0:0:0:
312,194,18445,1,0,0:0:0:0:
403,250,18549,2,0,L|395:330,1,80,8|0,0:0|0:0,0:0:0:0:
312,194,18756,1,8,0:0:0:0:
314,87,18860,2,0,L|387:53,1,80,0|8,0:0|0:0,0:0:0:0:
312,194,19066,1,0,0:0:0:0:
218,245,19169,1,8,0:0:0:0:
128,188,19273,5,0,0:0:0:0:
126,180,19325,1,0,0:0:0:0:
124,172,19376,1,8,0:0:0:0:
105,85,19480,1,8,0:0:0:0:
218,245,19583,1,0,0:0:0:0:
220,237,19635,1,0,0:0:0:0:
222,229,19687,1,8,0:0:0:0:
241,142,19790,1,8,0:0:0:0:
128,272,19894,38,0,P|139:310|147:349,1,80,4|8,0:0|0:0,0:0:0:0:
240,352,20100,1,0,0:0:0:0:
266,337,20151,1,0,0:0:0:0:
295,332,20203,1,8,0:0:0:0:
325,335,20255,1,8,0:0:0:0:
352,348,20307,1,0,0:0:0:0:
379,360,20358,1,0,0:0:0:0:
408,364,20410,1,0,0:0:0:0:
438,358,20462,1,0,0:0:0:0:
464,344,20514,6,0,P|472:304|484:264,1,80,12|0,0:0|0:0,0:0:0:0:
400,240,20721,1,8,0:0:0:0:
377,254,20772,1,8,0:0:0:0:
351,260,20824,1,8,0:0:0:0:
325,258,20876,1,8,0:0:0:0:
300,247,20927,1,0,0:0:0:0:
280,230,20979,1,0,0:0:0:0:
267,207,21032,1,8,0:0:0:0:
253,184,21083,1,8,0:0:0:0:
233,166,21135,1,0,0:0:0:0:
209,155,21187,1,0,0:0:0:0:
182,153,21238,1,0,0:0:0:0:
157,160,21290,1,0,0:0:0:0:
134,174,21342,37,12,0:0:0:0:
134,174,21549,5,0,0:0:0:0:
253,184,21652,1,0,0:0:0:0:
316,80,21756,1,0,0:0:0:0:
434,89,21859,1,0,0:0:0:0:
496,192,21963,37,4,0:0:0:0:
496,192,23825,5,0,0:0:0:0:
495,200,23928,1,0,0:0:0:0:
494,208,24032,1,0,0:0:0:0:
493,215,24135,1,0,0:0:0:0:
492,222,24238,1,0,0:0:0:0:
491,230,24342,1,0,0:0:0:0:
490,237,24445,1,0,0:0:0:0:
489,245,24549,1,0,0:0:0:0:
488,252,24652,38,0,P|448:240|408:232,1,80,2|0,0:0|2:0,0:0:0:0:
300,208,24859,1,0,2:0:0:0:
300,208,24962,1,0,2:0:0:0:
211,336,25066,5,8,0:0:0:0:
100,359,25169,1,8,0:0:0:0:
44,262,25272,1,8,0:0:0:0:
120,178,25376,1,8,0:0:0:0:
221,224,25479,2,0,P|255:216|299:208,1,80,8|8,0:0|0:0,0:0:0:0:
460,200,25686,37,8,0:0:0:0:
476,88,25790,1,8,0:0:0:0:
372,40,25893,1,8,0:0:0:0:
388,152,25997,1,8,0:0:0:0:
300,208,26100,2,0,L|312:128,1,80,8|8,0:0|0:0,0:0:0:0:
404,284,26307,5,8,0:0:0:0:
296,308,26410,1,8,0:0:0:0:
221,224,26514,1,8,0:0:0:0:
113,248,26617,1,8,0:0:0:0:
38,164,26721,2,0,L|44:84,1,80,8|8,0:0|0:0,0:0:0:0:
224,16,26928,37,8,0:0:0:0:
222,23,27031,1,8,0:0:0:0:
148,156,27134,1,8,0:0:0:0:
151,163,27238,1,8,0:0:0:0:
300,208,27341,5,10,0:0:0:0:
307,207,27393,1,0,0:0:0:0:
314,206,27445,1,0,0:0:0:0:
321,205,27497,1,0,0:0:0:0:
352,212,27548,1,10,0:0:0:0:
359,211,27600,1,0,0:0:0:0:
366,210,27652,1,0,0:0:0:0:
373,209,27703,1,0,0:0:0:0:
404,216,27755,1,10,0:0:0:0:
411,215,27807,1,0,0:0:0:0:
418,214,27859,1,0,0:0:0:0:
425,213,27910,1,0,0:0:0:0:
456,220,27962,1,10,0:0:0:0:
463,219,28014,1,0,0:0:0:0:
470,218,28066,1,0,0:0:0:0:
477,217,28117,1,0,0:0:0:0:
508,224,28169,38,0,L|500:144,1,80,8|0,0:0|0:0,0:0:0:0:
404,36,28376,1,8,0:0:0:0:
402,43,28479,1,8,0:0:0:0:
264,116,28583,5,4,0:0:0:0:
184,108,28687,1,8,0:0:0:0:
104,100,28790,1,0,0:0:0:0:
24,92,28894,1,8,0:0:0:0:
64,216,28997,2,0,P|100:208|144:200,1,80,0|8,0:0|0:0,0:0:0:0:
228,296,29204,37,0,0:0:0:0:
308,304,29308,1,8,0:0:0:0:
368,356,29411,1,0,0:0:0:0:
448,364,29515,1,8,0:0:0:0:
508,312,29618,2,0,L|500:232,1,80,0|8,0:0|0:0,0:0:0:0:
344,104,29825,5,0,0:0:0:0:
264,116,29928,1,8,0:0:0:0:
184,88,30032,1,0,0:0:0:0:
104,100,30135,1,8,0:0:0:0:
24,72,30239,2,0,L|32:152,1,80,0|8,0:0|0:0,0:0:0:0:
212,216,30446,37,0,0:0:0:0:
228,296,30549,1,8,0:0:0:0:
148,312,30652,1,0,0:0:0:0:
132,232,30755,1,8,0:0:0:0:
212,216,30859,2,0,L|292:200,1,80,4|8,0:0|0:0,0:0:0:0:
148,312,31066,2,0,L|68:296,1,80,0|8,0:0|0:0,0:0:0:0:
160,156,31273,5,0,0:0:0:0:
176,152,31325,1,0,0:0:0:0:
192,148,31377,1,8,0:0:0:0:
290,200,31480,1,0,0:0:0:0:
306,204,31532,1,0,0:0:0:0:
322,208,31584,1,8,0:0:0:0:
420,156,31687,1,0,0:0:0:0:
436,152,31739,1,0,0:0:0:0:
452,148,31791,1,8,0:0:0:0:
384,284,31894,37,0,0:0:0:0:
382,276,31997,1,8,0:0:0:0:
308,124,32101,5,4,0:0:0:0:
236,88,32204,1,8,0:0:0:0:
156,88,32307,1,0,0:0:0:0:
84,52,32410,1,8,0:0:0:0:
4,52,32514,2,0,L|12:132,1,80,0|8,0:0|0:0,0:0:0:0:
82,256,32721,37,0,0:0:0:0:
162,240,32825,1,8,0:0:0:0:
242,224,32928,1,0,0:0:0:0:
322,208,33032,1,8,0:0:0:0:
384,284,33135,2,0,L|380:364,1,80,0|8,0:0|0:0,0:0:0:0:
150,320,33342,5,0,0:0:0:0:
162,240,33445,1,8,0:0:0:0:
112,176,33549,1,0,0:0:0:0:
124,96,33652,1,8,0:0:0:0:
192,52,33756,2,0,L|272:44,1,80,0|8,0:0|0:0,0:0:0:0:
404,136,33963,37,0,0:0:0:0:
484,120,34066,1,8,0:0:0:0:
402,224,34169,1,0,0:0:0:0:
322,208,34272,1,8,0:0:0:0:
301,71,34376,5,8,0:0:0:0:
301,71,34480,1,8,0:0:0:0:
402,224,34583,1,8,0:0:0:0:
402,224,34687,1,8,0:0:0:0:
248,325,34790,1,8,0:0:0:0:
248,325,34894,1,8,0:0:0:0:
147,172,34997,1,8,0:0:0:0:
147,172,35101,1,8,0:0:0:0:
355,144,35204,37,2,0:0:0:0:
328,279,35307,1,2,0:0:0:0:
193,251,35411,1,2,0:0:0:0:
220,116,35514,1,2,0:0:0:0:
355,144,35618,5,4,0:0:0:0:
402,224,35721,1,8,0:0:0:0:
328,279,35824,1,0,0:0:0:0:
280,198,35928,2,0,L|192:180,1,80,8|0,0:0|0:0,0:0:0:0:
24,192,36135,1,8,0:0:0:0:
72,111,36239,2,0,L|160:93,1,80,0|8,0:0|0:0,0:0:0:0:
355,144,36445,37,0,0:0:0:0:
432,92,36549,2,0,L|436:8,1,80,8|0,0:0|0:0,0:0:0:0:
203,146,36755,1,8,0:0:0:0:
280,198,36859,2,0,L|284:282,1,80,0|8,0:0|0:0,0:0:0:0:
51,144,37066,1,8,0:0:0:0:
128,92,37169,1,8,0:0:0:0:
280,198,37273,5,4,0:0:0:0:
288,204,37376,1,8,0:0:0:0:
216,292,37480,1,0,0:0:0:0:
128,224,37583,2,0,L|48:232,1,80,8|0,0:0|0:0,0:0:0:0:
203,146,37790,1,8,0:0:0:0:
291,78,37893,2,0,L|371:86,1,80,0|8,0:0|0:0,0:0:0:0:
456,268,38100,37,0,0:0:0:0:
364,304,38204,2,0,B|324:316|324:316|284:308,1,80,8|0,0:0|0:0,0:0:0:0:
111,182,38411,1,8,0:0:0:0:
203,146,38515,2,0,B|243:134|243:134|283:142,1,80,0|8,0:0|0:0,0:0:0:0:
184,360,38721,1,0,0:0:0:0:
200,220,38824,1,8,0:0:0:0:
136,108,38928,5,4,0:0:0:0:
140,100,39031,1,8,0:0:0:0:
232,20,39135,1,0,0:0:0:0:
344,76,39238,2,0,P|380:68|424:64,1,80,8|0,0:0|0:0,0:0:0:0:
203,146,39445,1,8,0:0:0:0:
91,202,39548,2,0,P|55:194|11:190,1,80,0|8,0:0|0:0,0:0:0:0:
232,288,39755,37,0,0:0:0:0:
348,344,39859,2,0,B|372:352|372:352|428:344,1,80,8|0,0:0|0:0,0:0:0:0:
164,240,40066,1,8,0:0:0:0:
280,184,40170,2,0,B|304:176|304:176|360:184,1,80,0|8,0:0|0:0,0:0:0:0:
88,276,40376,1,0,0:0:0:0:
90,283,40480,1,8,0:0:0:0:
232,288,40583,5,8,0:0:0:0:
233,276,40635,1,8,0:0:0:0:
234,264,40686,1,8,0:0:0:0:
235,252,40738,1,8,0:0:0:0:
236,240,40790,1,0,0:0:0:0:
237,228,40842,1,0,0:0:0:0:
238,216,40893,1,10,0:0:0:0:
132,176,40997,1,0,0:0:0:0:
133,164,41049,1,0,0:0:0:0:
134,152,41100,1,10,0:0:0:0:
28,112,41204,2,0,L|36:32,1,80
144,24,41411,37,0,0:0:0:0:
143,36,41463,1,0,0:0:0:0:
142,48,41514,1,12,0:0:0:0:
248,88,41618,1,0,0:0:0:0:
247,100,41670,1,0,0:0:0:0:
246,112,41721,1,12,0:0:0:0:
352,152,41824,5,8,0:0:0:0:
464,132,41928,1,8,0:0:0:0:
350,164,42031,1,8,0:0:0:0:
462,144,42135,1,8,0:0:0:0:
348,176,42238,37,4,0:0:0:0:
346,188,42342,1,8,0:0:0:0:
264,264,42445,1,0,0:0:0:0:
344,344,42549,2,0,L|424:336,1,80,8|0,0:0|0:0,0:0:0:0:
192,176,42755,1,8,0:0:0:0:
112,256,42859,2,0,L|32:248,1,80,0|8,0:0|0:0,0:0:0:0:
264,88,43066,5,0,0:0:0:0:
344,168,43170,2,0,L|424:160,1,80,8|0,0:0|0:0,0:0:0:0:
192,0,43376,1,8,0:0:0:0:
112,80,43480,1,8,0:0:0:0:
112,80,43531,1,8,0:0:0:0:
112,80,43583,2,0,L|32:72,2,80,8|8|8,0:0|0:0|0:0,0:0:0:0:
192,176,43893,37,4,0:0:0:0:
194,183,43997,1,8,0:0:0:0:
228,288,44100,1,0,0:0:0:0:
136,352,44204,2,0,B|120:344|120:344|56:348,1,80,8|0,0:0|0:0,0:0:0:0:
136,224,44411,1,8,0:0:0:0:
228,288,44515,2,0,B|244:280|244:280|308:284,1,80,0|8,0:0|0:0,0:0:0:0:
228,160,44721,5,0,0:0:0:0:
136,224,44825,2,0,B|120:216|120:216|56:220,1,80,8|0,0:0|0:0,0:0:0:0:
136,96,45031,1,8,0:0:0:0:
228,160,45135,1,0,0:0:0:0:
239,158,45186,1,0,0:0:0:0:
250,156,45238,1,0,0:0:0:0:
261,154,45290,1,0,0:0:0:0:
272,152,45342,1,0,0:0:0:0:
283,150,45393,1,0,0:0:0:0:
294,148,45445,1,0,0:0:0:0:
305,146,45497,1,0,0:0:0:0:
316,144,45549,38,0,B|336:148|336:148|396:136,1,80,4|8,0:0|0:0,0:0:0:0:
248,28,45755,1,0,0:0:0:0:
164,0,45859,2,0,B|144:-4|144:-4|84:8,1,80,8|0,0:0|0:0,0:0:0:0:
52,196,46066,1,8,0:0:0:0:
136,224,46170,2,0,B|156:228|156:228|216:216,1,80
340,72,46376,1,8,0:0:0:0:
468,92,46480,1,8,0:0:0:0:
400,180,46583,5,0,0:0:0:0:
404,196,46635,1,0,0:0:0:0:
408,212,46686,1,8,0:0:0:0:
380,320,46790,1,8,0:0:0:0:
292,252,46893,1,0,0:0:0:0:
296,236,46945,1,0,0:0:0:0:
300,220,46996,1,8,0:0:0:0:
272,112,47100,1,8,0:0:0:0:
184,180,47204,38,0,P|148:172|104:164,1,80,4|8,0:0|0:0,0:0:0:0:
8,152,47411,1,8,0:0:0:0:
48,316,47514,2,0,P|84:308|128:300,1,80,4|8,0:0|0:0,0:0:0:0:
224,288,47721,1,8,0:0:0:0:
452,328,47824,2,0,P|416:336|372:344,1,80,4|8,0:0|0:0,0:0:0:0:
276,356,48031,5,8,0:0:0:0:
192,228,48135,1,0,0:0:0:0:
190,216,48186,1,0,0:0:0:0:
188,204,48238,1,0,0:0:0:0:
186,192,48290,1,0,0:0:0:0:
184,180,48342,1,8,0:0:0:0:
272,112,48445,1,0,0:0:0:0:
270,124,48496,1,0,0:0:0:0:
268,136,48548,1,0,0:0:0:0:
266,148,48600,1,0,0:0:0:0:
264,160,48652,1,12,0:0:0:0:
264,160,48859,38,0,P|300:152|344:144,1,80,12|0,0:0|0:0,0:0:0:0:
416,176,49014,1,0,0:0:0:0:
416,176,49066,2,0,P|455:183|494:191,1,80,8|0,0:0|0:0,0:0:0:0:
476,272,49221,1,0,0:0:0:0:
476,272,49273,2,0,P|436:272|400:256,1,80,8|0,0:0|0:0,0:0:0:0:
340,200,49428,1,0,0:0:0:0:
340,200,49480,2,0,L|348:120,1,80,8|0,0:0|0:0,0:0:0:0:
264,160,49635,1,0,0:0:0:0:
264,160,49687,6,0,L|272:240,1,80,8|0,0:0|0:0,0:0:0:0:
192,248,49842,1,0,0:0:0:0:
192,248,49893,2,0,P|184:208|184:168,1,80,8|0,0:0|0:0,0:0:0:0:
216,92,50049,1,0,0:0:0:0:
216,92,50100,2,0,P|224:52|224:12,1,80,8|0,0:0|0:0,0:0:0:0:
152,48,50255,1,0,0:0:0:0:
152,48,50307,2,0,L|112:40|72:32,1,80,8|0,0:0|0:0,0:0:0:0:
16,88,50514,37,12,0:0:0:0:
24,160,50618,1,0,0:0:0:0:
32,232,50721,1,0,0:0:0:0:
40,304,50824,1,0,0:0:0:0:
136,356,50928,5,8,0:0:0:0:
145,269,51032,1,0,0:0:0:0:
155,183,51135,1,0,0:0:0:0:
164,96,51238,1,0,0:0:0:0:
272,24,51342,37,8,0:0:0:0:
283,124,51446,1,0,0:0:0:0:
294,225,51549,1,0,0:0:0:0:
305,326,51652,1,0,0:0:0:0:
420,256,51755,6,0,P|452:244|496:232,1,80,8|0,0:0|0:0,0:0:0:0:
164,96,51962,2,0,P|132:84|88:72,1,80,8|0,0:0|0:0,0:0:0:0:
128,344,52169,38,0,B|144:356|144:356|168:356|204:348,1,80,12|0,0:0|0:0,0:0:0:0:
280,320,52324,1,0,0:0:0:0:
280,320,52376,2,0,P|320:312|360:312,1,80,8|0,0:0|0:0,0:0:0:0:
436,332,52531,1,0,0:0:0:0:
436,332,52583,2,0,L|444:252,1,80,8|0,0:0|0:0,0:0:0:0:
384,196,52738,1,0,0:0:0:0:
384,196,52790,2,0,L|376:116,1,80,8|0,0:0|0:0,0:0:0:0:
392,36,52945,1,0,0:0:0:0:
392,36,52997,6,0,P|352:48|312:48,1,80,8|0,0:0|0:0,0:0:0:0:
236,24,53152,1,0,0:0:0:0:
236,24,53204,2,0,P|196:12|156:12,1,80,8|0,0:0|0:0,0:0:0:0:
80,32,53359,1,0,0:0:0:0:
80,32,53411,2,0,P|72:72|60:112,1,80,8|0,0:0|0:0,0:0:0:0:
128,156,53566,1,0,0:0:0:0:
128,156,53618,2,0,P|136:196|148:236,1,80,8|0,0:0|0:0,0:0:0:0:
108,304,53824,37,12,0:0:0:0:
216,332,53928,1,8,0:0:0:0:
100,228,54135,5,8,0:0:0:0:
262,269,54239,1,8,0:0:0:0:
92,152,54445,37,8,0:0:0:0:
308,206,54549,1,8,0:0:0:0:
84,76,54755,5,8,0:0:0:0:
354,143,54859,1,8,0:0:0:0:
76,0,55066,37,8,0:0:0:0:
184,24,55169,1,8,0:0:0:0:
292,52,55273,1,8,0:0:0:0:
400,80,55376,1,8,0:0:0:0:
508,108,55480,6,0,P|504:156|500:188,1,80,12|0,0:0|0:0,0:0:0:0:
448,252,55635,1,0,0:0:0:0:
448,252,55686,2,0,P|452:300|456:332,1,80,8|0,0:0|0:0,0:0:0:0:
384,372,55842,1,0,0:0:0:0:
384,372,55893,2,0,P|336:376|304:380,1,80,8|0,0:0|0:0,0:0:0:0:
232,340,56049,1,0,0:0:0:0:
232,340,56100,2,0,P|184:336|152:332,1,80,8|0,0:0|0:0,0:0:0:0:
220,252,56255,1,0,0:0:0:0:
220,252,56307,38,0,P|268:256|300:260,1,80,8|0,0:0|0:0,0:0:0:0:
344,168,56462,1,0,0:0:0:0:
344,168,56514,2,0,P|296:172|264:176,1,80,8|0,0:0|0:0,0:0:0:0:
184,184,56669,1,0,0:0:0:0:
184,184,56720,2,0,P|136:180|104:176,1,80,8|0,0:0|0:0,0:0:0:0:
68,92,56876,1,0,0:0:0:0:
68,92,56928,2,0,P|108:88|148:96,1,80,8|0,0:0|0:0,0:0:0:0:
220,116,57135,5,12,0:0:0:0:
288,96,57238,1,0,0:0:0:0:
356,76,57342,1,0,0:0:0:0:
424,56,57445,1,0,0:0:0:0:
462,153,57549,37,8,0:0:0:0:
381,218,57652,1,0,0:0:0:0:
278,202,57755,1,0,0:0:0:0:
220,116,57859,1,0,0:0:0:0:
224,12,57962,6,0,P|260:4|304:0,1,80,8|0,0:0|0:0,0:0:0:0:
496,144,58169,2,0,P|460:136|416:132,1,80
68,92,58376,38,0,P|104:84|148:80,1,80,8|0,0:0|0:0,0:0:0:0:
470,295,58583,2,0,P|434:287|390:283,1,80
4,196,58790,5,4,0:0:0:0:
8,200,58893,1,0,0:0:0:0:
136,296,58997,1,0,0:0:0:0:
140,292,59100,1,0,0:0:0:0:
272,200,59204,1,0,0:0:0:0:
276,204,59307,1,0,0:0:0:0:
392,284,59411,1,0,0:0:0:0:
396,280,59514,1,0,0:0:0:0:
500,160,59618,38,0,B|504:136|504:136|492:80,1,80,8|0,0:0|0:0,0:0:0:0:
490,73,59773,1,0,0:0:0:0:
488,65,59824,1,0,0:0:0:0:
408,104,59928,1,0,0:0:0:0:
398,132,59980,1,0,0:0:0:0:
376,152,60031,1,8,0:0:0:0:
348,162,60082,1,8,0:0:0:0:
318,161,60134,1,0,0:0:0:0:
291,149,60186,1,0,0:0:0:0:
271,127,60238,1,8,0:0:0:0:
251,104,60289,1,8,0:0:0:0:
224,92,60341,1,0,0:0:0:0:
194,91,60393,1,0,0:0:0:0:
166,102,60445,6,0,B|128:114|128:114|92:96|92:96|56:92|12:104,1,160,4|8,0:0|0:0,0:0:0:0:
84,204,60755,1,8,0:0:0:0:
104,200,60807,1,8,0:0:0:0:
124,196,60859,1,0,0:0:0:0:
144,192,60911,1,0,0:0:0:0:
164,188,60962,1,0,0:0:0:0:
184,184,61014,1,0,0:0:0:0:
204,180,61066,2,0,L|208:140,2,40,8|8|0,0:0|0:0|0:0,0:0:0:0:
196,272,61273,38,0,L|192:312,2,40,10|0|0,0:0|0:0|0:0,0:0:0:0:
296,200,61479,1,0,0:0:0:0:
297,170,61531,1,0,0:0:0:0:
290,141,61583,2,0,L|330:137,2,40,10|0|0,0:0|0:0|0:0,0:0:0:0:
280,296,61790,1,0,0:0:0:0:
320,292,61842,1,0,0:0:0:0:
360,288,61893,1,10,0:0:0:0:
360,288,62100,22,0,P|368:240|372:192,1,95.9999970703126,4|8,0:0|0:0,0:0:0:0:
96,224,62307,2,0,P|100:271|107:319,1,95.9999970703126,0|8,0:0|0:0,0:0:0:0:
284,192,62514,1,0,0:0:0:0:
303,76,62618,1,8,0:0:0:0:
190,57,62721,1,0,0:0:0:0:
168,170,62824,1,8,0:0:0:0:
284,192,62928,6,0,P|324:184|380:176,1,95.9999970703126,4|8,0:0|0:0,0:0:0:0:
190,57,63135,2,0,P|150:49|94:41,1,95.9999970703126,0|8,0:0|0:0,0:0:0:0:
16,200,63342,1,0,0:0:0:0:
168,170,63445,1,8,0:0:0:0:
16,200,63549,1,0,0:0:0:0:
168,170,63652,1,8,0:0:0:0:
16,200,63755,38,0,B|12:232|12:232|16:260|16:260|12:296,1,95.9999970703126,4|8,0:0|0:0,0:0:0:0:
284,192,63962,2,0,B|280:160|280:160|284:132|284:132|280:96,1,95.9999970703126,0|8,0:0|0:0,0:0:0:0:
80,316,64169,1,0,0:0:0:0:
192,344,64273,1,8,0:0:0:0:
296,296,64376,1,0,0:0:0:0:
408,324,64480,1,8,0:0:0:0:
512,276,64583,6,0,B|504:244|504:244|508:232|508:232|496:180,1,95.9999970703126,4|8,0:0|0:0,0:0:0:0:
299,98,64790,2,0,B|291:130|291:130|295:142|295:142|283:194,1,95.9999970703126,0|8,0:0|0:0,0:0:0:0:
368,352,64997,2,0,P|412:356|456:332,1,95.9999970703126,0|8,0:0|0:0,0:0:0:0:
464,84,65204,2,0,P|420:80|376:104,1,95.9999970703126,0|8,0:0|0:0,0:0:0:0:
296,296,65411,38,0,P|256:284|200:272,1,95.9999970703126,4|8,0:0|0:0,0:0:0:0:
44,208,65618,2,0,P|92:212|136:192,1,95.9999970703126,0|8,0:0|0:0,0:0:0:0:
76,120,65824,1,0,0:0:0:0:
104,300,65928,1,8,0:0:0:0:
76,120,66031,1,0,0:0:0:0:
104,300,66135,1,8,0:0:0:0:
248,188,66238,6,0,B|256:156|256:156|248:92,1,95.9999970703126,4|8,0:0|0:0,0:0:0:0:
424,160,66445,2,0,B|416:192|416:192|424:256,1,95.9999970703126,0|8,0:0|0:0,0:0:0:0:
228,360,66652,1,0,0:0:0:0:
176,216,66755,1,8,0:0:0:0:
320,160,66859,1,0,0:0:0:0:
372,304,66962,1,8,0:0:0:0:
228,360,67066,38,0,P|180:368|132:360,1,95.9999970703126,4|8,0:0|0:0,0:0:0:0:
320,160,67273,2,0,P|368:152|416:160,1,95.9999970703126,0|8,0:0|0:0,0:0:0:0:
104,300,67480,1,0,0:0:0:0:
84,188,67583,1,8,0:0:0:0:
172,116,67686,1,0,0:0:0:0:
152,4,67789,1,8,0:0:0:0:
260,40,67893,5,4,0:0:0:0:
260,40,68100,1,8,0:0:0:0:
244,67,68151,1,8,0:0:0:0:
239,99,68203,1,8,0:0:0:0:
244,130,68255,1,8,0:0:0:0:
259,158,68306,1,8,0:0:0:0:
283,180,68358,1,8,0:0:0:0:
312,192,68410,1,0,0:0:0:0:
344,195,68462,1,0,0:0:0:0:
375,186,68513,1,8,0:0:0:0:
401,168,68565,1,8,0:0:0:0:
420,143,68617,1,0,0:0:0:0:
430,113,68668,1,0,0:0:0:0:
429,81,68721,38,0,B|335:100,1,95.9999970703126,4|8,0:0|0:0,0:0:0:0:
88,164,68928,2,0,B|182:183,1,95.9999970703126,0|8,0:0|0:0,0:0:0:0:
328,304,69135,1,0,0:0:0:0:
176,332,69238,1,8,0:0:0:0:
328,304,69342,1,0,0:0:0:0:
176,332,69445,1,8,0:0:0:0:
328,304,69549,6,0,P|376:300|424:308,1,95.9999970703126,4|8,0:0|0:0,0:0:0:0:
176,332,69755,2,0,P|128:336|80:328,1,95.9999970703126,0|8,0:0|0:0,0:0:0:0:
228,80,69962,1,0,0:0:0:0:
262,209,70066,1,8,0:0:0:0:
132,244,70169,1,0,0:0:0:0:
98,114,70273,1,8,0:0:0:0:
228,80,70376,38,0,B|260:72|260:72|280:56|280:56|316:48,1,95.9999970703126,4|8,0:0|0:0,0:0:0:0:
132,244,70583,2,0,B|100:236|100:236|80:220|80:220|44:212,1,95.9999970703126,0|8,0:0|0:0,0:0:0:0:
316,47,70790,1,0,0:0:0:0:
364,152,70893,1,8,0:0:0:0:
262,209,70997,1,0,0:0:0:0:
310,314,71100,1,8,0:0:0:0:
208,371,71204,6,0,P|172:360|112:348,1,95.9999970703126,4|8,0:0|0:0,0:0:0:0:
344,236,71411,2,0,P|380:225|440:213,1,95.9999970703126,0|8,0:0|0:0,0:0:0:0:
132,244,71618,2,0,P|128:200|140:148,1,95.9999970703126,0|8,0:0|0:0,0:0:0:0:
500,268,71824,2,0,P|504:312|492:364,1,95.9999970703126,0|8,0:0|0:0,0:0:0:0:
262,209,72031,38,0,B|260:172|260:172|264:152|264:152|260:112,1,95.9999970703126,4|8,0:0|0:0,0:0:0:0:
48,216,72238,2,0,B|46:253|46:253|50:273|50:273|46:313,1,95.9999970703126,0|8,0:0|0:0,0:0:0:0:
364,152,72445,1,0,0:0:0:0:
132,244,72549,1,8,0:0:0:0:
344,236,72652,1,0,0:0:0:0:
200,296,72755,1,8,0:0:0:0:
304,352,72859,6,0,B|324:364|324:364|360:364|396:348,1,95.9999970703126,4|8,0:0|0:0,0:0:0:0:
288,128,73066,2,0,B|268:116|268:116|232:116|196:132,1,95.9999970703126,0|8,0:0|0:0,0:0:0:0:
452,304,73273,1,0,0:0:0:0:
472,192,73376,1,8,0:0:0:0:
384,116,73480,1,0,0:0:0:0:
404,4,73583,1,8,0:0:0:0:
472,192,73686,38,0,B|428:216|428:216|384:196|384:196|344:220|292:212,1,191.999994140625,4|8,0:0|0:0,0:0:0:0:
168,152,73997,1,8,0:0:0:0:
168,152,74049,1,8,0:0:0:0:
168,152,74100,1,8,0:0:0:0:
164,180,74152,1,0,0:0:0:0:
160,208,74204,1,0,0:0:0:0:
156,236,74255,1,0,0:0:0:0:
152,264,74307,1,8,0:0:0:0:
148,292,74359,1,8,0:0:0:0:
144,320,74411,1,0,0:0:0:0:
140,348,74462,1,0,0:0:0:0:
136,376,74514,6,0,B|184:384|184:384|232:372,1,95.9999970703126,8|8,0:0|0:0,0:0:0:0:
340,196,74721,2,0,B|292:188|292:188|244:200,1,95.9999970703126,8|8,0:0|0:0,0:0:0:0:
452,304,74928,1,0,0:0:0:0:
456,308,75031,1,8,0:0:0:0:
472,192,75135,1,8,0:0:0:0:
468,156,75186,1,8,0:0:0:0:
464,116,75238,1,8,0:0:0:0:
460,76,75290,1,8,0:0:0:0:
456,36,75342,6,0,P|380:72|308:60,1,160,4|0,0:0|0:0,0:0:0:0:
224,24,75652,1,0,0:0:0:0:
209,20,75755,1,8,0:0:0:0:
193,15,75858,1,0,0:0:0:0:
177,12,75961,1,0,0:0:0:0:
161,12,76065,1,0,0:0:0:0:
146,13,76168,1,2,0:0:0:0:
130,17,76272,1,0,0:0:0:0:
115,20,76376,1,0,0:0:0:0:
100,25,76479,1,0,0:0:0:0:
86,33,76583,1,8,0:0:0:0:
74,43,76686,1,0,0:0:0:0:
62,54,76789,1,0,0:0:0:0:
52,66,76893,1,0,0:0:0:0:
44,80,76996,1,2,0:0:0:0:
37,94,77100,1,0,0:0:0:0:
32,110,77204,1,0,0:0:0:0:
30,125,77307,1,0,0:0:0:0:
30,141,77410,1,8,0:0:0:0:
34,157,77514,1,0,0:0:0:0:
41,171,77617,1,0,0:0:0:0:
50,184,77721,1,0,0:0:0:0:
62,195,77824,6,0,P|76:232|84:276,1,80,2|0,0:0|0:0,0:0:0:0:
212,145,78031,1,0,0:0:0:0:
204,144,78135,2,0,P|165:136|123:121,1,80,2|8,0:0|0:0,0:0:0:0:
189,312,78342,1,0,0:0:0:0:
192,304,78446,2,0,P|216:274|250:245,1,80,2|0,0:0|0:0,0:0:0:0:
41,43,78652,38,0,B|37:86|65:126|65:126|53:154|53:154|61:194,1,160,4|0,0:0|0:0,0:0:0:0:
76,203,78963,1,0,0:0:0:0:
91,208,79066,1,8,0:0:0:0:
107,210,79170,1,0,0:0:0:0:
123,209,79273,1,0,0:0:0:0:
138,205,79376,1,0,0:0:0:0:
153,198,79480,1,2,0:0:0:0:
165,188,79583,1,0,0:0:0:0:
176,176,79687,1,0,0:0:0:0:
183,162,79790,1,0,0:0:0:0:
188,147,79893,1,8,0:0:0:0:
190,131,79997,1,0,0:0:0:0:
189,115,80101,1,0,0:0:0:0:
184,100,80204,1,0,0:0:0:0:
177,86,80307,1,2,0:0:0:0:
166,74,80410,1,0,0:0:0:0:
153,66,80513,1,0,0:0:0:0:
138,60,80617,1,0,0:0:0:0:
122,58,80720,1,8,0:0:0:0:
106,60,80824,1,0,0:0:0:0:
91,65,80927,1,0,0:0:0:0:
77,74,81031,1,0,0:0:0:0:
67,86,81135,6,0,P|76:124|80:172,1,80,8|0,0:0|0:0,0:0:0:0:
157,352,81342,1,8,0:0:0:0:
160,344,81445,2,0,P|169:306|173:258,1,80,10|0,0:0|0:0,0:0:0:0:
200,116,81652,1,0,0:0:0:0:
192,120,81755,6,0,B|152:136|152:136|120:128|120:128|80:144,1,120,12|0,0:0|2:0,0:0:0:0:
79,144,81962,6,0,B|64:184|64:184|88:212|88:212|92:252|92:252|132:256|132:256|168:272|168:272|212:240|284:232,1,320,4|8,0:0|0:0,0:0:0:0:
480,276,82480,2,0,P|424:312|340:284,1,160
400,116,82790,2,0,B|408:156|408:156|400:180|400:180|408:224,2,106.666666666667,2|0|0,0:0|0:0|0:0,0:0:0:0:
296,32,83204,2,0,P|256:28|216:36,1,80,8|0,0:0|0:0,0:0:0:0:
232,196,83411,2,0,P|272:200|312:192,1,80
132,136,83618,38,0,B|92:144|92:144|68:136|68:136|28:144,2,106.666666666667,2|0|0,0:0|0:0|0:0,0:0:0:0:
360,80,84031,2,0,B|400:72|400:72|424:80|424:80|464:72,2,106.666666666667,8|0|0,0:0|0:0|0:0,0:0:0:0:
232,196,84445,2,0,B|213:205|200:220|200:220|179:217|160:208|160:208|138:214|124:224|124:224|76:192|8:196,1,240,2|0,0:0|0:0,0:0:0:0:
32,344,84859,2,0,B|68:348|68:348|112:336|112:336|192:348,1,160,8|0,0:0|0:0,0:0:0:0:
336,328,85273,5,4,0:0:0:0:
384,320,85376,1,0,0:0:0:0:
432,312,85480,1,0,0:0:0:0:
384,251,85583,1,0,0:0:0:0:
333,196,85686,1,8,0:0:0:0:
282,140,85789,1,0,0:0:0:0:
314,72,85892,1,0,0:0:0:0:
364,128,85997,1,0,0:0:0:0:
333,196,86100,37,2,0:0:0:0:
256,212,86204,1,0,0:0:0:0:
208,152,86307,1,0,0:0:0:0:
236,80,86411,1,0,0:0:0:0:
314,72,86514,1,8,0:0:0:0:
282,140,86618,1,0,0:0:0:0:
256,212,86721,1,0,0:0:0:0:
180,224,86824,1,0,0:0:0:0:
204,296,86928,1,2,0:0:0:0:
232,368,87031,1,0,0:0:0:0:
186,363,87135,1,0,0:0:0:0:
141,358,87238,1,0,0:0:0:0:
96,352,87342,5,8,0:0:0:0:
147,292,87445,1,0,0:0:0:0:
198,232,87549,1,0,0:0:0:0:
249,172,87652,1,0,0:0:0:0:
300,112,87755,37,2,0:0:0:0:
324,188,87859,1,0,0:0:0:0:
272,244,87962,1,0,0:0:0:0:
296,320,88066,1,0,0:0:0:0:
368,352,88169,2,0,B|408:356|408:356|452:324|512:292,1,160,8|0,0:0|0:0,0:0:0:0:
509,293,88480,1,0,0:0:0:0:
509,293,88583,6,0,P|504:252|492:216,1,80,4|0,0:0|0:0,0:0:0:0:
219,296,88790,2,0,P|257:311|294:319,1,80
361,42,88997,2,0,P|328:67|303:96,1,80,8|0,0:0|0:0,0:0:0:0:
364,212,89204,37,0,0:0:0:0:
368,216,89255,1,0,0:0:0:0:
372,220,89307,1,0,0:0:0:0:
376,224,89359,1,0,0:0:0:0:
380,228,89411,6,0,P|340:220|300:216,1,80,2|0,0:0|0:0,0:0:0:0:
144,312,89618,2,0,P|104:320|64:324,1,80
0,204,89824,1,8,0:0:0:0:
72,168,89928,1,0,0:0:0:0:
152,176,90031,1,0,0:0:0:0:
224,140,90135,1,0,0:0:0:0:
288,96,90238,1,2,0:0:0:0:
360,132,90342,1,0,0:0:0:0:
440,124,90445,1,0,0:0:0:0:
512,160,90549,1,0,0:0:0:0:
432,204,90652,38,0,B|416:240|416:240|440:276|440:276|416:304|404:344,1,160,8|0,0:0|0:0,0:0:0:0:
404,343,90962,1,0,0:0:0:0:
404,343,91066,2,0,P|360:320|264:356,1,160,2|0,0:0|0:0,0:0:0:0:
263,356,91376,1,0,0:0:0:0:
263,356,91480,2,0,B|268:328|268:328|264:312|264:312|268:276,1,80,8|0,0:0|0:0,0:0:0:0:
152,176,91686,2,0,B|147:147|147:147|151:131|151:131|147:95,1,80,8|0,0:0|0:0,0:0:0:0:
312,8,91893,5,6,0:0:0:0:
316,20,91962,1,0,0:0:0:0:
320,32,92031,1,0,0:0:0:0:
324,44,92100,1,0,0:0:0:0:
328,56,92169,37,0,0:0:0:0:
313,106,92238,1,0,0:0:0:0:
268,132,92306,1,8,0:0:0:0:
217,121,92375,1,0,0:0:0:0:
187,79,92445,1,0,0:0:0:0:
153,40,92513,1,0,0:0:0:0:
101,32,92582,1,0,0:0:0:0:
56,59,92651,1,0,0:0:0:0:
38,108,92721,5,0,0:0:0:0:
57,157,92789,1,0,0:0:0:0:
70,209,92858,1,0,0:0:0:0:
120,232,92928,1,0,0:0:0:0:
100,281,92996,1,0,0:0:0:0:
88,333,93065,1,0,0:0:0:0:
120,376,93135,37,8,0:0:0:0:
167,352,93203,1,0,0:0:0:0:
217,334,93272,1,0,0:0:0:0:
269,322,93341,1,0,0:0:0:0:
322,317,93410,1,0,0:0:0:0:
376,322,93479,1,0,0:0:0:0:
428,330,93549,5,2,0:0:0:0:
376,322,93617,1,0,0:0:0:0:
329,296,93686,1,0,0:0:0:0:
296,255,93755,1,0,0:0:0:0:
281,204,93824,1,0,0:0:0:0:
288,152,93893,1,0,0:0:0:0:
313,106,93962,37,8,0:0:0:0:
260,113,94030,1,0,0:0:0:0:
207,120,94099,1,0,0:0:0:0:
176,164,94169,1,8,0:0:0:0:
123,156,94237,1,0,0:0:0:0:
70,149,94306,1,0,0:0:0:0:
48,100,94375,5,4,0:0:0:0:
112,56,94480,2,0,P|124:96|116:136,1,80,0|2,0:0|0:0,0:0:0:0:
0,224,94686,2,0,P|28:193|67:180,1,80,8|2,0:0|0:0,0:0:0:0:
201,235,94893,2,0,P|160:225|129:198,1,80,0|8,0:0|0:0,0:0:0:0:
131,201,95204,38,0,B|138:242|138:242|130:286|130:286|162:266|198:258|198:258,1,160,4|8,0:0|0:0,0:0:0:0:
220,264,95462,1,0,0:0:0:0:
243,268,95513,1,8,0:0:0:0:
267,266,95565,1,0,0:0:0:0:
290,260,95617,1,0,0:0:0:0:
311,248,95668,1,0,0:0:0:0:
328,231,95720,1,8,0:0:0:0:
252,104,95824,2,0,P|244:144|256:180,1,80,0|8,0:0|0:0,0:0:0:0:
420,44,96031,6,0,P|380:48|340:56,1,80,2|8,0:0|0:0,0:0:0:0:
456,248,96238,1,0,0:0:0:0:
460,224,96290,1,0,0:0:0:0:
464,200,96342,1,8,0:0:0:0:
468,176,96393,1,0,0:0:0:0:
472,152,96445,1,0,0:0:0:0:
476,128,96497,1,0,0:0:0:0:
480,104,96549,1,8,0:0:0:0:
328,231,96652,2,0,L|336:311,1,80,0|8,0:0|0:0,0:0:0:0:
152,304,96859,38,0,P|144:264|152:224,1,80,4|8,0:0|0:0,0:0:0:0:
252,104,97066,1,0,0:0:0:0:
285,109,97117,1,0,0:0:0:0:
309,132,97169,1,0,0:0:0:0:
316,165,97221,1,0,0:0:0:0:
304,197,97272,1,0,0:0:0:0:
275,215,97324,1,0,0:0:0:0:
242,214,97376,1,0,0:0:0:0:
214,195,97428,1,0,0:0:0:0:
200,156,97480,5,0,0:0:0:0:
172,136,97532,1,0,0:0:0:0:
138,135,97584,1,0,0:0:0:0:
110,154,97636,1,0,0:0:0:0:
97,185,97687,1,0,0:0:0:0:
104,218,97739,1,0,0:0:0:0:
129,241,97791,1,0,0:0:0:0:
162,247,97842,1,0,0:0:0:0:
196,268,97893,37,0,0:0:0:0:
235,260,97944,1,0,0:0:0:0:
275,259,97996,1,8,0:0:0:0:
314,266,98048,1,0,0:0:0:0:
352,280,98100,2,0,P|388:268|432:260,1,80,0|8,0:0|0:0,0:0:0:0:
362,129,98307,2,0,P|326:117|282:109,1,80,0|8,0:0|0:0,0:0:0:0:
44,112,98514,5,4,0:0:0:0:
48,120,98618,1,8,0:0:0:0:
24,212,98721,1,0,0:0:0:0:
28,220,98825,1,0,0:0:0:0:
4,312,98928,37,0,0:0:0:0:
79,292,99031,1,8,0:0:0:0:
150,326,99135,1,0,0:0:0:0:
225,340,99238,1,8,0:0:0:0:
279,286,99341,1,2,0:0:0:0:
262,211,99445,1,8,0:0:0:0:
191,183,99549,1,0,0:0:0:0:
119,155,99652,1,8,0:0:0:0:
102,80,99755,1,0,0:0:0:0:
156,25,99859,2,0,B|196:32|196:32|232:20|232:20|276:36|316:32,1,160,8|8,0:0|0:0,0:0:0:0:
408,0,100169,5,4,0:0:0:0:
375,69,100272,1,8,0:0:0:0:
419,131,100376,1,0,0:0:0:0:
472,189,100479,1,8,0:0:0:0:
472,267,100582,1,0,0:0:0:0:
419,325,100686,1,8,0:0:0:0:
342,333,100789,1,0,0:0:0:0:
279,286,100893,1,8,0:0:0:0:
262,211,100997,38,0,P|248:176|224:140,1,80,2|8,0:0|0:0,0:0:0:0:
64,136,101204,2,0,P|101:140|145:137,1,80,0|8,0:0|0:0,0:0:0:0:
228,1,101411,2,0,P|205:31|185:70,1,80,0|8,0:0|0:0,0:0:0:0:
200,268,101618,5,0,0:0:0:0:
204,272,101669,1,0,0:0:0:0:
208,276,101721,2,0,B|204:308|204:308|208:328|208:328|204:356,2,80,8|4|8,0:0|0:0|0:0,0:0:0:0:
322,158,102031,37,0,0:0:0:0:
339,207,102099,1,0,0:0:0:0:
322,257,102168,1,0,0:0:0:0:
279,286,102238,1,0,0:0:0:0:
231,289,102306,1,0,0:0:0:0:
186,305,102375,1,0,0:0:0:0:
146,333,102445,1,0,0:0:0:0:
133,298,102513,1,0,0:0:0:0:
115,265,102582,1,0,0:0:0:0:
94,234,102651,1,0,0:0:0:0:
70,206,102720,1,0,0:0:0:0:
42,180,102789,5,0,0:0:0:0:
80,172,102859,1,0,0:0:0:0:
109,150,102927,1,0,0:0:0:0:
125,117,102996,1,0,0:0:0:0:
123,80,103065,1,0,0:0:0:0:
103,49,103134,1,0,0:0:0:0:
70,31,103203,1,0,0:0:0:0:
31,32,103273,1,0,0:0:0:0:
65,47,103341,1,0,0:0:0:0:
103,49,103410,1,0,0:0:0:0:
138,37,103480,37,4,0:0:0:0:
188,22,103548,1,0,0:0:0:0:
240,32,103617,1,0,0:0:0:0:
283,63,103686,1,0,0:0:0:0:
325,94,103754,1,0,0:0:0:0:
377,103,103823,1,0,0:0:0:0:
428,89,103893,5,0,0:0:0:0:
376,79,103961,1,0,0:0:0:0:
325,94,104030,1,0,0:0:0:0:
287,130,104100,1,0,0:0:0:0:
245,151,104168,1,0,0:0:0:0:
201,137,104237,1,0,0:0:0:0:
181,95,104306,1,4,0:0:0:0:
197,51,104375,1,0,0:0:0:0:
240,32,104445,1,0,0:0:0:0:
284,46,104514,1,0,0:0:0:0:
304,88,104583,1,0,0:0:0:0:
287,130,104652,1,0,0:0:0:0:
272,170,104720,1,0,0:0:0:0:
278,211,104789,1,0,0:0:0:0:
304,245,104858,1,0,0:0:0:0:
342,262,104927,1,0,0:0:0:0:
384,258,104996,1,0,0:0:0:0:
419,235,105065,1,0,0:0:0:0:
428,192,105135,38,0,B|424:172|424:172|428:160|428:160|420:112,1,80,4|8,0:0|0:0,0:0:0:0:
201,137,105342,2,0,B|205:157|205:157|201:169|201:169|209:217,1,80,0|8,0:0|0:0,0:0:0:0:
352,184,105549,1,8,0:0:0:0:
353,176,105652,1,0,0:0:0:0:
354,168,105755,1,0,0:0:0:0:
355,160,105859,1,0,0:0:0:0:
356,152,105962,5,12,0:0:0:0:
280,124,106066,1,0,0:0:0:0:
201,137,106169,1,8,0:0:0:0:
125,109,106273,1,0,0:0:0:0:
46,122,106376,1,8,0:0:0:0:
47,198,106479,1,0,0:0:0:0:
112,241,106582,1,8,0:0:0:0:
183,212,106686,1,0,0:0:0:0:
201,137,106790,1,8,0:0:0:0:
216,61,106893,1,0,0:0:0:0:
288,32,106996,1,8,0:0:0:0:
352,75,107100,1,0,0:0:0:0:
356,152,107203,1,8,0:0:0:0:
292,200,107307,1,0,0:0:0:0:
295,276,107410,1,8,0:0:0:0:
372,304,107514,1,0,0:0:0:0:
375,380,107618,38,0,P|340:368|296:360,1,80,12|0,0:0|0:0,0:0:0:0:
288,364,107773,1,0,0:0:0:0:
280,368,107824,1,0,0:0:0:0:
272,372,107876,1,0,0:0:0:0:
264,376,107928,1,12,0:0:0:0:
168,348,108031,1,0,0:0:0:0:
160,344,108083,1,0,0:0:0:0:
152,340,108134,1,0,0:0:0:0:
144,336,108186,1,0,0:0:0:0:
136,332,108238,1,12,0:0:0:0:
136,332,108445,6,0,P|124:292|108:256,1,80,4|8,0:0|0:0,0:0:0:0:
292,200,108652,2,0,P|263:230|240:262,1,80,0|8,0:0|0:0,0:0:0:0:
99,130,108859,2,0,P|139:139|178:143,1,80,0|8,0:0|0:0,0:0:0:0:
376,108,109066,37,0,0:0:0:0:
400,32,109169,1,8,0:0:0:0:
320,48,109273,2,0,P|280:52|240:48,1,80,2|8,0:0|0:0,0:0:0:0:
432,164,109480,2,0,P|472:160|512:164,1,80,0|8,0:0|0:0,0:0:0:0:
228,244,109686,6,0,P|216:204|224:164,1,80,0|8,0:0|0:0,0:0:0:0:
356,156,109893,2,0,P|368:196|360:236,1,80,0|8,0:0|0:0,0:0:0:0:
136,332,110100,2,0,B|112:328|112:328|104:320|104:320|60:312,1,80,4|8,0:0|0:0,0:0:0:0:
184,144,110307,2,0,B|208:140|208:140|216:132|216:132|260:124,1,80,0|8,0:0|0:0,0:0:0:0:
412,288,110514,2,0,B|452:296|452:296|492:288,1,80,0|8,0:0|0:0,0:0:0:0:
396,84,110721,2,0,B|356:76|356:76|316:84,1,80,0|8,0:0|0:0,0:0:0:0:
184,144,110928,38,0,P|152:136|104:128,1,80,0|8,0:0|0:0,0:0:0:0:
124,220,111135,2,0,P|92:212|44:204,1,80,0|8,0:0|0:0,0:0:0:0:
188,284,111342,2,0,P|220:276|268:268,1,80,0|8,0:0|0:0,0:0:0:0:
248,360,111549,2,0,P|280:352|328:344,1,80,0|8,0:0|0:0,0:0:0:0:
424,200,111755,5,4,0:0:0:0:
320,212,111859,1,8,0:0:0:0:
424,200,111962,1,0,0:0:0:0:
320,212,112066,1,8,0:0:0:0:
112,108,112169,37,0,0:0:0:0:
268,125,112273,1,8,0:0:0:0:
112,108,112376,1,0,0:0:0:0:
268,125,112480,1,8,0:0:0:0:
68,240,112583,5,4,0:0:0:0:
172,228,112687,1,8,0:0:0:0:
68,240,112790,1,0,0:0:0:0:
172,228,112894,1,8,0:0:0:0:
380,332,112997,37,0,0:0:0:0:
224,315,113101,1,8,0:0:0:0:
380,332,113204,1,0,0:0:0:0:
224,315,113308,1,8,0:0:0:0:
424,200,113411,6,0,P|432:160|420:124,1,80,0|8,0:0|0:0,0:0:0:0:
172,228,113618,2,0,B|206:242|233:278|233:278|270:259|312:258|312:258|320:218|346:185|346:185|321:156|310:114|310:114|269:113|232:98|232:98|207:128|170:149,1,480,0|4,0:0|0:0,0:0:0:0:
72,292,114342,2,0,P|75:331|88:372,2,80,8|0|8,0:0|0:0|0:0,0:0:0:0:
100,172,114652,37,0,0:0:0:0:
128,128,114721,1,0,0:0:0:0:
114,78,114790,1,0,0:0:0:0:
68,55,114859,1,0,0:0:0:0:
20,75,114928,1,0,0:0:0:0:
3,124,114997,1,0,0:0:0:0:
28,169,115067,1,4,0:0:0:0:
59,211,115135,1,0,0:0:0:0:
63,264,115204,1,0,0:0:0:0:
40,311,115274,1,0,0:0:0:0:
85,283,115342,1,0,0:0:0:0:
136,268,115411,1,0,0:0:0:0:
189,267,115480,2,0,P|216:272|244:280,2,53.3333333333333
320,232,115686,2,0,P|346:227|374:219,2,53.3333333333333
424,140,115893,5,8,0:0:0:0:
428,120,115945,1,8,0:0:0:0:
432,100,115997,1,0,0:0:0:0:
436,80,116049,1,0,0:0:0:0:
440,60,116100,1,8,0:0:0:0:
414,76,116151,1,8,0:0:0:0:
385,83,116203,1,0,0:0:0:0:
356,82,116255,1,0,0:0:0:0:
328,72,116307,1,8,0:0:0:0:
299,61,116358,1,8,0:0:0:0:
270,60,116410,1,0,0:0:0:0:
241,67,116462,1,0,0:0:0:0:
216,84,116514,38,0,P|184:76|136:68,1,80,10|0,0:0|0:0,0:0:0:0:
32,60,116721,1,4,0:0:0:0:
32,60,117135,5,8,0:0:0:0:
36,80,117186,1,8,0:0:0:0:
40,100,117238,1,0,0:0:0:0:
44,120,117290,1,0,0:0:0:0:
72,136,117342,1,8,0:0:0:0:
68,156,117393,1,8,0:0:0:0:
64,176,117445,1,0,0:0:0:0:
60,196,117497,1,0,0:0:0:0:
32,207,117549,37,8,0:0:0:0:
60,196,117600,1,8,0:0:0:0:
89,195,117652,1,8,0:0:0:0:
118,203,117704,1,8,0:0:0:0:
144,219,117755,1,8,0:0:0:0:
169,234,117806,1,8,0:0:0:0:
198,242,117858,1,0,0:0:0:0:
228,241,117910,1,0,0:0:0:0:
256,231,117961,5,8,0:0:0:0:
288,88,118066,1,8,0:0:0:0:
146,60,118169,1,8,0:0:0:0:
118,203,118274,1,8,0:0:0:0:
256,231,118376,38,0,B|292:208|332:224|332:224|372:240|416:220|416:220|404:264|404:264|440:224|508:204,1,320,4|0,0:0|2:0,0:0:0:0:
495,208,120031,21,2,0:0:0:0:
495,208,120859,5,8,0:0:0:0:
487,212,120911,1,8,0:0:0:0:
479,216,120962,1,0,0:0:0:0:
471,220,121014,1,0,0:0:0:0:
439,216,121066,1,8,0:0:0:0:
431,220,121118,1,8,0:0:0:0:
423,224,121169,1,0,0:0:0:0:
415,228,121221,1,0,0:0:0:0:
383,224,121273,1,8,0:0:0:0:
375,228,121325,1,8,0:0:0:0:
367,232,121376,1,0,0:0:0:0:
359,236,121428,1,0,0:0:0:0:
327,232,121479,1,8,0:0:0:0:
319,236,121531,1,8,0:0:0:0:
311,240,121582,1,0,0:0:0:0:
303,244,121634,1,0,0:0:0:0:
271,240,121686,38,0,P|237:228|193:216,1,80,4|8,0:0|0:0,0:0:0:0:
36,188,121893,1,0,0:0:0:0:
104,120,121997,2,0,P|112:80|108:40,1,80,8|0,0:0|0:0,0:0:0:0:
172,188,122204,1,8,0:0:0:0:
104,256,122308,2,0,P|96:296|100:336,1,80,0|8,0:0|0:0,0:0:0:0:
344,328,122514,5,0,0:0:0:0:
256,288,122618,2,0,L|176:296,1,80,8|0,0:0|0:0,0:0:0:0:
4,220,122824,1,8,0:0:0:0:
92,180,122928,2,0,L|172:188,1,80,0|8,0:0|0:0,0:0:0:0:
344,112,123135,1,0,0:0:0:0:
256,72,123238,1,8,0:0:0:0:
268,168,123342,37,0,0:0:0:0:
344,112,123445,1,8,0:0:0:0:
436,140,123549,1,0,0:0:0:0:
512,84,123652,2,0,B|468:72|468:72|440:48|440:48|364:32,1,160,10|0,0:0|0:0,0:0:0:0:
180,132,123962,5,10,0:0:0:0:
192,228,124066,1,0,0:0:0:0:
288,240,124169,1,0,0:0:0:0:
276,336,124273,2,0,B|216:352|216:352|176:340|120:332,1,160,8|0,0:0|0:0,0:0:0:0:
20,148,124583,37,2,0:0:0:0:
44,48,124686,1,2,0:0:0:0:
24,144,124790,1,2,0:0:0:0:
48,44,124893,1,2,0:0:0:0:
28,140,124997,5,12,0:0:0:0:
32,136,125100,1,0,0:0:0:0:
112,188,125204,1,10,0:0:0:0:
48,260,125307,2,0,L|52:340,1,80,0|10,0:0|0:0,0:0:0:0:
256,300,125514,1,0,0:0:0:0:
192,228,125617,2,0,L|196:148,1,80,10|0,0:0|0:0,0:0:0:0:
400,188,125824,37,10,0:0:0:0:
336,260,125927,2,0,L|340:340,1,80,0|10,0:0|0:0,0:0:0:0:
464,116,126135,2,0,L|460:36,1,80,0|10,0:0|0:0,0:0:0:0:
284,100,126342,5,0,0:0:0:0:
285,111,126393,1,0,0:0:0:0:
286,123,126445,1,8,0:0:0:0:
287,135,126497,1,0,0:0:0:0:
288,147,126549,1,0,0:0:0:0:
289,158,126600,1,0,0:0:0:0:
290,170,126652,38,0,P|248:176|212:184,1,80,12|0,0:0|0:0,0:0:0:0:
0,88,126859,1,10,0:0:0:0:
88,128,126962,2,0,P|128:132|168:124,1,80,0|10,0:0|0:0,0:0:0:0:
336,260,127169,1,0,0:0:0:0:
248,220,127272,2,0,P|208:216|168:224,1,80,10|0,0:0|0:0,0:0:0:0:
72,272,127480,6,0,P|52:276|20:280,2,53.3333333333333,10|0|0,0:0|0:0|0:0,0:0:0:0:
212,352,127686,2,0,P|192:348|160:344,2,53.3333333333333,10|0|0,0:0|0:0|0:0,0:0:0:0:
352,272,127893,2,0,P|332:276|300:280,2,53.3333333333333,10|0|0,0:0|0:0|0:0,0:0:0:0:
492,352,128100,2,0,P|472:348|440:344,2,53.3333333333333,10|0|0,0:0|0:0|0:0,0:0:0:0:
424,204,128307,37,12,0:0:0:0:
428,200,128411,1,0,0:0:0:0:
484,124,128514,1,10,0:0:0:0:
396,84,128618,2,0,P|356:92|316:96,1,80,0|10,0:0|0:0,0:0:0:0:
176,164,128824,1,0,0:0:0:0:
88,204,128928,2,0,P|48:196|8:192,1,80,10|0,0:0|0:0,0:0:0:0:
164,36,129135,5,8,0:0:0:0:
176,164,129238,1,8,0:0:0:0:
316,132,129342,1,0,0:0:0:0:
316,132,129393,1,0,0:0:0:0:
316,132,129445,1,8,0:0:0:0:
304,260,129548,1,8,0:0:0:0:
163,292,129652,37,0,0:0:0:0:
164,300,129704,1,0,0:0:0:0:
165,307,129755,1,0,0:0:0:0:
166,314,129807,1,0,0:0:0:0:
166,321,129859,1,0,0:0:0:0:
167,328,129911,1,0,0:0:0:0:
168,335,129962,6,0,B|220:344|220:344|272:332|272:332|328:340,1,160,4|0,0:0|0:0,0:0:0:0:
512,192,130273,2,0,P|440:228|364:212,1,160,4|0,0:0|0:0,0:0:0:0:
436,36,130583,2,0,L|432:116,1,80,4|0,0:0|0:0,0:0:0:0:
304,260,130790,38,0,B|260:256|260:256|224:232|224:232|148:224,1,160,2|8,0:0|0:0,0:0:0:0:
184,44,131100,2,0,P|264:44|332:84,1,160,4|8,0:0|0:0,0:0:0:0:
304,260,131411,2,0,L|316:340,1,80
500,336,131618,6,0,P|504:292|492:260,1,80,12|0,0:0|0:0,0:0:0:0:
436,200,131773,1,0,0:0:0:0:
436,200,131824,2,0,P|432:156|444:124,1,80,8|0,0:0|0:0,0:0:0:0:
480,48,131980,1,0,0:0:0:0:
480,48,132031,2,0,L|400:56,1,80,8|0,0:0|0:0,0:0:0:0:
332,96,132186,1,0,0:0:0:0:
332,96,132238,2,0,L|252:88,1,80,8|0,0:0|0:0,0:0:0:0:
184,44,132393,1,0,0:0:0:0:
184,44,132445,38,0,B|144:52|144:52|104:44,1,80,10|0,0:0|0:0,0:0:0:0:
44,120,132600,1,0,0:0:0:0:
44,120,132652,2,0,B|84:112|84:112|124:120,1,80,10|0,0:0|0:0,0:0:0:0:
212,144,132807,1,0,0:0:0:0:
212,144,132859,2,0,L|220:224,1,80,10|0,0:0|0:0,0:0:0:0:
304,260,133014,1,0,0:0:0:0:
304,260,133066,2,0,L|312:180,1,80,10|0,0:0|0:0,0:0:0:0:
392,136,133273,5,12,0:0:0:0:
404,216,133376,1,0,0:0:0:0:
416,296,133480,1,0,0:0:0:0:
428,376,133583,1,0,0:0:0:0:
290,356,133686,37,8,0:0:0:0:
304,260,133789,1,0,0:0:0:0:
318,164,133893,1,0,0:0:0:0:
333,68,133996,1,0,0:0:0:0:
164,28,134100,5,8,0:0:0:0:
180,140,134203,1,0,0:0:0:0:
197,252,134307,1,0,0:0:0:0:
214,364,134410,1,0,0:0:0:0:
84,300,134514,38,0,P|44:288|4:280,1,80,8|0,0:0|0:0,0:0:0:0:
255,87,134721,2,0,P|295:75|335:67,1,80,8|0,0:0|0:0,0:0:0:0:
424,320,134928,6,0,P|388:324|344:324,1,80,12|0,0:0|0:0,0:0:0:0:
272,296,135083,1,0,0:0:0:0:
272,296,135135,2,0,P|236:292|192:292,1,80,8|0,0:0|0:0,0:0:0:0:
120,328,135290,1,0,0:0:0:0:
120,328,135342,2,0,P|84:336|44:320,1,80,8|0,0:0|0:0,0:0:0:0:
92,256,135497,1,0,0:0:0:0:
92,256,135549,2,0,P|100:220|104:176,1,80,8|0,0:0|0:0,0:0:0:0:
64,108,135704,1,0,0:0:0:0:
64,108,135756,38,0,P|56:72|52:28,1,80,8|0,0:0|0:0,0:0:0:0:
152,80,135911,1,0,0:0:0:0:
152,80,135962,2,0,P|148:119|140:158,1,80,8|0,0:0|0:0,0:0:0:0:
212,200,136118,1,0,0:0:0:0:
212,200,136169,2,0,L|292:184,1,80,8|0,0:0|0:0,0:0:0:0:
336,120,136324,1,0,0:0:0:0:
336,120,136376,2,0,L|256:104,1,80,8|0,0:0|0:0,0:0:0:0:
232,28,136583,6,0,L|272:24,1,40,4|0,0:0|0:0,0:0:0:0:
416,56,136686,2,0,L|456:60,2,40,0|0|8,0:0|0:0|0:0,0:0:0:0:
200,128,136893,38,0,L|240:124,1,40
424,164,136997,2,0,L|464:168,2,40,0|0|8,0:0|0:0|0:0,0:0:0:0:
168,228,137204,6,0,L|208:224,1,40
432,272,137307,2,0,L|472:276,2,40,0|0|8,0:0|0:0|0:0,0:0:0:0:
136,328,137514,38,0,L|176:324,1,40
440,380,137618,2,0,L|480:384,2,40,0|0|8,0:0|0:0|0:0,0:0:0:0:
56,240,137824,5,8,0:0:0:0:
168,228,137928,1,8,0:0:0:0:
280,216,138031,1,8,0:0:0:0:
392,204,138135,1,8,0:0:0:0:
504,192,138238,38,0,P|512:152|512:112,1,80,12|0,0:0|0:0,0:0:0:0:
440,80,138393,1,0,0:0:0:0:
440,80,138445,2,0,P|432:40|432:0,1,80,8|0,0:0|0:0,0:0:0:0:
352,24,138600,1,0,0:0:0:0:
352,24,138652,2,0,P|360:64|360:104,1,80,8|0,0:0|0:0,0:0:0:0:
288,136,138807,1,0,0:0:0:0:
288,136,138859,2,0,P|280:176|280:216,1,80,8|0,0:0|0:0,0:0:0:0:
228,276,139014,1,0,0:0:0:0:
228,276,139066,6,0,P|188:268|148:264,1,80,8|0,0:0|0:0,0:0:0:0:
120,188,139221,1,0,0:0:0:0:
120,188,139273,2,0,P|160:180|200:176,1,80,8|0,0:0|0:0,0:0:0:0:
224,100,139428,1,0,0:0:0:0:
224,100,139480,2,0,P|184:92|144:88,1,80,8|0,0:0|0:0,0:0:0:0:
124,12,139635,1,0,0:0:0:0:
124,12,139687,2,0,P|164:4|204:0,1,80,8|0,0:0|0:0,0:0:0:0:
280,32,139893,37,12,0:0:0:0:
355,58,139997,1,0,0:0:0:0:
430,85,140100,1,8,0:0:0:0:
505,111,140204,1,0,0:0:0:0:
492,212,140307,5,8,0:0:0:0:
408,271,140410,1,0,0:0:0:0:
312,235,140513,1,8,0:0:0:0:
287,136,140618,1,0,0:0:0:0:
355,58,140721,38,0,P|396:48|436:44,1,80,8|0,0:0|0:0,0:0:0:0:
312,235,140928,2,0,P|271:245|231:249,1,80,8|0,0:0|0:0,0:0:0:0:
52,64,141135,6,0,P|88:52|132:48,1,80,8|0,0:0|0:0,0:0:0:0:
365,152,141342,2,0,P|329:140|285:136,1,80,8|0,0:0|0:0,0:0:0:0:
68,340,141549,38,0,B|92:348|92:348|148:340,1,80,12|0,0:0|0:0,0:0:0:0:
252,252,141755,1,8,0:0:0:0:
224,116,141859,2,0,L|228:76,2,40,0|0|8,0:0|0:0|0:0,0:0:0:0:
308,312,142066,2,0,L|304:352,2,40,0|0|8,0:0|0:0|0:0,0:0:0:0:
404,120,142273,1,0,0:0:0:0:
404,120,142324,1,0,0:0:0:0:
404,120,142376,5,8,0:0:0:0:
368,250,142479,1,8,0:0:0:0:
237,215,142583,1,8,0:0:0:0:
271,84,142686,1,8,0:0:0:0:
412,193,142790,37,8,0:0:0:0:
295,259,142893,1,8,0:0:0:0:
227,142,142997,1,8,0:0:0:0:
344,74,143100,1,8,0:0:0:0:
412,193,143204,6,0,B|384:264|316:280|248:224|248:224|143:138|44:248|116:336,1,480,6|8,0:0|0:0,0:0:0:0:
115,334,144859,6,0,P|163:325|211:321,1,95.9999970703126,4|8,0:0|0:0,0:0:0:0:
412,193,145066,2,0,P|364:202|316:206,1,95.9999970703126,0|8,0:0|0:0,0:0:0:0:
120,68,145273,1,0,0:0:0:0:
272,88,145376,1,8,0:0:0:0:
120,68,145480,1,0,0:0:0:0:
272,88,145583,1,8,0:0:0:0:
120,68,145686,6,0,P|72:64|24:68,1,95.9999970703126,4|8,0:0|0:0,0:0:0:0:
272,88,145893,2,0,P|320:92|368:88,1,95.9999970703126,0|8,0:0|0:0,0:0:0:0:
108,156,146100,1,0,0:0:0:0:
84,287,146204,1,8,0:0:0:0:
216,311,146307,1,0,0:0:0:0:
239,178,146411,1,8,0:0:0:0:
108,156,146514,38,0,P|64:164|24:196,1,95.9999970703126,4|8,0:0|0:0,0:0:0:0:
216,311,146721,2,0,P|260:303|300:271,1,95.9999970703126,0|8,0:0|0:0,0:0:0:0:
84,287,146928,1,0,0:0:0:0:
239,178,147031,1,8,0:0:0:0:
84,287,147135,1,0,0:0:0:0:
239,178,147238,1,8,0:0:0:0:
84,287,147342,6,0,B|40:276|40:276|0:244,1,95.9999970703126,4|8,0:0|0:0,0:0:0:0:
104,44,147549,2,0,B|148:55|148:55|188:87,1,95.9999970703126,0|8,0:0|0:0,0:0:0:0:
375,288,147755,2,0,B|419:277|419:277|459:245,1,95.9999970703126,0|8,0:0|0:0,0:0:0:0:
355,45,147962,2,0,B|311:56|311:56|271:88,1,95.9999970703126,0|8,0:0|0:0,0:0:0:0:
216,312,148169,38,0,P|260:328|308:324,1,95.9999970703126,4|8,0:0|0:0,0:0:0:0:
196,55,148376,2,0,P|152:39|104:43,1,95.9999970703126,0|8,0:0|0:0,0:0:0:0:
88,196,148583,1,0,0:0:0:0:
239,178,148686,1,8,0:0:0:0:
88,196,148790,1,0,0:0:0:0:
239,178,148893,1,8,0:0:0:0:
88,196,148997,6,0,P|76:240|68:292,1,95.9999970703126,4|8,0:0|0:0,0:0:0:0:
288,116,149204,2,0,P|280:68|268:22,1,95.9999970703126,0|8,0:0|0:0,0:0:0:0:
156,260,149411,1,0,0:0:0:0:
280,312,149514,1,8,0:0:0:0:
388,232,149618,1,0,0:0:0:0:
512,284,149721,1,8,0:0:0:0:
404,364,149824,38,0,L|308:376,1,95.9999970703126,4|8,0:0|0:0,0:0:0:0:
408,152,150031,2,0,L|504:164,1,95.9999970703126,0|8,0:0|0:0,0:0:0:0:
280,312,150238,1,0,0:0:0:0:
212,104,150342,1,8,0:0:0:0:
280,312,150445,1,0,0:0:0:0:
212,104,150549,1,8,0:0:0:0:
280,312,150652,6,0,B|328:304|328:304|368:280,1,95.9999970703126,8|8,0:0|0:0,0:0:0:0:
156,188,150859,1,0,0:0:0:0:
156,188,150911,1,0,0:0:0:0:
156,188,150962,1,8,0:0:0:0:
128,320,151066,1,8,0:0:0:0:
0,175,151169,1,0,0:0:0:0:
0,175,151221,1,0,0:0:0:0:
0,175,151273,1,10,0:0:0:0:
24,307,151376,1,0,0:0:0:0:
28,319,151428,1,0,0:0:0:0:
32,331,151480,38,8,P|80:323|128:319,1,95.9999970703126,4|8,0:0|0:0,0:0:0:0:
440,352,151686,2,8,P|392:360|344:364,1,95.9999970703126,0|8,0:0|0:0,0:0:0:0:
156,188,151893,1,0,0:0:0:0:
288,156,151997,1,8,0:0:0:0:
320,288,152100,1,0,0:0:0:0:
188,320,152204,1,8,0:0:0:0:
156,188,152307,6,0,P|160:136|176:96,1,95.9999970703126,4|8,0:0|0:0,0:0:0:0:
320,288,152514,2,0,P|316:340|300:380,1,95.9999970703126,0|8,0:0|0:0,0:0:0:0:
288,156,152721,1,0,0:0:0:0:
428,184,152824,1,8,0:0:0:0:
288,156,152928,1,0,0:0:0:0:
428,184,153031,1,8,0:0:0:0:
288,156,153135,38,0,B|252:160|252:160|232:156|232:156|192:160,1,95.9999970703126,4|8,0:0|0:0,0:0:0:0:
92,316,153342,2,0,B|128:320|128:320|148:316|148:316|188:320,1,95.9999970703126,0|8,0:0|0:0,0:0:0:0:
392,324,153549,1,0,0:0:0:0:
428,184,153652,1,8,0:0:0:0:
288,156,153755,1,0,0:0:0:0:
324,16,153858,1,8,0:0:0:0:
428,184,153962,6,0,B|449:229|449:229|455:277,1,95.9999970703126,4|8,0:0|0:0,0:0:0:0:
216,104,154169,2,0,B|221:58|221:58|242:13,1,95.9999970703126,0|8,0:0|0:0,0:0:0:0:
328,360,154376,2,0,P|284:372|236:360,1,95.9999970703126,0|8,0:0|0:0,0:0:0:0:
124,104,154583,2,0,P|168:92|216:104,1,95.9999970703126,0|8,0:0|0:0,0:0:0:0:
140,308,154790,38,0,L|44:320,1,95.9999970703126,4|8,0:0|0:0,0:0:0:0:
288,156,154997,2,0,L|384:168,1,95.9999970703126,0|8,0:0|0:0,0:0:0:0:
272,296,155204,1,0,0:0:0:0:
72,192,155307,1,8,0:0:0:0:
272,296,155411,1,0,0:0:0:0:
72,192,155514,1,8,0:0:0:0:
272,296,155618,6,0,P|312:288|368:280,1,95.9999970703126,4|8,0:0|0:0,0:0:0:0:
218,119,155824,2,0,P|178:111|122:103,1,95.9999970703126,0|8,0:0|0:0,0:0:0:0:
20,276,156031,1,0,0:0:0:0:
140,308,156135,1,8,0:0:0:0:
228,220,156238,1,0,0:0:0:0:
348,252,156342,1,0,0:0:0:0:
352,256,156393,1,0,0:0:0:0:
356,260,156445,38,0,L|368:164,1,95.9999970703126,4|8,0:0|0:0,0:0:0:0:
206,23,156652,2,0,L|218:119,1,95.9999970703126,0|8,0:0|0:0,0:0:0:0:
56,260,156859,1,0,0:0:0:0:
72,128,156962,1,8,0:0:0:0:
56,260,157066,1,0,0:0:0:0:
72,128,157169,1,8,0:0:0:0:
56,260,157273,6,0,P|100:280|148:268,1,95.9999970703126,4|8,0:0|0:0,0:0:0:0:
228,220,157480,1,2,0:0:0:0:
299,281,157583,1,2,0:0:0:0:
262,369,157686,1,2,0:0:0:0:
166,361,157790,1,2,0:0:0:0:
145,268,157893,37,8,0:0:0:0:
146,258,157945,1,8,0:0:0:0:
147,248,157997,1,8,0:0:0:0:
148,238,158049,1,8,0:0:0:0:
149,228,158100,6,0,P|144:196|132:168,2,63.9999980468751,4|0|0,0:0|0:0|0:0,0:0:0:0:
220,100,158307,2,0,P|225:68|237:40,2,63.9999980468751
336,188,158514,1,8,0:0:0:0:
336,188,158583,2,0,L|400:180,1,63.9999980468751
392,296,158721,1,0,0:0:0:0:
392,296,158790,2,0,L|456:304,1,63.9999980468751
262,369,158928,38,0,P|232:368|196:372,2,63.9999980468751,4|0|0,0:0|0:0|0:0,0:0:0:0:
145,268,159135,2,0,P|115:269|79:265,2,63.9999980468751
264,164,159342,1,8,0:0:0:0:
264,164,159411,2,0,L|268:100,1,63.9999980468751
124,100,159549,1,0,0:0:0:0:
124,100,159618,2,0,L|120:36,1,63.9999980468751
20,208,159755,6,0,P|12:236|8:272,2,63.9999980468751,4|0|0,0:0|0:0|0:0,0:0:0:0:
145,268,159962,2,0,P|153:296|157:332,2,63.9999980468751
328,303,160169,1,8,0:0:0:0:
328,303,160238,2,0,L|392:295,1,63.9999980468751
264,164,160376,1,0,0:0:0:0:
264,164,160445,2,0,L|200:156,1,63.9999980468751
420,31,160583,37,4,0:0:0:0:
428,63,160652,1,0,0:0:0:0:
436,95,160721,1,0,0:0:0:0:
444,127,160790,1,0,0:0:0:0:
416,143,160859,1,0,0:0:0:0:
388,159,160928,1,0,0:0:0:0:
360,175,160997,1,8,0:0:0:0:
368,207,161066,1,0,0:0:0:0:
376,239,161135,1,0,0:0:0:0:
384,271,161204,1,0,0:0:0:0:
356,287,161273,1,0,0:0:0:0:
328,303,161342,1,0,0:0:0:0:
300,319,161411,6,0,P|272:312|236:308,2,63.9999980468751,4|0|0,0:0|0:0|0:0,0:0:0:0:
124,236,161618,2,0,P|96:243|60:247,2,63.9999980468751
248,140,161824,1,8,0:0:0:0:
248,140,161893,2,0,L|256:76,1,63.9999980468751
72,108,162031,1,0,0:0:0:0:
72,108,162100,2,0,L|80:172,1,63.9999980468751
248,248,162238,38,0,P|280:248|312:240,2,63.9999980468751,4|0|0,0:0|0:0|0:0,0:0:0:0:
381,119,162445,2,0,P|413:119|445:127,2,63.9999980468751
508,268,162652,1,8,0:0:0:0:
508,268,162721,2,0,L|500:336,1,63.9999980468751
328,232,162859,1,0,0:0:0:0:
328,232,162928,2,0,L|320:164,1,63.9999980468751
172,312,163066,6,0,P|164:340|160:376,2,63.9999980468751,4|0|0,0:0|0:0|0:0,0:0:0:0:
40,192,163273,2,0,P|48:220|52:256,2,63.9999980468751
180,140,163480,1,8,0:0:0:0:
180,140,163549,2,0,L|188:76,1,63.9999980468751
320,168,163686,1,0,0:0:0:0:
320,168,163755,2,0,L|328:232,1,63.9999980468751
440,68,163893,37,8,0:0:0:0:
440,68,163962,1,8,0:0:0:0:
440,68,164031,1,0,0:0:0:0:
398,39,164099,1,8,0:0:0:0:
347,32,164168,1,8,0:0:0:0:
300,49,164237,1,0,0:0:0:0:
265,86,164306,1,8,0:0:0:0:
252,135,164376,1,8,0:0:0:0:
238,183,164444,1,0,0:0:0:0:
203,220,164513,1,8,0:0:0:0:
156,238,164582,1,8,0:0:0:0:
105,231,164651,1,0,0:0:0:0:
64,202,164720,5,12,0:0:0:0:
68,240,164790,1,0,0:0:0:0:
72,276,164859,1,0,0:0:0:0:
116,284,164928,1,8,0:0:0:0:
112,321,164998,1,0,0:0:0:0:
108,357,165067,1,0,0:0:0:0:
64,348,165135,2,0,P|44:340|0:332,2,63.9999980468751,8|0|0,0:0|0:0|0:0,0:0:0:0:
188,312,165342,2,0,P|208:304|252:296,2,63.9999980468751,8|0|0,0:0|0:0|0:0,0:0:0:0:
316,372,165549,37,12,0:0:0:0:
356,376,165618,1,0,0:0:0:0:
392,380,165686,1,0,0:0:0:0:
412,340,165755,1,8,0:0:0:0:
452,336,165824,1,0,0:0:0:0:
488,332,165892,1,0,0:0:0:0:
476,288,165962,2,0,P|472:256|476:224,2,63.9999980468751,8|0|0,0:0|0:0|0:0,0:0:0:0:
388,152,166169,2,0,P|392:120|388:88,2,63.9999980468751,8|0|0,0:0|0:0|0:0,0:0:0:0:
268,220,166376,5,12,0:0:0:0:
232,224,166445,1,0,0:0:0:0:
196,228,166514,1,0,0:0:0:0:
168,192,166583,1,8,0:0:0:0:
132,188,166652,1,0,0:0:0:0:
96,184,166721,1,0,0:0:0:0:
64,216,166790,2,0,P|52:248|44:276,2,63.9999980468751,8|0|0,0:0|0:0|0:0,0:0:0:0:
160,112,166997,2,0,P|151:81|139:51,2,63.9999980468751,8|0|0,0:0|0:0|0:0,0:0:0:0:
268,220,167204,37,12,0:0:0:0:
303,243,167272,1,0,0:0:0:0:
335,271,167341,1,0,0:0:0:0:
363,303,167411,1,8,0:0:0:0:
400,283,167479,1,0,0:0:0:0:
441,269,167548,1,0,0:0:0:0:
483,261,167618,1,8,0:0:0:0:
447,237,167686,1,0,0:0:0:0:
415,209,167755,1,0,0:0:0:0:
388,178,167825,1,8,0:0:0:0:
351,198,167893,1,0,0:0:0:0:
310,212,167962,1,0,0:0:0:0:
268,220,168031,5,12,0:0:0:0:
224,212,168100,1,0,0:0:0:0:
180,204,168169,1,0,0:0:0:0:
140,236,168238,1,12,0:0:0:0:
96,244,168307,1,0,0:0:0:0:
52,252,168376,1,0,0:0:0:0:
16,216,168445,2,0,P|8:184|8:152,2,63.9999980468751,12|0|0,0:0|0:0|0:0,0:0:0:0:
104,96,168652,2,0,P|112:64|112:32,2,63.9999980468751,12|0|0,0:0|0:0|0:0,0:0:0:0:
228,136,168859,37,12,0:0:0:0:
272,128,168928,1,0,0:0:0:0:
316,120,168997,1,0,0:0:0:0:
356,152,169066,1,12,0:0:0:0:
400,160,169135,1,0,0:0:0:0:
444,168,169204,1,0,0:0:0:0:
476,128,169273,2,0,P|484:100|484:64,2,63.9999980468751,12|0|0,0:0|0:0|0:0,0:0:0:0:
396,268,169480,2,0,P|388:296|388:332,2,63.9999980468751,12|0|0,0:0|0:0|0:0,0:0:0:0:
240,231,169686,5,8,0:0:0:0:
236,219,169738,1,8,0:0:0:0:
232,207,169790,1,8,0:0:0:0:
228,195,169842,1,8,0:0:0:0:
224,183,169893,2,0,L|228:135,1,47.9999985351563
96,120,169997,1,8,0:0:0:0:
100,108,170049,1,8,0:0:0:0:
104,96,170101,1,8,0:0:0:0:
108,84,170153,1,8,0:0:0:0:
112,72,170204,2,0,L|108:24,1,47.9999985351563
32,160,170307,37,8,0:0:0:0:
46,178,170358,1,8,0:0:0:0:
66,191,170410,1,8,0:0:0:0:
90,196,170462,1,8,0:0:0:0:
113,192,170514,2,0,P|140:194|160:200,1,47.9999985351563
228,304,170618,1,8,0:0:0:0:
250,306,170669,1,8,0:0:0:0:
273,301,170721,1,8,0:0:0:0:
294,288,170773,1,8,0:0:0:0:
307,269,170825,2,0,P|327:250|345:241,1,47.9999985351563
440,168,170928,5,0,0:0:0:0:
308,112,171031,1,0,0:0:0:0:
312,76,171083,1,0,0:0:0:0:
316,40,171135,1,8,0:0:0:0:
240,231,171342,37,4,0:0:0:0:
256,192,171393,12,0,181273,2:0:0:0:
