osu file format v14

[General]
AudioFilename: Flowering Night Fever.mp3
AudioLeadIn: 2000
PreviewTime: 62049
Countdown: 0
SampleSet: None
StackLeniency: 0.4
Mode: 0
LetterboxInBreaks: 0
WidescreenStoryboard: 1

[Editor]
Bookmarks: 1687,3342,21549,35618,48859,62100,75342,95204,131618,144859
DistanceSpacing: 1.2
BeatDivisor: 4
GridSize: 4
TimelineZoom: 5.199997

[Metadata]
Title:Flowering Night Fever
TitleUnicode:Flowering Night Fever
Artist:UNDEAD CORPORATION
ArtistUnicode:UNDEAD CORPORATION
Creator:Alheak
Version:Nowa's Extra
Source:東方花映塚 ~ Phantasmagoria of Flower View.
Tags:dtm9 nowa ekoro pishifat GoldenWolf zun team shanghai alice 上海アリス幻樂団 瞬殺 touhou project Kaeidzuka 花映塚 Phantasmagoria of Flower View sakuya izayoi 十六夜 咲夜 フラワリングナイト 瞬殺 shunsatsu reitaisai 12 instrumental speed metal guitar woof
BeatmapID:2028600
BeatmapSetID:393663

[Difficulty]
HPDrainRate:5
CircleSize:3.8
OverallDifficulty:9
ApproachRate:9.7
SliderMultiplier:1.5
SliderTickRate:1

[Events]
//Background and Video events
0,0,"bg.jpg",0,0
//Break Periods
2,75541,81024
//Storyboard Layer 0 (Background)
//Storyboard Layer 1 (Fail)
//Storyboard Layer 2 (Pass)
//Storyboard Layer 3 (Foreground)
//Storyboard Sound Samples

[TimingPoints]
32,206.896551724138,4,3,1,85,1,0
497,-100,4,3,1,40,0,0
600,-100,4,3,1,85,0,0
911,-100,4,3,1,40,0,0
1014,-100,4,3,1,85,0,0
1273,-100,4,3,2,70,0,0
1480,-100,4,3,3,70,0,0
1687,-100,4,3,3,70,0,0
3342,-100,4,3,1,100,0,0
3394,-100,4,3,1,70,0,0
6756,-100,4,3,2,70,0,0
6859,-100,4,3,4,70,0,0
6963,-100,4,3,1,70,0,0
8307,-100,4,3,1,85,0,0
8359,-100,4,3,1,70,0,0
9963,-100,4,3,1,100,0,0
10014,-100,4,3,1,70,0,0
11618,-100,4,3,1,85,0,0
11669,-100,4,3,1,70,0,0
14928,-100,4,3,1,100,0,0
14980,-100,4,3,1,70,0,0
19997,-100,4,3,2,85,0,0
20100,-100,4,3,4,85,0,0
20773,-100,4,3,3,85,0,0
20928,-100,4,3,4,85,0,0
21032,-100,4,3,2,85,0,0
21135,-100,4,3,1,85,0,0
21549,206.896551724138,3,3,1,85,1,0
24653,-100,3,3,4,85,0,0
25066,206.896551724138,3,3,1,70,1,0
28584,206.896551724138,3,3,1,85,1,0
28687,-100,3,3,1,70,0,0
32101,206.896551724138,3,3,1,85,1,0
32204,-100,3,3,1,70,0,0
34376,-100,3,3,2,85,0,0
34583,-100,3,3,3,85,0,0
34790,-100,3,3,2,85,0,0
34997,-100,3,3,3,85,0,0
35204,-100,3,3,1,85,0,0
35618,206.896551724138,4,3,1,85,1,0
35721,-100,4,3,1,70,0,0
37273,-100,4,3,1,85,0,0
37376,-100,4,3,1,70,0,0
40583,-100,4,3,4,85,0,0
40686,-100,4,3,2,85,0,0
40790,-100,4,3,4,85,0,0
40893,-100,4,3,1,85,0,0
42342,-100,4,3,1,70,0,0
53824,-100,4,3,1,85,0,0
55480,-100,4,3,1,70,0,0
59618,-100,4,3,1,85,0,0
60031,-100,4,3,3,85,0,0
60135,-100,4,3,1,85,0,0
60238,-100,4,3,3,85,0,0
60342,-100,4,3,1,85,0,0
60755,-100,4,3,2,85,0,0
60859,-100,4,3,1,85,0,0
61066,-100,4,3,3,85,0,0
61169,-100,4,3,1,85,0,0
61376,-100,4,3,3,85,0,0
61480,-100,4,3,4,85,0,0
61583,-100,4,3,1,85,0,0
62100,-100,4,3,1,100,0,1
62152,-100,4,3,1,70,0,1
67893,-100,4,3,1,85,0,1
68152,-100,4,3,2,85,0,1
68204,-100,4,3,3,85,0,1
68307,-100,4,3,1,85,0,1
68514,-100,4,3,2,85,0,1
68721,-100,4,3,1,85,0,1
68824,-100,4,3,1,70,0,1
73997,-100,4,3,2,85,0,1
74100,-100,4,3,1,85,0,1
74307,-100,4,3,2,85,0,1
74411,-100,4,3,1,85,0,1
74928,-100,4,3,2,85,0,1
75135,-100,4,3,3,85,0,1
75342,-100,4,3,1,70,0,0
81135,-100,4,3,1,85,0,0
81342,-100,4,3,3,85,0,0
81445,-100,4,3,1,85,0,0
81549,-153.846153846153,4,3,1,100,0,0
81755,-100,4,3,1,100,0,0
81962,-100,4,3,1,70,0,0
115893,-100,4,3,1,85,0,0
116100,-100,4,3,3,85,0,0
116204,-100,4,3,1,85,0,0
116514,-100,4,3,4,85,0,0
116721,-100,4,3,1,85,0,0
117600,-100,4,3,2,85,0,0
117755,-100,4,3,3,85,0,0
117859,-100,4,3,1,85,0,0
118480,-100,4,3,1,5,0,0
118790,-100,4,3,1,5,0,0
118997,-100,4,3,1,5,0,0
120031,-100,4,3,1,100,0,0
120859,-100,4,3,1,85,0,0
121066,-100,4,3,2,85,0,0
121273,-100,4,3,3,85,0,0
121480,-100,4,3,1,85,0,0
121790,-100,4,3,1,70,0,0
127480,-100,4,3,4,70,0,0
128307,-100,4,3,1,70,0,0
129962,-100,4,3,1,85,0,0
131618,-100,4,3,1,70,0,0
141962,-100,4,3,2,85,0,0
142169,-100,4,3,3,85,0,0
142376,-100,4,3,1,85,0,0
143307,-100,4,3,1,5,0,0
144445,-100,4,3,1,100,0,0
144859,-100,4,3,1,100,0,1
144911,-100,4,3,1,70,0,1
150652,-100,4,3,1,85,0,1
150755,-100,4,3,1,55,0,1
150859,-100,4,3,1,85,0,1
151583,-100,4,3,1,70,0,1
157945,-100,4,3,1,45,0,1
158049,-100,4,3,1,45,0,0
158100,-100,4,3,1,100,0,1
158169,-100,4,3,1,70,0,1
163893,-100,4,3,1,85,0,1
163962,-100,4,3,2,85,0,1
164100,-100,4,3,3,85,0,1
164307,-100,4,3,2,85,0,1
164514,-100,4,3,3,85,0,1
164721,-100,4,3,1,100,0,1
164790,-100,4,3,1,70,0,1
169686,-100,4,3,1,85,0,1
169997,-100,4,3,2,85,0,1
170307,-100,4,3,1,85,0,1
170514,-100,4,3,1,85,0,1
170618,-100,4,3,3,85,0,1
170928,-100,4,3,1,85,0,1
171342,-100,4,3,1,100,0,0
171394,-100,4,3,1,5,0,0
172169,-100,4,3,1,5,0,0
172997,-100,4,3,1,5,0,0
174652,-100,4,3,1,5,0,0
176307,-100,4,3,1,5,0,0
177963,-100,4,3,1,5,0,0
179618,-100,4,3,1,5,0,0
181273,-100,4,3,1,5,0,0

[Colours]
Combo1 : 154,3,49
Combo2 : 190,180,200
Combo3 : 130,120,160
Combo4 : 247,21,61

[HitObjects]
92,86,32,5,0,0:0:0:0:
92,86,135,2,0,L|105:176,1,75,8|0,0:0|0:0,0:0:0:0:
122,296,342,1,8,0:0:0:0:
15,225,445,1,8,0:0:0:0:
20,225,497,1,0,0:0:0:0:
24,224,549,1,8,0:0:0:0:
29,224,600,1,8,0:0:0:0:
34,224,652,2,0,L|91:237,3,37.5,8|0|8|0,0:0|0:0|0:0|0:0,0:0:0:0:
163,205,859,1,8,0:0:0:0:
167,205,910,1,0,0:0:0:0:
172,204,962,1,8,0:0:0:0:
177,204,1014,1,8,0:0:0:0:
182,204,1066,2,0,L|239:217,3,37.5,8|0|8|0,0:0|0:0|0:0|0:0,0:0:0:0:
296,261,1273,6,0,L|347:250,3,37.5,8|8|8|8,0:0|0:0|0:0|0:0,0:0:0:0:
400,199,1480,2,0,L|451:210,3,37.5,8|8|8|0,0:0|0:0|0:0|0:0,0:0:0:0:
503,334,1687,1,6,0:0:0:0:
409,275,3342,38,0,L|418:200,1,75,4|8,0:0|0:0,0:0:0:0:
443,52,3549,1,0,0:0:0:0:
448,68,3652,2,0,P|479:92|526:105,1,75,8|0,0:0|0:0,0:0:0:0:
326,34,3859,1,8,0:0:0:0:
320,52,3962,2,0,P|324:90|348:133,1,75,0|8,0:0|0:0,0:0:0:0:
277,289,4169,5,0,0:0:0:0:
286,275,4272,2,0,P|281:236|257:193,1,75,8|0,0:0|0:0,0:0:0:0:
96,231,4480,1,8,0:0:0:0:
107,251,4583,2,0,P|143:266|192:266,1,75,0|8,0:0|0:0,0:0:0:0:
235,113,4790,2,0,P|198:97|149:97,1,75,0|8,0:0|0:0,0:0:0:0:
0,181,4997,38,0,L|13:273,1,75,4|8,0:0|0:0,0:0:0:0:
159,374,5204,1,0,0:0:0:0:
174,363,5307,2,0,L|187:271,1,75,8|0,0:0|0:0,0:0:0:0:
289,220,5514,1,8,0:0:0:0:
277,208,5617,2,0,L|264:116,1,75,0|8,0:0|0:0,0:0:0:0:
203,0,5825,5,0,0:0:0:0:
212,10,5928,2,0,P|247:31|289:33,1,75,8|0,0:0|0:0,0:0:0:0:
491,70,6135,1,8,0:0:0:0:
476,65,6238,2,0,P|439:69|407:89,1,75,0|8,0:0|0:0,0:0:0:0:
357,272,6445,2,0,P|372:237|370:200,1,75,0|8,0:0|0:0,0:0:0:0:
232,120,6652,37,8,0:0:0:0:
227,119,6703,1,8,0:0:0:0:
223,119,6755,1,8,0:0:0:0:
218,118,6807,1,8,0:0:0:0:
214,118,6859,2,0,L|175:112,1,37.5
123,39,6963,6,0,P|140:113|151:199,1,150,4|12,0:0|0:0,0:0:0:0:
84,269,7273,2,0,P|83:292|78:317,4,37.5,0|0|0|0|0,0:0|0:0|0:0|0:0|0:0,0:0:0:0:
149,186,7583,38,0,P|233:190|311:213,1,150,10|10,0:0|0:0,0:0:0:0:
432,312,7894,1,0,0:0:0:0:
359,281,7997,1,0,0:0:0:0:
390,210,8100,1,0,0:0:0:0:
460,239,8204,1,0,0:0:0:0:
359,281,8307,6,0,P|322:280|272:298,1,75,4|8,0:0|0:0,0:0:0:0:
167,378,8513,1,0,0:0:0:0:
180,370,8617,2,0,P|192:331|195:295,1,75,8|0,0:0|0:0,0:0:0:0:
58,321,8824,1,8,0:0:0:0:
68,308,8928,2,0,P|65:270|53:235,1,75,0|8,0:0|0:0,0:0:0:0:
38,71,9135,37,0,0:0:0:0:
29,80,9239,2,0,P|17:119|14:155,1,75,8|0,0:0|0:0,0:0:0:0:
154,131,9446,1,8,0:0:0:0:
147,144,9550,2,0,P|150:181|162:216,1,75,0|0,0:0|0:0,0:0:0:0:
320,180,9756,2,0,P|316:142|304:107,1,75,0|8,0:0|0:0,0:0:0:0:
201,293,9963,6,0,L|295:305,1,75,4|8,0:0|0:0,0:0:0:0:
412,197,10169,1,0,0:0:0:0:
404,188,10273,2,0,L|310:200,1,75,8|0,0:0|0:0,0:0:0:0:
282,310,10480,1,8,0:0:0:0:
290,319,10584,2,0,L|384:331,1,75,0|8,0:0|0:0,0:0:0:0:
483,249,10790,37,0,0:0:0:0:
492,238,10894,2,0,L|480:144,1,75,8|0,0:0|0:0,0:0:0:0:
394,0,11100,1,8,0:0:0:0:
383,11,11204,2,0,L|371:105,1,75,0|8,0:0|0:0,0:0:0:0:
483,249,11411,2,0,L|471:155,1,75,0|8,0:0|0:0,0:0:0:0:
290,98,11618,6,0,P|250:97|194:124,1,75,4|8,0:0|0:0,0:0:0:0:
83,195,11825,1,0,0:0:0:0:
72,201,11928,2,0,P|32:202|-24:175,1,75,8|0,0:0|0:0,0:0:0:0:
7,39,12135,1,8,0:0:0:0:
21,34,12238,2,0,P|61:33|117:60,1,75,0|8,0:0|0:0,0:0:0:0:
195,195,12445,37,0,0:0:0:0:
208,200,12548,2,0,P|248:201|304:174,1,75,8|0,0:0|0:0,0:0:0:0:
400,0,12756,1,8,0:0:0:0:
386,3,12859,2,0,P|365:37|360:99,1,75,0|8,0:0|0:0,0:0:0:0:
253,121,13066,2,0,P|261:157|280:189,1,75,0|8,0:0|0:0,0:0:0:0:
389,289,13273,5,0,0:0:0:0:
309,269,13376,1,8,0:0:0:0:
234,304,13480,1,0,0:0:0:0:
206,381,13583,2,0,P|156:324|171:252,1,150,8|8,0:0|0:0,0:0:0:0:
274,132,13894,37,0,0:0:0:0:
184,155,13997,1,8,0:0:0:0:
99,115,14101,1,0,0:0:0:0:
68,28,14204,2,0,P|7:91|26:174,1,150,8|8,0:0|0:0,0:0:0:0:
67,270,14514,6,0,L|74:329,3,37.5,10|0|10|0,0:0|0:0|0:0|0:0,0:0:0:0:
161,320,14721,2,0,L|154:379,3,37.5,10|0|10|0,0:0|0:0|0:0|0:0,0:0:0:0:
237,245,14928,38,0,L|245:170,1,75,4|8,0:0|0:0,0:0:0:0:
141,35,15135,1,0,0:0:0:0:
144,49,15238,2,0,P|169:79|219:95,1,75,8|0,0:0|0:0,0:0:0:0:
381,61,15445,1,8,0:0:0:0:
368,56,15548,2,0,P|329:62|290:97,1,75,0|8,0:0|0:0,0:0:0:0:
332,229,15756,5,2,0:0:0:0:
346,231,15859,2,0,P|384:224|423:189,1,75,8|0,0:0|0:0,0:0:0:0:
491,50,16066,1,8,0:0:0:0:
501,60,16169,2,0,L|515:154,1,75,0|8,0:0|0:0,0:0:0:0:
411,293,16376,2,0,L|425:199,1,75,0|8,0:0|0:0,0:0:0:0:
340,110,16583,38,0,P|292:83|250:83,1,75,6|8,0:0|0:0,0:0:0:0:
196,225,16790,1,0,0:0:0:0:
210,225,16894,2,0,P|257:196|278:160,1,75,8|0,0:0|0:0,0:0:0:0:
174,45,17100,1,8,0:0:0:0:
176,59,17204,2,0,L|186:162,1,75,0|8,0:0|0:0,0:0:0:0:
279,289,17411,5,2,0:0:0:0:
281,275,17515,2,0,L|291:172,1,75,8|0,0:0|0:0,0:0:0:0:
99,94,17721,1,8,0:0:0:0:
101,108,17825,2,0,L|111:211,1,75,0|8,0:0|0:0,0:0:0:0:
252,359,18032,2,0,L|262:256,1,75,0|8,0:0|0:0,0:0:0:0:
324,116,18238,38,0,P|354:95|393:88,1,75,4|8,0:0|0:0,0:0:0:0:
508,221,18445,1,0,0:0:0:0:
512,207,18549,2,0,L|500:133,1,75,8|0,0:0|0:0,0:0:0:0:
412,2,18756,1,8,0:0:0:0:
403,13,18860,2,0,L|391:87,1,75,0|8,0:0|0:0,0:0:0:0:
313,185,19066,5,8,0:0:0:0:
218,155,19169,2,0,L|166:164,4,37.5,8|0|0|0|8,0:0|0:0|0:0|0:0|0:0,0:0:0:0:
322,189,19480,37,8,0:0:0:0:
207,145,19583,2,0,L|153:166,4,37.5,0|0|8|0|8,0:0|0:0|0:0|0:0|0:0,0:0:0:0:
112,216,19894,6,0,B|106:290,1,75,4|8,0:0|0:0,0:0:0:0:
196,384,20100,2,0,L|192:346,3,37.5,0|0|8|8,0:0|0:0|0:0|0:0,0:0:0:0:
116,299,20307,2,0,L|119:261,3,37.5
224,195,20514,2,0,L|220:157,3,37.5,10|0|0|0,0:0|0:0|0:0|0:0,0:0:0:0:
150,65,20721,38,0,P|160:82|184:108,3,37.5,8|8|8|8,0:0|0:0|0:0|0:0,0:0:0:0:
300,81,20928,2,0,P|279:81|245:89,3,37.5,0|0|8|8,0:0|0:0|0:0|0:0,0:0:0:0:
211,162,21135,1,0,0:0:0:0:
211,171,21186,1,0,0:0:0:0:
210,181,21238,1,0,0:0:0:0:
210,190,21290,1,0,0:0:0:0:
208,200,21342,2,0,L|195:287,1,75,12|0,0:0|0:0,0:0:0:0:
131,377,21549,5,0,0:0:0:0:
83,317,21652,1,0,0:0:0:0:
124,254,21755,1,0,0:0:0:0:
197,274,21859,1,0,0:0:0:0:
131,377,21962,37,4,0:0:0:0:
131,377,23824,5,0,0:0:0:0:
83,317,23927,1,0,0:0:0:0:
124,254,24030,1,0,0:0:0:0:
197,274,24134,1,0,0:0:0:0:
206,351,24238,37,0,0:0:0:0:
279,371,24342,1,0,0:0:0:0:
320,308,24445,1,0,0:0:0:0:
272,248,24548,1,0,0:0:0:0:
197,274,24652,6,0,L|110:249,1,75,2|0,0:0|0:0,0:0:0:0:
43,186,24859,1,0,0:0:0:0:
41,171,24962,1,0,0:0:0:0:
124,254,25066,37,0,0:0:0:0:
198,244,25169,1,0,0:0:0:0:
272,235,25272,1,0,0:0:0:0:
347,226,25376,1,0,0:0:0:0:
421,217,25479,2,0,L|411:296,2,75,8|0|0,0:0|0:0|0:0,0:0:0:0:
483,123,25790,5,0,0:0:0:0:
441,59,25893,1,0,0:0:0:0:
367,44,25996,1,0,0:0:0:0:
304,85,26100,2,0,P|292:129|309:186,2,75,8|0|0,0:0|0:0|0:0,0:0:0:0:
212,16,26410,37,0,0:0:0:0:
176,84,26513,1,0,0:0:0:0:
104,106,26616,1,0,0:0:0:0:
37,72,26721,2,0,P|20:29|32:-29,2,75,8|0|0,0:0|0:0|0:0,0:0:0:0:
163,158,27032,5,0,0:0:0:0:
154,230,27135,1,0,0:0:0:0:
145,304,27238,1,0,0:0:0:0:
125,377,27341,38,0,L|72:364,2,37.5,10|0|0,0:0|0:0|0:0,0:0:0:0:
263,331,27548,2,0,L|316:318,2,37.5,10|0|0,0:0|0:0|0:0,0:0:0:0:
87,262,27755,2,0,L|34:249,2,37.5,10|0|0,0:0|0:0|0:0,0:0:0:0:
275,210,27962,2,0,L|328:197,2,37.5,10|0|0,0:0|0:0|0:0,0:0:0:0:
82,169,28169,6,0,P|69:127|69:83,1,75,8|0,0:0|0:0,0:0:0:0:
257,146,28376,1,8,0:0:0:0:
160,122,28479,1,8,0:0:0:0:
189,43,28583,37,4,0:0:0:0:
182,117,28686,1,8,0:0:0:0:
174,192,28789,1,0,0:0:0:0:
166,266,28893,1,8,0:0:0:0:
158,341,28997,2,0,P|124:344|73:325,2,75,0|8|0,0:0|0:0|0:0,0:0:0:0:
285,300,29308,5,8,0:0:0:0:
364,323,29411,1,0,0:0:0:0:
437,284,29515,1,8,0:0:0:0:
462,203,29618,2,0,L|440:122,2,75,0|8|0,0:0|0:0|0:0,0:0:0:0:
285,300,29928,37,8,0:0:0:0:
206,323,30031,1,0,0:0:0:0:
133,284,30135,1,8,0:0:0:0:
108,203,30239,2,0,L|130:122,2,75,0|8|0,0:0|0:0|0:0,0:0:0:0:
37,341,30549,5,8,0:0:0:0:
27,267,30652,1,0,0:0:0:0:
17,194,30755,1,8,0:0:0:0:
9,121,30859,38,0,L|-4:14,1,75,4|8,0:0|0:0,0:0:0:0:
120,205,31066,2,0,L|110:279,1,75,0|8,0:0|0:0,0:0:0:0:
208,51,31273,2,0,L|195:-4,2,37.5,0|0|8,0:0|0:0|0:0,0:0:0:0:
271,169,31480,2,0,L|258:224,2,37.5,0|0|8,0:0|0:0|0:0,0:0:0:0:
344,57,31687,2,0,L|331:2,2,37.5,0|0|8,0:0|0:0|0:0,0:0:0:0:
424,170,31894,6,0,L|437:231,1,37.5,8|0,0:0|0:0,0:0:0:0:
486,100,31997,2,0,L|499:39,1,37.5,8|0,0:0|0:0,0:0:0:0:
414,177,32101,37,4,0:0:0:0:
339,168,32204,1,8,0:0:0:0:
264,159,32307,1,0,0:0:0:0:
190,151,32411,1,8,0:0:0:0:
115,142,32514,2,0,P|108:95|111:53,2,75,0|8|0,0:0|0:0|0:0,0:0:0:0:
182,310,32825,5,8,0:0:0:0:
240,263,32928,1,0,0:0:0:0:
311,241,33031,1,8,0:0:0:0:
386,246,33135,2,0,P|425:260|464:295,2,75,0|8|0,0:0|0:0|0:0,0:0:0:0:
240,263,33445,37,8,0:0:0:0:
165,255,33548,1,0,0:0:0:0:
99,220,33651,1,8,0:0:0:0:
50,164,33756,2,0,P|32:126|29:74,2,75,0|8|0,0:0|0:0|0:0,0:0:0:0:
165,255,34066,5,8,0:0:0:0:
174,180,34169,1,0,0:0:0:0:
202,111,34272,1,8,0:0:0:0:
249,52,34376,2,0,L|350:36,1,75,8|8,0:0|0:0,0:0:0:0:
406,86,34583,37,8,0:0:0:0:
402,82,34687,1,8,0:0:0:0:
406,76,34790,1,8,0:0:0:0:
412,82,34894,1,8,0:0:0:0:
404,96,34997,1,8,0:0:0:0:
391,84,35101,1,8,0:0:0:0:
415,72,35204,6,0,B|429:101|430:162,1,75,8|0,0:0|0:0,0:0:0:0:
343,304,35411,1,8,0:0:0:0:
292,188,35514,1,8,0:0:0:0:
398,234,35618,38,0,L|493:216,1,75,4|8,0:0|0:0,0:0:0:0:
273,264,35825,1,0,0:0:0:0:
263,275,35928,2,0,P|228:267|189:262,1,75,8|0,0:0|0:0,0:0:0:0:
49,198,36135,1,8,0:0:0:0:
59,209,36238,2,0,P|94:201|132:196,1,75,0|8,0:0|0:0,0:0:0:0:
257,101,36445,5,0,0:0:0:0:
269,109,36549,2,0,L|278:196,1,75,8|0,0:0|0:0,0:0:0:0:
348,321,36755,1,8,0:0:0:0:
360,313,36859,2,0,L|369:226,1,75,0|8,0:0|0:0,0:0:0:0:
451,144,37066,1,0,0:0:0:0:
374,229,37169,1,8,0:0:0:0:
269,192,37273,38,0,B|187:164,1,75,4|8,0:0|0:0,0:0:0:0:
63,204,37480,1,0,0:0:0:0:
76,193,37583,2,0,P|66:152|45:125,1,75,8|0,0:0|0:0,0:0:0:0:
139,273,37790,1,8,0:0:0:0:
154,271,37893,2,0,P|175:240|183:204,1,75,0|8,0:0|0:0,0:0:0:0:
196,60,38100,5,0,0:0:0:0:
190,73,38203,2,0,P|206:106|233:131,1,75,8|0,0:0|0:0,0:0:0:0:
401,77,38411,1,8,0:0:0:0:
394,60,38514,2,0,P|366:85|350:118,1,75,0|8,0:0|0:0,0:0:0:0:
416,271,38721,1,0,0:0:0:0:
444,159,38825,1,8,0:0:0:0:
323,247,38928,38,0,P|285:260|241:264,1,75,4|8,0:0|0:0,0:0:0:0:
140,192,39135,1,0,0:0:0:0:
159,184,39238,2,0,L|149:262,1,75,8|0,0:0|0:0,0:0:0:0:
63,361,39445,1,8,0:0:0:0:
44,369,39548,2,0,L|54:291,1,75,0|8,0:0|0:0,0:0:0:0:
2,139,39756,5,0,0:0:0:0:
19,152,39859,2,0,L|93:142,1,75,8|0,0:0|0:0,0:0:0:0:
209,79,40066,1,8,0:0:0:0:
226,66,40169,2,0,L|300:76,1,75,0|8,0:0|0:0,0:0:0:0:
441,194,40376,2,0,L|367:204,1,75,0|8,0:0|0:0,0:0:0:0:
486,100,40583,37,8,0:0:0:0:
486,100,40635,1,8,0:0:0:0:
486,100,40686,2,0,L|495:159,3,37.5,8|8|0|0,0:0|0:0|0:0|0:0,0:0:0:0:
441,194,40893,2,0,L|427:288,1,75,12|0,0:0|0:0,0:0:0:0:
326,85,41100,2,0,L|312:-9,2,75,14|0|0,0:0|0:0|0:0,0:0:0:0:
281,192,41411,5,0,0:0:0:0:
281,192,41462,1,0,0:0:0:0:
281,192,41514,2,0,P|223:212|179:210,1,75,14|0,0:0|0:0,0:0:0:0:
56,132,41721,2,0,P|92:137|127:152,1,75,14|8,0:0|0:0,0:0:0:0:
183,309,41928,1,8,0:0:0:0:
196,219,42032,1,10,0:0:0:0:
211,130,42135,1,8,0:0:0:0:
268,55,42238,38,0,P|308:78|348:79,1,75,6|0,0:0|0:0,0:0:0:0:
467,47,42445,1,8,0:0:0:0:
452,35,42549,2,0,L|460:140,1,75,0|10,0:0|0:0,0:0:0:0:
368,185,42755,1,0,0:0:0:0:
353,173,42859,2,0,L|361:278,1,75,10|0,0:0|0:0,0:0:0:0:
274,322,43065,5,10,0:0:0:0:
259,310,43169,2,0,L|267:415,1,75,0|10,0:0|0:0,0:0:0:0:
167,254,43376,2,0,L|174:195,4,37.5,0|0|10|0|10,0:0|0:0|0:0|0:0|0:0,0:0:0:0:
259,310,43687,1,10,0:0:0:0:
351,258,43790,1,10,0:0:0:0:
457,318,43894,38,0,P|471:284|472:230,1,75,4|0,0:0|0:0,0:0:0:0:
394,151,44100,1,10,0:0:0:0:
409,157,44204,2,0,P|449:134|477:89,1,75,0|10,0:0|0:0,0:0:0:0:
264,223,44411,1,0,0:0:0:0:
267,238,44515,2,0,P|311:250|363:238,1,75,10|0,0:0|0:0,0:0:0:0:
114,180,44721,5,10,0:0:0:0:
109,194,44825,2,0,P|131:233|177:262,1,75,0|10,0:0|0:0,0:0:0:0:
195,93,45032,1,0,0:0:0:0:
185,84,45135,2,0,L|173:143,3,37.5,0|0|0|0,0:0|0:0|0:0|0:0,0:0:0:0:
108,176,45342,2,0,L|96:235,3,37.5,0|0|0|0,0:0|0:0|0:0|0:0,0:0:0:0:
25,268,45549,38,0,B|9:191,1,75,4|0,0:0|0:0,0:0:0:0:
130,321,45756,1,10,0:0:0:0:
146,332,45859,2,0,P|158:293|161:258,1,75,0|10,0:0|0:0,0:0:0:0:
271,264,46066,1,0,0:0:0:0:
293,264,46169,2,0,P|284:229|269:192,1,75,10|0,0:0|0:0,0:0:0:0:
139,98,46376,5,8,0:0:0:0:
115,111,46480,2,0,L|30:96,1,75,8|0,0:0|0:0,0:0:0:0:
286,182,46686,37,8,0:0:0:0:
315,192,46790,2,0,L|400:177,1,75,8|0,0:0|0:0,0:0:0:0:
149,280,46997,5,8,0:0:0:0:
75,265,47101,1,8,0:0:0:0:
162,201,47204,38,0,P|203:223|211:325,1,150,4|8,0:0|0:0,0:0:0:0:
74,384,47514,2,0,P|72:337|156:279,1,150,4|8,0:0|0:0,0:0:0:0:
264,182,47825,2,0,P|281:211|293:251,1,75,4|8,0:0|0:0,0:0:0:0:
342,371,48031,6,0,L|348:322,3,37.5,10|0|0|0,0:0|0:0|0:0|0:0,0:0:0:0:
423,278,48238,2,0,L|417:229,3,37.5,0|0|10|0,0:0|0:0|0:0|0:0,0:0:0:0:
363,163,48445,1,0,0:0:0:0:
362,157,48496,1,0,0:0:0:0:
363,151,48548,1,0,0:0:0:0:
364,145,48600,1,0,0:0:0:0:
364,140,48651,1,14,0:0:0:0:
219,233,48859,38,0,L|141:224,1,75,12|0,0:0|0:0,0:0:0:0:
0,151,49066,2,0,L|74:159,1,75,8|0,0:0|0:0,0:0:0:0:
102,311,49273,2,0,P|65:276|46:226,1,75,8|0,0:0|0:0,0:0:0:0:
103,78,49480,2,0,P|140:113|159:163,1,75,8|0,0:0|0:0,0:0:0:0:
248,315,49686,6,0,P|285:280|304:230,1,75,8|0,0:0|0:0,0:0:0:0:
272,79,49893,2,0,P|235:114|216:164,1,75,8|0,0:0|0:0,0:0:0:0:
379,295,50100,2,0,P|380:248|365:207,1,75,8|0,0:0|0:0,0:0:0:0:
139,106,50307,2,0,P|138:153|153:194,1,75,8|0,0:0|0:0,0:0:0:0:
287,326,50514,37,12,0:0:0:0:
303,253,50617,1,0,0:0:0:0:
355,201,50720,1,0,0:0:0:0:
427,184,50824,1,0,0:0:0:0:
498,210,50928,5,8,0:0:0:0:
424,225,51031,1,0,0:0:0:0:
355,201,51135,1,0,0:0:0:0:
308,142,51238,1,0,0:0:0:0:
299,69,51342,38,0,L|306:-7,1,75,12|0,0:0|0:0,0:0:0:0:
185,174,51549,1,0,0:0:0:0:
95,219,51652,1,0,0:0:0:0:
25,149,51755,2,0,P|85:128|125:129,1,75,12|0,0:0|0:0,0:0:0:0:
250,250,51962,2,0,P|215:265|179:271,1,75,0|0,0:0|0:0,0:0:0:0:
384,95,52169,6,0,L|370:183,1,75,12|0,0:0|0:0,0:0:0:0:
278,331,52376,2,0,L|264:243,1,75,8|0,0:0|0:0,0:0:0:0:
188,111,52583,2,0,P|146:83|104:77,1,75,8|0,0:0|0:0,0:0:0:0:
20,223,52790,2,0,P|62:251|104:257,1,75,8|0,0:0|0:0,0:0:0:0:
290,168,52997,38,0,P|254:178|224:201,1,75,8|0,0:0|0:0,0:0:0:0:
293,354,53204,2,0,P|328:343|358:320,1,75,8|0,0:0|0:0,0:0:0:0:
398,144,53411,2,0,L|386:218,1,75,8|0,0:0|0:0,0:0:0:0:
186,384,53618,2,0,L|198:310,1,75,8|0,0:0|0:0,0:0:0:0:
78,113,53825,5,12,0:0:0:0:
83,135,53928,1,8,0:0:0:0:
271,126,54135,37,8,0:0:0:0:
215,120,54238,1,8,0:0:0:0:
44,257,54445,5,8,0:0:0:0:
120,240,54548,1,0,0:0:0:0:
84,35,54755,37,8,0:0:0:0:
75,152,54859,1,8,0:0:0:0:
288,351,55066,5,8,0:0:0:0:
325,338,55169,1,8,0:0:0:0:
291,342,55272,1,8,0:0:0:0:
324,345,55376,1,8,0:0:0:0:
298,334,55480,38,0,L|287:236,1,75,12|0,0:0|0:0,0:0:0:0:
354,83,55686,2,0,L|343:181,1,75,8|0,0:0|0:0,0:0:0:0:
186,253,55894,2,0,P|145:252|95:233,1,75,8|0,0:0|0:0,0:0:0:0:
62,65,56100,2,0,P|81:101|90:153,1,75,8|0,0:0|0:0,0:0:0:0:
47,312,56307,6,0,P|27:275|18:223,1,75,8|0,0:0|0:0,0:0:0:0:
161,94,56514,2,0,L|235:78,1,75,8|0,0:0|0:0,0:0:0:0:
424,184,56721,2,0,L|350:168,1,75,8|0,0:0|0:0,0:0:0:0:
149,278,56928,2,0,L|223:262,1,75,8|0,0:0|0:0,0:0:0:0:
373,321,57135,37,12,0:0:0:0:
374,246,57238,1,0,0:0:0:0:
342,179,57341,1,0,0:0:0:0:
284,133,57445,1,0,0:0:0:0:
210,123,57549,5,0,0:0:0:0:
156,197,57652,1,0,0:0:0:0:
69,168,57755,1,0,0:0:0:0:
69,77,57859,1,0,0:0:0:0:
156,48,57962,38,0,P|145:89|127:143,1,75,4|0,0:0|0:0,0:0:0:0:
0,315,58169,2,0,P|9:278|20:242,1,75
210,123,58376,5,4,0:0:0:0:
316,233,58480,1,0,0:0:0:0:
182,208,58583,1,0,0:0:0:0:
318,140,58686,1,0,0:0:0:0:
349,305,58790,38,0,L|341:395,2,75,4|0|0,0:0|0:0|0:0,0:0:0:0:
446,213,59100,2,0,L|438:123,2,75,0|0|0,0:0|0:0|0:0,0:0:0:0:
341,308,59411,2,0,L|333:398,1,75,0|0,0:0|0:0,0:0:0:0:
232,247,59618,5,8,0:0:0:0:
241,239,59721,2,0,L|291:228,2,37.5,0|0|0,0:0|0:0|0:0,0:0:0:0:
136,349,59928,2,0,L|86:360,2,37.5,0|0|8,0:0|0:0|0:0,0:0:0:0:
273,319,60135,2,0,L|309:310,2,37.5,0|0|8,0:0|0:0|0:0,0:0:0:0:
131,267,60342,2,0,L|81:278,1,37.5,0|0,0:0|0:0,0:0:0:0:
8,319,60445,38,0,L|25:175,1,112.5,12|0,0:0|0:0,0:0:0:0:
7,117,60652,2,0,L|56:108,3,37.5,0|0|8|8,0:0|0:0|0:0|0:0,0:0:0:0:
124,172,60859,2,0,L|173:181,3,37.5,0|0|0|0,0:0|0:0|0:0|0:0,0:0:0:0:
240,103,61066,2,0,L|289:94,3,37.5,8|0|0|0,0:0|0:0|0:0|0:0,0:0:0:0:
361,35,61273,6,0,P|370:107|389:194,1,150,10|0,0:0|0:0,0:0:0:0:
482,244,61583,1,10,0:0:0:0:
481,250,61634,1,0,0:0:0:0:
480,256,61686,1,0,0:0:0:0:
479,262,61738,1,0,0:0:0:0:
477,268,61790,2,0,L|469:310,2,37.5,0|0|10,0:0|0:0|0:0,0:0:0:0:
352,352,62100,6,0,P|319:329|273:316,1,75,4|8,0:0|0:0,0:0:0:0:
267,171,62307,2,0,P|231:183|201:205,1,75,0|8,0:0|0:0,0:0:0:0:
73,336,62514,1,0,0:0:0:0:
149,341,62617,1,8,0:0:0:0:
199,283,62720,1,0,0:0:0:0:
183,208,62824,1,8,0:0:0:0:
85,215,62928,6,0,P|125:207|170:185,1,75,4|8,0:0|0:0,0:0:0:0:
104,6,63135,2,0,P|64:14|19:36,1,75,0|8,0:0|0:0,0:0:0:0:
161,174,63342,1,0,0:0:0:0:
237,165,63445,1,8,0:0:0:0:
314,156,63548,1,0,0:0:0:0:
391,148,63652,1,8,0:0:0:0:
486,179,63756,38,0,L|497:83,1,75,4|8,0:0|0:0,0:0:0:0:
372,308,63962,2,0,L|383:404,1,75,0|8,0:0|0:0,0:0:0:0:
237,165,64169,1,0,0:0:0:0:
189,98,64272,1,8,0:0:0:0:
108,98,64375,1,0,0:0:0:0:
60,163,64479,1,8,0:0:0:0:
93,254,64583,6,0,P|126:235|155:197,1,75,4|8,0:0|0:0,0:0:0:0:
208,14,64790,2,0,P|241:33|270:71,1,75,0|8,0:0|0:0,0:0:0:0:
332,249,64997,2,0,P|365:230|394:192,1,75,4|8,0:0|0:0,0:0:0:0:
456,22,65204,2,0,P|489:41|518:79,1,75,0|8,0:0|0:0,0:0:0:0:
501,275,65411,38,0,L|514:190,1,75,4|8,0:0|0:0,0:0:0:0:
366,44,65618,2,0,L|379:129,1,75,0|8,0:0|0:0,0:0:0:0:
251,227,65824,1,0,0:0:0:0:
178,258,65927,1,8,0:0:0:0:
106,289,66030,1,0,0:0:0:0:
61,225,66134,1,8,0:0:0:0:
8,152,66238,6,0,L|-2:63,1,75,4|8,0:0|0:0,0:0:0:0:
106,289,66445,2,0,L|95:378,1,75,0|8,0:0|0:0,0:0:0:0:
280,136,66652,1,0,0:0:0:0:
357,122,66755,1,8,0:0:0:0:
396,190,66858,1,0,0:0:0:0:
346,252,66962,1,8,0:0:0:0:
251,227,67066,38,0,P|209:221|163:234,1,75,4|8,0:0|0:0,0:0:0:0:
19,363,67273,2,0,P|61:369|107:356,1,75,0|8,0:0|0:0,0:0:0:0:
205,141,67480,1,0,0:0:0:0:
132,156,67584,1,8,0:0:0:0:
76,204,67687,1,0,0:0:0:0:
50,274,67790,1,0,0:0:0:0:
92,362,67894,6,0,P|134:355|171:328,1,75,4|0,0:0|0:0,0:0:0:0:
232,213,68100,2,0,P|249:218|271:231,3,37.5,8|8|8|8,0:0|0:0|0:0|0:0,0:0:0:0:
348,300,68307,2,0,P|365:295|387:282,3,37.5,8|0|0|0,0:0|0:0|0:0|0:0,0:0:0:0:
457,206,68514,2,0,P|474:211|496:224,3,37.5,8|8|0|0,0:0|0:0|0:0|0:0,0:0:0:0:
512,305,68721,38,0,B|496:204,1,75,4|8,0:0|0:0,0:0:0:0:
390,67,68928,2,0,B|379:168,1,75,0|8,0:0|0:0,0:0:0:0:
359,383,69135,1,0,0:0:0:0:
370,306,69238,1,8,0:0:0:0:
381,229,69341,1,0,0:0:0:0:
393,152,69445,1,8,0:0:0:0:
398,55,69549,6,0,P|355:61|318:87,1,75,4|8,0:0|0:0,0:0:0:0:
194,219,69755,2,0,P|151:213|114:187,1,75,0|8,0:0|0:0,0:0:0:0:
48,28,69962,1,0,0:0:0:0:
119,13,70066,1,8,0:0:0:0:
179,56,70169,1,0,0:0:0:0:
188,128,70272,1,8,0:0:0:0:
102,187,70376,38,0,L|84:91,1,75,4|8,0:0|0:0,0:0:0:0:
276,227,70583,2,0,L|258:323,1,75,0|8,0:0|0:0,0:0:0:0:
377,69,70790,1,0,0:0:0:0:
450,67,70893,1,8,0:0:0:0:
504,116,70996,1,0,0:0:0:0:
512,189,71100,1,8,0:0:0:0:
466,272,71204,6,0,P|432:249|390:239,1,75,4|8,0:0|0:0,0:0:0:0:
355,73,71411,2,0,P|319:83|288:104,1,75,0|8,0:0|0:0,0:0:0:0:
249,314,71618,2,0,P|218:335|182:345,1,75,4|8,0:0|0:0,0:0:0:0:
121,216,71825,2,0,P|85:205|54:184,1,75,0|8,0:0|0:0,0:0:0:0:
119,7,72032,38,0,P|130:40|133:89,1,75,4|8,0:0|0:0,0:0:0:0:
190,257,72238,2,0,P|193:219|204:184,1,75,0|8,0:0|0:0,0:0:0:0:
395,122,72445,1,0,0:0:0:0:
415,200,72549,1,8,0:0:0:0:
357,258,72652,1,0,0:0:0:0:
278,237,72756,1,8,0:0:0:0:
204,184,72859,6,0,P|154:190|122:220,1,75,4|8,0:0|0:0,0:0:0:0:
32,368,73066,2,0,P|82:362|114:332,1,75,0|8,0:0|0:0,0:0:0:0:
242,373,73273,1,0,0:0:0:0:
291,308,73376,1,8,0:0:0:0:
368,282,73479,1,0,0:0:0:0:
446,304,73583,1,8,0:0:0:0:
501,380,73686,38,0,P|465:362|438:316,1,75,4|0,0:0|0:0,0:0:0:0:
503,151,73893,2,0,P|479:180|446:196,1,75,8|8,0:0|0:0,0:0:0:0:
315,99,74100,2,0,L|308:42,2,37.5,8|0|0,0:0|0:0|0:0,0:0:0:0:
260,211,74307,2,0,L|253:268,2,37.5,8|8|0,0:0|0:0|0:0,0:0:0:0:
164,89,74514,6,0,P|129:70|87:66,1,75,8|8,0:0|0:0,0:0:0:0:
11,192,74721,1,8,0:0:0:0:
28,197,74824,2,0,P|64:191|97:173,1,75,8|8,0:0|0:0,0:0:0:0:
224,206,75031,1,8,0:0:0:0:
230,205,75082,1,8,0:0:0:0:
236,205,75134,1,8,0:0:0:0:
242,206,75186,1,8,0:0:0:0:
248,207,75237,1,8,0:0:0:0:
254,209,75289,1,8,0:0:0:0:
260,211,75341,1,4,0:0:0:0:
42,222,81549,6,0,L|36:162,1,48.7499977684022,0|0,0:0|0:0,0:0:0:0:
9,95,81755,2,0,P|43:90|94:120,1,75,12|0,0:0|0:0,0:0:0:0:
209,193,81962,6,0,P|269:202|319:59,1,225,4|0,0:0|0:0,0:0:0:0:
204,55,82376,2,0,P|261:99|329:74,1,150,8|0,0:0|0:0,0:0:0:0:
425,95,82687,1,0,0:0:0:0:
425,95,82790,38,0,P|445:54|449:-1,2,100,2|0|0,0:0|0:0|0:0,0:0:0:0:
290,181,83204,1,8,0:0:0:0:
258,114,83307,1,0,0:0:0:0:
195,75,83410,1,0,0:0:0:0:
122,75,83514,1,0,0:0:0:0:
60,115,83618,6,0,L|45:239,2,100,2|0|0,0:0|0:0|0:0,0:0:0:0:
195,75,84032,2,0,B|185:1,2,75,8|0|0,0:0|0:0|0:0,0:0:0:0:
318,242,84445,38,0,B|349:210|349:210|468:228,1,150,2|0,0:0|0:0,0:0:0:0:
398,343,84755,1,0,0:0:0:0:
385,367,84859,2,0,B|374:273,1,75,8|0,0:0|0:0,0:0:0:0:
229,305,85066,2,0,B|240:211,1,75,0|0,0:0|0:0,0:0:0:0:
367,82,85273,6,0,P|321:110|277:118,1,75,4|0,0:0|0:0,0:0:0:0:
111,105,85480,1,0,0:0:0:0:
158,42,85583,1,0,0:0:0:0:
231,70,85686,1,8,0:0:0:0:
227,148,85790,1,0,0:0:0:0:
152,168,85893,2,0,P|128:137|106:94,1,75,0|0,0:0|0:0,0:0:0:0:
315,206,86100,38,0,P|296:238|273:268,1,75,2|0,0:0|0:0,0:0:0:0:
96,327,86307,1,0,0:0:0:0:
117,251,86410,1,0,0:0:0:0:
195,251,86513,1,8,0:0:0:0:
219,325,86617,1,0,0:0:0:0:
156,371,86720,2,0,P|122:350|86:318,1,75,0|0,0:0|0:0,0:0:0:0:
40,128,86928,5,2,0:0:0:0:
107,98,87031,1,0,0:0:0:0:
178,117,87134,1,0,0:0:0:0:
221,176,87238,1,0,0:0:0:0:
224,300,87342,37,8,0:0:0:0:
164,254,87445,1,0,0:0:0:0:
147,184,87548,1,0,0:0:0:0:
178,117,87652,1,0,0:0:0:0:
292,73,87755,5,2,0:0:0:0:
335,132,87859,1,0,0:0:0:0:
406,151,87962,1,0,0:0:0:0:
473,121,88065,1,0,0:0:0:0:
494,33,88169,2,0,P|498:70|492:107,1,75,8|0,0:0|0:0,0:0:0:0:
386,223,88376,1,0,0:0:0:0:
412,296,88480,1,0,0:0:0:0:
485,322,88583,38,0,B|415:300|350:363|350:363|347:373|332:288|324:300|324:300|274:356|209:357|122:313|200:207|235:294|227:311,1,450,4|0,0:0|0:0,0:0:0:0:
82,319,89411,6,0,P|78:278|92:214,1,75,2|0,0:0|0:0,0:0:0:0:
0,206,89618,2,0,P|26:174|81:138,1,75,0|0,0:0|0:0,0:0:0:0:
126,62,89824,1,8,0:0:0:0:
195,39,89927,1,0,0:0:0:0:
259,74,90030,1,0,0:0:0:0:
277,144,90134,1,0,0:0:0:0:
332,204,90238,37,2,0:0:0:0:
401,226,90341,1,0,0:0:0:0:
465,191,90444,1,0,0:0:0:0:
483,121,90548,1,0,0:0:0:0:
436,43,90652,2,0,B|464:190,1,150,8|0,0:0|0:0,0:0:0:0:
383,310,90962,1,0,0:0:0:0:
383,310,91066,6,0,L|396:213,1,75,2|0,0:0|0:0,0:0:0:0:
358,120,91273,2,0,B|295:137|274:180|274:180|260:141|260:141|220:209|148:230|81:159|78:116|104:147,1,375,0|0,0:0|0:0,0:0:0:0:
38,243,91894,38,0,P|20:209|12:154,1,75,6|0,0:0|0:0,0:0:0:0:
87,12,92100,1,0,0:0:0:0:
133,77,92204,1,0,0:0:0:0:
131,157,92307,1,8,0:0:0:0:
167,151,92410,1,0,0:0:0:0:
197,128,92513,1,0,0:0:0:0:
211,94,92617,1,0,0:0:0:0:
287,37,92721,6,0,P|304:72|302:121,1,75,0|0,0:0|0:0,0:0:0:0:
276,250,92928,1,0,0:0:0:0:
255,175,93031,1,0,0:0:0:0:
306,119,93134,1,8,0:0:0:0:
381,133,93238,1,0,0:0:0:0:
407,206,93342,2,0,P|390:243|341:274,1,75,0|0,0:0|0:0,0:0:0:0:
195,287,93549,37,2,0:0:0:0:
276,250,93652,2,0,P|282:301|266:353,2,75,8|0|0,0:0|0:0|0:0,0:0:0:0:
195,287,93962,1,8,0:0:0:0:
121,288,94065,1,0,0:0:0:0:
77,232,94168,1,8,0:0:0:0:
94,161,94272,1,8,0:0:0:0:
167,121,94376,6,0,B|223:143|263:69|263:69|318:53|371:123|371:123|421:140|504:127|524:64|504:20|464:3|429:7|404:56,1,525,12|8,0:0|0:0,0:0:0:0:
300,163,95204,38,0,B|316:249,1,75,4|8,0:0|0:0,0:0:0:0:
425,334,95411,1,0,0:0:0:0:
425,328,95462,1,0,0:0:0:0:
425,322,95514,1,8,0:0:0:0:
426,317,95566,1,0,0:0:0:0:
426,312,95618,2,0,L|351:321,1,75,0|8,0:0|0:0,0:0:0:0:
212,327,95825,1,0,0:0:0:0:
141,374,95928,1,8,0:0:0:0:
56,366,96032,6,0,P|32:334|24:294,1,75,2|8,0:0|0:0,0:0:0:0:
83,216,96238,1,0,0:0:0:0:
85,209,96289,1,0,0:0:0:0:
87,203,96341,1,8,0:0:0:0:
88,197,96393,1,0,0:0:0:0:
89,191,96445,2,0,P|99:141|96:109,1,75,0|8,0:0|0:0,0:0:0:0:
94,0,96652,1,0,0:0:0:0:
164,50,96756,1,8,0:0:0:0:
249,49,96859,38,0,P|280:29|322:23,1,75,6|8,0:0|0:0,0:0:0:0:
445,53,97066,2,0,P|446:73|441:98,3,37.5,0|0|8|0,0:0|0:0|0:0|0:0,0:0:0:0:
505,143,97273,2,0,P|474:163|432:169,1,75,0|8,0:0|0:0,0:0:0:0:
321,208,97480,1,0,0:0:0:0:
316,204,97531,1,0,0:0:0:0:
311,200,97583,1,8,0:0:0:0:
307,197,97635,1,0,0:0:0:0:
302,193,97687,6,0,P|246:180|213:190,1,75,6|0,0:0|0:0,0:0:0:0:
17,353,97894,1,0,0:0:0:0:
98,368,97997,1,8,0:0:0:0:
173,330,98100,2,0,P|185:291|183:255,1,75,0|8,0:0|0:0,0:0:0:0:
44,64,98307,2,0,P|32:103|33:138,1,75,0|8,0:0|0:0,0:0:0:0:
172,241,98514,38,0,P|210:243|274:225,1,75,4|8,0:0|0:0,0:0:0:0:
371,102,98721,2,0,P|333:100|269:118,1,75,0|8,0:0|0:0,0:0:0:0:
339,294,98928,1,0,0:0:0:0:
347,209,99031,1,8,0:0:0:0:
258,226,99135,1,0,0:0:0:0:
250,310,99238,1,8,0:0:0:0:
314,372,99342,6,0,P|351:375|388:361,1,75,2|8,0:0|0:0,0:0:0:0:
506,278,99549,1,0,0:0:0:0:
491,205,99652,1,8,0:0:0:0:
512,131,99756,2,0,L|483:377,1,225,0|8,0:0|0:0,0:0:0:0:
306,367,100169,38,0,L|295:288,1,75,4|8,0:0|0:0,0:0:0:0:
199,195,100376,1,0,0:0:0:0:
125,233,100479,1,8,0:0:0:0:
50,199,100583,1,0,0:0:0:0:
28,120,100686,1,8,0:0:0:0:
77,53,100789,1,0,0:0:0:0:
160,51,100893,1,8,0:0:0:0:
213,113,100997,6,0,B|280:139|333:75|333:75|388:3|499:55|499:55|470:46|437:49,1,375,4|8,0:0|0:0,0:0:0:0:
407,179,101618,1,0,0:0:0:0:
400,191,101721,2,0,L|417:310,1,112.5,8|4,0:0|0:0,0:0:0:0:
346,341,101928,38,0,B|351:385,1,37.5
333,347,102032,2,0,L|340:287,2,50
227,306,102238,2,0,L|221:256,2,50,0|0|0,0:0|0:0|0:0,0:0:0:0:
121,347,102445,1,0,0:0:0:0:
82,350,102513,1,0,0:0:0:0:
46,334,102582,1,0,0:0:0:0:
25,302,102652,6,0,L|14:244,2,50,0|0|0,0:0|0:0|0:0,0:0:0:0:
101,229,102859,2,0,L|109:179,2,50,0|0|0,0:0|0:0|0:0,0:0:0:0:
16,160,103066,2,0,L|4:112,2,50,0|0|0,0:0|0:0|0:0,0:0:0:0:
99,92,103273,2,0,L|107:42,2,50,0|0|0,0:0|0:0|0:0,0:0:0:0:
187,160,103480,37,4,0:0:0:0:
210,167,103548,1,0,0:0:0:0:
235,168,103617,1,0,0:0:0:0:
259,160,103686,1,0,0:0:0:0:
279,145,103755,1,0,0:0:0:0:
293,125,103824,1,0,0:0:0:0:
300,105,103893,5,0,0:0:0:0:
301,114,103961,1,0,0:0:0:0:
303,124,104030,1,0,0:0:0:0:
305,133,104100,2,0,L|314:197,2,50,0|0|0,0:0|0:0|0:0,0:0:0:0:
396,55,104307,37,4,0:0:0:0:
445,57,104376,1,0,0:0:0:0:
485,85,104445,1,0,0:0:0:0:
505,130,104514,1,0,0:0:0:0:
500,179,104583,1,0,0:0:0:0:
471,219,104652,1,0,0:0:0:0:
426,238,104721,2,0,L|371:230,2,50,0|0|0,0:0|0:0|0:0,0:0:0:0:
435,322,104928,2,0,L|343:331,1,75,0|0,0:0|0:0,0:0:0:0:
210,364,105135,5,12,0:0:0:0:
180,297,105238,1,0,0:0:0:0:
111,272,105341,1,0,0:0:0:0:
45,303,105445,1,0,0:0:0:0:
133,362,105549,37,8,0:0:0:0:
180,297,105653,1,0,0:0:0:0:
169,217,105755,2,0,P|155:170|129:136,1,75,0|0,0:0|0:0,0:0:0:0:
35,59,105962,5,8,0:0:0:0:
70,120,106065,1,0,0:0:0:0:
141,138,106168,1,0,0:0:0:0:
205,101,106272,1,0,0:0:0:0:
214,28,106376,37,8,0:0:0:0:
196,100,106479,1,0,0:0:0:0:
218,171,106583,2,0,P|243:196|293:219,1,75,0|0,0:0|0:0,0:0:0:0:
501,200,106790,5,8,0:0:0:0:
422,231,106893,1,0,0:0:0:0:
349,187,106996,1,8,0:0:0:0:
338,103,107100,1,0,0:0:0:0:
428,78,107204,37,8,0:0:0:0:
409,148,107307,1,0,0:0:0:0:
349,187,107410,1,8,0:0:0:0:
278,169,107514,1,0,0:0:0:0:
205,105,107618,6,0,L|213:57,4,37.5,12|0|0|0|0,0:0|0:0|0:0|0:0|0:0,0:0:0:0:
124,180,107928,2,0,L|131:217,4,37.5,12|0|0|0|0,0:0|0:0|0:0|0:0|0:0,0:0:0:0:
40,94,108238,2,0,L|56:-2,1,75,12|0,0:0|0:0,0:0:0:0:
132,176,108445,38,0,B|190:170|231:92|231:92|247:111|247:111|294:33|382:29|438:84,1,375,4|8,0:0|0:0,0:0:0:0:
498,207,109066,1,0,0:0:0:0:
453,283,109169,1,10,0:0:0:0:
371,316,109273,6,0,P|301:307|239:250,1,150,0|0,0:0|0:0,0:0:0:0:
86,201,109583,1,8,0:0:0:0:
103,184,109687,2,0,L|116:271,1,75,0|8,0:0|0:0,0:0:0:0:
255,97,109893,2,0,L|242:184,1,75,0|8,0:0|0:0,0:0:0:0:
111,348,110100,38,0,L|82:185,1,150,4|0,0:0|0:0,0:0:0:0:
4,108,110411,1,8,0:0:0:0:
0,91,110514,2,0,P|44:103|81:134,1,75,0|8,0:0|0:0,0:0:0:0:
183,208,110721,2,0,P|227:196|264:165,1,75,0|8,0:0|0:0,0:0:0:0:
374,28,110928,6,0,L|401:268,2,225,4|8|0,0:0|0:0|0:0,0:0:0:0:
123,73,111755,37,4,0:0:0:0:
184,115,111858,1,8,0:0:0:0:
257,122,111961,1,0,0:0:0:0:
325,92,112065,1,8,0:0:0:0:
428,29,112169,5,0,0:0:0:0:
422,103,112272,1,8,0:0:0:0:
417,178,112375,1,0,0:0:0:0:
412,253,112479,1,8,0:0:0:0:
285,359,112583,37,0,0:0:0:0:
279,285,112686,1,8,0:0:0:0:
274,210,112789,1,0,0:0:0:0:
269,135,112893,1,8,0:0:0:0:
167,45,112997,5,0,0:0:0:0:
85,51,113100,1,8,0:0:0:0:
26,107,113203,1,0,0:0:0:0:
16,188,113307,1,8,0:0:0:0:
9,287,113411,38,0,P|39:301|99:302,1,75,4|8,0:0|0:0,0:0:0:0:
208,360,113618,2,0,B|281:349|328:287|328:287|323:323|323:323|378:217|499:280|461:320|417:299,1,375,0|8,0:0|0:0,0:0:0:0:
201,245,114238,6,0,P|191:203|191:163,1,75,4|8,0:0|0:0,0:0:0:0:
273,29,114445,1,0,0:0:0:0:
345,23,114548,1,8,0:0:0:0:
399,72,114651,1,0,0:0:0:0:
400,145,114755,1,8,0:0:0:0:
348,196,114858,1,0,0:0:0:0:
275,194,114962,1,8,0:0:0:0:
173,160,115066,38,0,P|136:161|104:179,1,75,4|0,0:0|0:0,0:0:0:0:
80,302,115273,1,0,0:0:0:0:
165,313,115376,1,0,0:0:0:0:
240,271,115479,1,0,0:0:0:0:
274,193,115583,1,0,0:0:0:0:
359,181,115686,1,0,0:0:0:0:
434,223,115789,1,0,0:0:0:0:
468,302,115893,6,0,P|442:308|411:308,3,37.5,8|8|0|0,0:0|0:0|0:0|0:0,0:0:0:0:
348,350,116100,2,0,P|325:335|303:313,3,37.5,8|8|0|0,0:0|0:0|0:0|0:0,0:0:0:0:
229,299,116307,2,0,P|223:272|223:241,3,37.5,8|8|0|0,0:0|0:0|0:0|0:0,0:0:0:0:
171,193,116514,2,0,P|181:140|211:97,1,75,10|0,0:0|0:0,0:0:0:0:
306,50,116721,38,0,P|321:84|325:121,3,75,4|0|0|0,0:0|0:0|0:0|0:0,0:0:0:0:
409,146,117135,2,0,P|399:176|385:199,3,37.5,8|8|0|0,0:0|0:0|0:0|0:0,0:0:0:0:
339,244,117342,2,0,P|310:258|284:264,3,37.5,8|8|0|0,0:0|0:0|0:0|0:0,0:0:0:0:
216,313,117549,6,0,P|206:283|192:260,3,37.5,8|8|8|0,0:0|0:0|0:0|0:0,0:0:0:0:
146,215,117756,1,8,0:0:0:0:
130,205,117807,1,8,0:0:0:0:
112,198,117859,1,0,0:0:0:0:
93,195,117911,1,0,0:0:0:0:
74,197,117962,38,0,P|36:202|-4:222,1,75,8|8,0:0|0:0,0:0:0:0:
209,337,118169,2,0,P|246:331|287:311,1,75,8|8,0:0|0:0,0:0:0:0:
412,65,118376,6,0,B|379:15|316:-21|216:63|228:120|316:163|341:94,1,300,4|0,0:0|2:0,0:0:0:0:
338,99,120032,37,4,0:0:0:0:
338,99,120859,5,8,0:0:0:0:
339,107,120910,1,8,0:0:0:0:
340,114,120962,1,0,0:0:0:0:
341,121,121014,1,0,0:0:0:0:
342,128,121066,2,0,L|337:167,3,37.5,8|8|0|0,0:0|0:0|0:0|0:0,0:0:0:0:
256,210,121273,2,0,L|251:170,3,37.5,8|8|0|0,0:0|0:0|0:0|0:0,0:0:0:0:
178,130,121480,1,8,0:0:0:0:
171,129,121532,1,8,0:0:0:0:
164,128,121584,1,0,0:0:0:0:
156,127,121635,1,0,0:0:0:0:
148,127,121687,38,0,P|154:169|151:209,1,75,4|8,0:0|0:0,0:0:0:0:
240,341,121893,1,0,0:0:0:0:
222,352,121997,2,0,P|220:314|226:277,1,75,8|0,0:0|0:0,0:0:0:0:
357,111,122204,1,8,0:0:0:0:
375,100,122308,2,0,P|376:137|370:174,1,75,0|8,0:0|0:0,0:0:0:0:
182,135,122514,5,0,0:0:0:0:
172,121,122618,2,0,P|214:117|253:127,1,75,8|0,0:0|0:0,0:0:0:0:
358,288,122824,1,8,0:0:0:0:
350,303,122928,2,0,P|325:268|314:229,1,75,0|8,0:0|0:0,0:0:0:0:
415,21,123135,1,0,0:0:0:0:
356,102,123238,1,8,0:0:0:0:
257,134,123342,38,0,P|179:138|100:118,1,150,14|0,0:0|0:0,0:0:0:0:
0,275,123652,2,0,P|13:306|18:352,2,75,14|0|0,0:0|0:0|0:0,0:0:0:0:
93,245,123963,5,14,0:0:0:0:
173,287,124066,1,0,0:0:0:0:
263,276,124169,1,0,0:0:0:0:
333,217,124273,2,0,P|346:177|350:135,2,75,14|0|0,0:0|0:0|0:0,0:0:0:0:
173,287,124583,37,10,0:0:0:0:
167,286,124634,1,0,0:0:0:0:
161,285,124686,1,10,0:0:0:0:
155,285,124738,1,0,0:0:0:0:
149,284,124790,2,0,L|98:275,3,37.5,10|0|10|0,0:0|0:0|0:0|0:0,0:0:0:0:
16,223,124997,6,0,L|3:149,1,75,4|0,0:0|0:0,0:0:0:0:
150,10,125204,1,10,0:0:0:0:
168,22,125307,2,0,L|155:95,1,75,0|10,0:0|0:0,0:0:0:0:
112,294,125514,1,0,0:0:0:0:
94,282,125617,2,0,L|106:208,1,75,10|0,0:0|0:0,0:0:0:0:
243,95,125825,37,10,0:0:0:0:
259,84,125928,2,0,P|301:71|358:74,1,75,0|10,0:0|0:0,0:0:0:0:
459,187,126135,1,0,0:0:0:0:
444,195,126238,2,0,P|420:194|399:185,3,37.5,10|0|0|0,0:0|0:0|0:0|0:0,0:0:0:0:
331,146,126445,2,0,P|312:146|294:151,3,37.5,8|0|0|0,0:0|0:0|0:0|0:0,0:0:0:0:
199,272,126652,6,0,P|196:234|181:182,1,75,4|0,0:0|0:0,0:0:0:0:
58,128,126859,1,10,0:0:0:0:
41,136,126962,2,0,P|73:146|143:147,1,75,0|10,0:0|0:0,0:0:0:0:
240,75,127169,1,0,0:0:0:0:
241,56,127272,2,0,P|215:78|179:139,1,75,10|0,0:0|0:0,0:0:0:0:
197,210,127480,38,0,L|205:259,2,50,14|0|0,0:0|0:0|0:0,0:0:0:0:
107,136,127686,2,0,L|112:86,2,50,14|0|0,0:0|0:0|0:0,0:0:0:0:
212,216,127893,2,0,L|220:265,2,50,14|0|0,0:0|0:0|0:0,0:0:0:0:
90,129,128100,2,0,L|95:79,2,50,14|0|0,0:0|0:0|0:0,0:0:0:0:
225,220,128307,6,0,L|242:318,1,75,4|0,0:0|0:0,0:0:0:0:
382,352,128514,1,10,0:0:0:0:
399,334,128618,2,0,P|358:327|317:344,1,75,0|10,0:0|0:0,0:0:0:0:
139,340,128824,1,0,0:0:0:0:
122,358,128928,2,0,P|163:365|204:348,1,75,10|0,0:0|0:0,0:0:0:0:
307,211,129135,37,8,0:0:0:0:
318,192,129238,2,0,L|306:107,1,75,8|0,0:0|0:0,0:0:0:0:
152,4,129445,1,8,0:0:0:0:
141,24,129548,2,0,L|147:72,3,37.5,8|0|0|0,0:0|0:0|0:0|0:0,0:0:0:0:
216,112,129755,2,0,L|210:160,3,37.5
134,198,129962,6,0,P|84:190|4:268,1,150,4|0,0:0|0:0,0:0:0:0:
42,370,130273,2,0,P|92:378|172:300,1,150,12|0,0:0|0:0,0:0:0:0:
299,185,130583,2,0,P|318:216|324:253,1,75,12|0,0:0|0:0,0:0:0:0:
489,384,130790,38,0,B|502:216,1,150,10|0,0:0|0:0,0:0:0:0:
512,54,131100,2,0,B|506:128,1,75,14|0,0:0|0:0,0:0:0:0:
382,244,131307,1,0,0:0:0:0:
365,227,131411,2,0,B|359:152,1,75,10|0,0:0|0:0,0:0:0:0:
276,53,131618,6,0,P|241:41|198:42,1,75,12|0,0:0|0:0,0:0:0:0:
50,185,131824,2,0,P|87:185|122:172,1,75,8|0,0:0|0:0,0:0:0:0:
272,19,132031,2,0,P|234:18|199:31,1,75,8|0,0:0|0:0,0:0:0:0:
63,214,132238,2,0,P|99:204|130:183,1,75,8|0,0:0|0:0,0:0:0:0:
272,19,132445,38,0,L|289:102,1,75,8|0,0:0|0:0,0:0:0:0:
453,235,132652,2,0,L|470:152,1,75,8|0,0:0|0:0,0:0:0:0:
261,35,132859,2,0,L|278:118,1,75,8|0,0:0|0:0,0:0:0:0:
470,224,133066,2,0,L|487:141,1,75,8|0,0:0|0:0,0:0:0:0:
320,347,133273,5,12,0:0:0:0:
249,310,133376,1,0,0:0:0:0:
210,242,133479,1,0,0:0:0:0:
213,165,133583,1,0,0:0:0:0:
258,100,133687,37,8,0:0:0:0:
253,179,133790,1,0,0:0:0:0:
210,242,133894,1,0,0:0:0:0:
137,275,133997,1,0,0:0:0:0:
60,263,134101,6,0,P|24:237|5:195,1,75,12|0,0:0|0:0,0:0:0:0:
75,37,134308,1,0,0:0:0:0:
159,79,134411,1,0,0:0:0:0:
251,86,134514,2,0,L|324:68,1,75,12|0,0:0|0:0,0:0:0:0:
504,235,134721,2,0,L|431:217,1,75,0|0,0:0|0:0,0:0:0:0:
437,30,134928,38,0,P|439:68|423:118,1,75,12|0,0:0|0:0,0:0:0:0:
300,229,135135,2,0,P|297:191|306:155,1,75,8|0,0:0|0:0,0:0:0:0:
452,324,135342,2,0,P|414:326|378:317,1,75,8|0,0:0|0:0,0:0:0:0:
218,234,135549,2,0,P|255:231|291:240,1,75,8|0,0:0|0:0,0:0:0:0:
435,349,135755,6,0,P|398:341|365:323,1,75,8|0,0:0|0:0,0:0:0:0:
352,115,135962,2,0,P|363:150|364:187,1,75,8|0,0:0|0:0,0:0:0:0:
197,355,136169,2,0,P|235:338|266:293,1,75,8|0,0:0|0:0,0:0:0:0:
172,86,136376,2,0,P|203:118|225:164,1,75,8|0,0:0|0:0,0:0:0:0:
123,308,136584,37,12,0:0:0:0:
109,274,136687,1,8,0:0:0:0:
282,211,136894,5,8,0:0:0:0:
209,249,136997,1,8,0:0:0:0:
27,113,137204,37,8,0:0:0:0:
129,159,137307,1,8,0:0:0:0:
0,333,137515,5,8,0:0:0:0:
53,188,137618,1,8,0:0:0:0:
290,330,137825,37,8,0:0:0:0:
327,317,137928,1,8,0:0:0:0:
293,321,138031,1,8,0:0:0:0:
326,324,138135,1,8,0:0:0:0:
300,313,138239,6,0,L|289:215,1,75,12|0,0:0|0:0,0:0:0:0:
403,59,138445,2,0,L|392:157,1,75,8|0,0:0|0:0,0:0:0:0:
218,216,138653,2,0,P|177:215|127:196,1,75,8|0,0:0|0:0,0:0:0:0:
61,45,138859,2,0,P|102:46|152:65,1,75,8|0,0:0|0:0,0:0:0:0:
81,274,139066,38,0,P|61:237|52:185,1,75,8|0,0:0|0:0,0:0:0:0:
195,0,139273,2,0,P|215:37|224:89,1,75,8|0,0:0|0:0,0:0:0:0:
413,256,139480,2,0,P|431:223|440:187,1,75,8|0,0:0|0:0,0:0:0:0:
328,5,139687,2,0,P|309:37|300:73,1,75,0|0,0:0|0:0,0:0:0:0:
419,275,139893,5,12,0:0:0:0:
334,267,139996,1,0,0:0:0:0:
250,260,140099,1,0,0:0:0:0:
166,253,140203,1,0,0:0:0:0:
81,266,140306,37,8,0:0:0:0:
168,336,140411,1,0,0:0:0:0:
243,259,140514,1,0,0:0:0:0:
164,177,140618,1,0,0:0:0:0:
73,267,140721,6,0,L|78:344,1,75,12|0,0:3|0:0,0:0:0:0:
6,125,140928,2,0,L|0:51,1,75,0|0,0:3|0:0,0:0:0:0:
250,260,141135,37,12,0:3:0:0:
369,137,141239,1,0,0:0:0:0:
247,169,141342,1,0,0:3:0:0:
412,227,141445,1,0,0:0:0:0:
494,82,141549,6,0,L|503:-7,2,75,12|0|0,0:0|0:0|0:0,0:0:0:0:
419,224,141859,2,0,L|423:261,3,37.5,0|0|8|0,0:0|0:0|0:0|0:0,0:0:0:0:
351,292,142066,2,0,L|347:255,4,37.5,0|0|8|0|0,0:0|0:0|0:0|0:0|0:0,0:0:0:0:
290,161,142376,37,8,0:0:0:0:
217,113,142480,1,8,0:0:0:0:
131,108,142583,1,8,0:0:0:0:
54,148,142687,1,8,0:0:0:0:
3,306,142790,5,8,0:0:0:0:
80,267,142893,1,8,0:0:0:0:
127,195,142996,1,0,0:0:0:0:
131,108,143100,1,8,0:0:0:0:
1,15,143204,37,6,0:0:0:0:
256,192,143255,12,8,144445,0:0:0:0:
366,353,144859,22,0,L|379:260,1,75,4|8,0:0|0:0,0:0:0:0:
454,116,145066,2,0,L|443:190,1,75,0|8,0:0|0:0,0:0:0:0:
270,324,145273,1,0,0:0:0:0:
185,329,145376,1,8,0:0:0:0:
129,265,145479,1,0,0:0:0:0:
147,181,145583,1,8,0:0:0:0:
247,148,145687,6,0,P|212:161|175:168,1,75,4|8,0:0|0:0,0:0:0:0:
36,33,145893,2,0,P|70:19|107:12,1,75,0|8,0:0|0:0,0:0:0:0:
318,66,146101,1,0,0:0:0:0:
327,142,146204,1,8,0:0:0:0:
336,219,146307,1,0,0:0:0:0:
344,296,146411,1,8,0:0:0:0:
315,384,146515,38,0,L|326:288,1,75,4|8,0:0|0:0,0:0:0:0:
425,110,146721,2,0,L|436:206,1,75,0|8,0:0|0:0,0:0:0:0:
228,337,146928,1,0,0:0:0:0:
189,260,147031,1,8,0:0:0:0:
111,223,147134,1,0,0:0:0:0:
27,242,147238,1,8,0:0:0:0:
2,340,147342,6,0,P|43:341|81:323,1,75,4|8,0:0|0:0,0:0:0:0:
160,108,147549,2,0,P|119:107|81:125,1,75,0|8,0:0|0:0,0:0:0:0:
309,320,147755,2,0,P|350:321|388:303,1,75,4|8,0:0|0:0,0:0:0:0:
409,30,147962,2,0,P|368:29|330:47,1,75,0|8,0:0|0:0,0:0:0:0:
230,246,148170,38,0,L|243:161,1,75,4|8,0:0|0:0,0:0:0:0:
450,139,148377,2,0,L|463:224,1,75,0|8,0:0|0:0,0:0:0:0:
201,330,148583,1,0,0:0:0:0:
151,269,148686,1,8,0:0:0:0:
158,192,148789,1,0,0:0:0:0:
165,114,148893,1,8,0:0:0:0:
261,55,148997,6,0,P|303:73|331:111,1,75,4|8,0:0|0:0,0:0:0:0:
138,270,149204,2,0,P|96:252|68:214,1,75,0|8,0:0|0:0,0:0:0:0:
310,183,149411,1,0,0:0:0:0:
352,245,149514,1,8,0:0:0:0:
305,309,149617,1,0,0:0:0:0:
228,288,149721,1,8,0:0:0:0:
208,187,149825,38,0,L|196:101,1,75,4|8,0:0|0:0,0:0:0:0:
32,301,150031,2,0,L|44:387,1,75,0|8,0:0|0:0,0:0:0:0:
226,195,150239,1,0,0:0:0:0:
285,138,150343,1,0,0:0:0:0:
365,118,150446,1,0,0:0:0:0:
447,132,150549,1,8,0:0:0:0:
512,207,150653,6,0,P|480:227|441:233,1,75,12|8,0:0|0:0,0:0:0:0:
284,137,150859,2,0,L|288:175,3,37.5,0|0|8|0,0:0|0:0|0:0|0:0,0:0:0:0:
348,234,151066,2,0,L|339:279,3,37.5,8|0|0|0,0:0|0:0|0:0|0:0,0:0:0:0:
278,318,151273,1,14,0:0:0:0:
278,322,151324,1,0,0:0:0:0:
279,327,151376,1,0,0:0:0:0:
280,332,151428,1,0,0:0:0:0:
281,338,151480,38,0,P|329:355|372:348,1,75,12|0,0:0|0:0,0:0:0:0:
489,174,151686,2,0,P|441:157|398:164,1,75,0|8,0:0|0:0,0:0:0:0:
223,240,151893,1,0,0:0:0:0:
154,281,151996,1,8,0:0:0:0:
76,262,152099,1,0,0:0:0:0:
33,195,152203,1,8,0:0:0:0:
44,94,152307,6,0,L|57:15,1,75,4|8,0:0|0:0,0:0:0:0:
154,281,152514,2,0,L|167:360,1,75,0|8,0:0|0:0,0:0:0:0:
278,95,152721,1,0,0:0:0:0:
296,165,152825,1,8,0:0:0:0:
362,199,152928,1,0,0:0:0:0:
430,174,153031,1,8,0:0:0:0:
442,74,153135,38,0,P|399:77|370:95,1,75,4|8,0:0|0:0,0:0:0:0:
512,207,153342,2,0,P|483:239|476:272,1,75,0|8,0:0|0:0,0:0:0:0:
388,383,153549,1,0,0:0:0:0:
362,309,153652,1,8,0:0:0:0:
292,273,153755,1,0,0:0:0:0:
217,294,153859,1,8,0:0:0:0:
109,313,153963,6,0,P|51:303|30:284,1,75,4|8,0:0|0:0,0:0:0:0:
8,86,154169,2,0,P|66:96|86:114,1,75,0|8,0:0|0:0,0:0:0:0:
291,283,154377,2,0,P|260:304|224:314,1,75,4|8,0:0|0:0,0:0:0:0:
207,102,154583,2,0,P|238:81|274:71,1,75,0|8,0:0|0:0,0:0:0:0:
474,270,154791,38,0,L|369:258,1,75,4|8,0:0|0:0,0:0:0:0:
128,192,154997,2,0,L|233:180,1,75,0|8,0:0|0:0,0:0:0:0:
351,374,155204,1,0,0:0:0:0:
302,307,155307,1,8,0:0:0:0:
303,226,155410,1,0,0:0:0:0:
353,162,155514,1,8,0:0:0:0:
438,163,155618,6,0,L|513:171,1,75,4|8,0:0|0:0,0:0:0:0:
236,264,155824,2,0,L|161:256,1,75,0|8,0:0|0:0,0:0:0:0:
3,106,156032,1,0,0:0:0:0:
83,115,156135,1,8,0:0:0:0:
144,169,156238,1,0,0:0:0:0:
164,248,156342,2,0,L|157:297,1,37.5,8|0,0:0|0:0,0:0:0:0:
53,311,156445,38,0,L|40:219,1,75,4|8,0:0|0:0,0:0:0:0:
239,351,156652,2,0,L|249:276,1,75,0|8,0:0|0:0,0:0:0:0:
400,170,156859,2,0,L|393:113,2,37.5,0|0|8,0:0|0:0|0:0,0:0:0:0:
472,257,157066,2,0,L|465:314,2,37.5,0|0|8,0:0|0:0|0:0,0:0:0:0:
498,141,157273,6,0,L|487:66,1,75,4|8,0:0|0:0,0:0:0:0:
381,21,157480,1,2,0:0:0:0:
364,44,157583,2,0,L|374:118,1,75,2|2,0:0|0:0,0:0:0:0:
328,193,157790,1,2,0:0:0:0:
322,191,157842,1,0,0:0:0:0:
316,189,157894,1,2,0:0:0:0:
310,188,157945,1,0,0:0:0:0:
304,187,157997,1,2,0:0:0:0:
298,187,158049,1,0,0:0:0:0:
292,188,158100,38,0,P|259:191|226:210,2,50,4|0|0,0:0|0:0|0:0,0:0:0:0:
197,137,158307,2,0,P|175:162|165:199,2,50,0|0|0,0:0|0:0|0:0,0:0:0:0:
170,262,158514,2,0,P|137:259|104:240,2,50,8|0|0,0:0|0:0|0:0,0:0:0:0:
75,313,158721,2,0,P|53:288|43:251,2,50,0|0|0,0:0|0:0|0:0,0:0:0:0:
72,172,158928,6,0,L|65:114,2,50,4|0|0,0:0|0:0|0:0,0:0:0:0:
170,262,159135,2,0,L|163:320,2,50,0|0|0,0:0|0:0|0:0,0:0:0:0:
224,143,159342,1,8,0:0:0:0:
242,126,159410,1,0,0:0:0:0:
263,113,159479,1,0,0:0:0:0:
287,105,159548,1,0,0:0:0:0:
312,103,159617,1,0,0:0:0:0:
337,107,159686,1,0,0:0:0:0:
360,116,159755,38,0,P|385:102|409:65,2,50,4|0|0,0:0|0:0|0:0,0:0:0:0:
391,195,159962,2,0,P|419:197|460:181,2,50,0|0|0,0:0|0:0|0:0,0:0:0:0:
328,269,160169,2,0,L|319:335,2,50,10|0|0,0:0|0:0|0:0,0:0:0:0:
238,370,160376,2,0,L|227:320,2,50,0|0|0,0:0|0:0|0:0,0:0:0:0:
171,252,160583,6,0,P|151:268|140:291,2,50,4|0|0,0:0|0:0|0:0,0:0:0:0:
96,212,160790,2,0,P|70:209|46:217,2,50,0|0|0,0:0|0:0|0:0,0:0:0:0:
71,130,160997,2,0,P|54:110|32:99,2,50,12|0|0,0:0|0:0|0:0,0:0:0:0:
111,54,161204,2,0,P|113:28|105:4,2,50,0|0|0,0:0|0:0|0:0,0:0:0:0:
212,130,161411,38,0,L|222:186,2,50,4|0|0,0:0|0:0|0:0,0:0:0:0:
280,54,161618,2,0,L|290:-2,2,50,0|0|0,0:0|0:0|0:0,0:0:0:0:
332,173,161824,2,0,L|342:229,2,50,8|0|0,0:0|0:0|0:0,0:0:0:0:
399,93,162031,2,0,L|409:37,2,50,0|0|0,0:0|0:0|0:0,0:0:0:0:
465,208,162238,6,0,P|490:195|511:168,2,50,4|0|0,0:0|0:0|0:0,0:0:0:0:
350,241,162445,2,0,P|367:258|389:269,2,50,0|0|0,0:0|0:0|0:0,0:0:0:0:
324,148,162652,1,8,0:0:0:0:
305,131,162720,1,0,0:0:0:0:
283,119,162789,1,0,0:0:0:0:
259,112,162858,1,0,0:0:0:0:
234,110,162927,1,0,0:0:0:0:
209,113,162996,1,0,0:0:0:0:
186,122,163066,38,0,P|156:135|123:138,2,50,4|0|0,0:0|0:0|0:0,0:0:0:0:
30,127,163273,2,0,P|56:146|75:173,2,50,0|0|0,0:0|0:0|0:0,0:0:0:0:
113,260,163480,2,0,P|116:227|130:197,2,50,8|0|0,0:0|0:0|0:0,0:0:0:0:
186,122,163686,2,0,P|156:135|123:138,2,50,0|0|0,0:0|0:0|0:0,0:0:0:0:
0,119,163893,6,0,P|33:135|64:168,1,75,8|0,0:0|0:0,0:0:0:0:
163,53,164100,2,0,P|175:87|173:132,1,75,8|0,0:0|0:0,0:0:0:0:
320,123,164307,2,0,P|304:156|271:187,1,75,8|0,0:0|0:0,0:0:0:0:
382,280,164514,2,0,P|347:292|302:290,1,75,8|0,0:0|0:0,0:0:0:0:
142,346,164721,37,12,0:0:0:0:
138,322,164789,1,0,0:0:0:0:
137,299,164858,1,0,0:0:0:0:
135,276,164927,1,8,0:0:0:0:
133,254,164996,1,0,0:0:0:0:
130,231,165065,1,0,0:0:0:0:
128,208,165135,2,0,L|71:196,2,50,8|0|0,0:0|0:0|0:0,0:0:0:0:
253,168,165342,2,0,L|302:159,2,50,8|0|0,0:0|0:0|0:0,0:0:0:0:
106,103,165549,5,12,0:0:0:0:
91,68,165617,1,0,0:0:0:0:
99,34,165686,1,0,0:0:0:0:
124,8,165755,1,8,0:0:0:0:
158,1,165824,1,0,0:0:0:0:
190,10,165893,1,0,0:0:0:0:
214,36,165962,2,0,P|222:69|209:114,2,50,8|0|0,0:0|0:0|0:0,0:0:0:0:
295,115,166169,2,0,P|275:145|245:161,2,50,8|0|0,0:0|0:0|0:0,0:0:0:0:
128,180,166376,38,0,P|163:182|192:200,2,50,12|0|0,0:0|0:0|0:0,0:0:0:0:
92,276,166583,2,0,P|124:260|158:261,2,50,8|0|0,0:0|0:0|0:0,0:0:0:0:
99,367,166790,1,8,0:0:0:0:
122,346,166858,1,0,0:0:0:0:
150,337,166927,1,0,0:0:0:0:
181,339,166996,1,8,0:0:0:0:
212,346,167065,1,0,0:0:0:0:
242,341,167134,1,0,0:0:0:0:
269,330,167204,6,0,P|297:304|312:275,2,50,12|0|0,0:0|0:0|0:0,0:0:0:0:
378,313,167411,2,0,P|379:281|371:257,2,50,8|0|0,0:0|0:0|0:0,0:0:0:0:
440,223,167618,2,0,P|418:199|395:188,2,50,12|0|0,0:0|0:0|0:0,0:0:0:0:
420,115,167824,2,0,P|388:114|364:122,2,50,8|0|0,0:0|0:0|0:0,0:0:0:0:
319,66,168031,37,12,0:0:0:0:
298,91,168099,1,0,0:0:0:0:
272,111,168168,1,0,0:0:0:0:
241,123,168237,1,12,0:0:0:0:
207,124,168306,1,0,0:0:0:0:
176,118,168375,1,0,0:0:0:0:
148,101,168444,1,12,0:0:0:0:
138,85,168514,2,0,L|134:5,1,50
47,145,168652,1,12,0:0:0:0:
45,161,168722,2,0,L|42:221,1,50,0|0,0:0|0:0,0:0:0:0:
145,284,168859,6,0,L|148:333,2,50,12|0|0,0:0|0:0|0:0,0:0:0:0:
225,189,169066,2,0,L|228:139,2,50,12|0|0,0:0|0:0|0:0,0:0:0:0:
321,285,169273,1,12,0:0:0:0:
321,285,169342,2,0,P|347:292|373:294,1,50,0|0,0:0|0:0,0:0:0:0:
483,186,169480,1,12,0:0:0:0:
483,186,169549,2,0,P|463:205|449:226,1,50,0|0,0:0|0:0,0:0:0:0:
465,373,169686,38,0,L|450:216,1,150,10|0,0:0|0:0,0:0:0:0:
375,149,169945,1,0,0:0:0:0:
369,148,169997,1,0,0:0:0:0:
363,146,170049,1,0,0:0:0:0:
357,145,170100,6,0,L|350:94,3,37.5,0|0|0|0,0:0|0:0|0:0|0:0,0:0:0:0:
300,232,170307,2,0,L|294:274,3,37.5,10|10|10|10,0:0|0:0|0:0|0:0,0:0:0:0:
246,159,170514,2,0,P|224:148|196:145,6,37.5,0|0|0|0|0|0|0,0:0|0:0|0:0|0:0|0:0|0:0|0:0,0:0:0:0:
101,182,170928,1,8,0:0:0:0:
96,183,170979,1,0,0:0:0:0:
92,184,171031,1,0,0:0:0:0:
87,185,171083,1,0,0:0:0:0:
83,186,171135,2,0,B|65:232|65:232|59:281|92:331,1,150,8|4,0:0|0:0,0:0:0:0:
256,192,171393,12,0,181273,0:0:0:0:
