osu file format v14

[General]
AudioFilename: Flowering Night Fever.mp3
AudioLeadIn: 2000
PreviewTime: 62049
Countdown: 0
SampleSet: None
StackLeniency: 0.2
Mode: 0
LetterboxInBreaks: 0
WidescreenStoryboard: 1

[Editor]
Bookmarks: 1687,3342,21549,35618,48859,62100,75342,95204,118376,131618,144859
DistanceSpacing: 2.2
BeatDivisor: 4
GridSize: 4
TimelineZoom: 3.199999

[Metadata]
Title:Flowering Night Fever
TitleUnicode:Flowering Night Fever
Artist:UNDEAD CORPORATION
ArtistUnicode:UNDEAD CORPORATION
Creator:Alheak
Version:Insane
Source:東方花映塚 ~ Phantasmagoria of Flower View.
Tags:dtm9 nowa ekoro pishifat GoldenWolf zun team shanghai alice 上海アリス幻樂団 瞬殺 touhou project Kaeidzuka 花映塚 Phantasmagoria of Flower View sakuya izayoi 十六夜 咲夜 フラワリングナイト 瞬殺 shunsatsu reitaisai 12 instrumental speed metal guitar woof
BeatmapID:865167
BeatmapSetID:393663

[Difficulty]
HPDrainRate:5.5
CircleSize:4
OverallDifficulty:8
ApproachRate:9
SliderMultiplier:1
SliderTickRate:2

[Events]
//Background and Video events
0,0,"bg.jpg",0,0
//Break Periods
2,75542,81155
//Storyboard Layer 0 (Background)
//Storyboard Layer 1 (Fail)
//Storyboard Layer 2 (Pass)
//Storyboard Layer 3 (Foreground)
//Storyboard Sound Samples

[TimingPoints]
32,206.896551724138,4,3,1,70,1,0
1273,-100,4,3,2,70,0,0
1480,-100,4,3,3,70,0,0
1687,-100,4,3,1,70,0,0
21549,206.896551724138,3,3,1,70,1,0
25066,206.896551724138,3,3,1,70,1,0
28584,206.896551724138,3,3,1,70,1,0
32101,206.896551724138,3,3,1,70,1,0
35618,206.896551724138,4,3,1,70,1,0
62100,-100,4,3,1,85,0,1
75342,-100,4,3,1,70,0,0
144859,-100,4,3,1,85,0,1
158049,-100,4,3,1,85,0,0
158100,-100,4,3,1,85,0,1
169997,-100,4,3,2,85,0,1
170307,-100,4,3,3,85,0,1
170514,-100,4,3,1,85,0,1
171342,-100,4,3,1,70,0,0
172169,-100,4,3,1,60,0,0
172997,-100,4,3,1,50,0,0
174652,-100,4,3,1,40,0,0
176307,-100,4,3,1,30,0,0
177963,-100,4,3,1,20,0,0
179618,-100,4,3,1,10,0,0
181273,-100,4,3,1,5,0,0

[Colours]
Combo1 : 154,3,49
Combo2 : 190,180,200
Combo3 : 130,120,160
Combo4 : 247,21,61

[HitObjects]
118,148,32,6,0,L|124:198,1,50,0|2,0:0|0:0,0:0:0:0:
195,307,238,2,0,L|203:258,1,50,0|2,0:0|0:0,0:0:0:0:
276,193,445,2,0,L|312:189,4,25,2|2|2|2|8,0:0|0:0|0:0|0:0|0:0,0:0:0:0:
210,129,756,1,8,0:0:0:0:
214,99,859,6,0,L|243:77,4,25,8|2|2|2|8,0:0|0:0|0:0|0:0|0:0,0:0:0:0:
119,100,1170,1,8,0:0:0:0:
106,72,1273,2,0,L|120:38,6,25,8|8|8|8|8|8|8,0:0|0:0|0:0|0:0|0:0|0:0|0:0,0:0:0:0:
139,190,1687,37,4,0:0:0:0:
139,190,3342,5,4,0:0:0:0:
281,88,3549,1,0,0:0:0:0:
308,76,3652,2,0,P|353:65|416:63,1,100,8|8,0:0|0:0,0:0:0:0:
497,72,3963,1,0,0:0:0:0:
356,213,4169,1,0,0:0:0:0:
346,242,4273,2,0,P|342:272|342:304,1,50,8|0,0:0|0:0,0:0:0:0:
280,358,4480,1,8,0:0:0:0:
268,330,4584,2,0,P|262:305|259:280,1,50,0|8,0:0|0:0,0:0:0:0:
275,193,4790,1,0,0:0:0:0:
279,163,4894,1,8,0:0:0:0:
280,133,4997,38,0,P|273:96|243:37,1,100,4|0,0:0|0:0,0:0:0:0:
159,67,5307,2,0,P|134:38|78:2,1,100,8|8,0:0|0:0,0:0:0:0:
29,78,5618,1,0,0:0:0:0:
158,205,5825,1,0,0:0:0:0:
163,234,5928,2,0,B|169:272|169:272|162:339,1,100,8|8,0:0|0:0,0:0:0:0:
81,372,6238,2,0,B|75:334|75:334|82:267,1,100,0|0,0:0|0:0,0:0:0:0:
65,183,6549,1,8,0:0:0:0:
43,163,6652,6,0,L|5:151,4,25,0|0|0|0|0,0:0|0:0|0:0|0:0|0:0,0:0:0:0:
115,106,6963,2,0,L|224:111,1,100,12|12,0:0|0:0,0:0:0:0:
294,155,7273,1,0,0:0:0:0:
323,152,7376,1,0,0:0:0:0:
353,148,7480,1,0,0:0:0:0:
382,145,7583,2,0,P|427:162|474:204,1,100,12|12,0:0|0:0,0:0:0:0:
451,285,7894,1,0,0:0:0:0:
434,318,7997,1,0,0:0:0:0:
405,342,8100,1,0,0:0:0:0:
371,358,8204,1,0,0:0:0:0:
333,362,8307,37,4,0:0:0:0:
233,218,8514,1,0,0:0:0:0:
236,188,8618,2,0,L|242:88,1,100,8|8,0:0|0:0,0:0:0:0:
205,5,8928,1,0,0:0:0:0:
44,112,9135,1,0,0:0:0:0:
31,138,9238,2,0,L|20:201,1,50,8|0,0:0|0:0,0:0:0:0:
113,188,9445,1,8,0:0:0:0:
109,217,9548,2,0,L|114:280,1,50,0|8,0:0|0:0,0:0:0:0:
183,326,9756,1,0,0:0:0:0:
210,337,9859,1,8,0:0:0:0:
239,341,9963,6,0,P|289:332|335:311,1,100,4|0,0:0|0:0,0:0:0:0:
382,236,10273,2,0,P|332:230|285:213,1,100,8|8,0:0|0:0,0:0:0:0:
209,165,10583,1,0,0:0:0:0:
329,37,10790,1,0,0:0:0:0:
356,24,10894,2,0,B|391:17|391:17|464:24,1,100,8|8,0:0|0:0,0:0:0:0:
497,103,11204,2,0,P|480:149|474:199,1,100,0|0,0:0|0:0,0:0:0:0:
495,288,11514,1,8,0:0:0:0:
507,315,11618,37,4,0:0:0:0:
338,364,11825,1,0,0:0:0:0:
350,336,11928,2,0,P|366:289|372:239,1,100,8|8,0:0|0:0,0:0:0:0:
352,150,12238,1,0,0:0:0:0:
263,296,12445,1,0,0:0:0:0:
239,277,12549,2,0,L|235:228,1,50,8|0,0:0|0:0,0:0:0:0:
140,184,12756,1,8,0:0:0:0:
167,169,12860,2,0,L|172:116,1,50,0|8,0:0|0:0,0:0:0:0:
227,49,13066,1,0,0:0:0:0:
253,35,13169,1,8,0:0:0:0:
282,30,13273,5,0,0:0:0:0:
298,63,13376,1,8,0:0:0:0:
303,100,13480,1,0,0:0:0:0:
303,137,13583,2,0,P|294:187|268:238,1,100,8|8,0:0|0:0,0:0:0:0:
211,299,13894,1,0,0:0:0:0:
237,284,13997,1,8,0:0:0:0:
266,277,14100,1,0,0:0:0:0:
296,276,14204,2,0,P|346:285|397:311,1,100,8|8,0:0|0:0,0:0:0:0:
479,291,14514,2,0,L|494:271,2,25,0|0|0,0:0|0:0|0:0,0:0:0:0:
433,212,14721,2,0,L|435:187,2,25,0|0|0,0:0|0:0|0:0,0:0:0:0:
346,185,14928,37,4,0:0:0:0:
177,253,15135,1,0,0:0:0:0:
152,269,15238,2,0,P|104:283|53:285,1,100,8|8,0:0|0:0,0:3:0:0:
5,208,15549,1,0,0:0:0:0:
114,65,15756,1,0,0:0:0:0:
138,47,15859,2,0,P|162:40|186:37,1,50,8|0,0:0|0:0,0:0:0:0:
257,93,16066,1,8,0:0:0:0:
280,112,16169,2,0,P|304:119|328:122,1,50,0|8,0:0|0:0,0:0:0:0:
400,65,16377,1,0,0:0:0:0:
428,55,16480,1,8,0:0:0:0:
457,56,16583,6,0,P|474:102|477:152,1,100,4|0,0:0|0:0,0:0:0:0:
402,205,16894,2,0,P|405:254|422:301,1,100,8|8,0:0|0:0,0:0:0:0:
472,377,17204,1,0,0:0:0:0:
309,297,17411,1,0,0:0:0:0:
281,288,17514,2,0,B|245:282|245:282|180:287,1,100,8|8,0:0|0:0,0:0:0:0:
139,367,17825,2,0,L|238:358,1,100
328,375,18135,1,8,0:0:0:0:
356,384,18238,37,4,0:0:0:0:
325,208,18445,1,0,0:0:0:0:
313,180,18549,2,0,P|308:130|317:81,1,100,8|8,0:0|0:0,0:0:0:0:
371,8,18859,1,0,0:0:0:0:
202,72,19066,1,0,0:0:0:0:
173,81,19169,1,8,0:0:0:0:
142,82,19273,2,0,L|109:79,2,25,0|0|8,0:0|0:0|0:0,0:0:0:0:
145,173,19480,1,0,0:0:0:0:
115,181,19584,2,0,L|82:186,2,25,0|0|8,0:0|0:0|0:0,0:0:0:0:
141,266,19790,1,8,0:0:0:0:
135,295,19894,6,0,B|131:324|131:324|140:351|163:369|194:376,1,100,4|0,0:0|0:0,0:0:0:0:
266,343,20204,2,0,L|372:333,1,100,8|0,0:0|0:0,0:0:0:0:
453,354,20514,1,12,0:0:0:0:
377,209,20721,2,0,P|365:161|367:103,1,100,0|0,0:0|0:0,0:0:0:0:
390,22,21032,2,0,L|284:12,1,100,0|0,0:0|0:0,0:0:0:0:
202,32,21342,1,4,0:0:0:0:
228,193,21549,37,0,0:0:0:0:
219,229,21652,1,0,0:0:0:0:
203,264,21755,1,0,0:0:0:0:
181,295,21859,1,0,0:0:0:0:
153,320,21962,1,4,0:0:0:0:
117,233,23824,6,0,P|109:211|104:183,1,50,0|0,0:0|0:0,0:0:0:0:
100,94,24031,2,0,P|104:70|113:44,4,50
187,88,24549,1,0,0:0:0:0:
214,76,24652,2,0,P|244:68|318:71,1,100,4|0,0:0|0:0,0:0:0:0:
378,133,24962,1,0,0:0:0:0:
378,133,25066,38,0,P|391:173|395:198,3,50,0|8|0|8,0:0|0:0|0:0|0:0,0:0:0:0:
333,248,25479,2,0,P|329:297|339:346,1,100,0|0,0:0|0:0,0:0:0:0:
310,337,25790,1,8,0:0:0:0:
280,331,25893,1,0,0:0:0:0:
249,331,25997,1,8,0:0:0:0:
219,335,26100,2,0,B|177:341|177:341|102:332,1,100,0|0,0:0|0:0,0:0:0:0:
98,247,26410,2,0,L|48:241,2,50,8|0|8,0:0|0:0|0:0,0:0:0:0:
176,185,26721,6,0,P|163:135|165:82,1,100
177,60,27031,1,8,0:0:0:0:
196,64,27134,1,0,0:0:0:0:
215,68,27238,1,8,0:0:0:0:
235,71,27341,2,0,L|243:37,2,25,2|2|2,0:0|0:0|0:0,0:0:0:0:
314,86,27548,2,0,L|337:60,2,25,2|2|2,0:0|0:0|0:0,0:0:0:0:
293,165,27755,2,0,L|298:189,2,25,2|2|2,0:0|0:0|0:0,0:0:0:0:
372,150,27962,2,0,L|389:168,2,25,2|2|2,0:0|0:0|0:0,0:0:0:0:
432,97,28169,2,0,P|466:139|467:200,1,100,8|8,0:0|0:0,0:0:0:0:
416,255,28479,1,8,0:0:0:0:
416,255,28583,38,0,L|413:308,3,50,4|8|0|8,0:0|0:0|0:0|0:0,0:0:0:0:
333,347,28997,2,0,P|292:357|225:358,1,100,0|0,0:0|0:0,0:0:0:0:
204,351,29308,1,8,0:0:0:0:
176,339,29411,1,0,0:0:0:0:
152,319,29515,1,8,0:0:0:0:
129,299,29618,2,0,P|88:289|21:288,1,100,0|0,0:0|0:0,0:0:0:0:
61,202,29928,2,0,P|36:200|11:202,2,50,8|0|8,0:0|0:0|0:0,0:0:0:0:
90,210,30239,6,0,P|139:209|188:198,1,100,0|0,0:0|0:0,0:0:0:0:
207,191,30549,1,8,0:0:0:0:
226,195,30652,1,0,0:0:0:0:
245,199,30756,1,8,0:0:0:0:
264,203,30859,2,0,B|274:164|274:164|266:94,1,100
213,38,31170,1,8,0:0:0:0:
213,38,31273,2,0,L|210:13,2,25,0|0|8,0:0|0:0|0:0,0:0:0:0:
295,26,31480,2,0,L|305:3,2,25,0|0|8,0:0|0:0|0:0,0:0:0:0:
361,83,31687,2,0,B|389:111|389:111|417:176,1,100,0|8,0:0|0:0,0:0:0:0:
447,250,31997,1,8,0:0:0:0:
447,250,32101,38,0,L|486:280,3,50,4|8|0|8,0:0|0:0|0:0|0:0,0:0:0:0:
475,369,32514,2,0,B|426:333|426:333|388:322,1,100,0|0,0:0|0:0,0:0:0:0:
358,316,32825,1,8,0:0:0:0:
328,310,32928,1,0,0:0:0:0:
298,305,33032,1,8,0:0:0:0:
268,300,33135,2,0,P|220:303|168:322,1,100,0|0,0:0|0:0,0:0:0:0:
93,365,33445,2,0,P|64:376|36:379,2,50,8|0|8,0:0|0:0|0:0,0:0:0:0:
94,273,33756,6,0,L|84:167,1,100,0|0,0:0|0:0,0:0:0:0:
67,162,34066,1,8,0:0:0:0:
73,143,34169,1,0,0:0:0:0:
80,124,34273,1,8,0:0:0:0:
86,105,34376,2,0,P|136:97|180:75,1,100
241,8,34687,1,0,0:0:0:0:
241,8,34790,2,0,L|290:1,1,50,0|0,0:0|0:0,0:0:0:0:
284,110,34997,2,0,L|329:128,1,50
246,210,35204,2,0,B|278:249|278:249|329:269,1,100,0|0,0:0|0:0,0:0:0:0:
415,273,35514,1,0,0:0:0:0:
440,256,35618,38,0,P|461:226|475:156,1,100,4|0,0:0|0:0,0:0:0:0:
442,81,35928,2,0,B|406:60|406:60|345:47,1,100,8|8,0:0|0:0,0:0:0:0:
261,72,36238,1,0,0:0:0:0:
316,243,36445,1,0,0:0:0:0:
325,271,36549,2,0,B|330:286|326:315|307:337|307:337|280:348,1,100,8|8,0:0|0:0,0:0:0:0:
191,341,36859,2,0,B|129:365|129:365|86:369,1,100,0|0,0:0|0:0,0:0:0:0:
25,312,37169,1,8,0:0:0:0:
12,285,37273,5,4,0:0:0:0:
156,185,37480,1,0,0:0:0:0:
158,155,37583,2,0,P|142:107|110:69,1,100,8|8,0:0|0:0,0:0:0:0:
22,90,37893,1,0,0:0:0:0:
221,68,38100,1,0,0:0:0:0:
247,53,38204,2,0,P|262:36|274:11,1,50,8|0,0:0|0:0,0:0:0:0:
359,42,38411,1,8,0:0:0:0:
388,33,38514,2,0,P|412:30|437:35,1,50,0|8,0:0|0:0,0:0:0:0:
487,111,38721,1,0,0:0:0:0:
491,140,38824,1,8,0:0:0:0:
489,170,38928,38,0,P|473:217|441:255,1,100,4|0,0:0|0:0,0:0:0:0:
367,307,39238,2,0,L|257:299,1,100,8|8,0:0|0:0,0:0:0:0:
186,258,39549,1,0,0:0:0:0:
339,164,39755,1,0,0:0:0:0:
352,136,39859,2,0,B|357:72|357:72|350:31,1,100,8|8,0:0|0:0,0:0:0:0:
260,41,40169,2,0,P|211:30|162:39,1,100,0|0,0:0|0:0,0:0:0:0:
86,91,40480,1,8,0:0:0:0:
86,91,40583,6,0,L|56:98,4,25,0|0|0|0|0,0:0|0:0|0:0|0:0|0:0,0:0:0:0:
154,151,40893,2,0,L|146:251,1,100,12|12,0:0|0:0,0:0:0:0:
190,331,41204,1,0,0:0:0:0:
219,327,41307,1,0,0:0:0:0:
248,323,41411,1,0,0:0:0:0:
277,319,41514,2,0,B|312:314|312:314|376:321,1,100,12|12,0:0|0:0,0:0:0:0:
443,260,41824,1,8,0:0:0:0:
455,224,41928,1,8,0:0:0:0:
462,187,42031,1,8,0:0:0:0:
464,149,42135,1,8,0:0:0:0:
461,111,42238,38,0,B|428:97|428:97|364:87,1,100,4|0,0:0|0:0,0:0:0:0:
273,94,42549,2,0,B|209:84|209:84|176:70,1,100,8|8,0:0|0:0,0:0:0:0:
95,30,42859,1,0,0:0:0:0:
180,189,43066,1,0,0:0:0:0:
210,209,43169,2,0,P|275:230|318:230,1,100,8|8,0:0|0:0,0:0:0:0:
397,227,43480,1,0,0:0:0:0:
397,227,43583,1,8,0:0:0:0:
397,227,43686,1,8,0:0:0:0:
397,227,43790,1,8,0:0:0:0:
397,227,43893,5,4,0:0:0:0:
231,330,44100,1,0,0:0:0:0:
198,346,44204,2,0,P|130:358|87:353,1,100,8|8,0:0|0:0,0:0:0:0:
25,304,44514,1,0,0:0:0:0:
152,206,44721,1,0,0:0:0:0:
166,171,44824,2,0,L|159:69,1,100,8|8,0:0|0:0,0:0:0:0:
245,39,45135,2,0,L|242:14,6,25,0|0|0|0|0|0|0,0:0|0:0|0:0|0:0|0:0|0:0|0:0,0:0:0:0:
315,97,45549,38,0,B|350:102|350:102|414:94,1,100,4|0,0:0|0:0,0:0:0:0:
466,169,45859,2,0,L|353:182,1,100,8|8,0:0|0:0,0:0:0:0:
323,260,46169,1,0,0:0:0:0:
226,221,46376,1,0,0:0:0:0:
200,208,46480,2,0,L|193:154,1,50,8|0,0:0|0:0,0:0:0:0:
109,159,46686,1,8,0:0:0:0:
82,149,46790,2,0,L|75:95,1,50,0|8,0:0|0:0,0:0:0:0:
153,53,46997,1,8,0:0:0:0:
186,36,47100,1,8,0:0:0:0:
222,27,47204,6,0,P|273:28|325:42,1,100,4|0,0:0|0:0,0:0:0:0:
404,76,47514,2,0,L|398:188,1,100,8|8,0:0|0:0,0:0:0:0:
392,266,47824,1,4,0:0:0:0:
272,132,48031,2,0,P|221:133|169:147,1,100,0|0,0:0|0:0,0:0:0:0:
90,181,48342,2,0,L|96:293,1,100,8|0,0:0|0:0,0:0:0:0:
102,371,48651,1,12,0:0:0:0:
292,304,48859,38,0,B|327:299|327:299|391:307,1,100,8|8,0:0|0:0,0:0:0:0:
420,311,49169,1,0,0:0:0:0:
448,301,49273,2,0,B|462:293|479:270|481:241|481:241|470:214,1,100,8|8,0:0|0:0,0:0:0:0:
456,188,49583,1,0,0:0:0:0:
447,159,49686,2,0,B|442:124|442:124|450:60,1,100,8|8,0:0|0:0,0:0:0:0:
423,45,49997,1,0,0:0:0:0:
395,32,50100,2,0,L|287:40,1,100,8|8,0:0|0:0,0:0:0:0:
136,128,50514,6,0,L|86:133,1,50,12|0,0:0|0:0,0:0:0:0:
116,221,50721,2,0,L|63:226,1,50
203,189,50928,2,0,L|252:196,1,50
225,283,51135,2,0,L|275:289,1,50
409,198,51342,2,0,P|418:174|431:152,3,50
447,271,51755,2,0,P|467:253|488:242,3,50,0|0|0|0,0:0|0:0|0:0|0:0,3:0:0:0:
472,352,52169,38,0,P|425:342|356:346,1,100,12|8,0:0|0:0,0:0:0:0:
343,351,52480,1,0,0:0:0:0:
314,359,52583,2,0,P|264:360|215:349,1,100,8|8,0:0|0:0,0:0:0:0:
190,333,52893,1,0,0:0:0:0:
172,308,52997,2,0,B|163:294|159:265|172:239|172:239|195:221,1,100,8|8,0:0|0:0,0:0:0:0:
222,209,53307,1,0,0:0:0:0:
250,198,53411,2,0,B|273:180|273:180|285:154|282:125|273:111,1,100,8|8,0:0|0:0,0:0:0:0:
153,50,53824,6,0,P|122:46|99:48,1,50,12|8,0:0|0:0,0:0:0:0:
115,147,54135,38,0,P|86:159|67:172,1,50,8|8,0:0|0:0,0:0:0:0:
227,133,54445,6,0,P|257:137|279:145,1,50,8|8,0:0|0:0,0:0:0:0:
238,236,54756,38,0,P|262:255|277:272,1,50,8|8,0:0|0:0,0:0:0:0:
409,357,55066,5,8,0:0:0:0:
414,327,55169,1,8,0:0:0:0:
419,297,55273,1,8,0:0:0:0:
425,267,55376,1,8,0:0:0:0:
431,237,55480,38,0,P|425:183|391:135,1,100,12|8,0:0|0:0,0:0:0:0:
378,125,55790,1,0,0:0:0:0:
350,112,55893,2,0,B|316:86|316:86|312:55|288:35,1,100,8|8,0:0|0:0,0:0:0:0:
261,25,56204,1,0,0:0:0:0:
231,20,56307,2,0,L|130:13,1,100,8|8,0:0|0:0,0:0:0:0:
116,39,56618,1,0,0:0:0:0:
101,65,56721,2,0,B|89:84|89:84|132:80|164:97,1,100,8|8,0:0|0:0,0:0:0:0:
284,163,57135,6,0,L|232:158,1,50,12|0,0:0|0:0,0:0:0:0:
245,252,57342,2,0,L|195:245,1,50
80,178,57549,2,0,L|133:174,1,50
48,273,57755,2,0,L|101:268,1,50
236,353,57962,2,0,P|262:355|286:352,3,50
400,277,58376,2,0,P|378:273|350:273,3,50
330,185,58790,37,0,0:0:0:0:
326,155,58893,1,0,0:0:0:0:
331,125,58997,1,0,0:0:0:0:
345,98,59100,1,0,0:0:0:0:
367,78,59204,1,0,0:0:0:0:
341,61,59307,1,0,0:0:0:0:
311,53,59411,1,0,0:0:0:0:
281,50,59514,1,0,0:0:0:0:
250,50,59618,6,0,P|196:55|142:77,1,100,8|0,0:0|0:0,0:0:0:0:
175,159,59928,1,0,0:0:0:0:
155,181,60031,2,0,P|132:230|124:288,1,100,0|0,0:0|0:0,0:0:0:0:
137,366,60342,1,0,0:0:0:0:
137,366,60445,1,4,0:0:0:0:
256,192,60497,12,12,61893,0:0:0:0:
128,269,62100,6,0,L|121:158,1,100
254,26,62514,1,0,0:0:0:0:
272,58,62618,1,8,0:0:0:0:
299,83,62721,1,0,0:0:0:0:
332,99,62824,1,8,0:0:0:0:
369,104,62928,2,0,P|421:96|464:78,1,100,4|0,0:0|0:0,0:0:0:0:
396,245,63342,1,0,0:0:0:0:
398,274,63445,1,8,0:0:0:0:
400,304,63549,1,0,0:0:0:0:
402,333,63652,1,8,0:0:0:0:
404,362,63755,6,0,L|293:355,1,100,4|0,0:0|0:0,0:0:0:0:
140,282,64169,2,0,L|90:284,1,50,0|8,0:0|0:0,0:0:0:0:
100,184,64376,2,0,L|43:155,1,50,0|8,0:0|0:0,0:0:0:0:
204,198,64583,1,4,0:0:0:0:
180,380,64790,1,0,0:0:0:0:
140,282,64997,1,0,0:0:0:0:
308,212,65204,1,0,0:0:0:0:
349,308,65411,38,0,P|300:316|242:293,1,100,4|0,0:0|0:0,0:0:0:0:
100,184,65824,1,0,0:0:0:0:
91,147,65928,1,8,0:0:0:0:
90,109,66031,1,0,0:0:0:0:
98,72,66135,1,8,0:0:0:0:
118,41,66238,2,0,L|223:36,1,100,4|0,0:0|0:0,0:0:0:0:
358,118,66652,2,0,L|407:120,3,50,0|8|0|8,0:0|0:0|0:0|0:0,0:0:0:0:
409,30,67066,6,0,B|346:26|346:26|305:40,1,100,4|0,0:0|0:0,0:0:0:0:
194,202,67480,1,0,0:0:0:0:
244,204,67583,1,8,0:0:0:0:
294,206,67686,1,0,0:0:0:0:
345,209,67790,1,8,0:0:0:0:
395,212,67893,1,4,0:0:0:0:
443,322,68100,2,0,L|457:352,2,25,8|0|0,0:0|0:0|0:0,0:0:0:0:
353,312,68307,2,0,L|348:287,2,25,8|0|0,0:0|0:0|0:0,0:0:0:0:
272,352,68514,2,0,L|269:384,2,25,0|0|0,0:0|0:0|0:0,0:0:0:0:
197,301,68721,38,0,P|171:287|100:279,1,100,4|0,0:0|0:0,0:0:0:0:
45,114,69135,1,0,0:0:0:0:
52,77,69238,1,8,0:0:0:0:
70,44,69342,1,0,0:0:0:0:
101,23,69445,1,8,0:0:0:0:
137,13,69549,2,0,L|241:20,1,100,4|0,0:0|0:0,0:0:0:0:
399,118,69962,1,0,0:0:0:0:
371,130,70066,1,8,0:0:0:0:
350,151,70169,1,0,0:0:0:0:
336,177,70273,1,8,0:0:0:0:
329,206,70376,6,0,P|331:255|351:301,1,100,4|0,0:0|0:0,0:0:0:0:
183,371,70790,2,0,P|195:337|196:312,1,50,0|8,0:0|0:0,0:0:0:0:
170,216,70997,2,0,P|158:182|157:157,1,50,0|8,0:0|0:0,0:0:0:0:
203,57,71204,1,4,0:0:0:0:
341,34,71411,1,0,0:0:0:0:
189,84,71618,1,0,0:0:0:0:
51,61,71825,1,0,0:0:0:0:
101,192,72031,38,0,B|110:260|110:260|101:310,1,100,4|0,0:0|0:0,0:0:0:0:
234,348,72445,2,0,L|298:341,1,50,0|8,0:0|0:0,0:0:0:0:
255,257,72652,2,0,L|319:250,1,50,0|8,0:0|0:0,0:0:0:0:
368,160,72859,2,0,P|385:119|383:54,1,100,4|0,0:0|0:0,0:0:0:0:
248,31,73273,2,0,L|184:24,3,50,0|8|0|8,0:0|0:0|0:0|0:0,0:0:0:0:
228,110,73686,6,0,L|128:98,1,100,4|8,0:0|0:0,0:0:0:0:
69,167,73997,2,0,L|44:164,2,25,0|0|8,0:0|0:0|0:0,0:0:0:0:
100,252,74204,2,0,L|85:272,2,25,0|0|0,0:0|0:0|0:0,0:0:0:0:
235,214,74514,1,8,0:0:0:0:
247,186,74618,1,8,0:0:0:0:
266,163,74721,1,8,0:0:0:0:
291,146,74824,1,8,0:0:0:0:
319,137,74928,2,0,B|364:144|407:121|407:121|401:154|415:180,1,150,8|0,0:0|0:0,0:0:0:0:
486,142,75342,5,4,0:0:0:0:
83,74,81755,6,0,P|90:97|101:120,1,50,12|0,0:0|0:0,0:0:0:0:
133,286,81962,38,0,P|132:237|142:188,1,100,4|0,0:0|0:0,0:0:0:0:
297,169,82376,2,0,P|346:130|430:142,1,133.333333333333,8|0,0:0|0:0,0:0:0:0:
376,219,82790,2,0,P|370:258|373:294,2,66.6666666666667,0|0|0,0:0|0:0|0:0,0:0:0:0:
276,359,83204,2,0,P|281:327|281:294,2,66.6666666666667,8|0|0,0:0|0:0|0:0,0:0:0:0:
187,305,83618,5,0,0:0:0:0:
130,230,83755,1,0,0:0:0:0:
166,143,83893,1,0,0:0:0:0:
259,130,84031,2,0,L|361:113,1,100,8|0,0:0|0:0,0:0:0:0:
176,46,84445,2,0,B|79:30|79:30|112:76,1,150,0|0,0:0|0:0,0:0:0:0:
166,143,84859,1,8,0:0:0:0:
320,14,85066,1,0,0:0:0:0:
354,211,85273,37,4,0:0:0:0:
350,240,85376,1,0,0:0:0:0:
346,269,85480,1,0,0:0:0:0:
343,298,85583,1,0,0:0:0:0:
340,327,85686,1,8,0:0:0:0:
307,307,85790,1,0,0:0:0:0:
270,297,85893,1,0,0:0:0:0:
232,293,85997,1,0,0:0:0:0:
194,294,86100,2,0,P|167:298|140:311,1,50
88,224,86307,1,0,0:0:0:0:
76,196,86411,1,0,0:0:0:0:
70,166,86514,1,8,0:0:0:0:
69,135,86618,1,0,0:0:0:0:
70,105,86721,2,0,P|77:78|94:53,1,50,0|0,0:0|0:0,0:0:0:0:
180,60,86928,6,0,P|199:41|226:27,3,50,0|0|0|0,0:0|0:0|0:0|0:0,0:0:0:0:
306,61,87342,1,8,0:0:0:0:
327,91,87445,1,0,0:0:0:0:
342,125,87549,1,0,0:0:0:0:
351,161,87652,1,0,0:0:0:0:
352,198,87755,2,0,P|330:242|332:297,1,100
421,264,88066,1,0,0:0:0:0:
421,264,88169,1,8,0:0:0:0:
258,209,88376,2,0,P|228:201|201:199,1,50,0|0,0:0|0:0,0:0:0:0:
79,197,88583,38,0,P|125:228|120:364,1,200,4|8,0:0|0:0,0:0:0:0:
48,293,89204,1,0,0:0:0:0:
37,110,89411,2,0,L|34:58,3,50,0|0|0|0,0:0|0:0|0:0|0:0,0:0:0:0:
143,75,89824,2,0,L|166:28,3,50,8|0|0|0,0:0|0:0|0:0|0:0,0:3:0:0:
249,65,90238,5,0,0:0:0:0:
286,62,90342,1,0,0:0:0:0:
323,59,90445,1,0,0:0:0:0:
360,56,90549,1,0,0:0:0:0:
397,53,90652,2,0,P|421:39|441:20,1,50,8|0,0:0|0:0,0:0:0:0:
374,131,90859,2,0,L|380:185,1,50,0|0,0:0|0:0,0:0:0:0:
398,289,91066,2,0,P|351:277|281:290,1,100,0|0,0:0|0:0,0:0:0:0:
223,330,91376,1,0,0:0:0:0:
204,353,91480,1,8,0:0:0:0:
70,232,91686,1,0,0:0:0:0:
266,191,91893,37,4,0:0:0:0:
291,175,91997,1,0,0:0:0:0:
312,154,92100,2,0,P|328:131|336:105,1,50,0|0,0:0|0:0,0:0:0:0:
329,20,92307,1,8,0:0:0:0:
342,46,92411,1,0,0:0:0:0:
362,68,92514,1,0,0:0:0:0:
385,87,92618,1,0,0:0:0:0:
411,99,92721,2,0,P|434:109|463:115,1,50,0|0,0:0|0:0,0:0:0:0:
399,208,92928,1,0,0:0:0:0:
399,208,93031,1,0,0:0:0:0:
399,208,93135,2,0,P|396:232|386:261,1,50,8|0,0:0|0:0,0:0:0:0:
293,288,93342,1,0,0:0:0:0:
293,288,93445,1,0,0:0:0:0:
293,288,93549,6,0,P|278:308|255:327,2,50,0|8|0,0:0|0:0|0:0,3:0:0:0:
323,120,93962,2,0,P|315:73|290:25,1,100,8|8,0:0|0:0,0:0:0:0:
211,71,94273,1,0,0:0:0:0:
181,68,94376,2,0,L|68:60,1,100,0|0,0:0|0:0,0:0:0:0:
50,146,94686,1,8,0:0:0:0:
50,146,94790,2,0,B|78:149|78:149|103:165|115:191|114:207,1,100,0|0,0:0|0:0,0:0:0:0:
48,354,95204,37,4,0:0:0:0:
77,351,95307,1,8,0:0:0:0:
106,344,95411,1,0,0:0:0:0:
134,335,95514,1,8,0:0:0:0:
161,322,95618,2,0,P|190:305|212:300,3,50,0|8|0|8,0:0|0:0|0:0|0:0,0:0:0:0:
296,300,96031,1,0,0:0:0:0:
273,279,96135,1,8,0:0:0:0:
257,253,96238,1,0,0:0:0:0:
248,224,96342,1,8,0:0:0:0:
246,194,96445,2,0,P|249:160|259:139,3,50,0|8|0|8,0:0|0:0|0:0|0:0,0:0:0:0:
300,69,96859,5,4,0:0:0:0:
271,64,96962,1,8,0:0:0:0:
242,59,97066,1,0,0:0:0:0:
213,54,97169,1,8,0:0:0:0:
184,49,97273,2,0,L|126:39,1,50,0|8,0:0|0:0,0:0:0:0:
118,130,97480,1,0,0:0:0:0:
97,151,97583,1,8,0:0:0:0:
81,177,97686,2,0,P|69:199|64:223,1,50,4|0,0:0|0:0,0:0:0:0:
136,295,97893,1,0,0:0:0:0:
150,329,97997,1,0,0:0:0:0:
174,356,98100,2,0,P|216:376|270:381,1,100,0|0,0:0|0:0,0:0:0:0:
423,279,98514,38,0,L|476:270,1,50,4|8,0:0|0:0,0:0:0:0:
363,330,98721,2,0,L|344:380,1,50,0|8,0:0|0:0,0:0:0:0:
348,252,98928,2,0,L|313:210,1,50,0|8,0:0|0:0,0:0:0:0:
406,168,99135,2,0,L|397:114,1,50,0|8,0:0|0:0,0:0:0:0:
331,57,99342,1,0,0:0:0:0:
294,48,99445,1,8,0:0:0:0:
256,45,99549,1,0,0:0:0:0:
218,48,99652,1,8,0:0:0:0:
182,58,99755,2,0,B|64:41,1,100,0|0,0:0|0:0,0:0:0:0:
90,135,100066,1,8,0:0:0:0:
73,168,100169,6,0,P|63:205|61:235,1,50,4|8,0:0|0:0,0:0:0:0:
125,307,100376,2,0,P|135:270|137:240,1,50,0|8,0:0|0:0,0:0:0:0:
222,188,100583,2,0,P|212:225|210:255,1,50,0|8,0:0|0:0,0:0:0:0:
274,327,100790,2,0,P|284:290|286:260,1,50,0|8,0:0|0:0,0:0:0:0:
299,158,100997,2,0,P|375:135|459:208,1,200,4|0,0:0|0:0,0:0:0:0:
362,237,101618,1,0,0:0:0:0:
362,237,101721,1,0,0:0:0:0:
306,50,101928,38,0,L|253:41,1,50,4|0,0:0|0:0,0:0:0:0:
175,90,102169,1,0,0:0:0:0:
175,90,102238,2,0,L|141:93,3,33.3333333333333
102,179,102583,1,0,0:0:0:0:
102,179,102652,2,0,P|97:204|95:222,3,33.3333333333333
218,190,102997,1,0,0:0:0:0:
218,190,103066,2,0,P|224:205|228:220,3,33.3333333333333
251,339,103480,5,4,0:0:0:0:
256,342,103549,1,0,0:0:0:0:
261,345,103618,1,0,0:0:0:0:
266,348,103686,2,0,P|320:353|372:349,1,100,0|0,0:0|0:0,0:0:0:0:
496,280,104100,1,0,0:0:0:0:
383,198,104307,1,4,0:0:0:0:
378,201,104376,1,0,0:0:0:0:
373,204,104445,1,0,0:0:0:0:
368,207,104514,2,0,P|313:212|262:208,1,100,0|0,0:0|0:0,0:0:0:0:
153,127,104927,1,0,0:0:0:0:
282,69,105135,37,4,0:0:0:0:
310,61,105238,1,0,0:0:0:0:
340,59,105342,1,0,0:0:0:0:
369,63,105445,1,0,0:0:0:0:
395,76,105549,1,8,0:0:0:0:
417,105,105652,1,0,0:0:0:0:
432,138,105755,1,0,0:0:0:0:
439,174,105859,1,0,0:0:0:0:
437,211,105962,5,0,0:0:0:0:
403,173,106066,1,0,0:0:0:0:
356,156,106169,1,0,0:0:0:0:
305,158,106273,1,0,0:0:0:0:
261,182,106376,2,0,P|239:206|229:232,3,50,8|0|0|0,0:0|0:0|0:0|0:0,0:0:0:0:
316,255,106790,37,8,0:0:0:0:
120,363,106997,1,8,0:0:0:0:
216,160,107204,1,8,0:0:0:0:
257,381,107411,1,8,0:0:0:0:
93,226,107618,2,0,L|70:204,4,25,12|0|0|0|0,0:0|0:0|0:0|0:0|0:0,0:0:0:0:
125,338,107928,2,0,L|117:368,4,25,12|0|0|0|0,0:0|0:0|0:0|0:0|0:0,0:0:0:0:
206,255,108238,2,0,L|236:246,2,25,12|0|0,0:0|0:0|0:0,0:0:0:0:
166,174,108445,6,0,B|177:148|177:113|159:79|159:79|186:75|207:62|207:62|234:75|260:72,1,200,0|0,0:0|0:0,0:0:0:0:
417,57,109066,1,0,0:0:0:0:
410,86,109169,1,8,0:0:0:0:
410,116,109273,2,0,B|431:224|365:199|383:308,1,200,0|0,0:0|0:0,0:0:0:0:
475,271,109893,1,0,0:0:0:0:
318,154,110100,38,0,P|258:140|207:142,1,100,4|0,0:0|0:0,0:0:0:0:
125,295,110514,2,0,P|174:294|223:281,1,100,0|0,0:0|0:0,0:0:0:0:
102,176,110928,2,0,P|89:127|87:77,1,100,4|0,0:0|0:0,0:0:0:0:
260,19,111342,2,0,P|258:68|245:117,1,100,0|0,0:0|0:0,0:0:0:0:
430,31,111755,6,0,L|480:24,3,50,4|8|0|8,0:0|0:0|0:0|0:0,0:0:0:0:
368,95,112169,1,0,0:0:0:0:
358,131,112273,1,8,0:0:0:0:
357,168,112376,1,0,0:0:0:0:
362,205,112480,1,8,0:0:0:0:
374,240,112583,2,0,L|423:247,3,50,0|8|0|8,0:0|0:0|0:0|0:0,0:0:0:0:
355,323,112997,1,0,0:0:0:0:
319,333,113100,1,8,0:0:0:0:
283,343,113204,1,0,0:0:0:0:
247,353,113307,1,8,0:0:0:0:
211,363,113411,38,0,P|212:310|186:260,1,100,4|0,0:0|0:0,0:0:0:0:
118,216,113721,1,8,0:0:0:0:
118,216,113824,2,0,L|111:107,1,100,0|0,0:0|0:0,0:0:0:0:
247,27,114238,2,0,L|240:136,1,100,4|0,0:0|0:0,0:0:0:0:
265,215,114549,1,8,0:0:0:0:
255,251,114652,1,0,0:0:0:0:
259,288,114755,1,8,0:0:0:0:
274,322,114859,1,0,0:0:0:0:
299,348,114962,1,8,0:0:0:0:
333,362,115066,6,0,P|360:361|387:356,1,50,4|8,0:0|0:0,0:0:0:0:
425,244,115273,1,0,0:0:0:0:
407,219,115376,1,8,0:0:0:0:
397,190,115480,1,0,0:0:0:0:
395,160,115583,1,8,0:0:0:0:
397,130,115686,1,0,0:0:0:0:
407,101,115790,1,8,0:0:0:0:
422,75,115893,2,0,L|445:41,4,25,0|0|0|0|0,0:0|0:0|0:0|0:0|0:0,0:0:0:0:
330,31,116204,2,0,L|332:-9,4,25,0|0|8|0|0,0:0|0:0|0:0|0:0|0:0,0:3:0:0:
247,67,116514,1,12,0:0:0:0:
282,249,116721,37,4,0:0:0:0:
282,249,117135,6,0,L|279:289,2,25,0|0|0,0:0|0:0|0:0,0:3:0:0:
190,205,117342,2,0,L|167:239,2,25,8|0|0,0:0|0:0|0:0,0:0:0:0:
122,145,117549,2,0,B|57:135|57:135|17:145,1,100,8|0,0:0|0:0,0:0:0:0:
155,58,117962,1,8,0:0:0:0:
184,53,118066,1,8,0:0:0:0:
213,48,118169,1,8,0:0:0:0:
242,43,118273,1,8,0:0:0:0:
271,38,118376,37,12,0:0:0:0:
345,245,120031,5,4,0:0:0:0:
345,245,120859,2,0,L|349:285,4,25,0|0|0|0|0,0:0|0:0|0:0|0:0|0:0,0:0:0:0:
264,285,121169,2,0,L|257:324,4,25,0|0|0|0|0,0:0|0:0|0:0|0:0|0:0,0:0:0:0:
175,302,121480,2,0,L|148:365,1,50,8|0,0:0|0:0,0:0:0:0:
164,219,121686,38,0,B|146:195|146:195|82:163,1,100,4|0,0:0|0:0,0:0:0:0:
76,72,121997,2,0,L|177:124,1,100,8|8,0:0|0:0,0:0:0:0:
254,101,122307,1,0,0:0:0:0:
346,146,122514,1,0,0:0:0:0:
354,176,122618,2,0,L|346:237,1,50,8|0,0:0|0:0,0:0:0:0:
401,380,122824,1,8,0:0:0:0:
387,353,122928,2,0,L|400:296,1,50,0|8,0:0|0:0,0:0:0:0:
290,343,123135,1,0,0:0:0:0:
261,350,123238,1,8,0:0:0:0:
230,351,123342,6,0,P|193:349|170:344,2,50,4|0|0,0:0|0:0|0:0,0:0:0:0:
239,261,123652,2,0,P|250:216|251:157,1,100,12|0,0:0|0:0,0:0:0:0:
285,78,123962,2,0,P|309:74|334:73,2,50,12|0|0,0:0|0:0|0:0,0:0:0:0:
195,92,124273,2,0,P|145:91|96:78,1,100,12|0,0:0|0:0,0:0:0:0:
33,144,124583,2,0,L|5:139,2,25,8|0|0,0:0|0:0|0:0,0:0:0:0:
103,202,124790,2,0,L|131:197,2,25,0|0|0,0:0|0:0|0:0,0:0:0:0:
53,278,124997,37,4,0:0:0:0:
212,256,125204,1,0,0:0:0:0:
241,252,125307,2,0,B|281:246|281:246|344:258,1,100,8|8,0:0|0:0,0:0:0:0:
281,327,125618,2,0,B|339:338|339:338|379:332,1,100,0|0,0:0|0:0,0:0:0:0:
423,259,125928,2,0,P|439:208|437:158,1,100,8|8,0:0|0:0,0:0:0:0:
415,75,126238,1,8,0:0:0:0:
398,50,126342,1,0,0:0:0:0:
373,32,126445,1,8,0:0:0:0:
345,18,126549,1,0,0:0:0:0:
315,13,126652,6,0,P|289:13|255:20,1,50,12|8,0:0|0:0,0:0:0:0:
296,102,126859,1,0,0:0:0:0:
268,108,126962,2,0,P|245:121|219:144,1,50,8|0,0:0|0:0,0:0:0:0:
324,188,127170,1,8,0:0:0:0:
302,208,127273,2,0,P|289:230|278:263,1,50,0|8,0:0|0:0,0:0:0:0:
292,350,127480,1,12,0:0:0:0:
96,242,127687,1,12,0:0:0:0:
319,213,127894,1,12,0:0:0:0:
155,368,128101,1,12,0:0:0:0:
196,147,128307,38,0,B|203:111|203:111|189:47,1,100,4|0,0:0|0:0,0:0:0:0:
282,51,128618,2,0,P|325:63|380:60,1,100,8|8,0:0|0:0,0:0:0:0:
465,29,128928,1,0,0:0:0:0:
328,146,129135,1,8,0:0:0:0:
328,146,129238,2,0,L|257:154,1,50,8|0,0:0|0:0,0:0:0:0:
282,242,129445,1,8,0:0:0:0:
282,242,129549,1,8,0:0:0:0:
282,242,129652,2,0,L|257:243,4,25,0|0|0|0|0,0:0|0:0|0:0|0:0|0:0,0:0:0:0:
369,269,129962,6,0,B|401:251|401:251|464:244,1,100,4|0,0:0|0:0,0:0:0:0:
494,319,130273,2,0,B|433:326|433:326|416:344|395:351,1,100,4|0,0:0|0:0,0:0:0:0:
317,337,130583,1,4,0:0:0:0:
168,234,130790,2,0,P|139:219|61:208,1,100,4|8,0:0|0:0,0:0:0:0:
17,136,131100,2,0,L|124:125,1,100,0|8,0:0|0:0,0:0:0:0:
186,66,131411,1,0,0:0:0:0:
282,242,131618,38,0,P|331:235|376:215,1,100,12|8,0:0|0:0,0:0:0:0:
398,193,131928,1,0,0:0:0:0:
413,167,132031,2,0,L|423:67,1,100,8|8,0:0|0:0,0:0:0:0:
396,52,132342,1,0,0:0:0:0:
370,36,132445,2,0,B|362:106|362:106|336:140,1,100,8|8,0:0|0:0,0:0:0:0:
319,145,132755,1,0,0:0:0:0:
289,153,132859,2,0,P|239:146|194:126,1,100,8|8,0:0|0:0,0:0:0:0:
59,37,133273,6,0,L|51:97,3,50,12|0|0|0,0:0|0:0|0:0|0:0,0:0:0:0:
90,168,133686,2,0,L|97:228,3,50,0|0|0|0,0:0|0:0|0:0|0:0,0:0:0:0:
184,323,134100,2,0,P|204:344|230:362,1,50
214,214,134307,2,0,P|228:240|248:264,1,50
389,154,134514,2,0,P|373:136|353:121,1,50
359,263,134721,2,0,P|348:241|333:221,1,50
227,122,134928,38,0,P|209:76|210:27,1,100,12|8,0:0|0:0,0:0:0:0:
182,38,135238,1,0,0:0:0:0:
159,57,135342,2,0,P|137:103|139:151,1,100,8|8,0:0|0:0,0:0:0:0:
152,177,135652,1,0,0:0:0:0:
173,198,135755,2,0,P|220:215|269:209,1,100,8|8,0:0|0:0,0:0:0:0:
294,193,136066,1,0,0:0:0:0:
314,170,136169,2,0,P|325:120|313:72,1,100,8|8,0:0|0:0,0:0:0:0:
436,207,136583,6,0,P|450:220|465:229,2,25,4|0|0,0:0|0:0|0:0,0:0:0:0:
173,198,136893,38,0,P|159:185|144:176,2,25
314,73,137204,6,0,P|327:59|336:44,2,25
305,336,137514,38,0,P|292:350|283:365,2,25
222,111,137824,5,8,0:0:0:0:
198,92,137928,1,8,0:0:0:0:
172,76,138031,1,8,0:0:0:0:
142,69,138135,1,8,0:0:0:0:
112,68,138238,38,0,B|87:66|61:68|34:80|34:80|39:90|45:98,1,100,12|8,0:0|0:0,0:0:0:0:
54,125,138549,1,0,0:0:0:0:
60,154,138652,2,0,P|67:209|63:256,1,100,8|8,0:0|0:0,0:0:0:0:
69,282,138962,1,0,0:0:0:0:
89,304,139066,2,0,B|128:317|128:317|190:311,1,100,8|8,0:0|0:0,0:0:0:0:
216,308,139376,1,0,0:0:0:0:
246,305,139480,2,0,B|279:301|279:301|316:282|319:237,1,100,8|8,0:0|0:0,0:0:0:0:
415,89,139893,6,0,L|409:33,1,50,4|0,0:0|0:0,0:0:0:0:
331,70,140100,2,0,L|325:14,1,50,0|0,0:0|0:0,0:0:0:0:
185,111,140307,2,0,L|190:160,1,50,0|0,0:0|0:0,0:0:0:0:
269,130,140514,2,0,L|274:179,1,50,0|0,0:0|0:0,0:0:0:0:
106,79,140721,2,0,L|100:23,3,50,0|0|0|0,0:0|0:0|0:0|0:0,0:0:0:0:
22,60,141135,2,0,L|16:4,3,50,0|0|0|0,0:0|0:0|0:0|0:0,0:0:0:0:
48,143,141549,38,0,L|59:256,1,100,4|8,0:0|0:0,0:0:0:0:
29,328,141859,2,0,L|6:344,2,25,0|0|0,0:0|0:0|0:0,0:0:0:0:
114,359,142066,2,0,L|102:384,2,25
218,141,142376,1,8,0:0:0:0:
254,130,142480,1,8,0:0:0:0:
289,119,142583,1,8,0:0:0:0:
325,109,142686,1,8,0:0:0:0:
361,99,142790,2,0,L|429:81,3,50,8|8|8|8,0:0|0:0|0:0|0:0,0:0:0:0:
472,152,143204,5,4,0:0:0:0:
256,192,143255,12,8,144445,0:0:0:0:
142,60,144859,5,4,0:0:0:0:
338,101,145066,1,0,0:0:0:0:
157,226,145273,1,0,0:0:0:0:
150,262,145376,1,8,0:0:0:0:
155,299,145480,1,0,0:0:0:0:
173,331,145583,1,8,0:0:0:0:
199,356,145686,2,0,P|245:371|305:369,1,100,4|0,0:0|0:0,0:0:0:0:
403,249,146100,2,0,L|468:242,1,50,0|8,0:0|0:0,0:0:0:0:
325,213,146307,2,0,L|286:160,1,50,0|8,0:0|0:0,0:0:0:0:
333,299,146514,5,4,0:0:0:0:
410,136,146721,1,0,0:0:0:0:
241,72,146928,2,0,L|188:51,3,50,0|8|0|8,0:0|0:0|0:0|0:0,0:0:0:0:
203,154,147342,1,4,0:0:0:0:
383,66,147549,1,0,0:0:0:0:
194,53,147755,1,4,0:0:0:0:
359,166,147962,1,0,0:0:0:0:
179,253,148169,38,0,L|71:242,1,100,4|0,0:0|0:0,0:0:0:0:
217,360,148583,1,0,0:0:0:0:
254,356,148686,1,8,0:0:0:0:
291,352,148790,1,0,0:0:0:0:
328,349,148893,1,8,0:0:0:0:
365,345,148997,2,0,L|473:334,1,100,4|0,0:0|0:0,0:0:0:0:
383,196,149411,1,0,0:0:0:0:
375,167,149514,1,8,0:0:0:0:
376,136,149618,1,0,0:0:0:0:
384,107,149721,1,8,0:0:0:0:
403,84,149824,5,4,0:0:0:0:
482,235,150031,1,0,0:0:0:0:
301,228,150238,2,0,L|245:235,1,50,0|8,0:0|0:0,0:0:0:0:
375,167,150445,2,0,L|424:160,1,50,0|8,0:0|0:0,0:0:0:0:
279,92,150652,1,8,0:0:0:0:
257,71,150755,1,8,0:0:0:0:
242,44,150859,2,0,P|234:28|229:15,2,25,0|0|8,0:0|0:0|0:0,0:0:0:0:
157,76,151066,1,0,0:0:0:0:
130,60,151170,2,0,P|115:50|104:41,2,25,0|0|4,0:0|0:0|0:0,0:0:0:0:
236,213,151480,38,0,B|241:256|241:256|232:322,1,100,12|0,0:0|0:0,0:0:0:0:
313,172,151893,1,0,0:0:0:0:
288,143,151997,1,8,0:0:0:0:
254,127,152100,1,0,0:0:0:0:
216,128,152204,1,8,0:0:0:0:
182,144,152307,2,0,P|157:153|75:158,1,100,4|0,0:0|0:0,0:0:0:0:
138,311,152721,2,0,L|150:365,1,50,0|8,0:0|0:0,0:0:0:0:
223,307,152928,2,0,L|235:361,1,50,0|8,0:0|0:0,0:0:0:0:
313,264,153135,6,0,P|322:239|327:157,1,100,4|0,0:0|0:0,0:0:0:0:
276,14,153549,1,0,0:0:0:0:
300,42,153652,1,8,0:0:0:0:
329,64,153755,1,0,0:0:0:0:
363,80,153859,1,8,0:0:0:0:
399,86,153962,2,0,L|504:77,1,100,4|0,0:0|0:0,0:0:0:0:
412,272,154376,2,0,L|307:263,1,100,4|0,0:0|0:0,0:0:0:0:
153,177,154790,37,4,0:0:0:0:
190,353,154997,1,0,0:0:0:0:
31,267,155204,2,0,L|43:205,1,50,0|8,0:0|0:0,0:0:0:0:
63,120,155411,2,0,L|75:58,1,50,0|8,0:0|0:0,0:0:0:0:
178,38,155618,2,0,L|158:147,1,100,4|0,0:0|0:0,0:0:0:0:
247,271,156031,1,0,0:0:0:0:
253,241,156135,1,8,0:0:0:0:
258,211,156238,1,0,0:0:0:0:
263,181,156342,1,0,0:0:0:0:
267,151,156445,6,0,P|312:118|366:113,1,100,4|0,0:0|0:0,0:0:0:0:
481,243,156859,2,0,P|487:269|486:300,1,50,4|8,0:0|0:0,0:0:0:0:
351,256,157066,2,0,P|345:230|346:199,1,50,0|8,0:0|0:0,0:0:0:0:
442,135,157273,1,4,0:0:0:0:
444,125,157376,1,8,0:0:0:0:
446,115,157480,1,4,0:0:0:0:
448,105,157583,1,8,0:0:0:0:
450,95,157686,1,0,0:0:0:0:
322,37,157893,2,0,L|318:12,2,25,0|0|0,0:0|0:0|0:0,0:0:0:0:
287,51,158100,38,0,B|250:61|250:61|182:55,1,100,4|0,0:0|0:0,0:0:0:0:
57,130,158514,1,12,0:0:0:0:
57,130,158583,2,0,L|101:134,1,33.3333333333333,0|0,0:0|0:0,0:0:0:0:
101,227,158721,1,0,0:0:0:0:
101,227,158790,2,0,L|145:231,1,33.3333333333333,0|0,0:0|0:0,0:0:0:0:
198,143,158928,1,4,0:0:0:0:
200,303,159135,1,0,0:0:0:0:
340,205,159342,2,0,L|366:179,2,33.3333333333333,12|0|0,0:0|0:0|0:0,0:0:0:0:
260,230,159549,2,0,L|224:220,2,33.3333333333333,0|0|0,0:0|0:0|0:0,0:0:0:0:
321,286,159755,6,0,B|338:350|338:350|361:380,1,100,4|0,0:0|0:0,0:0:0:0:
431,206,160169,1,12,0:0:0:0:
431,206,160238,2,0,L|431:152,1,33.3333333333333,0|0,0:0|0:0,0:0:0:0:
335,156,160376,1,0,0:0:0:0:
335,156,160445,2,0,L|308:109,1,33.3333333333333,0|0,0:0|0:0,0:0:0:0:
224,163,160583,2,0,L|195:146,1,33.3333333333333,4|0,0:0|0:0,0:0:0:0:
98,91,160790,2,0,L|70:75,1,33.3333333333333
103,196,160997,2,0,L|119:167,1,33.3333333333333,12|0,0:0|0:0,0:0:0:0:
174,70,161204,2,0,L|191:42,1,33.3333333333333
306,45,161411,38,0,P|345:47|410:36,1,100,0|0,0:0|0:0,0:0:0:0:
453,158,161824,1,12,0:0:0:0:
453,158,161893,2,0,P|461:185|464:202,1,33.3333333333333
390,259,162031,1,0,0:0:0:0:
390,259,162100,2,0,P|383:286|373:308,1,33.3333333333333,0|0,0:0|0:0,0:0:0:0:
291,313,162238,1,4,0:0:0:0:
342,159,162445,1,0,0:0:0:0:
189,121,162652,2,0,L|148:111,2,33.3333333333333,12|0|0,0:0|0:0|0:0,0:0:0:0:
85,197,162859,2,0,L|126:187,2,33.3333333333333
148,277,163066,6,0,P|151:316|179:373,1,100,4|0,0:0|0:0,0:0:0:0:
349,293,163480,1,12,0:0:0:0:
349,293,163549,2,0,P|357:273|361:253,1,33.3333333333333,0|0,0:0|0:0,0:0:0:0:
273,192,163686,1,0,0:0:0:0:
273,192,163755,2,0,P|265:212|261:232,1,33.3333333333333,0|0,0:0|0:0,0:0:0:0:
242,328,163893,2,0,P|245:353|251:373,1,33.3333333333333,8|0,0:0|0:0,0:0:0:0:
148,277,164100,2,0,P|127:292|113:307,1,33.3333333333333
145,170,164307,2,0,P|121:160|101:155,1,33.3333333333333
236,113,164514,2,0,P|232:88|226:67,1,33.3333333333333
237,221,164721,37,12,0:0:0:0:
341,99,164928,1,8,0:0:0:0:
394,250,165135,2,0,L|408:289,2,33.3333333333333,8|0|0,0:0|0:0|0:0,0:0:0:0:
307,281,165342,2,0,L|299:321,2,33.3333333333333,8|0|0,0:0|0:0|0:0,0:0:0:0:
324,190,165549,1,8,0:0:0:0:
428,68,165755,1,8,0:0:0:0:
271,39,165962,2,0,L|224:29,2,33.3333333333333,8|0|0,0:0|0:0|0:0,0:0:0:0:
252,131,166169,2,0,L|206:145,2,33.3333333333333,8|0|0,0:0|0:0|0:0,0:0:0:0:
324,190,166376,5,8,0:0:0:0:
219,311,166583,1,8,0:0:0:0:
61,280,166790,1,8,0:0:0:0:
61,280,166859,2,0,L|21:268,1,33.3333333333333,0|0,0:0|0:0,0:0:0:0:
87,189,166997,1,8,0:0:0:0:
87,189,167066,2,0,L|53:154,1,33.3333333333333,0|0,0:0|0:0,0:0:0:0:
155,123,167204,1,8,0:0:0:0:
307,281,167411,1,8,0:0:0:0:
131,341,167618,1,8,0:0:0:0:
244,153,167824,1,8,0:0:0:0:
393,317,168031,38,0,L|425:348,2,33.3333333333333,12|0|0,0:0|0:0|0:0,0:0:0:0:
273,297,168238,2,0,L|230:309,2,33.3333333333333,12|0|0,0:0|0:0|0:0,0:0:0:0:
350,203,168445,2,0,L|360:159,5,33.3333333333333,12|0|0|12|0|0,0:0|0:0|0:0|0:0|0:0|0:0,0:0:0:0:
365,55,168859,6,0,L|332:46,2,33.3333333333333,12|0|0,0:0|0:0|0:0,0:0:0:0:
252,119,169066,2,0,L|231:91,2,33.3333333333333,12|0|0,0:0|0:0|0:0,0:0:0:0:
130,106,169273,2,0,L|119:62,5,33.3333333333333,12|0|0|12|0|0,0:0|0:0|0:0|0:0|0:0|0:0,0:0:0:0:
132,224,169686,37,8,0:0:0:0:
365,188,169893,2,0,L|392:183,2,25,0|0|8,0:0|0:0|0:0,0:0:0:0:
255,237,170100,2,0,L|228:232,2,25,8|8|8,0:0|0:0|0:0,0:0:0:0:
311,339,170307,2,0,L|315:364,3,25,8|8|8|0,0:0|0:0|0:0|0:0,0:0:0:0:
392,335,170514,2,0,P|458:295|469:218,1,150
385,87,170928,1,12,0:0:0:0:
255,156,171135,1,12,0:0:0:0:
380,241,171342,21,4,0:0:0:0:
256,192,171445,12,0,181273,0:0:0:0:
