osu file format v14

[General]
AudioFilename: Flowering Night Fever.mp3
AudioLeadIn: 2000
PreviewTime: 62049
Countdown: 0
SampleSet: None
StackLeniency: 0.2
Mode: 0
LetterboxInBreaks: 0
WidescreenStoryboard: 0

[Editor]
Bookmarks: 1687,3342,21549,35618,48859,62100,75342,95204,118376,131618,144859
DistanceSpacing: 1.2
BeatDivisor: 2
GridSize: 4
TimelineZoom: 1.9

[Metadata]
Title:Flowering Night Fever
TitleUnicode:Flowering Night Fever
Artist:UNDEAD CORPORATION
ArtistUnicode:UNDEAD CORPORATION
Creator:Alheak
Version:Flowering
Source:東方花映塚 ~ Phantasmagoria of Flower View.
Tags:dtm9 nowa ekoro pishifat GoldenWolf zun team shanghai alice 上海アリス幻樂団 瞬殺 touhou project Kaeidzuka 花映塚 Phantasmagoria of Flower View sakuya izayoi 十六夜 咲夜 フラワリングナイト 瞬殺 shunsatsu reitaisai 12 instrumental speed metal guitar woof
BeatmapID:856743
BeatmapSetID:393663

[Difficulty]
HPDrainRate:5
CircleSize:3.4
OverallDifficulty:9.3
ApproachRate:9.8
SliderMultiplier:1.5
SliderTickRate:1

[Events]
//Background and Video events
0,0,"bg.jpg",0,0
//Break Periods
2,1887,2863
2,75541,80656
//Storyboard Layer 0 (Background)
//Storyboard Layer 1 (Fail)
//Storyboard Layer 2 (Pass)
//Storyboard Layer 3 (Foreground)
//Storyboard Sound Samples

[TimingPoints]
32,206.896551724138,4,3,1,70,1,0
1273,-100,4,3,2,70,0,0
1480,-100,4,3,3,70,0,0
1687,-100,4,3,1,70,0,0
21549,206.896551724138,3,3,1,70,1,0
25066,206.896551724138,3,3,1,70,1,0
28584,206.896551724138,3,3,1,70,1,0
32101,206.896551724138,3,3,1,70,1,0
35618,206.896551724138,4,3,1,70,1,0
58790,-133.333333333333,4,3,1,70,0,0
59618,-100,4,3,1,70,0,0
62100,-100,4,3,1,85,0,1
75342,-100,4,3,1,70,0,0
144859,-100,4,3,1,85,0,1
158049,-100,4,3,1,85,0,0
158100,-100,4,3,1,85,0,1
169997,-100,4,3,2,85,0,1
170307,-100,4,3,3,85,0,1
170514,-100,4,3,1,85,0,1
171342,-100,4,3,1,70,0,0
172169,-100,4,3,1,60,0,0
172997,-100,4,3,1,50,0,0
174652,-100,4,3,1,40,0,0
176307,-100,4,3,1,30,0,0
177963,-100,4,3,1,20,0,0
179618,-100,4,3,1,10,0,0
181273,-100,4,3,1,5,0,0

[Colours]
Combo1 : 154,3,49
Combo2 : 190,180,200
Combo3 : 130,120,160
Combo4 : 247,21,61

[HitObjects]
103,29,32,6,0,L|91:115,1,75,0|2,0:0|0:0,0:0:0:0:
209,193,238,2,0,L|198:116,1,75,0|2,0:0|0:0,0:0:0:0:
282,51,445,1,2,0:0:0:0:
314,32,497,1,2,0:0:0:0:
350,24,549,1,2,0:0:0:0:
388,27,600,1,2,0:0:0:0:
422,41,652,2,0,L|456:69,3,37.5,8|2|8|2,0:0|0:0|0:0|0:0,0:0:0:0:
359,135,859,6,0,L|342:168,3,37.5,8|2|2|2,0:0|0:0|0:0|0:0,0:0:0:0:
393,243,1066,2,0,L|409:279,3,37.5,8|2|8|2,0:0|0:0|0:0|0:0,0:0:0:0:
303,250,1273,37,8,0:0:0:0:
274,253,1325,1,8,0:0:0:0:
246,255,1376,1,8,0:0:0:0:
217,257,1428,1,8,0:0:0:0:
188,259,1480,1,8,0:0:0:0:
156,237,1532,1,8,0:0:0:0:
141,203,1583,1,8,0:0:0:0:
142,165,1635,1,8,0:0:0:0:
157,130,1687,5,4,0:0:0:0:
175,116,3342,38,0,L|192:43,1,75,4|8,0:0|0:0,0:0:0:0:
113,181,3549,1,0,0:0:0:0:
263,138,3652,2,0,L|352:111,1,75,8|0,0:0|0:0,0:0:0:0:
175,116,3859,1,8,0:0:0:0:
287,224,3963,2,0,L|354:288,1,75,0|8,0:0|0:0,0:0:0:0:
263,138,4169,5,0,0:0:0:0:
113,181,4273,2,0,L|32:206,1,75,8|0,0:0|0:0,0:0:0:0:
175,116,4480,1,8,0:0:0:0:
287,224,4583,2,0,L|270:299,1,75,0|8,0:0|0:0,0:0:0:0:
200,202,4790,1,0,0:0:0:0:
239,53,4894,1,8,0:0:0:0:
349,160,4997,38,0,L|407:217,1,75,4|8,0:0|0:0,0:0:0:0:
412,95,5204,1,0,0:0:0:0:
263,138,5307,2,0,L|192:162,1,75,8|0,0:0|0:0,0:0:0:0:
239,53,5514,1,8,0:0:0:0:
287,224,5618,2,0,L|273:297,1,75,0|8,0:0|0:0,0:0:0:0:
200,202,5825,5,0,0:0:0:0:
349,160,5928,2,0,L|419:135,1,75,8|0,0:0|0:0,0:0:0:0:
373,245,6135,1,8,0:0:0:0:
263,138,6238,2,0,L|206:89,1,75,0|8,0:0|0:0,0:0:0:0:
325,73,6445,1,0,0:0:0:0:
287,224,6549,1,8,0:0:0:0:
442,178,6652,37,0,0:0:0:0:
458,200,6704,1,0,0:0:0:0:
468,226,6756,1,0,0:0:0:0:
469,254,6807,1,0,0:0:0:0:
462,282,6859,2,0,P|453:301|437:319,1,37.5
343,375,6963,2,0,L|296:356,3,37.5,12|0|0|0,0:0|0:0|0:0|0:0,0:0:0:0:
220,374,7169,2,0,L|178:386,3,37.5,12|0|0|0,0:0|0:0|0:0|0:0,0:0:0:0:
179,277,7376,6,0,L|252:289,1,75
373,245,7583,2,0,L|335:250,2,37.5,12|0|0,0:0|0:0|0:0,0:0:0:0:
293,144,7790,2,0,L|279:179,1,37.5,12|0,0:0|0:0,0:0:0:0:
175,192,7894,1,0,0:0:0:0:
92,156,7997,1,0,0:0:0:0:
128,73,8100,1,0,0:0:0:0:
211,109,8204,1,0,0:0:0:0:
92,156,8307,38,0,L|16:189,1,75,4|8,0:0|0:0,0:0:0:0:
40,83,8514,1,0,0:0:0:0:
103,246,8618,2,0,L|93:328,1,75,8|0,0:0|0:0,0:0:0:0:
20,211,8825,1,8,0:0:0:0:
187,282,8928,2,0,L|253:331,1,75,0|8,0:0|0:0,0:0:0:0:
115,336,9135,5,0,0:0:0:0:
174,193,9238,2,0,L|205:116,1,75,8|0,0:0|0:0,0:0:0:0:
239,37,9445,1,8,0:0:0:0:
257,227,9549,2,0,L|339:216,1,75,0|8,0:0|0:0,0:0:0:0:
422,205,9756,1,0,0:0:0:0:
293,320,9859,1,8,0:0:0:0:
174,193,9963,38,0,L|162:101,1,75,4|8,0:0|0:0,0:0:0:0:
103,246,10169,1,0,0:0:0:0:
245,137,10273,2,0,L|318:80,1,75,8|0,0:0|0:0,0:0:0:0:
257,227,10480,1,8,0:0:0:0:
92,156,10583,2,0,L|6:120,1,75,0|8,0:0|0:0,0:0:0:0:
148,15,10790,5,0,0:0:0:0:
245,137,10894,2,0,L|290:196,1,75,8|0,0:0|0:0,0:0:0:0:
233,47,11100,1,8,0:0:0:0:
368,150,11204,2,0,L|427:195,1,75,0|8,0:0|0:0,0:0:0:0:
362,59,11411,1,0,0:0:0:0:
163,103,11514,1,8,0:0:0:0:
233,47,11618,38,0,L|292:-2,1,75,4|8,0:0|0:0,0:0:0:0:
148,15,11825,1,0,0:0:0:0:
245,137,11928,2,0,L|257:227,1,75,8|0,0:0|0:0,0:0:0:0:
316,82,12135,1,8,0:0:0:0:
163,103,12238,2,0,L|151:193,1,75,0|8,0:0|0:0,0:0:0:0:
79,72,12445,5,0,0:0:0:0:
24,217,12549,2,0,L|95:272,1,75,8|0,0:0|0:0,0:0:0:0:
265,221,12756,1,8,0:0:0:0:
163,103,12859,2,0,L|82:90,1,75,0|8,0:0|0:0,0:0:0:0:
180,192,13066,1,0,0:0:0:0:
230,43,13169,1,8,0:0:0:0:
334,160,13273,37,0,0:0:0:0:
248,132,13376,1,8,0:0:0:0:
276,46,13480,1,0,0:0:0:0:
362,74,13583,2,0,B|411:80|411:80|453:72,2,75,8|0|8,0:0|0:0|0:0,0:0:0:0:
276,46,13894,5,0,0:0:0:0:
223,120,13997,1,8,0:0:0:0:
278,194,14100,1,0,0:0:0:0:
366,165,14204,2,0,B|414:171|414:171|453:188,2,75,8|0|8,0:0|0:0|0:0,0:0:0:0:
278,194,14514,37,0,0:0:0:0:
274,200,14566,1,0,0:0:0:0:
271,207,14618,2,0,L|281:259,1,37.5
159,223,14721,1,0,0:0:0:0:
155,229,14773,1,0,0:0:0:0:
152,236,14825,2,0,L|148:288,1,37.5
74,134,14928,6,0,L|69:51,1,75,4|8,0:0|0:0,0:0:0:0:
10,198,15135,1,0,0:0:0:0:
184,246,15238,2,0,L|267:269,1,75,8|0,0:0|0:0,0:0:0:0:
120,310,15445,1,8,0:0:0:0:
248,182,15549,2,0,L|331:205,1,75,0|8,0:0|0:0,0:0:0:0:
184,246,15756,37,0,0:0:0:0:
223,95,15859,2,0,L|201:11,1,75,8|0,0:0|0:0,0:0:0:0:
310,116,16066,1,8,0:0:0:0:
161,161,16169,2,0,L|77:184,1,75,0|8,0:0|0:0,0:0:0:0:
136,74,16376,1,0,0:0:0:0:
285,29,16480,1,8,0:0:0:0:
248,182,16583,6,0,L|272:265,1,75,4|8,0:0|0:0,0:0:0:0:
223,95,16790,1,0,0:0:0:0:
373,50,16894,2,0,L|445:70,1,75,8|0,0:0|0:0,0:0:0:0:
310,116,17100,1,8,0:0:0:0:
161,161,17204,2,0,L|88:140,1,75,0|8,0:0|0:0,0:0:0:0:
223,95,17411,37,0,0:0:0:0:
275,268,17514,2,0,L|293:340,1,75,8|0,0:0|0:0,0:0:0:0:
338,203,17721,1,8,0:0:0:0:
187,248,17825,2,0,L|133:300,1,75,0|8,0:0|0:0,0:0:0:0:
161,161,18032,1,0,0:0:0:0:
275,268,18135,1,8,0:0:0:0:
315,113,18238,6,0,L|333:41,1,75,4|8,0:0|0:0,0:0:0:0:
403,138,18445,1,0,0:0:0:0:
251,182,18549,2,0,L|233:110,1,75,8|0,0:0|0:0,0:0:0:0:
338,204,18756,1,8,0:0:0:0:
189,247,18859,2,0,L|117:226,1,75,0|8,0:0|0:0,0:0:0:0:
251,182,19066,37,0,0:0:0:0:
212,332,19169,2,0,B|242:353|242:353|283:361,1,75,8|0,0:0|0:0,0:0:0:0:
368,342,19325,1,0,0:0:0:0:
368,342,19376,1,8,0:0:0:0:
407,192,19480,2,0,B|377:171|377:171|336:163,1,75,8|0,0:0|0:0,0:0:0:0:
251,182,19635,1,0,0:0:0:0:
251,182,19687,1,8,0:0:0:0:
343,254,19790,1,8,0:0:0:0:
441,107,19894,6,0,B|425:24,1,75,4|0,0:0|0:0,0:0:0:0:
330,87,20100,1,0,0:0:0:0:
330,87,20152,1,0,0:0:0:0:
330,87,20204,2,0,L|275:76,3,37.5,8|0|0|0,0:0|0:0|0:0|0:0,0:0:0:0:
251,182,20411,1,0,0:0:0:0:
251,182,20463,1,0,0:0:0:0:
251,182,20514,2,0,L|196:194,3,37.5,12|0|0|0,0:0|0:0|0:0|0:0,0:0:0:0:
194,75,20721,38,0,P|196:55|209:25,3,37.5
118,154,20928,1,0,0:0:0:0:
112,157,20980,1,0,0:0:0:0:
106,160,21032,2,0,P|89:205|89:238,1,75
146,363,21238,1,0,0:0:0:0:
152,360,21290,1,0,0:0:0:0:
158,357,21342,2,0,P|175:312|175:279,1,75
24,125,21549,5,0,0:0:0:0:
94,70,21652,1,0,0:0:0:0:
178,103,21756,1,0,0:0:0:0:
190,193,21859,1,0,0:0:0:0:
275,226,21963,37,4,0:0:0:0:
217,75,23825,5,0,0:0:0:0:
306,85,23928,1,0,0:0:0:0:
296,174,24032,1,0,0:0:0:0:
207,164,24135,1,0,0:0:0:0:
261,92,24238,37,0,0:0:0:0:
333,145,24342,1,0,0:0:0:0:
279,217,24445,1,0,0:0:0:0:
207,164,24549,1,0,0:0:0:0:
290,128,24652,6,0,L|390:138,1,75,4|0,0:0|0:0,0:0:0:0:
237,201,24859,2,0,L|162:193,1,75
273,283,25066,37,0,0:0:0:0:
356,315,25169,1,8,0:0:0:0:
437,278,25273,1,0,0:0:0:0:
468,194,25376,1,8,0:0:0:0:
430,112,25480,2,0,B|404:94|404:94|357:82,1,75,0|8,0:0|0:0,0:0:0:0:
364,225,25687,5,0,0:0:0:0:
308,294,25790,1,8,0:0:0:0:
219,302,25894,1,0,0:0:0:0:
150,245,25997,1,8,0:0:0:0:
142,155,26100,2,0,B|155:126|155:126|190:92,1,75,0|8,0:0|0:0,0:0:0:0:
343,99,26307,37,0,0:0:0:0:
430,112,26411,1,8,0:0:0:0:
482,186,26514,1,0,0:0:0:0:
467,274,26618,1,8,0:0:0:0:
393,326,26721,2,0,B|361:328|361:328|314:315,1,75,0|8,0:0|0:0,0:0:0:0:
199,148,26928,5,0,0:0:0:0:
112,161,27032,1,8,0:0:0:0:
60,235,27135,1,0,0:0:0:0:
75,323,27238,1,8,0:0:0:0:
149,375,27342,38,0,L|215:383,3,37.5,2|2|2|2,0:0|0:0|0:0|0:0,0:0:0:0:
221,296,27549,2,0,L|287:304,3,37.5,2|2|2|2,0:0|0:0|0:0|0:0,0:0:0:0:
164,231,27756,2,0,L|126:226,3,37.5,2|2|2|2,0:0|0:0|0:0|0:0,0:0:0:0:
236,152,27963,2,0,L|198:147,3,37.5,2|2|2|2,0:0|0:0|0:0|0:0,0:0:0:0:
304,211,28169,2,0,P|334:234|354:269,1,75,8|0,0:0|0:0,0:0:0:0:
320,122,28376,1,8,0:0:0:0:
168,93,28479,1,0,0:0:0:0:
220,240,28583,5,4,0:0:0:0:
236,152,28687,1,8,0:0:0:0:
168,93,28790,1,0,0:0:0:0:
82,122,28894,1,8,0:0:0:0:
64,210,28997,2,0,L|92:279,1,75,0|8,0:0|0:0,0:0:0:0:
219,241,29204,37,0,0:0:0:0:
304,211,29307,1,8,0:0:0:0:
320,122,29411,1,0,0:0:0:0:
252,62,29514,1,8,0:0:0:0:
168,93,29618,2,0,L|99:120,1,75,0|8,0:0|0:0,0:0:0:0:
252,62,29825,5,0,0:0:0:0:
335,32,29928,1,8,0:0:0:0:
403,93,30032,1,0,0:0:0:0:
387,181,30135,1,8,0:0:0:0:
304,211,30238,2,0,L|228:201,1,75,0|8,0:0|0:0,0:0:0:0:
371,270,30445,37,0,0:0:0:0:
356,356,30549,1,8,0:0:0:0:
268,384,30652,1,0,0:0:0:0:
200,326,30756,1,8,0:0:0:0:
215,239,30859,6,0,B|242:223|242:223|285:218,1,75,0|8,0:0|0:0,0:0:0:0:
418,154,31066,2,0,B|375:149|375:149|346:133,1,75,0|8,0:0|0:0,0:0:0:0:
286,41,31273,2,0,L|274:-9,2,37.5,0|0|8,3:0|3:0|3:0,3:0:0:0:
176,47,31480,2,8,L|140:8,2,37.5
85,108,31687,2,0,L|36:93,2,37.5,0|0|8,0:0|0:0|0:0,0:0:0:0:
259,293,31894,1,8,0:0:0:0:
182,160,31997,1,8,0:0:0:0:
337,157,32101,37,4,0:0:0:0:
414,201,32204,1,8,0:0:0:0:
416,290,32307,1,0,0:0:0:0:
338,336,32411,1,8,0:0:0:0:
259,293,32514,2,0,B|250:260|250:260|254:215,1,75,0|8,0:0|0:0,0:0:0:0:
74,228,32721,5,0,0:0:0:0:
61,317,32825,1,8,0:0:0:0:
142,357,32928,1,0,0:0:0:0:
206,293,33032,1,8,0:0:0:0:
165,213,33135,2,0,B|151:184|151:184|150:133,1,75,0|8,0:0|0:0,0:0:0:0:
286,33,33342,37,0,0:0:0:0:
369,66,33445,1,8,0:0:0:0:
363,156,33549,1,0,0:0:0:0:
276,179,33652,1,8,0:0:0:0:
227,104,33756,2,0,B|208:77|208:77|165:51,1,75,0|8,0:0|0:0,0:0:0:0:
190,214,33963,5,0,0:0:0:0:
119,269,34066,1,8,0:0:0:0:
44,219,34169,1,0,0:0:0:0:
67,132,34273,1,8,0:0:0:0:
157,127,34376,2,0,B|189:124|189:124|227:104,1,75
343,41,34583,37,0,0:0:0:0:
349,45,34687,1,0,0:0:0:0:
355,49,34790,1,0,0:0:0:0:
361,53,34894,1,0,0:0:0:0:
367,57,34997,1,0,0:0:0:0:
373,61,35100,1,0,0:0:0:0:
379,65,35204,6,0,B|393:94|393:94|393:136,1,75
379,280,35411,1,0,0:0:0:0:
283,201,35514,1,0,0:0:0:0:
393,136,35618,38,0,L|474:150,1,75,4|8,0:0|0:0,0:0:0:0:
395,264,35825,1,0,0:0:0:0:
283,201,35928,2,0,L|202:215,1,75,8|0,0:0|0:0,0:0:0:0:
78,179,36135,1,8,0:0:0:0:
113,310,36238,2,0,L|87:380,1,75,0|8,0:0|0:0,0:0:0:0:
39,259,36445,5,0,0:0:0:0:
159,138,36549,2,0,L|184:67,1,75,8|0,0:0|0:0,0:0:0:0:
84,89,36756,1,8,0:0:0:0:
152,228,36859,2,0,L|191:299,1,75,0|8,0:0|0:0,0:0:0:0:
233,189,37066,1,0,0:0:0:0:
78,179,37169,1,8,0:0:0:0:
85,334,37273,38,0,B|108:357|108:357|158:384,1,75,4|8,0:0|0:0,0:0:0:0:
129,254,37480,1,0,0:0:0:0:
118,98,37583,2,0,B|109:65|109:65|87:30,1,75,8|0,0:0|0:0,0:0:0:0:
78,179,37790,1,8,0:0:0:0:
208,101,37894,2,0,B|231:77|231:77|251:40,1,75,0|8,0:0|0:0,0:0:0:0:
118,98,38100,5,0,0:0:0:0:
250,171,38204,2,0,B|282:180|282:180|323:178,1,75,8|0,0:0|0:0,0:0:0:0:
386,87,38411,1,8,0:0:0:0:
208,101,38514,2,0,P|179:131|169:168,1,75,0|8,0:0|0:0,0:0:0:0:
153,302,38721,1,0,0:0:0:0:
283,246,38825,1,8,0:0:0:0:
426,179,38928,38,0,L|497:153,1,75,4|8,0:0|0:0,0:0:0:0:
462,269,39135,1,0,0:0:0:0:
335,172,39238,2,0,L|345:94,1,75,8|0,0:0|0:0,0:0:0:0:
231,33,39445,1,8,0:0:0:0:
246,190,39548,2,0,L|255:264,1,75,0|8,0:0|0:0,0:0:0:0:
185,121,39756,5,0,0:0:0:0:
335,172,39859,2,0,L|409:162,1,75,8|0,0:0|0:0,0:0:0:0:
273,106,40066,1,8,0:0:0:0:
158,208,40169,2,0,L|83:217,1,75,0|8,0:0|0:0,0:0:0:0:
185,121,40376,1,0,0:0:0:0:
217,275,40480,1,8,0:0:0:0:
335,172,40583,37,0,0:0:0:0:
351,149,40635,1,0,0:0:0:0:
360,122,40686,1,0,0:0:0:0:
361,94,40738,1,0,0:0:0:0:
354,67,40790,2,0,P|340:45|326:33,1,37.5
244,20,40893,2,0,L|199:15,3,37.5,12|0|0|0,0:0|0:0|0:0|0:0,0:0:0:0:
235,110,41100,2,0,L|280:105,3,37.5,12|0|0|0,0:0|0:0|0:0|0:0,0:0:0:0:
68,130,41307,6,0,L|156:120,1,75
324,203,41514,2,0,L|362:198,3,37.5,12|0|0|0,0:0|0:0|0:0|0:0,0:0:0:0:
390,293,41721,2,0,L|353:288,1,37.5,12|0,0:0|0:0,0:0:0:0:
143,248,41825,1,8,0:0:0:0:
232,264,41928,1,8,0:0:0:0:
216,353,42032,1,8,0:0:0:0:
127,337,42135,1,8,0:0:0:0:
143,248,42238,38,0,B|134:222|134:222|131:164,1,75,4|8,0:0|0:0,0:0:0:0:
228,12,42445,1,0,0:0:0:0:
257,144,42549,2,0,B|254:191|254:191|245:217,1,75,8|0,0:0|0:0,0:0:0:0:
184,91,42756,1,8,0:0:0:0:
311,47,42859,2,0,B|350:20|350:20|368:-1,1,75,0|8,0:0|0:0,0:0:0:0:
228,12,43066,5,0,0:0:0:0:
345,131,43169,2,0,L|413:170,1,75,8|0,0:0|0:0,0:0:0:0:
274,192,43376,1,8,0:0:0:0:
420,81,43480,2,0,L|488:42,1,75,8|8,0:0|0:0,0:0:0:0:
512,172,43687,1,8,0:0:0:0:
474,293,43790,1,8,0:0:0:0:
348,316,43894,38,0,L|273:328,1,75,4|8,0:0|0:0,0:0:0:0:
173,180,44100,1,0,0:0:0:0:
279,108,44204,2,0,L|354:120,1,75,8|0,0:0|0:0,0:0:0:0:
479,139,44411,1,8,0:0:0:0:
400,238,44514,2,0,L|352:296,1,75,0|8,0:0|0:0,0:0:0:0:
489,229,44721,5,0,0:0:0:0:
388,148,44825,2,0,L|328:101,1,75,8|0,0:0|0:0,0:0:0:0:
359,234,45032,1,8,0:0:0:0:
250,284,45135,1,0,0:0:0:0:
235,285,45187,1,0,0:0:0:0:
220,286,45238,2,0,L|168:292,1,37.5
136,211,45342,1,0,0:0:0:0:
121,209,45394,1,0,0:0:0:0:
106,208,45445,2,0,L|54:202,1,37.5
27,112,45549,38,0,B|21:69|21:69|25:34,1,75,4|8,0:0|0:0,0:0:0:0:
175,53,45756,1,0,0:0:0:0:
116,121,45859,2,0,L|129:206,1,75,8|0,0:0|0:0,0:0:0:0:
275,136,46066,1,8,0:0:0:0:
216,204,46169,2,0,L|229:289,1,75,0|8,0:0|0:0,0:0:0:0:
355,359,46376,5,0,0:0:0:0:
431,309,46480,2,0,L|441:223,1,75,8|0,0:0|0:0,0:0:0:0:
406,41,46687,1,8,0:0:0:0:
325,83,46790,2,0,L|335:158,1,75,0|8,0:0|0:0,0:0:0:0:
435,222,46997,1,8,0:0:0:0:
440,101,47100,1,8,0:0:0:0:
335,158,47204,38,0,B|305:169|305:169|262:174,2,75,4|8|0,0:0|0:0|0:0,0:0:0:0:
266,97,47514,1,8,0:0:0:0:
186,144,47618,1,4,0:0:0:0:
207,235,47721,1,8,0:0:0:0:
301,243,47825,2,0,B|315:271|315:271|325:313,1,75,4|8,0:0|0:0,0:0:0:0:
234,367,48032,5,0,0:0:0:0:
206,369,48083,1,0,0:0:0:0:
177,368,48135,1,0,0:0:0:0:
149,362,48187,1,0,0:0:0:0:
122,353,48238,2,0,P|103:346|85:336,1,37.5
132,247,48342,1,8,0:0:0:0:
132,218,48393,1,0,0:0:0:0:
132,190,48445,1,0,0:0:0:0:
126,161,48497,1,0,0:0:0:0:
117,135,48548,2,0,P|110:115|100:98,1,37.5
28,168,48652,1,12,0:0:0:0:
235,197,48859,38,0,B|286:188|286:188|307:178,1,75,8|0,0:0|0:0,0:0:0:0:
256,104,49014,1,0,0:0:0:0:
256,104,49066,2,0,B|276:93|276:93|327:84,1,75,8|0,0:0|0:0,0:0:0:0:
392,147,49221,1,0,0:0:0:0:
392,147,49273,2,0,B|396:168|396:168|391:220,1,75,8|0,0:0|0:0,0:0:0:0:
307,178,49428,1,0,0:0:0:0:
307,178,49480,2,0,B|311:199|311:199|306:251,1,75,8|0,0:0|0:0,0:0:0:0:
255,327,49635,1,0,0:0:0:0:
255,327,49687,6,0,B|275:337|275:337|326:346,1,75,8|0,0:0|0:0,0:0:0:0:
306,252,49842,1,0,0:0:0:0:
306,252,49894,2,0,B|285:241|285:241|234:232,1,75,8|0,0:0|0:0,0:0:0:0:
147,227,50049,1,0,0:0:0:0:
147,227,50100,2,0,L|72:233,1,75,8|0,0:0|0:0,0:0:0:0:
142,137,50256,1,0,0:0:0:0:
142,137,50307,2,0,L|74:105,1,75,8|0,0:0|0:0,0:0:0:0:
191,60,50463,1,0,0:0:0:0:
191,60,50514,38,0,L|251:15,1,75,12|0,0:0|0:0,0:0:0:0:
272,112,50721,2,0,L|332:67,1,75
104,106,50928,2,0,L|33:132,1,75
100,203,51135,2,0,L|29:229,1,75
268,208,51342,6,0,L|275:282,1,75
181,253,51549,2,0,L|188:327,1,75
165,81,51755,2,0,L|157:6,1,75
259,108,51963,2,0,L|251:33,1,75
350,148,52169,38,0,L|412:105,1,75,12|0,0:0|0:0,0:0:0:0:
427,211,52325,1,0,0:0:0:0:
427,211,52376,2,0,L|502:205,1,75,8|0,0:0|0:0,0:0:0:0:
471,301,52532,1,0,0:0:0:0:
471,301,52583,2,0,B|419:305|419:305|397:301,1,75,8|0,0:0|0:0,0:0:0:0:
335,229,52738,1,0,0:0:0:0:
335,229,52790,2,0,B|313:224|313:224|261:229,1,75,8|0,0:0|0:0,0:0:0:0:
172,250,52945,1,0,0:0:0:0:
172,250,52997,6,0,B|170:227|170:227|151:178,1,75,8|0,0:0|0:0,0:0:0:0:
81,238,53152,1,0,0:0:0:0:
81,238,53204,2,0,B|79:215|79:215|60:166,1,75,8|0,0:0|0:0,0:0:0:0:
119,94,53359,1,0,0:0:0:0:
119,94,53411,2,0,L|131:20,1,75,8|0,0:0|0:0,0:0:0:0:
207,80,53566,1,0,0:0:0:0:
207,80,53618,2,0,L|221:-3,1,75,8|0,0:0|0:0,0:0:0:0:
347,108,53825,37,12,0:0:0:0:
329,226,53928,1,0,0:0:0:0:
147,307,54135,5,8,0:0:0:0:
129,189,54238,1,8,0:0:0:0:
329,226,54445,37,8,0:0:0:0:
311,344,54548,1,8,0:0:0:0:
129,189,54756,5,8,0:0:0:0:
111,71,54859,1,8,0:0:0:0:
365,22,55066,37,8,0:0:0:0:
347,108,55169,1,8,0:0:0:0:
434,126,55272,1,8,0:0:0:0:
451,39,55376,1,8,0:0:0:0:
347,108,55480,6,0,L|277:141,1,75,12|0,0:0|0:0,0:0:0:0:
179,144,55635,1,0,0:0:0:0:
179,144,55687,2,0,B|131:166|131:166|115:181,1,75,8|0,0:0|0:0,0:0:0:0:
101,285,55842,1,0,0:0:0:0:
101,285,55894,2,0,B|123:281|123:281|171:260,1,75,8|0,0:0|0:0,0:0:0:0:
273,260,56049,1,0,0:0:0:0:
273,260,56100,2,0,B|320:281|320:281|342:285,1,75,8|0,0:0|0:0,0:0:0:0:
391,196,56256,1,0,0:0:0:0:
391,196,56307,38,0,B|374:181|374:181|327:158,1,75,8|0,0:0|0:0,0:0:0:0:
233,106,56463,1,0,0:0:0:0:
233,106,56514,2,0,L|143:97,1,75,8|0,0:0|0:0,0:0:0:0:
173,203,56669,1,0,0:0:0:0:
173,203,56721,2,0,L|90:240,1,75,8|0,0:0|0:0,0:0:0:0:
169,317,56876,1,0,0:0:0:0:
169,317,56928,2,0,L|116:390,1,75,8|0,0:0|0:0,0:0:0:0:
245,362,57083,1,0,0:0:0:0:
245,362,57135,6,0,L|335:370,1,75,12|0,0:0|0:0,0:0:0:0:
299,281,57342,2,0,B|350:286|350:286|371:294,1,75
171,231,57549,2,0,L|80:239,1,75
117,150,57756,2,0,B|65:155|65:155|44:163,1,75
275,93,57963,38,0,L|312:10,1,75
372,86,58170,2,0,B|393:38|393:38|397:16,1,75
352,280,58376,2,0,B|360:331|360:331|358:353,1,75
261,249,58583,2,0,L|275:338,1,75
174,189,58790,6,0,L|105:182,1,56.2500021457673
161,169,58997,2,0,L|92:162,1,56.2500021457673
148,149,59204,2,0,L|79:142,1,56.2500021457673
135,129,59411,2,0,L|66:122,1,56.2500021457673
309,133,59618,37,8,0:0:0:0:
309,133,59669,1,0,0:0:0:0:
309,133,59721,1,0,0:0:0:0:
309,133,59773,1,0,0:0:0:0:
309,133,59825,2,0,P|362:156|379:172,1,75
301,228,59980,1,0,0:0:0:0:
301,228,60032,2,0,P|346:262|358:283,1,75
294,384,60187,1,0,0:0:0:0:
294,384,60238,2,0,P|289:347|272:314,1,75
100,273,60394,1,0,0:0:0:0:
95,299,60445,6,0,P|131:360|207:375,1,150,4|0,0:0|0:0,0:0:0:0:
184,288,60704,1,0,0:0:0:0:
197,263,60756,1,0,0:0:0:0:
205,232,60807,1,0,0:0:0:0:
206,203,60859,2,0,P|203:176|195:155,3,37.5
132,104,61066,2,0,P|107:93|84:89,3,37.5
50,218,61273,38,0,P|72:217|96:209,4,37.5,12|0|0|0|0,0:0|0:0|0:0|0:0|0:0,0:0:0:0:
289,63,61583,2,0,P|300:48|307:30,4,37.5,12|0|0|0|0,0:0|0:0|0:0|0:0|0:0,0:0:0:0:
316,314,61894,1,12,0:0:0:0:
316,314,62100,22,0,L|390:319,1,75,0|8,0:0|0:0,0:0:0:0:
327,202,62307,2,0,L|253:208,1,75,0|8,0:0|0:0,0:0:0:0:
69,272,62514,1,0,0:0:0:0:
127,361,62618,1,8,0:0:0:0:
216,303,62721,1,0,0:0:0:0:
158,214,62825,1,8,0:0:0:0:
127,361,62928,6,0,L|121:286,1,75,4|8,0:0|0:0,0:0:0:0:
258,133,63135,2,0,L|252:207,1,75,0|8,0:0|0:0,0:0:0:0:
339,299,63342,1,0,0:0:0:0:
422,362,63445,1,8,0:0:0:0:
485,279,63548,1,0,0:0:0:0:
402,216,63652,1,8,0:0:0:0:
422,362,63756,38,0,P|452:378|507:383,1,75,4|8,0:0|0:0,0:0:0:0:
463,175,63963,2,0,P|429:190|402:216,1,75,0|8,0:0|0:0,0:0:0:0:
309,358,64169,1,0,0:0:0:0:
291,253,64273,1,8,0:0:0:0:
188,272,64376,1,0,0:0:0:0:
207,375,64480,1,8,0:0:0:0:
389,290,64583,6,0,L|401:215,1,75,4|8,0:0|0:0,0:0:0:0:
311,63,64790,2,0,L|368:110,1,75,0|8,0:0|0:0,0:0:0:0:
300,196,64997,2,0,L|229:222,1,75,0|8,0:0|0:0,0:0:0:0:
133,56,65204,2,0,L|120:130,1,75,0|8,0:0|0:0,0:0:0:0:
95,271,65411,38,0,B|68:285|68:285|15:290,1,75,4|8,0:0|0:0,0:0:0:0:
175,221,65618,2,0,B|202:207|202:207|255:202,1,75,0|8,0:0|0:0,0:0:0:0:
374,250,65825,1,0,0:0:0:0:
278,293,65928,1,8,0:0:0:0:
235,197,66032,1,0,0:0:0:0:
331,154,66135,1,8,0:0:0:0:
278,293,66238,6,0,L|270:377,1,75,4|8,0:0|0:0,0:0:0:0:
381,324,66445,2,0,L|374:250,1,75,0|8,0:0|0:0,0:0:0:0:
405,118,66652,1,0,0:0:0:0:
323,185,66756,1,8,0:0:0:0:
390,267,66859,1,0,0:0:0:0:
472,200,66963,1,8,0:0:0:0:
318,94,67066,38,0,L|236:87,1,75,4|8,0:0|0:0,0:0:0:0:
91,154,67273,2,0,L|165:160,1,75,0|8,0:0|0:0,0:0:0:0:
278,204,67480,1,0,0:0:0:0:
317,300,67583,1,8,0:0:0:0:
221,339,67687,1,0,0:0:0:0:
182,243,67790,1,8,0:0:0:0:
317,300,67894,6,0,L|391:293,1,75,4|0,0:0|0:0,0:0:0:0:
434,182,68100,2,0,L|474:194,3,37.5,8|0|0|0,0:0|0:0|0:0|0:0,0:0:0:0:
334,202,68307,2,0,L|303:230,3,37.5,8|0|0|0,0:0|0:0|0:0|0:0,0:0:0:0:
366,105,68514,2,0,L|356:64,3,37.5
398,266,68721,38,0,B|406:312|406:312|401:353,1,75,4|8,0:0|0:0,0:0:0:0:
272,264,68928,2,0,B|264:218|264:218|269:177,1,75,0|8,0:0|0:0,0:0:0:0:
313,44,69135,1,0,0:0:0:0:
214,77,69238,1,8,0:0:0:0:
247,176,69341,1,0,0:0:0:0:
346,143,69445,1,8,0:0:0:0:
214,77,69549,6,0,L|128:68,1,75,4|8,0:0|0:0,0:0:0:0:
58,196,69756,2,0,L|144:187,1,75,0|8,0:0|0:0,0:0:0:0:
265,218,69963,1,0,0:0:0:0:
316,309,70066,1,8,0:0:0:0:
225,360,70169,1,0,0:0:0:0:
174,269,70273,1,8,0:0:0:0:
316,309,70376,38,0,B|362:317|362:317|403:312,1,75,4|8,0:0|0:0,0:0:0:0:
453,176,70583,2,0,B|407:168|407:168|366:173,1,75,0|8,0:0|0:0,0:0:0:0:
248,211,70790,1,0,0:0:0:0:
196,118,70894,1,8,0:0:0:0:
288,66,70997,1,0,0:0:0:0:
340,159,71100,1,8,0:0:0:0:
196,118,71204,6,0,L|116:98,1,75,4|8,0:0|0:0,0:0:0:0:
273,184,71411,2,0,L|295:263,1,75,0|8,0:0|0:0,0:0:0:0:
292,84,71618,2,0,L|349:24,1,75,0|8,0:0|0:0,0:0:0:0:
177,219,71825,2,0,L|124:272,1,75,0|8,0:0|0:0,0:0:0:0:
278,237,72032,38,0,L|350:255,1,75,4|8,0:0|0:0,0:0:0:0:
484,187,72238,2,0,L|411:168,1,75,0|8,0:0|0:0,0:0:0:0:
279,137,72445,1,0,0:0:0:0:
176,110,72549,1,8,0:0:0:0:
101,185,72652,1,0,0:0:0:0:
128,287,72756,1,8,0:0:0:0:
334,341,72859,6,0,L|406:322,1,75,4|8,0:0|0:0,0:0:0:0:
493,201,73066,2,0,L|420:219,1,75,0|8,0:0|0:0,0:0:0:0:
288,251,73272,1,0,0:0:0:0:
185,278,73376,1,8,0:0:0:0:
110,203,73479,1,0,0:0:0:0:
137,101,73583,1,8,0:0:0:0:
343,47,73686,38,0,L|415:65,1,75,4|0,0:0|0:0,0:0:0:0:
493,201,73894,2,0,L|420:183,1,75,8|0,0:0|0:0,0:0:0:0:
260,88,74100,2,0,P|252:66|250:32,2,37.5,8|0|0,0:0|0:0|0:0,0:0:0:0:
296,222,74307,2,0,P|303:204|307:186,2,37.5
163,182,74514,6,0,P|128:163|86:159,1,75,8|8,0:0|0:0,0:0:0:0:
50,287,74721,1,8,0:0:0:0:
183,259,74825,1,8,0:0:0:0:
93,158,74928,1,8,0:0:0:0:
129,332,75032,1,0,0:0:0:0:
134,336,75083,1,0,0:0:0:0:
139,341,75135,1,0,0:0:0:0:
174,352,75186,1,0,0:0:0:0:
211,347,75238,1,0,0:0:0:0:
243,329,75290,1,0,0:0:0:0:
265,300,75341,37,4,0:0:0:0:
201,119,81135,22,0,B|255:113|255:113|292:99,2,75,8|0|0,0:0|0:0|0:0,0:0:0:0:
120,78,81445,2,0,B|87:34|87:34|57:10,2,75,8|0|0,0:0|0:0|0:0,0:0:0:0:
125,168,81756,2,0,B|103:219|103:219|96:257,1,75,12|0,0:0|0:0,0:0:0:0:
327,181,81962,6,0,B|386:131|354:57|354:57|366:79|366:79|376:50|408:32,1,225,4|0,0:0|0:0,0:0:0:0:
451,114,82376,1,8,0:0:0:0:
275,105,82480,2,0,P|249:128|235:174,1,75
464,282,82687,1,0,0:0:0:0:
424,200,82790,38,0,B|358:180|358:180|312:180,2,100
344,272,83204,1,8,0:0:0:0:
270,323,83307,1,0,0:0:0:0:
188,284,83411,1,0,0:0:0:0:
180,193,83514,1,0,0:0:0:0:
254,140,83618,6,0,L|362:128,2,100
135,115,84032,2,0,B|87:110|87:110|52:118,2,75,8|0|0,0:0|0:0|0:0,0:0:0:0:
180,193,84342,1,0,0:0:0:0:
284,227,84445,38,0,B|385:215|385:215|435:184,1,150
448,23,84756,1,0,0:0:0:0:
363,54,84859,2,0,B|353:102|353:102|352:148,1,75,8|0,0:0|0:0,0:0:0:0:
336,382,85066,2,0,L|328:307,1,75
181,148,85273,6,0,B|229:153|229:153|275:150,1,75,4|0,0:0|0:0,0:0:0:0:
342,127,85480,1,0,0:0:0:0:
364,40,85583,1,0,0:0:0:0:
277,64,85687,1,8,0:0:0:0:
301,151,85790,1,0,0:0:0:0:
388,127,85894,1,0,0:0:0:0:
324,63,85997,1,0,0:0:0:0:
366,215,86100,38,0,B|397:219|397:219|440:212,1,75
404,299,86307,1,0,0:0:0:0:
314,288,86411,1,0,0:0:0:0:
278,204,86514,1,8,0:0:0:0:
332,130,86618,1,0,0:0:0:0:
420,145,86721,2,0,L|508:130,1,75
388,54,86928,6,0,L|300:39,1,75
116,60,87135,1,0,0:0:0:0:
207,49,87238,1,0,0:0:0:0:
241,133,87342,2,0,B|247:163|247:163|243:208,1,75,8|0,0:0|0:0,0:0:0:0:
181,358,87549,1,0,0:0:0:0:
155,271,87652,1,0,0:0:0:0:
229,217,87756,38,0,L|314:228,1,75
489,287,87963,1,0,0:0:0:0:
512,199,88066,1,0,0:0:0:0:
438,145,88169,2,0,L|354:157,1,75,8|0,0:0|0:0,0:0:0:0:
183,199,88376,1,0,0:0:0:0:
183,199,88480,1,0,0:0:0:0:
189,289,88583,6,0,L|261:250,1,75,4|0,0:0|0:0,0:0:0:0:
102,159,88790,2,0,L|99:241,1,75
257,148,88997,2,0,L|187:104,1,75,8|0,0:0|0:0,0:0:0:0:
123,325,89204,2,0,L|189:289,1,75
393,207,89411,38,0,B|397:173|397:173|390:132,1,75
319,9,89618,1,0,0:0:0:0:
236,44,89721,1,0,0:0:0:0:
234,134,89825,2,0,L|306:168,1,75,8|0,0:3|0:3,0:3:0:0:
352,296,90032,1,0,0:0:0:0:
290,359,90135,1,0,0:0:0:0:
203,331,90238,6,0,L|130:296,1,75
36,222,90445,1,0,0:0:0:0:
32,131,90549,1,0,0:0:0:0:
110,87,90652,2,0,B|148:83|148:83|186:93,1,75,8|0,0:0|0:0,0:0:0:0:
202,177,90859,1,0,0:0:0:0:
111,177,90963,1,0,0:0:0:0:
64,251,91066,38,0,P|68:291|91:326,1,75
155,257,91273,1,0,0:0:0:0:
23,170,91376,1,0,0:0:0:0:
183,92,91480,2,0,L|199:5,1,75,8|0,0:0|0:0,0:0:0:0:
117,155,91687,2,0,L|38:169,1,75
202,177,91894,6,0,P|238:188|276:186,1,75,4|0,0:0|0:0,0:0:0:0:
505,59,92100,1,0,0:0:0:0:
422,21,92204,1,0,0:0:0:0:
347,72,92307,2,0,L|362:154,1,75,8|0,0:0|0:0,0:0:0:0:
389,306,92514,1,0,0:0:0:0:
306,344,92618,1,0,0:0:0:0:
231,293,92721,38,0,L|246:212,1,75
201,79,92928,1,0,0:0:0:0:
117,45,93032,1,0,0:0:0:0:
45,99,93135,2,0,P|28:132|21:168,1,75,8|0,0:0|0:0,0:0:0:0:
213,170,93342,1,0,0:0:0:0:
201,79,93445,1,0,0:0:0:0:
128,137,93549,5,0,0:0:0:0:
124,144,93618,1,8,0:0:0:0:
120,151,93686,1,0,0:0:0:0:
116,157,93756,2,0,L|111:207,2,37.5
188,276,93963,2,0,L|193:324,2,37.5,8|0|0,0:0|0:0|0:0,0:0:0:0:
307,301,94169,1,8,0:0:0:0:
428,240,94273,1,0,0:0:0:0:
314,166,94376,38,0,B|267:161|267:161|226:170,1,75,0|8,0:0|0:0,0:0:0:0:
403,354,94583,1,0,0:0:0:0:
421,221,94687,1,8,0:0:0:0:
306,148,94790,2,0,B|259:143|259:143|218:152,1,75,0|8,0:0|0:0,0:0:0:0:
111,282,94997,2,0,B|138:243|138:243|151:203,1,75,0|8,0:0|0:0,0:0:0:0:
94,48,95204,6,0,B|113:91|113:91|141:122,1,75,4|8,0:0|0:0,0:0:0:0:
257,40,95411,1,0,0:0:0:0:
270,37,95463,1,0,0:0:0:0:
286,38,95514,1,8,0:0:0:0:
300,40,95566,1,0,0:0:0:0:
315,41,95618,2,0,P|354:54|394:81,1,75,0|8,0:0|0:0,0:0:0:0:
326,349,95825,1,0,0:0:0:0:
381,276,95928,1,8,0:0:0:0:
353,189,96032,38,0,P|329:164|295:141,1,75,0|8,0:0|0:0,0:0:0:0:
123,177,96238,1,0,0:0:0:0:
110,189,96290,1,0,0:0:0:0:
100,203,96342,1,8,0:0:0:0:
93,216,96394,1,0,0:0:0:0:
90,230,96445,2,0,P|89:267|97:304,1,75,0|8,0:0|0:0,0:0:0:0:
249,352,96652,1,0,0:0:0:0:
344,359,96756,1,8,0:0:0:0:
381,276,96859,6,0,L|372:197,1,75,4|8,0:0|0:0,0:0:0:0:
326,73,97066,1,0,0:0:0:0:
310,72,97118,1,0,0:0:0:0:
295,73,97169,1,8,0:0:0:0:
280,75,97221,1,0,0:0:0:0:
265,79,97273,2,0,P|239:106|221:140,1,75,0|8,0:0|0:0,0:0:0:0:
100,199,97480,1,0,0:0:0:0:
103,237,97532,1,0,0:0:0:0:
114,273,97583,1,8,0:0:0:0:
137,303,97635,1,0,0:0:0:0:
169,322,97687,38,0,L|254:315,1,75,4|0,0:0|0:0,0:0:0:0:
410,185,97894,1,0,0:0:0:0:
369,102,97997,1,0,0:0:0:0:
277,91,98100,2,0,B|241:112|241:112|218:143,1,75,0|8,0:0|0:0,0:0:0:0:
86,126,98307,2,0,B|86:167|86:167|101:203,1,75,0|8,0:0|0:0,0:0:0:0:
355,360,98514,6,0,L|265:366,1,75,4|8,0:0|0:0,0:0:0:0:
287,260,98721,2,0,L|207:220,1,75,0|8,0:0|0:0,0:0:0:0:
323,70,98928,2,0,L|328:145,1,75,0|8,0:0|0:0,0:0:0:0:
475,272,99135,2,0,L|407:239,1,75,0|8,0:0|0:0,0:0:0:0:
225,301,99342,38,0,L|287:260,1,75,0|8,0:0|0:0,0:0:0:0:
481,94,99549,1,0,0:0:0:0:
407,37,99652,1,8,0:0:0:0:
323,70,99756,2,0,L|329:156,1,75,0|8,0:0|0:0,0:0:0:0:
436,300,99963,1,0,0:0:0:0:
429,211,100066,1,8,0:0:0:0:
353,259,100169,6,0,L|345:339,1,75,4|8,0:0|0:0,0:0:0:0:
241,384,100376,2,0,L|233:304,1,75,0|8,0:0|0:0,0:0:0:0:
366,37,100583,2,0,L|327:101,1,75,0|8,0:0|0:0,0:0:0:0:
172,134,100790,2,0,L|247:142,1,75,0|8,0:0|0:0,0:0:0:0:
353,259,100997,38,0,L|323:191,1,75,4|8,0:0|0:0,0:0:0:0:
65,16,101204,2,0,L|95:84,1,75,0|8,0:0|0:0,0:0:0:0:
333,276,101411,2,0,L|298:196,1,75,0|8,0:0|0:0,0:0:0:0:
45,33,101618,1,0,0:0:0:0:
111,249,101721,6,0,P|109:286|98:321,2,75,8|4|8,0:0|0:0|0:0,0:0:0:0:
55,172,102032,2,0,P|31:164|6:162,2,50
223,249,102238,37,0,0:0:0:0:
184,204,102307,1,0,0:0:0:0:
170,145,102376,1,0,0:0:0:0:
183,87,102445,1,0,0:0:0:0:
187,93,102514,1,0,0:0:0:0:
191,99,102583,1,0,0:0:0:0:
194,105,102652,6,0,L|182:155,2,50
291,148,102859,2,0,L|302:202,2,50
211,235,103066,2,0,L|198:288,2,50
304,298,103273,2,0,L|316:352,2,50
401,343,103480,37,4,0:0:0:0:
451,342,103549,1,0,0:0:0:0:
491,312,103618,1,0,0:0:0:0:
503,265,103687,1,0,0:0:0:0:
467,253,103756,1,0,0:0:0:0:
437,229,103825,1,0,0:0:0:0:
420,195,103894,5,0,0:0:0:0:
437,185,103963,1,0,0:0:0:0:
451,170,104032,1,0,0:0:0:0:
457,151,104100,1,0,0:0:0:0:
455,143,104169,1,0,0:0:0:0:
452,135,104238,1,0,0:0:0:0:
449,127,104307,37,4,0:0:0:0:
412,92,104376,1,0,0:0:0:0:
364,75,104445,1,0,0:0:0:0:
315,64,104514,2,0,P|292:62|265:63,2,50
228,138,104721,2,0,P|205:140|176:138,2,50
336,177,104928,2,0,P|358:215|366:253,1,75
298,344,105135,5,4,0:0:0:0:
206,352,105238,1,0,0:0:0:0:
197,263,105342,1,0,0:0:0:0:
287,252,105445,1,0,0:0:0:0:
250,335,105549,1,8,0:0:0:0:
168,298,105652,1,0,0:0:0:0:
204,215,105756,1,0,0:0:0:0:
256,288,105859,1,0,0:0:0:0:
184,340,105963,37,0,0:0:0:0:
102,303,106066,1,0,0:0:0:0:
94,215,106169,1,0,0:0:0:0:
166,161,106273,1,0,0:0:0:0:
155,72,106376,1,8,0:0:0:0:
72,37,106480,1,0,0:0:0:0:
0,91,106583,1,0,0:0:0:0:
11,180,106687,1,0,0:0:0:0:
105,225,106790,5,8,0:0:0:0:
97,122,106894,1,0,0:0:0:0:
11,180,106997,1,8,0:0:0:0:
26,268,107100,1,0,0:0:0:0:
98,319,107204,1,8,0:0:0:0:
184,304,107307,1,0,0:0:0:0:
227,229,107411,1,8,0:0:0:0:
313,214,107514,1,0,0:0:0:0:
368,280,107618,37,12,0:0:0:0:
410,165,107721,2,0,L|396:199,3,37.5
313,214,107928,1,12,0:0:0:0:
355,98,108031,2,0,L|341:132,3,37.5
258,151,108238,2,0,P|221:161|184:160,1,75,12|0,0:0|0:0,0:0:0:0:
15,71,108445,6,0,B|23:103|23:103|20:152,1,75,0|8,0:0|0:0,0:0:0:0:
47,307,108652,2,0,B|52:247|52:247|61:234,1,75,0|8,0:0|0:0,0:0:0:0:
184,160,108859,2,0,P|155:137|119:128,1,75,0|8,0:0|0:0,0:0:0:0:
136,289,109066,1,0,0:0:0:0:
223,273,109169,1,8,0:0:0:0:
257,191,109273,38,0,L|251:265,1,75,0|8,0:0|0:0,0:0:0:0:
347,310,109480,2,0,L|341:235,1,75,0|8,0:0|0:0,0:0:0:0:
173,372,109687,2,0,L|247:358,1,75,0|8,0:0|0:0,0:0:0:0:
512,307,109894,2,0,L|431:292,1,75,0|8,0:0|0:0,0:0:0:0:
340,165,110100,6,0,L|353:91,1,75,4|8,0:0|0:0,0:0:0:0:
242,45,110307,2,0,L|255:118,1,75,0|8,0:0|0:0,0:0:0:0:
144,165,110514,2,0,L|157:91,1,75,0|8,0:0|0:0,0:0:0:0:
46,45,110721,2,0,L|59:118,1,75,0|8,0:0|0:0,0:0:0:0:
61,305,110928,38,0,L|117:255,1,75,4|8,0:0|0:0,0:0:0:0:
327,349,111135,2,0,L|252:337,1,75,0|8,0:0|0:0,0:0:0:0:
207,237,111342,2,0,L|281:248,1,75,0|8,0:0|0:0,0:0:0:0:
416,331,111549,2,0,L|472:282,1,75,0|8,0:0|0:0,0:0:0:0:
452,97,111756,5,4,0:0:0:0:
390,31,111859,1,8,0:0:0:0:
301,51,111963,1,0,0:0:0:0:
273,138,112066,1,8,0:0:0:0:
373,263,112169,37,0,0:0:0:0:
311,329,112272,1,8,0:0:0:0:
222,309,112376,1,0,0:0:0:0:
194,222,112479,1,8,0:0:0:0:
329,138,112583,5,0,0:0:0:0:
301,51,112686,1,8,0:0:0:0:
212,31,112790,1,0,0:0:0:0:
150,97,112893,1,8,0:0:0:0:
250,222,112997,37,0,0:0:0:0:
222,309,113100,1,8,0:0:0:0:
133,329,113204,1,0,0:0:0:0:
71,263,113307,1,8,0:0:0:0:
96,74,113411,6,0,B|61:110|61:110|44:136,1,75,4|8,0:0|0:0,0:0:0:0:
163,277,113618,2,0,B|198:241|198:241|215:215,1,75,0|8,0:0|0:0,0:0:0:0:
96,74,113825,2,0,B|109:122|109:122|123:150,1,75,0|8,0:0|0:0,0:0:0:0:
286,142,114031,2,0,B|272:93|272:93|258:65,1,75,0|8,0:0|0:0,0:0:0:0:
96,74,114238,38,0,B|144:86|144:86|175:88,1,75,4|8,0:0|0:0,0:0:0:0:
365,78,114445,1,0,0:0:0:0:
452,102,114549,1,8,0:0:0:0:
474,189,114652,1,0,0:0:0:0:
409,252,114756,1,8,0:0:0:0:
323,227,114859,1,0,0:0:0:0:
258,290,114963,1,8,0:0:0:0:
280,377,115066,6,0,B|326:382|326:382|358:373,1,75,4|8,0:0|0:0,0:0:0:0:
409,252,115273,1,0,0:0:0:0:
387,164,115376,1,8,0:0:0:0:
299,139,115480,1,0,0:0:0:0:
236,202,115583,1,8,0:0:0:0:
148,177,115687,1,0,0:0:0:0:
126,89,115790,1,8,0:0:0:0:
191,25,115894,37,0,0:0:0:0:
193,30,115945,1,0,0:0:0:0:
195,35,115997,2,0,L|209:82,1,37.5
312,71,116100,1,0,0:0:0:0:
310,76,116151,1,0,0:0:0:0:
308,81,116204,2,0,L|294:128,1,37.5
212,174,116307,1,8,0:0:0:0:
207,201,116359,1,0,0:0:0:0:
207,229,116411,1,0,0:0:0:0:
212,256,116463,1,0,0:0:0:0:
223,281,116514,2,0,P|247:316|293:343,1,75,12|0,0:0|0:0,0:0:0:0:
341,253,116721,6,0,P|379:271|432:271,1,75,4|0,0:0|0:0,0:0:0:0:
416,169,116928,2,0,P|458:165|504:139,1,75
388,61,117135,1,0,0:0:0:0:
391,56,117187,1,0,0:0:0:0:
394,51,117238,2,0,L|401:12,1,37.5
289,65,117342,1,8,0:0:0:0:
290,59,117394,1,0,0:0:0:0:
292,53,117445,2,0,L|288:13,1,37.5
193,93,117549,37,8,0:0:0:0:
170,109,117600,1,0,0:0:0:0:
151,130,117652,1,0,0:0:0:0:
135,153,117704,1,0,0:0:0:0:
123,179,117756,2,0,P|117:208|117:224,3,37.5
163,294,117963,5,8,0:0:0:0:
35,178,118066,1,8,0:0:0:0:
206,195,118169,1,8,0:0:0:0:
54,283,118273,1,8,0:0:0:0:
126,124,118376,38,0,B|190:61|271:109|271:109|257:82|257:82|319:108|369:61,1,300,12|0,0:0|0:0,0:0:0:0:
423,176,120032,5,4,0:0:0:0:
217,303,120859,37,0,0:0:0:0:
206,276,120910,1,0,0:0:0:0:
202,249,120962,1,0,0:0:0:0:
205,221,121014,1,0,0:0:0:0:
214,194,121065,1,0,0:0:0:0:
222,167,121117,1,0,0:0:0:0:
225,139,121169,1,0,0:0:0:0:
221,111,121221,1,0,0:0:0:0:
211,85,121273,6,0,P|199:64|177:42,3,37.5
100,61,121480,2,0,P|87:82|79:112,3,37.5,8|0|0|0,0:0|0:0|0:0|0:0,0:0:0:0:
106,182,121687,38,0,B|114:228|114:228|109:264,1,75,4|8,0:0|0:0,0:0:0:0:
18,159,121894,1,0,0:0:0:0:
170,118,121997,2,0,L|250:97,1,75,8|0,0:0|0:0,0:0:0:0:
83,94,122204,1,8,0:0:0:0:
193,206,122307,2,0,L|251:264,1,75,0|8,0:0|0:0,0:0:0:0:
129,270,122514,5,0,0:0:0:0:
258,143,122618,2,0,L|338:122,1,75,8|0,0:0|0:0,0:0:0:0:
236,55,122825,1,8,0:0:0:0:
193,206,122928,2,0,L|171:285,1,75,0|8,0:0|0:0,0:0:0:0:
230,376,123135,1,0,0:0:0:0:
314,242,123238,1,8,0:0:0:0:
389,292,123342,37,4,0:0:0:0:
309,332,123445,1,0,0:0:0:0:
269,252,123549,1,0,0:0:0:0:
349,212,123652,2,0,B|383:204|383:204|426:208,2,75,12|0|0,0:0|0:0|0:0,0:0:0:0:
269,252,123963,5,12,0:0:0:0:
207,189,124066,1,0,0:0:0:0:
248,111,124169,1,0,0:0:0:0:
335,126,124273,2,0,B|363:118|363:118|404:93,2,75,12|0|0,0:0|0:0|0:0,0:0:0:0:
248,111,124583,37,8,0:0:0:0:
245,105,124635,1,0,0:0:0:0:
242,99,124687,2,0,L|247:55,1,37.5
140,119,124790,1,0,0:0:0:0:
135,113,124842,1,0,0:0:0:0:
131,108,124894,2,0,L|124:64,1,37.5
68,177,124997,6,0,L|80:265,1,75,4|8,0:0|0:0,0:0:0:0:
199,189,125204,1,0,0:0:0:0:
146,312,125307,2,0,L|55:353,1,75,8|0,0:0|0:0,0:0:0:0:
116,226,125514,1,8,0:0:0:0:
237,312,125618,2,0,L|328:353,1,75,0|8,0:0|0:0,0:0:0:0:
279,231,125825,37,0,0:0:0:0:
412,252,125928,2,0,L|511:242,1,75,8|0,0:0|0:0,0:0:0:0:
355,181,126135,1,8,0:0:0:0:
199,189,126238,2,0,L|104:178,1,75,8|0,0:0|0:0,0:0:0:0:
265,128,126445,1,8,0:0:0:0:
279,150,126497,1,0,0:0:0:0:
288,177,126549,1,0,0:0:0:0:
288,204,126600,1,0,0:0:0:0:
279,231,126652,6,0,B|261:274|261:274|237:305,1,75,12|8,0:0|0:0,0:0:0:0:
82,321,126859,1,0,0:0:0:0:
147,182,126963,2,0,L|152:94,1,75,8|0,0:0|0:0,0:0:0:0:
82,10,127169,1,8,0:0:0:0:
12,107,127273,2,0,L|17:182,1,75,0|8,0:0|0:0,0:0:0:0:
122,286,127480,38,0,L|114:335,2,50,12|0|0,0:0|0:0|0:0,0:0:0:0:
189,210,127686,2,0,L|184:160,2,50,12|0|0,0:0|0:0|0:0,0:0:0:0:
221,307,127893,2,0,L|213:356,2,50,12|0|0,0:0|0:0|0:0,0:0:0:0:
288,231,128100,2,0,L|283:181,2,50,12|0|0,0:0|0:0|0:0,0:0:0:0:
382,295,128307,6,0,B|390:249|390:249|387:208,1,75,4|8,0:0|0:0,0:0:0:0:
323,120,128514,1,0,0:0:0:0:
459,126,128618,2,0,L|493:57,1,75,8|0,0:0|0:0,0:0:0:0:
372,43,128825,1,8,0:0:0:0:
389,183,128928,2,0,B|368:224|368:224|341:256,1,75,0|8,0:0|0:0,0:0:0:0:
224,301,129135,37,8,0:0:0:0:
341,350,129238,2,0,L|427:330,1,75,8|0,0:0|0:0,0:0:0:0:
258,207,129445,1,8,0:0:0:0:
130,230,129549,2,0,L|44:210,1,75,8|0,0:0|0:0,0:0:0:0:
210,81,129755,1,0,0:0:0:0:
238,76,129807,1,0,0:0:0:0:
267,78,129859,1,0,0:0:0:0:
293,89,129911,1,0,0:0:0:0:
315,106,129963,6,0,P|339:138|350:175,1,75,4|0,0:0|0:0,0:0:0:0:
71,256,130169,1,0,0:0:0:0:
163,179,130273,2,0,L|241:171,1,75,4|8,0:0|0:0,0:0:0:0:
86,284,130480,1,0,0:0:0:0:
230,282,130583,2,0,L|307:293,1,75,4|0,0:0|0:0,0:0:0:0:
450,323,130790,38,0,B|440:231|440:231|447:173,1,150,4|8,0:0|0:0,0:0:0:0:
393,65,131100,2,0,L|315:76,1,75
199,60,131307,1,8,0:0:0:0:
245,172,131411,2,0,L|322:183,1,75
175,230,131618,6,0,L|186:304,1,75,12|0,0:0|0:0,0:0:0:0:
107,350,131773,1,0,0:0:0:0:
107,350,131825,2,0,L|95:275,1,75,8|0,0:0|0:0,0:0:0:0:
96,185,131980,1,0,0:0:0:0:
96,185,132032,2,0,B|90:141|90:141|77:110,1,75,8|0,0:0|0:0,0:0:0:0:
174,139,132187,1,0,0:0:0:0:
174,139,132239,2,0,B|168:95|168:95|155:64,1,75,8|0,0:0|0:0,0:0:0:0:
244,83,132394,1,0,0:0:0:0:
244,83,132445,38,0,L|318:71,1,75,8|0,0:0|0:0,0:0:0:0:
311,162,132600,1,0,0:0:0:0:
311,162,132652,2,0,L|385:170,1,75,8|0,0:0|0:0,0:0:0:0:
355,255,132807,1,0,0:0:0:0:
355,255,132859,2,0,L|424:282,1,75,8|0,0:0|0:0,0:0:0:0:
341,345,133014,1,0,0:0:0:0:
341,345,133066,2,0,B|299:361|299:361|266:366,1,75,8|0,0:0|0:0,0:0:0:0:
185,331,133221,1,0,0:0:0:0:
185,331,133273,6,0,L|110:322,1,75,12|0,0:0|0:0,0:0:0:0:
172,241,133480,2,0,L|97:232,1,75
368,262,133687,2,0,L|437:234,1,75
357,171,133894,2,0,L|426:143,1,75
160,111,134100,38,0,L|168:36,1,75
250,98,134307,2,0,L|258:23,1,75
281,295,134514,2,0,L|308:364,1,75
191,306,134721,2,0,L|218:375,1,75
107,273,134928,6,0,B|65:257|65:257|32:252,1,75,12|0,0:0|0:0,0:0:0:0:
42,342,135083,1,0,0:0:0:0:
42,342,135135,2,0,B|84:358|84:358|117:363,1,75,8|0,0:0|0:0,0:0:0:0:
191,306,135290,1,0,0:0:0:0:
191,306,135342,2,0,B|195:276|195:276|192:231,1,75,8|0,0:0|0:0,0:0:0:0:
281,249,135497,1,0,0:0:0:0:
281,249,135549,2,0,B|277:204|277:204|282:174,1,75,8|0,0:0|0:0,0:0:0:0:
350,114,135704,1,0,0:0:0:0:
350,114,135756,38,0,L|428:109,1,75,8|0,0:0|0:0,0:0:0:0:
372,27,135911,1,0,0:0:0:0:
372,27,135963,2,0,L|294:22,1,75,8|0,0:0|0:0,0:0:0:0:
231,83,136118,1,0,0:0:0:0:
231,83,136169,2,0,L|236:161,1,75,8|0,0:0|0:0,0:0:0:0:
136,180,136325,1,0,0:0:0:0:
136,180,136376,2,0,L|141:102,1,75,8|0,0:0|0:0,0:0:0:0:
319,110,136583,5,4,0:0:0:0:
432,154,136687,1,0,0:0:0:0:
193,286,136894,37,0,0:0:0:0:
80,242,136998,1,0,0:0:0:0:
343,224,137204,5,0,0:0:0:0:
356,344,137308,1,0,0:0:0:0:
172,170,137514,37,0,0:0:0:0:
159,50,137618,1,0,0:0:0:0:
322,64,137825,5,8,0:0:0:0:
306,152,137928,1,8,0:0:0:0:
394,168,138032,1,8,0:0:0:0:
410,80,138135,1,8,0:0:0:0:
306,152,138238,38,0,B|302:200|302:200|307:233,1,75,12|0,0:0|0:0,0:0:0:0:
221,259,138394,1,0,0:0:0:0:
221,259,138445,2,0,B|225:211|225:211|220:178,1,75,8|0,0:0|0:0,0:0:0:0:
143,137,138600,1,0,0:0:0:0:
143,137,138652,2,0,B|139:185|139:185|144:218,1,75,8|0,0:0|0:0,0:0:0:0:
58,244,138807,1,0,0:0:0:0:
58,244,138859,2,0,B|62:196|62:196|57:163,1,75,8|0,0:0|0:0,0:0:0:0:
73,80,139014,1,0,0:0:0:0:
73,80,139066,6,0,B|93:62|93:62|136:41,1,75,8|0,0:0|0:0,0:0:0:0:
216,84,139221,1,0,0:0:0:0:
216,84,139273,2,0,B|236:101|236:101|279:122,1,75,8|0,0:0|0:0,0:0:0:0:
359,80,139428,1,0,0:0:0:0:
359,80,139480,1,8,0:0:0:0:
386,75,139532,1,0,0:0:0:0:
413,79,139583,1,0,0:0:0:0:
435,96,139635,1,0,0:0:0:0:
448,120,139687,1,8,0:0:0:0:
433,144,139739,1,0,0:0:0:0:
430,171,139791,1,0,0:0:0:0:
440,197,139842,1,0,0:0:0:0:
458,218,139894,38,0,L|468:298,1,75,4|0,0:0|0:0,0:0:0:0:
378,262,140100,2,0,L|388:342,1,75
208,147,140307,2,0,L|198:67,1,75
128,191,140514,2,0,L|118:111,1,75
321,32,140721,6,0,L|312:107,1,75
401,76,140928,2,0,L|392:151,1,75
266,322,141135,2,0,L|277:248,1,75
177,343,141342,2,0,L|188:269,1,75
102,229,141549,37,4,0:0:0:0:
85,141,141653,1,0,0:0:0:0:
152,82,141756,1,8,0:0:0:0:
240,102,141859,2,0,L|266:66,2,37.5
330,170,142066,2,0,L|367:175,2,37.5
229,208,142273,1,0,0:0:0:0:
230,214,142325,1,0,0:0:0:0:
231,220,142377,5,8,0:0:0:0:
316,285,142480,1,8,0:0:0:0:
381,200,142583,1,8,0:0:0:0:
296,135,142687,1,8,0:0:0:0:
236,239,142790,1,8,0:0:0:0:
335,279,142893,1,8,0:0:0:0:
375,180,142996,1,8,0:0:0:0:
276,140,143100,1,8,0:0:0:0:
291,246,143204,37,4,0:0:0:0:
256,192,143256,12,8,144445,0:0:0:0:
370,137,144859,22,0,L|358:51,1,75,4|8,0:0|0:0,0:0:0:0:
247,139,145066,2,0,L|235:225,1,75,0|8,0:0|0:0,0:0:0:0:
264,354,145273,1,0,0:0:0:0:
190,281,145376,1,8,0:0:0:0:
263,207,145479,1,0,0:0:0:0:
337,280,145583,1,8,0:0:0:0:
190,281,145687,6,0,B|148:285|148:285|114:278,1,75,4|8,0:0|0:0,0:0:0:0:
52,158,145894,2,0,B|95:154|95:154|128:161,1,75,0|8,0:0|0:0,0:0:0:0:
263,207,146100,1,0,0:0:0:0:
326,122,146204,1,8,0:0:0:0:
241,59,146307,1,0,0:0:0:0:
178,144,146411,1,8,0:0:0:0:
326,122,146514,38,0,L|343:48,1,75,4|8,0:0|0:0,0:0:0:0:
393,182,146721,2,0,L|410:256,1,75,0|8,0:0|0:0,0:0:0:0:
228,299,146928,1,0,0:0:0:0:
202,196,147032,1,8,0:0:0:0:
304,171,147135,1,0,0:0:0:0:
331,274,147238,1,8,0:0:0:0:
199,173,147342,6,0,L|114:166,1,75,4|8,0:0|0:0,0:0:0:0:
39,274,147549,2,0,L|124:267,1,75,0|8,0:0|0:0,0:0:0:0:
280,106,147756,2,0,P|287:71|286:31,1,75,4|8,0:0|0:0,0:0:0:0:
215,277,147963,2,0,P|213:313|221:351,1,75,0|8,0:0|0:0,0:0:0:0:
355,337,148169,38,0,B|401:341|401:341|437:333,1,75,4|8,0:0|0:0,0:0:0:0:
480,209,148376,2,0,B|434:205|434:205|398:213,1,75,0|8,0:0|0:0,0:0:0:0:
290,284,148583,1,0,0:0:0:0:
219,205,148687,1,8,0:0:0:0:
298,134,148790,1,0,0:0:0:0:
369,213,148894,1,8,0:0:0:0:
219,205,148997,6,0,B|199:226|199:226|179:268,1,75,4|8,0:0|0:0,0:0:0:0:
52,316,149204,2,0,B|71:274|71:274|75:245,1,75,0|8,0:0|0:0,0:0:0:0:
46,113,149411,1,0,0:0:0:0:
140,67,149514,1,8,0:0:0:0:
186,161,149618,1,0,0:0:0:0:
92,207,149721,1,8,0:0:0:0:
140,67,149825,38,0,B|181:59|181:59|219:60,1,75,4|8,0:0|0:0,0:0:0:0:
361,128,150032,2,0,B|318:127|318:127|287:135,1,75,0|8,0:0|0:0,0:0:0:0:
174,208,150238,1,0,0:0:0:0:
215,305,150342,1,8,0:0:0:0:
312,264,150445,1,0,0:0:0:0:
271,167,150549,1,8,0:0:0:0:
215,305,150652,6,0,B|188:316|188:316|142:320,1,75,8|8,0:0|0:0,0:0:0:0:
59,232,150859,1,0,0:0:0:0:
57,226,150911,1,0,0:0:0:0:
55,220,150963,1,8,0:0:0:0:
146,142,151066,2,0,L|140:60,1,75
51,26,151273,2,0,L|45:108,1,75,4|0,0:0|0:0,0:0:0:0:
66,197,151480,38,0,B|83:219|83:219|121:246,1,75,12|8,0:0|0:0,0:0:0:0:
238,177,151687,2,0,B|220:154|220:154|182:127,1,75,0|8,0:0|0:0,0:0:0:0:
220,282,151894,1,0,0:0:0:0:
318,245,151997,1,8,0:0:0:0:
281,147,152100,1,0,0:0:0:0:
183,184,152204,1,8,0:0:0:0:
318,245,152307,6,0,B|329:271|329:271|333:317,1,75,4|8,0:0|0:0,0:0:0:0:
425,218,152514,2,0,B|413:191|413:191|409:145,1,75,0|8,0:0|0:0,0:0:0:0:
443,14,152721,1,0,0:0:0:0:
343,48,152825,1,8,0:0:0:0:
377,148,152928,1,0,0:0:0:0:
477,114,153032,1,8,0:0:0:0:
343,48,153135,38,0,L|244:40,1,75,4|8,0:0|0:0,0:0:0:0:
253,177,153342,2,0,L|163:219,1,75,0|8,0:0|0:0,0:0:0:0:
310,294,153549,1,0,0:0:0:0:
355,199,153652,1,8,0:0:0:0:
450,244,153756,1,0,0:0:0:0:
405,339,153859,1,8,0:0:0:0:
355,199,153963,6,0,B|337:176|337:176|299:149,1,75,4|8,0:0|0:0,0:0:0:0:
142,235,154169,2,0,B|170:231|170:231|212:211,1,75,0|8,0:0|0:0,0:0:0:0:
217,32,154376,2,0,B|205:58|205:58|201:104,1,75,4|8,0:0|0:0,0:0:0:0:
295,329,154583,2,0,B|306:302|306:302|310:256,1,75,0|8,0:0|0:0,0:0:0:0:
247,136,154790,38,0,L|170:129,1,75,4|8,0:0|0:0,0:0:0:0:
297,44,154997,2,0,L|374:37,1,75,0|8,0:0|0:0,0:0:0:0:
377,173,155204,1,0,0:0:0:0:
291,233,155307,1,8,0:0:0:0:
231,147,155411,1,0,0:0:0:0:
317,87,155514,1,8,0:0:0:0:
291,233,155618,6,0,B|276:276|276:276|259:300,1,75,4|8,0:0|0:0,0:0:0:0:
126,269,155825,2,0,B|118:241|118:241|121:194,1,75,0|8,0:0|0:0,0:0:0:0:
145,56,156032,1,0,0:0:0:0:
62,120,156135,1,8,0:0:0:0:
158,160,156238,1,0,0:0:0:0:
242,97,156342,1,0,0:0:0:0:
255,89,156394,1,0,0:0:0:0:
269,86,156445,38,0,L|357:93,1,75,4|8,0:0|0:0,0:0:0:0:
457,186,156652,2,0,L|369:193,1,75,0|8,0:0|0:0,0:0:0:0:
235,231,156859,1,4,0:0:0:0:
203,315,156963,1,8,0:0:0:0:
259,384,157066,1,0,0:0:0:0:
346,370,157169,1,8,0:0:0:0:
378,238,157273,6,0,B|377:209|377:209|363:165,1,75,4|8,0:0|0:0,0:0:0:0:
250,65,157480,2,0,B|235:108|235:108|235:137,1,75,4|8,0:0|0:0,0:0:0:0:
275,262,157687,2,0,B|249:276|249:276|204:285,1,75,0|8,0:0|0:0,0:0:0:0:
90,209,157894,1,0,0:0:0:0:
85,194,157945,1,0,0:0:0:0:
82,179,157997,1,0,0:0:0:0:
81,163,158049,1,0,0:0:0:0:
81,148,158100,38,0,P|84:118|91:98,2,50,4|0|0,0:0|0:0|0:0,0:0:0:0:
176,98,158307,2,0,P|203:85|225:80,2,50
254,164,158514,1,12,0:0:0:0:
254,164,158583,2,0,P|241:191|236:213,1,50
333,201,158721,1,0,0:0:0:0:
333,201,158790,2,0,P|336:230|343:251,1,50
263,302,158928,6,0,L|251:359,2,50,4|0|0,0:0|0:0|0:0,0:0:0:0:
350,324,159135,2,0,L|354:374,2,50
400,239,159342,1,12,0:0:0:0:
400,239,159411,2,0,L|447:218,1,50
350,151,159549,1,0,0:0:0:0:
350,151,159618,2,0,L|380:109,1,50
246,144,159756,38,0,L|238:195,2,50,4|0|0,0:0|0:0|0:0,0:0:0:0:
184,83,159963,2,0,L|177:33,2,50
101,126,160169,1,12,0:0:0:0:
101,126,160238,2,0,B|90:153|90:153|84:174,1,50
141,255,160376,1,0,0:0:0:0:
141,255,160445,2,0,B|152:228|152:228|156:204,1,50
220,165,160583,6,0,L|251:126,2,50,4|0|0,0:0|0:0|0:0,0:0:0:0:
307,220,160790,2,0,L|314:171,2,50
233,274,160997,2,0,L|224:325,2,50,12|0|0,0:0|0:0|0:0,0:0:0:0:
320,329,161204,2,0,L|287:367,2,50
413,289,161411,37,4,0:0:0:0:
421,270,161480,1,0,0:0:0:0:
426,250,161549,1,0,0:0:0:0:
428,231,161618,1,0,0:0:0:0:
429,211,161687,1,0,0:0:0:0:
424,191,161756,1,0,0:0:0:0:
413,172,161825,2,0,P|397:152|374:134,2,50,12|0|0,0:0|0:0|0:0,0:0:0:0:
298,150,162032,2,0,P|279:155|245:155,2,50
182,118,162238,5,4,0:0:0:0:
168,103,162307,1,0,0:0:0:0:
158,85,162376,1,0,0:0:0:0:
151,65,162445,1,0,0:0:0:0:
113,69,162514,1,0,0:0:0:0:
84,93,162583,1,0,0:0:0:0:
73,130,162652,2,0,P|75:158|82:184,2,50,12|0|0,0:0|0:0|0:0,0:0:0:0:
130,240,162859,2,0,P|128:268|120:297,2,50
172,355,163066,37,4,0:0:0:0:
205,372,163135,1,0,0:0:0:0:
241,378,163204,1,0,0:0:0:0:
278,373,163273,1,0,0:0:0:0:
311,355,163342,1,0,0:0:0:0:
331,323,163411,1,0,0:0:0:0:
338,285,163480,2,0,L|330:231,2,50,12|0|0,0:0|0:0|0:0,0:0:0:0:
404,191,163687,2,0,L|411:140,2,50
362,76,163894,5,8,0:0:0:0:
362,76,163963,2,0,L|352:25,1,50
271,116,164100,1,0,0:0:0:0:
271,116,164169,2,0,L|274:64,1,50
164,15,164307,1,0,0:0:0:0:
164,15,164376,2,0,L|160:66,1,50
73,55,164514,1,0,0:0:0:0:
73,55,164583,2,0,L|83:106,1,50
157,181,164721,37,12,0:0:0:0:
154,201,164790,1,0,0:0:0:0:
151,222,164859,1,0,0:0:0:0:
147,242,164928,1,8,0:0:0:0:
179,222,164997,1,0,0:0:0:0:
215,215,165066,1,0,0:0:0:0:
252,213,165135,6,0,P|274:206|297:191,2,50,8|0|0,0:0|0:0|0:0,0:0:0:0:
350,275,165342,2,0,P|375:269|406:271,2,50,8|0|0,0:0|0:0|0:0,0:0:0:0:
374,132,165549,37,8,0:0:0:0:
411,138,165618,1,0,0:0:0:0:
447,130,165687,1,0,0:0:0:0:
478,109,165756,1,8,0:0:0:0:
476,128,165825,1,0,0:0:0:0:
475,147,165894,1,0,0:0:0:0:
473,166,165962,6,0,P|467:191|455:217,2,50,8|0|0,0:0|0:0|0:0,0:0:0:0:
406,314,166169,2,0,P|412:339|422:361,2,50,8|0|0,0:0|0:0|0:0,0:0:0:0:
322,231,166376,37,8,0:0:0:0:
327,201,166445,1,0,0:0:0:0:
333,171,166514,1,0,0:0:0:0:
340,141,166583,1,8,0:0:0:0:
290,146,166652,1,0,0:0:0:0:
245,123,166721,1,0,0:0:0:0:
230,71,166790,6,0,P|218:48|201:31,2,50,8|0|0,0:0|0:0|0:0,0:0:0:0:
94,71,166997,2,0,P|70:63|45:63,2,50,8|0|0,0:0|0:0|0:0,0:0:0:0:
213,161,167204,38,0,L|248:117,2,50,8|0|0,0:0|0:0|0:0,0:0:0:0:
200,258,167411,2,0,L|217:305,2,50,8|0|0,0:0|0:0|0:0,0:0:0:0:
122,198,167618,6,0,L|69:189,2,50,8|0|0,0:0|0:0|0:0,0:0:0:0:
289,220,167824,2,0,L|338:228,2,50,8|0|0,0:0|0:0|0:0,0:0:0:0:
363,131,168031,38,0,L|417:119,2,50,12|0|0,0:0|0:0|0:0,0:0:0:0:
258,85,168238,2,0,L|298:55,2,50,12|0|0,0:0|0:0|0:0,0:0:0:0:
285,215,168445,1,12,3:0:0:0:
289,220,168514,2,0,L|278:268,1,50,0|0,3:0|3:0,3:0:0:0:
189,189,168652,1,12,3:0:0:0:
189,189,168721,2,0,L|143:213,1,50,0|0,3:0|3:0,3:0:0:0:
171,78,168859,6,0,P|176:56|176:28,2,50,12|0|0,0:0|0:0|0:0,0:0:0:0:
55,87,169066,2,0,P|48:62|46:38,2,50,12|0|0,0:0|0:0|0:0,0:0:0:0:
23,226,169273,1,12,0:0:0:0:
23,226,169342,2,0,L|31:177,1,50
137,162,169480,1,12,0:0:0:0:
137,162,169549,2,0,L|144:212,1,50
89,303,169687,38,0,B|116:325|157:327|194:309|194:309|229:302|264:318,1,150,8|0,0:0|0:0,0:0:0:0:
247,313,169945,1,0,0:0:0:0:
261,318,169997,1,8,0:0:0:0:
274,325,170049,1,8,0:0:0:0:
286,331,170100,6,0,P|300:351|308:369,6,37.5
358,147,170514,37,0,0:0:0:0:
395,142,170566,1,0,0:0:0:0:
428,159,170618,1,0,0:0:0:0:
443,192,170669,1,0,0:0:0:0:
437,230,170721,1,0,0:0:0:0:
411,257,170773,1,0,0:0:0:0:
373,260,170825,1,0,0:0:0:0:
340,242,170876,1,0,0:0:0:0:
305,227,170928,2,0,P|282:221|255:219,3,37.5,12|0|0|0,0:0|0:0|0:0|0:0,0:0:0:0:
186,230,171135,1,12,0:0:0:0:
205,39,171342,21,4,0:0:0:0:
256,192,171549,12,0,181273,0:0:0:0:
