osu file format v14

[General]
AudioFilename: Flowering Night Fever.mp3
AudioLeadIn: 2000
PreviewTime: 62049
Countdown: 0
SampleSet: None
StackLeniency: 0.2
Mode: 0
LetterboxInBreaks: 0
WidescreenStoryboard: 1

[Editor]
Bookmarks: 3342,21549,48859,62100,75342,95204,118376,131618,144858
DistanceSpacing: 1
BeatDivisor: 4
GridSize: 4
TimelineZoom: 2.36

[Metadata]
Title:Flowering Night Fever
TitleUnicode:Flowering Night Fever
Artist:UNDEAD CORPORATION
ArtistUnicode:UNDEAD CORPORATION
Creator:Alheak
Version:Ekoro's Fever
Source:東方花映塚 ~ Phantasmagoria of Flower View.
Tags:dtm9 nowa ekoro pishifat GoldenWolf zun team shanghai alice 上海アリス幻樂団 瞬殺 touhou project Kaeidzuka 花映塚 Phantasmagoria of Flower View sakuya izayoi 十六夜 咲夜 フラワリングナイト 瞬殺 shunsatsu reitaisai 12 instrumental speed metal guitar woof
BeatmapID:900957
BeatmapSetID:393663

[Difficulty]
HPDrainRate:5
CircleSize:4.2
OverallDifficulty:10
ApproachRate:10
SliderMultiplier:1.8
SliderTickRate:1

[Events]
//Background and Video events
0,0,"bg.jpg",0,0
//Break Periods
//Storyboard Layer 0 (Background)
//Storyboard Layer 1 (Fail)
//Storyboard Layer 2 (Pass)
//Storyboard Layer 3 (Foreground)
//Storyboard Sound Samples

[TimingPoints]
32,206.896551724138,4,3,1,85,1,0
497,-100,4,3,1,40,0,0
600,-100,4,3,1,85,0,0
911,-100,4,3,1,40,0,0
1014,-100,4,3,1,85,0,0
1273,-100,4,3,2,70,0,0
1480,-100,4,3,3,70,0,0
1687,-100,4,3,3,70,0,0
3342,-100,4,3,1,100,0,0
3394,-100,4,3,1,70,0,0
6756,-100,4,3,2,70,0,0
6859,-100,4,3,4,70,0,0
6963,-100,4,3,1,70,0,0
7480,-100,4,3,1,70,0,0
7894,-100,4,3,1,70,0,0
8307,-100,4,3,1,85,0,0
8359,-100,4,3,1,70,0,0
9963,-100,4,3,1,100,0,0
10014,-100,4,3,1,70,0,0
11618,-100,4,3,1,85,0,0
11669,-100,4,3,1,70,0,0
14928,-100,4,3,1,100,0,0
14980,-100,4,3,1,70,0,0
19997,-100,4,3,2,85,0,0
20100,-100,4,3,4,85,0,0
20773,-100,4,3,3,85,0,0
20928,-100,4,3,4,85,0,0
21032,-100,4,3,2,85,0,0
21135,-100,4,3,1,85,0,0
21549,206.896551724138,3,3,1,85,1,0
23824,-100,3,3,1,85,0,0
24652,-100,3,3,1,85,0,0
24653,-100,3,3,4,85,0,0
25066,206.896551724138,3,3,1,70,1,0
28584,206.896551724138,3,3,1,85,1,0
28687,-100,3,3,1,70,0,0
32101,206.896551724138,3,3,1,85,1,0
32204,-100,3,3,1,70,0,0
34376,-100,3,3,2,85,0,0
34583,-100,3,3,3,85,0,0
34790,-100,3,3,2,85,0,0
34997,-100,3,3,3,85,0,0
35204,-100,3,3,1,85,0,0
35618,206.896551724138,4,3,1,85,1,0
35721,-100,4,3,1,70,0,0
35824,-100,4,3,1,70,0,0
37273,-100,4,3,1,85,0,0
37376,-100,4,3,1,70,0,0
40583,-100,4,3,4,85,0,0
40686,-100,4,3,2,85,0,0
40790,-100,4,3,4,85,0,0
40893,-100,4,3,1,85,0,0
41411,-100,4,3,1,85,0,0
42342,-100,4,3,1,70,0,0
43480,-100,3,3,1,70,0,0
43893,-100,3,3,1,70,0,0
45135,-100,4,3,1,70,0,0
45549,-100,4,3,1,70,0,0
53824,-100,4,3,1,85,0,0
53980,-100,4,3,1,85,0,0
54135,-100,4,3,1,85,0,0
54290,-100,4,3,1,85,0,0
54445,-100,4,3,1,85,0,0
54600,-100,4,3,1,85,0,0
54755,-100,4,3,1,85,0,0
54911,-100,4,3,1,85,0,0
55066,-100,4,3,1,85,0,0
55480,-100,4,3,1,70,0,0
59618,-100,4,3,1,85,0,0
60031,-100,4,3,3,85,0,0
60135,-100,4,3,1,85,0,0
60238,-100,4,3,3,85,0,0
60342,-100,4,3,1,85,0,0
60755,-100,4,3,2,85,0,0
60859,-100,4,3,1,85,0,0
61066,-100,4,3,3,85,0,0
61169,-100,4,3,1,85,0,0
61273,-100,4,3,1,85,0,0
61376,-100,4,3,3,85,0,0
61480,-100,4,3,4,85,0,0
61583,-100,4,3,1,85,0,0
62100,-83.3333333333333,4,3,1,100,0,1
62152,-83.3333333333333,4,3,1,70,0,1
67893,-83.3333333333333,4,3,1,85,0,1
68100,-83.3333333333333,4,3,1,85,0,1
68152,-83.3333333333333,4,3,2,85,0,1
68204,-83.3333333333333,4,3,3,85,0,1
68307,-83.3333333333333,4,3,1,85,0,1
68514,-83.3333333333333,4,3,2,85,0,1
68721,-83.3333333333333,4,3,1,85,0,1
68824,-83.3333333333333,4,3,1,70,0,1
73997,-83.3333333333333,4,3,2,85,0,1
74100,-83.3333333333333,4,3,1,85,0,1
74307,-83.3333333333333,4,3,2,85,0,1
74411,-83.3333333333333,4,3,1,85,0,1
74928,-83.3333333333333,4,3,2,85,0,1
75031,-83.3333333333333,4,3,2,85,0,1
75135,-83.3333333333333,4,3,3,85,0,1
75342,-100,4,3,1,100,0,0
75549,-100,4,3,1,70,0,0
78652,-100,4,3,1,85,0,0
78859,-100,4,3,1,70,0,0
81135,-100,4,3,1,85,0,0
81342,-100,4,3,3,85,0,0
81445,-100,4,3,1,85,0,0
81549,-100,4,3,1,100,0,0
81962,-100,4,3,1,70,0,0
95204,-83.3333333333333,4,3,1,70,0,1
115893,-83.3333333333333,4,3,1,85,0,1
116100,-83.3333333333333,4,3,3,85,0,1
116204,-83.3333333333333,4,3,1,85,0,1
116514,-83.3333333333333,4,3,4,85,0,1
116721,-83.3333333333333,4,3,1,85,0,1
117600,-83.3333333333333,4,3,2,85,0,1
117755,-83.3333333333333,4,3,3,85,0,1
117859,-83.3333333333333,4,3,1,85,0,1
118376,-100,4,3,1,85,0,0
118480,-100,4,3,1,5,0,0
120031,-100,4,3,1,100,0,0
120859,-100,4,3,1,85,0,0
121066,-100,4,3,2,85,0,0
121273,-100,4,3,3,85,0,0
121480,-100,4,3,1,85,0,0
121790,-100,4,3,1,70,0,0
127480,-100,4,3,4,70,0,0
128307,-100,4,3,1,70,0,0
129962,-100,4,3,1,85,0,0
130790,-100,4,3,1,85,0,0
131100,-100,4,3,1,85,0,0
131618,-100,4,3,1,70,0,0
141962,-100,4,3,2,85,0,0
142169,-100,4,3,3,85,0,0
142376,-100,4,3,1,85,0,0
143307,-100,4,3,1,5,0,0
144445,-100,4,3,1,100,0,0
144859,-83.3333333333333,4,3,1,100,0,1
144911,-83.3333333333333,4,3,1,70,0,1
150652,-83.3333333333333,4,3,1,85,0,1
150755,-83.3333333333333,4,3,1,55,0,1
150859,-83.3333333333333,4,3,1,85,0,1
151273,-83.3333333333333,4,3,1,85,0,1
151480,-83.3333333333333,4,3,1,85,0,1
151583,-83.3333333333333,4,3,1,70,0,1
157945,-83.3333333333333,4,3,1,45,0,1
158100,-83.3333333333333,4,3,1,100,0,1
158169,-83.3333333333333,4,3,1,70,0,1
163893,-83.3333333333333,4,3,1,85,0,1
163962,-83.3333333333333,4,3,2,85,0,1
164100,-83.3333333333333,4,3,3,85,0,1
164307,-83.3333333333333,4,3,2,85,0,1
164514,-83.3333333333333,4,3,3,85,0,1
164721,-83.3333333333333,4,3,1,100,0,1
164790,-83.3333333333333,4,3,1,70,0,1
169686,-83.3333333333333,4,3,1,85,0,1
169997,-83.3333333333333,4,3,2,85,0,1
170307,-83.3333333333333,4,3,1,85,0,1
170618,-83.3333333333333,4,3,3,85,0,1
170928,-83.3333333333333,4,3,1,85,0,1
171342,-83.3333333333333,4,3,1,100,0,0
171394,-83.3333333333333,4,3,1,5,0,0
172168,-83.3333333333333,4,3,1,5,0,0
172995,-83.3333333333333,4,3,1,5,0,0
173823,-83.3333333333333,4,3,1,5,0,0
174651,-83.3333333333333,4,3,1,5,0,0
175478,-83.3333333333333,4,3,1,5,0,0
176306,-83.3333333333333,4,3,1,5,0,0
177133,-83.3333333333333,4,3,1,5,0,0
177961,-83.3333333333333,4,3,1,5,0,0
178789,-83.3333333333333,4,3,1,5,0,0
179616,-83.3333333333333,4,3,1,5,0,0

[Colours]
Combo1 : 154,3,49
Combo2 : 190,180,200
Combo3 : 130,120,160
Combo4 : 247,21,61

[HitObjects]
56,40,32,6,0,L|148:32,1,90,0|8,0:0|0:0,0:0:0:0:
128,120,238,2,0,L|220:128,2,90,0|8|8,0:0|0:0|0:0,0:0:0:0:
40,136,549,1,8,0:0:0:0:
40,136,600,1,8,0:0:0:0:
40,136,652,2,0,P|44:184|40:228,1,90,8|8,0:0|0:0,0:0:0:0:
16,312,859,5,8,0:0:0:0:
88,368,963,1,8,0:0:0:0:
88,368,1014,1,8,0:0:0:0:
88,368,1066,2,0,L|180:360,1,90,8|8,0:0|0:0,0:0:0:0:
329,287,1273,37,8,0:0:0:0:
357,252,1325,1,8,0:0:0:0:
402,244,1376,1,8,0:0:0:0:
441,267,1428,1,8,0:0:0:0:
456,309,1480,1,8,0:0:0:0:
441,351,1531,1,8,0:0:0:0:
402,374,1583,1,8,0:0:0:0:
357,366,1634,1,8,0:0:0:0:
328,332,1686,1,6,0:0:0:0:
328,332,3342,6,0,L|324:236,1,90,4|8,0:0|0:0,0:0:0:0:
380,116,3549,1,0,0:0:0:0:
464,152,3652,2,0,L|468:248,1,90,8|0,0:0|0:0,0:0:0:0:
328,332,3859,1,8,0:0:0:0:
244,296,3962,2,0,L|240:200,1,90,0|8,0:0|0:0,0:0:0:0:
104,26,4169,37,0,0:0:0:0:
20,62,4272,2,0,L|16:158,1,90,8|0,0:0|0:0,0:0:0:0:
156,242,4479,1,8,0:0:0:0:
240,206,4583,2,0,L|244:110,1,90,0|8,0:0|0:0,0:0:0:0:
68,224,4790,1,0,0:0:0:0:
228,296,4894,1,8,0:0:0:0:
400,200,4997,6,0,L|404:104,1,90,4|8,0:0|0:0,0:0:0:0:
316,184,5204,1,0,0:0:0:0:
340,264,5307,2,0,B|380:284|380:284|428:284,1,90,8|0,0:0|0:0,0:0:0:0:
484,124,5514,1,8,0:0:0:0:
460,44,5617,2,0,B|420:24|420:24|372:24,1,90,0|8,0:0|0:0,0:0:0:0:
148,244,5825,37,0,0:0:0:0:
172,324,5928,2,0,B|212:344|212:344|260:344,1,90,8|0,0:0|0:0,0:0:0:0:
316,184,6135,1,8,0:0:0:0:
292,104,6238,2,0,B|252:84|252:84|204:84,1,90,0|8,0:0|0:0,0:0:0:0:
92,308,6445,1,0,0:0:0:0:
228,264,6549,1,8,0:0:0:0:
124,168,6652,5,8,0:0:0:0:
80,160,6704,1,8,0:0:0:0:
36,176,6756,1,8,0:0:0:0:
8,212,6807,1,8,0:0:0:0:
4,256,6859,2,0,P|8:280|8:304,1,45,0|0,0:0|0:0,0:0:0:0:
144,360,6963,37,4,0:0:0:0:
172,324,7014,1,0,0:0:0:0:
176,280,7066,2,0,P|172:256|172:232,1,45,0|0,0:0|0:0,0:0:0:0:
204,156,7169,2,0,L|296:168,1,90,12|0,0:0|0:0,0:0:0:0:
452,192,7376,1,0,0:0:0:0:
384,48,7480,5,0,0:0:0:0:
340,56,7532,1,0,0:0:0:0:
296,64,7583,1,10,0:0:0:0:
364,208,7687,1,0,0:0:0:0:
408,200,7739,1,0,0:0:0:0:
452,192,7790,1,10,0:0:0:0:
340,56,7894,37,0,0:0:0:0:
302,162,7997,1,0,0:0:0:0:
408,200,8100,1,0,0:0:0:0:
446,94,8203,1,0,0:0:0:0:
340,56,8307,6,0,L|248:72,1,90,4|8,0:0|0:0,0:0:0:0:
64,96,8514,1,0,0:0:0:0:
100,180,8618,2,0,L|192:196,1,90,8|0,0:0|0:0,0:0:0:0:
376,224,8825,1,8,0:0:0:0:
340,308,8929,2,0,L|248:324,1,90,0|8,0:0|0:0,0:0:0:0:
8,168,9135,37,0,0:0:0:0:
64,96,9238,2,0,L|156:80,1,90,8|0,0:0|0:0,0:0:0:0:
307,251,9445,1,8,0:0:0:0:
251,323,9548,2,0,L|159:339,1,90,0|8,0:0|0:0,0:0:0:0:
8,168,9756,1,0,0:0:0:0:
169,241,9859,1,8,0:0:0:0:
32,356,9963,6,0,B|40:264,1,90,4|8,0:0|0:0,0:0:0:0:
232,176,10169,1,0,0:0:0:0:
252,264,10273,2,0,B|232:304|232:304|192:324,1,90,8|0,0:0|0:0,0:0:0:0:
24,184,10480,1,8,0:0:0:0:
4,96,10584,2,0,B|24:56|24:56|64:36,1,90,0|8,0:0|0:0,0:0:0:0:
319,204,10790,37,0,0:0:0:0:
252,264,10894,2,0,B|207:266|207:266|170:242,1,90,8|0,0:0|0:0,0:0:0:0:
88,124,11100,1,8,0:0:0:0:
155,64,11204,2,0,B|199:61|199:61|236:85,1,90,0|8,0:0|0:0,0:0:0:0:
336,296,11411,1,0,0:0:0:0:
188,340,11514,1,8,0:0:0:0:
84,228,11618,6,0,L|76:136,1,90,4|8,0:0|0:0,0:0:0:0:
237,85,11825,1,0,0:0:0:0:
316,124,11928,2,0,L|324:216,1,90,8|0,0:0|0:0,0:0:0:0:
163,267,12135,1,8,0:0:0:0:
84,228,12238,2,0,L|76:136,1,90,0|8,0:0|0:0,0:0:0:0:
308,32,12445,37,0,0:0:0:0:
392,68,12549,2,0,B|436:76|436:76|480:56,1,90,8|0,0:0|0:0,0:0:0:0:
316,124,12756,1,8,0:0:0:0:
232,160,12860,2,0,B|188:168|188:168|144:148,1,90,0|8,0:0|0:0,0:0:0:0:
308,32,13066,1,0,0:0:0:0:
304,216,13169,1,8,0:0:0:0:
146,149,13273,5,0,0:0:0:0:
316,124,13376,1,8,0:0:0:0:
196,240,13480,1,0,0:0:0:0:
220,72,13583,1,8,0:0:0:0:
300,224,13687,2,0,L|308:324,1,90,0|8,0:0|0:0,0:0:0:0:
512,104,13894,37,0,0:0:0:0:
342,79,13997,1,8,0:0:0:0:
462,195,14101,1,0,0:0:0:0:
438,27,14204,1,8,0:0:0:0:
358,179,14308,2,0,L|350:279,1,90,0|8,0:0|0:0,0:0:0:0:
472,352,14514,5,10,0:0:0:0:
358,179,14618,1,10,0:0:0:0:
352,384,14721,1,10,0:0:0:0:
472,220,14825,1,10,0:0:0:0:
280,280,14928,38,0,L|272:380,1,90,4|8,0:0|0:0,0:0:0:0:
204,232,15135,1,0,0:0:0:0:
284,188,15239,2,0,B|328:208|328:208|356:240,1,90,8|0,0:0|0:0,0:0:0:0:
432,340,15445,1,8,0:0:0:0:
352,384,15549,2,0,B|308:364|308:364|280:332,1,90,0|8,0:0|0:0,0:0:0:0:
208,140,15756,5,2,0:0:0:0:
288,100,15859,2,0,L|384:88,1,90,8|0,0:0|0:0,0:0:0:0:
216,232,16066,1,8,0:0:0:0:
136,192,16169,2,0,L|40:180,1,90,0|8,0:0|0:0,0:0:0:0:
212,52,16376,1,0,0:0:0:0:
284,188,16480,1,8,0:0:0:0:
140,284,16583,38,0,L|44:272,1,90,2|8,0:0|0:0,0:0:0:0:
216,232,16790,1,0,0:0:0:0:
220,324,16894,2,0,B|188:356|188:356|144:372,1,90,8|0,0:0|0:0,0:0:0:0:
50,272,17100,1,8,0:0:0:0:
46,180,17204,2,0,B|78:148|78:148|122:132,1,90,0|8,0:0|0:0,0:0:0:0:
298,275,17411,5,2,0:0:0:0:
220,324,17515,2,0,B|176:312|176:312|140:282,1,90,8|0,0:0|0:0,0:0:0:0:
120,132,17721,1,8,0:0:0:0:
198,83,17825,2,0,B|241:94|241:94|277:124,1,90,0|8,0:0|0:0,0:0:0:0:
300,368,18032,1,0,0:0:0:0:
216,232,18135,1,8,0:0:0:0:
388,228,18238,38,0,L|380:324,1,90,4|8,0:0|0:0,0:0:0:0:
208,360,18445,1,0,0:0:0:0:
144,296,18549,2,0,L|152:200,1,90,8|0,0:0|0:0,0:0:0:0:
324,164,18756,1,8,0:0:0:0:
388,228,18859,2,0,L|380:324,1,90,0|8,0:0|0:0,0:0:0:0:
120,384,19066,6,0,L|76:376,1,45,8|0,0:0|0:0,0:0:0:0:
48,292,19169,2,0,L|4:284,1,45,8|0,0:0|0:0,0:0:0:0:
208,224,19273,37,0,0:0:0:0:
208,224,19325,1,0,0:0:0:0:
208,224,19376,2,0,L|212:272,1,45,8|0,0:0|0:0,0:0:0:0:
64,200,19480,2,0,L|60:152,1,45,8|0,0:0|0:0,0:0:0:0:
196,92,19583,5,0,0:0:0:0:
196,92,19635,1,0,0:0:0:0:
196,92,19686,2,0,L|200:140,1,45,8|0,0:0|0:0,0:0:0:0:
52,68,19790,2,0,L|48:20,1,45,8|0,0:0|0:0,0:0:0:0:
156,16,19894,37,4,0:0:0:0:
200,8,19945,1,0,0:0:0:0:
244,24,19997,1,8,0:0:0:0:
276,56,20049,1,8,0:0:0:0:
284,100,20100,2,0,L|288:148,1,45,0|0,0:0|0:0,0:0:0:0:
344,228,20204,5,8,0:0:0:0:
388,236,20255,1,8,0:0:0:0:
432,220,20307,1,0,0:0:0:0:
464,188,20359,1,0,0:0:0:0:
472,144,20411,2,0,L|476:96,1,45,0|0,0:0|0:0,0:0:0:0:
384,104,20514,38,0,L|388:152,1,45,10|0,0:0|0:0,0:0:0:0:
488,284,20618,2,0,L|484:332,1,45,0|0,0:0|0:0,0:0:0:0:
328,376,20721,5,8,0:0:0:0:
284,368,20773,1,8,0:0:0:0:
248,340,20825,1,8,0:0:0:0:
228,300,20876,1,8,0:0:0:0:
224,256,20928,1,0,0:0:0:0:
204,216,20979,1,0,0:0:0:0:
168,188,21031,1,8,0:0:0:0:
124,180,21083,1,8,0:0:0:0:
80,192,21135,1,0,0:0:0:0:
48,224,21187,1,0,0:0:0:0:
32,268,21238,1,0,0:0:0:0:
36,312,21290,1,0,0:0:0:0:
60,352,21342,2,0,B|100:372|100:372|148:368,1,90,12|0,0:0|0:0,0:0:0:0:
331,267,21549,37,0,0:0:0:0:
239,86,21652,1,0,0:0:0:0:
207,287,21755,1,0,0:0:0:0:
351,143,21859,1,0,0:0:0:0:
150,175,21962,1,4,0:0:0:0:
184,384,23824,5,0,0:0:0:0:
196,296,23928,1,0,0:0:0:0:
108,284,24031,1,0,0:0:0:0:
96,372,24135,1,0,0:0:0:0:
280,320,24238,37,0,0:0:0:0:
268,232,24342,1,0,0:0:0:0:
356,220,24445,1,0,0:0:0:0:
368,308,24549,1,0,0:0:0:0:
184,204,24652,5,2,0:0:0:0:
184,204,25066,37,0,0:0:0:0:
200,44,25169,1,0,0:0:0:0:
284,180,25272,1,0,0:0:0:0:
132,116,25376,1,0,0:0:0:0:
292,84,25479,2,0,L|384:92,1,90,8|0,0:0|0:0,0:0:0:0:
440,340,25686,5,0,0:0:0:0:
424,180,25789,1,0,0:0:0:0:
340,316,25892,1,0,0:0:0:0:
492,252,25996,1,0,0:0:0:0:
332,220,26099,2,0,L|240:228,1,90,8|0,0:0|0:0,0:0:0:0:
12,248,26307,37,0,0:0:0:0:
165,287,26410,1,0,0:0:0:0:
62,164,26514,1,0,0:0:0:0:
71,323,26618,1,0,0:0:0:0:
159,186,26721,2,0,L|168:96,1,90,8|0,0:0|0:0,0:0:0:0:
404,96,26928,5,0,0:0:0:0:
251,57,27031,1,0,0:0:0:0:
354,180,27135,1,0,0:0:0:0:
345,21,27239,1,0,0:0:0:0:
254,159,27341,37,10,0:0:0:0:
245,203,27393,1,0,0:0:0:0:
254,247,27444,1,0,0:0:0:0:
279,284,27496,1,0,0:0:0:0:
316,309,27548,1,10,0:0:0:0:
360,318,27600,1,0,0:0:0:0:
404,309,27651,1,0,0:0:0:0:
442,284,27703,1,0,0:0:0:0:
467,247,27755,1,10,0:0:0:0:
475,203,27807,1,0,0:0:0:0:
467,158,27858,1,0,0:0:0:0:
442,121,27910,1,0,0:0:0:0:
404,96,27962,1,10,0:0:0:0:
360,87,28013,1,0,0:0:0:0:
316,96,28065,1,0,0:0:0:0:
279,121,28117,1,0,0:0:0:0:
254,159,28169,5,8,0:0:0:0:
316,309,28272,1,0,0:0:0:0:
467,247,28376,1,8,0:0:0:0:
404,96,28479,1,8,0:0:0:0:
254,159,28584,37,4,0:0:0:0:
444,120,28687,1,8,0:0:0:0:
254,159,28790,1,0,0:0:0:0:
444,120,28894,1,8,0:0:0:0:
254,159,28997,2,0,L|244:248,1,90,0|8,0:0|0:0,0:0:0:0:
472,204,29204,5,0,0:0:0:0:
282,165,29307,1,8,0:0:0:0:
472,204,29410,1,0,0:0:0:0:
282,165,29514,1,8,0:0:0:0:
472,204,29617,2,0,L|482:293,1,90,0|8,0:0|0:0,0:0:0:0:
252,248,29825,37,0,0:0:0:0:
442,209,29928,1,8,0:0:0:0:
252,248,30031,1,0,0:0:0:0:
442,209,30135,1,8,0:0:0:0:
252,248,30238,2,0,L|242:337,1,90,0|8,0:0|0:0,0:0:0:0:
470,293,30445,5,0,0:0:0:0:
280,254,30548,1,8,0:0:0:0:
470,293,30651,1,0,0:0:0:0:
280,254,30755,1,8,0:0:0:0:
470,293,30859,38,0,L|460:204,1,90,4|8,0:0|0:0,0:0:0:0:
280,128,31066,1,0,0:0:0:0:
276,152,31118,1,0,0:0:0:0:
272,176,31170,1,8,0:0:0:0:
316,312,31273,1,0,0:0:0:0:
312,288,31325,1,0,0:0:0:0:
308,264,31377,1,8,0:0:0:0:
372,140,31480,1,0,0:0:0:0:
368,164,31532,1,0,0:0:0:0:
364,188,31584,1,8,0:0:0:0:
408,324,31687,5,0,0:0:0:0:
404,300,31739,1,0,0:0:0:0:
400,276,31791,1,8,0:0:0:0:
500,332,31894,1,8,0:0:0:0:
332,384,31997,1,8,0:0:0:0:
360,72,32101,37,4,0:0:0:0:
504,144,32204,1,8,0:0:0:0:
344,168,32307,1,0,0:0:0:0:
460,56,32411,1,8,0:0:0:0:
432,212,32514,2,0,L|412:312,1,90,0|8,0:0|0:0,0:0:0:0:
296,334,32721,5,0,0:0:0:0:
152,262,32824,1,8,0:0:0:0:
312,238,32927,1,0,0:0:0:0:
196,350,33031,1,8,0:0:0:0:
224,194,33134,2,0,L|244:94,1,90,0|8,0:0|0:0,0:0:0:0:
106,45,33342,37,0,0:0:0:0:
38,193,33445,1,8,0:0:0:0:
178,113,33549,1,0,0:0:0:0:
18,93,33652,1,8,0:0:0:0:
134,205,33756,2,0,L|230:193,1,90,0|8,0:0|0:0,0:0:0:0:
406,45,33963,5,0,0:0:0:0:
474,193,34066,1,8,0:0:0:0:
334,113,34170,1,0,0:0:0:0:
494,93,34273,1,8,0:0:0:0:
378,205,34376,37,8,0:0:0:0:
378,205,34480,1,8,0:0:0:0:
320,16,34583,1,8,0:0:0:0:
320,16,34687,1,8,0:0:0:0:
494,93,34790,1,8,0:0:0:0:
494,93,34894,1,8,0:0:0:0:
436,282,34997,1,8,0:0:0:0:
436,282,35101,1,8,0:0:0:0:
291,110,35204,5,8,0:0:0:0:
465,187,35307,1,0,0:0:0:0:
262,205,35411,1,8,0:0:0:0:
494,93,35514,1,8,0:0:0:0:
291,110,35618,38,0,L|196:120,1,90,4|8,0:0|0:0,0:0:0:0:
59,223,35824,1,0,0:0:0:0:
120,293,35928,2,0,L|215:283,1,90,8|0,0:0|0:0,0:0:0:0:
352,180,36135,1,8,0:0:0:0:
291,110,36239,2,0,L|196:120,1,90,0|8,0:0|0:0,0:0:0:0:
28,308,36445,5,0,0:0:0:0:
89,378,36549,2,0,L|184:368,1,90,8|0,0:0|0:0,0:0:0:0:
296,264,36755,1,8,0:0:0:0:
235,194,36859,2,0,L|140:204,1,90,0|8,0:0|0:0,0:0:0:0:
59,223,37066,1,0,0:0:0:0:
260,348,37169,1,8,0:0:0:0:
280,120,37273,38,0,L|288:16,1,90,4|8,0:0|0:0,0:0:0:0:
196,116,37480,1,0,0:0:0:0:
235,194,37583,2,0,B|279:202|279:202|324:192,1,90,8|0,0:0|0:0,0:0:0:0:
414,106,37790,1,8,0:0:0:0:
375,28,37893,2,0,B|331:20|331:20|286:30,1,90,0|8,0:0|0:0,0:0:0:0:
152,190,38100,5,0,0:0:0:0:
196,268,38204,2,0,L|288:288,1,90,8|0,0:0|0:0,0:0:0:0:
408,192,38411,1,8,0:0:0:0:
364,114,38515,2,0,L|272:94,1,90,0|8,0:0|0:0,0:0:0:0:
108,272,38721,1,0,0:0:0:0:
240,188,38824,1,8,0:0:0:0:
64,104,38928,38,0,L|60:196,1,90,4|8,0:0|0:0,0:0:0:0:
156,352,39135,1,0,0:0:0:0:
240,320,39238,2,0,L|244:228,1,90,8|0,0:0|0:0,0:0:0:0:
148,72,39445,1,8,0:0:0:0:
64,104,39549,2,0,L|60:196,1,90,0|8,0:0|0:0,0:0:0:0:
240,320,39755,5,0,0:0:0:0:
324,288,39858,2,0,L|328:196,1,90,8|0,0:0|0:0,0:0:0:0:
232,40,40065,1,8,0:0:0:0:
148,72,40169,2,0,L|144:164,1,90,0|8,0:0|0:0,0:0:0:0:
308,376,40376,1,0,0:0:0:0:
480,312,40480,1,8,0:0:0:0:
336,184,40583,37,8,0:0:0:0:
308,148,40635,1,8,0:0:0:0:
304,104,40686,1,8,0:0:0:0:
324,64,40738,1,8,0:0:0:0:
364,40,40790,2,0,L|412:36,1,45,0|0,0:0|0:0,0:0:0:0:
420,208,40893,5,12,0:0:0:0:
400,248,40945,1,0,0:0:0:0:
360,268,40997,2,0,L|312:272,1,45,0|0,0:0|0:0,0:0:0:0:
396,124,41100,2,0,P|444:124|484:144,1,90,14|0,0:0|0:0,0:0:0:0:
500,232,41307,1,0,0:0:0:0:
384,360,41411,37,0,0:0:0:0:
340,352,41462,1,0,0:0:0:0:
296,344,41514,1,10,0:0:0:0:
360,268,41618,1,0,0:0:0:0:
404,260,41669,1,0,0:0:0:0:
448,252,41721,1,10,0:0:0:0:
476,344,41824,5,8,0:0:0:0:
272,256,41928,1,8,0:0:0:0:
476,344,42031,1,8,0:0:0:0:
272,256,42134,1,8,0:0:0:0:
450,123,42238,37,4,0:0:0:0:
450,123,42342,1,0,0:0:0:0:
507,193,42445,1,10,0:0:0:0:
419,209,42549,2,0,L|328:196,1,90,0|10,0:0|0:0,0:0:0:0:
300,44,42755,1,0,0:0:0:0:
388,28,42859,2,0,L|479:41,1,90,10|0,0:0|0:0,0:0:0:0:
476,276,43066,5,10,0:0:0:0:
388,292,43170,2,0,L|297:279,1,90,0|10,0:0|0:0,0:0:0:0:
220,236,43376,1,0,0:0:0:0:
356,196,43480,37,10,0:0:0:0:
332,376,43583,1,10,0:0:0:0:
356,196,43686,1,10,0:0:0:0:
332,376,43789,1,10,0:0:0:0:
220,236,43893,5,4,0:0:0:0:
220,236,43997,1,0,0:0:0:0:
188,152,44100,1,10,0:0:0:0:
276,164,44204,2,0,L|288:72,1,90,0|10,0:0|0:0,0:0:0:0:
404,12,44411,1,0,0:0:0:0:
492,0,44515,2,0,L|504:92,1,90,10|0,0:0|0:0,0:0:0:0:
444,208,44721,37,10,0:0:0:0:
356,196,44825,2,0,L|344:288,1,90,0|10,0:0|0:0,0:0:0:0:
388,364,45031,1,0,0:0:0:0:
512,364,45135,5,0,0:0:0:0:
496,324,45186,1,0,0:0:0:0:
500,280,45238,1,0,0:0:0:0:
484,236,45290,1,0,0:0:0:0:
488,192,45342,1,0,0:0:0:0:
472,152,45393,1,0,0:0:0:0:
476,108,45445,1,0,0:0:0:0:
460,64,45497,1,0,0:0:0:0:
464,20,45549,37,4,0:0:0:0:
464,20,45652,1,0,0:0:0:0:
380,52,45755,1,10,0:0:0:0:
296,84,45859,2,0,L|204:76,1,90,0|10,0:0|0:0,0:0:0:0:
80,176,46066,1,0,0:0:0:0:
164,208,46170,2,0,L|256:200,1,90,10|0,0:0|0:0,0:0:0:0:
112,356,46376,6,0,L|64:352,1,45,8|0,0:0|0:0,0:0:0:0:
48,272,46480,2,0,L|0:268,1,45,8|0,0:0|0:0,0:0:0:0:
188,284,46583,37,0,0:0:0:0:
188,284,46635,1,0,0:0:0:0:
188,284,46686,2,0,L|236:280,1,45,8|0,0:0|0:0,0:0:0:0:
252,200,46790,2,0,L|300:196,1,45,8|0,0:0|0:0,0:0:0:0:
124,200,46893,5,0,0:0:0:0:
124,200,46945,1,0,0:0:0:0:
124,200,46997,2,0,L|76:196,1,45,8|0,0:0|0:0,0:0:0:0:
60,116,47100,2,0,L|12:112,1,45,8|0,0:0|0:0,0:0:0:0:
27,4,47204,37,12,0:0:0:0:
15,112,47307,1,0,0:0:0:0:
115,68,47411,1,0,0:0:0:0:
27,4,47514,5,12,0:0:0:0:
11,148,47618,1,0,0:0:0:0:
143,88,47721,1,0,0:0:0:0:
27,4,47824,37,12,0:0:0:0:
7,184,47928,1,0,0:0:0:0:
171,108,48031,5,10,0:0:0:0:
212,92,48083,1,0,0:0:0:0:
256,96,48135,1,0,0:0:0:0:
292,120,48186,1,0,0:0:0:0:
316,160,48238,1,0,0:0:0:0:
320,204,48290,1,0,0:0:0:0:
308,248,48342,1,10,0:0:0:0:
312,292,48394,1,0,0:0:0:0:
336,332,48446,1,0,0:0:0:0:
372,356,48497,1,0,0:0:0:0:
416,360,48549,1,0,0:0:0:0:
457,344,48601,1,0,0:0:0:0:
488,316,48652,2,0,L|496:224,1,90,14|0,0:0|0:0,0:0:0:0:
412,124,48859,37,12,0:0:0:0:
324,112,48962,1,0,0:0:0:0:
320,136,49014,1,0,0:0:0:0:
316,160,49066,1,8,0:0:0:0:
500,136,49169,1,0,0:0:0:0:
504,112,49221,1,0,0:0:0:0:
508,88,49273,1,8,0:0:0:0:
400,212,49376,1,0,0:0:0:0:
424,215,49428,1,0,0:0:0:0:
448,220,49480,1,8,0:0:0:0:
424,36,49583,1,0,0:0:0:0:
400,32,49635,1,0,0:0:0:0:
376,28,49687,5,8,0:0:0:0:
316,160,49790,1,0,0:0:0:0:
292,164,49842,1,0,0:0:0:0:
268,168,49894,1,8,0:0:0:0:
244,32,49997,1,0,0:0:0:0:
220,28,50049,1,0,0:0:0:0:
196,24,50101,1,8,0:0:0:0:
136,156,50204,1,0,0:0:0:0:
112,160,50256,1,0,0:0:0:0:
88,164,50308,1,8,0:0:0:0:
64,28,50410,1,0,0:0:0:0:
40,24,50462,1,0,0:0:0:0:
16,20,50514,37,12,0:0:0:0:
16,20,50618,1,0,0:0:0:0:
24,108,50721,1,0,0:0:0:0:
24,108,50824,1,0,0:0:0:0:
168,32,50928,5,12,0:0:0:0:
168,32,51032,1,0,0:0:0:0:
184,172,51135,1,0,0:0:0:0:
184,172,51238,1,0,0:0:0:0:
320,44,51341,37,12,0:0:0:0:
320,44,51445,1,0,0:0:0:0:
344,236,51549,1,0,0:0:0:0:
344,236,51652,1,0,0:0:0:0:
472,56,51755,5,12,0:0:0:0:
472,56,51859,1,0,0:0:0:0:
504,300,51962,1,0,0:0:0:0:
504,300,52065,1,0,0:0:0:0:
260,340,52169,37,12,0:0:0:0:
172,328,52273,1,0,0:0:0:0:
148,324,52325,1,0,0:0:0:0:
124,320,52377,1,8,0:0:0:0:
228,260,52480,1,0,0:0:0:0:
219,237,52532,1,0,0:0:0:0:
210,214,52584,1,8,0:0:0:0:
320,272,52686,1,0,0:0:0:0:
335,252,52738,1,0,0:0:0:0:
350,233,52790,1,8,0:0:0:0:
348,352,52893,1,0,0:0:0:0:
372,356,52945,1,0,0:0:0:0:
396,360,52997,5,8,0:0:0:0:
350,233,53100,1,0,0:0:0:0:
367,250,53152,1,0,0:0:0:0:
384,267,53204,1,8,0:0:0:0:
419,136,53307,1,0,0:0:0:0:
424,160,53359,1,0,0:0:0:0:
428,184,53411,1,8,0:0:0:0:
336,96,53514,1,0,0:0:0:0:
326,118,53566,1,0,0:0:0:0:
315,140,53618,1,8,0:0:0:0:
290,15,53720,1,0,0:0:0:0:
270,27,53772,1,0,0:0:0:0:
248,39,53824,37,12,0:0:0:0:
64,24,53928,1,8,0:0:0:0:
264,120,54031,5,0,0:0:0:0:
264,120,54083,1,0,0:0:0:0:
264,120,54135,1,8,0:0:0:0:
80,105,54239,1,8,0:0:0:0:
280,201,54342,37,0,0:0:0:0:
280,201,54394,1,0,0:0:0:0:
280,201,54446,1,8,0:0:0:0:
96,186,54550,1,8,0:0:0:0:
296,282,54652,5,0,0:0:0:0:
296,282,54704,1,0,0:0:0:0:
296,282,54756,1,8,0:0:0:0:
112,267,54860,1,8,0:0:0:0:
312,363,54962,37,0,0:0:0:0:
312,363,55013,1,0,0:0:0:0:
312,363,55065,1,8,0:0:0:0:
128,348,55169,1,8,0:0:0:0:
296,282,55273,1,8,0:0:0:0:
480,297,55377,1,8,0:0:0:0:
312,363,55480,5,12,0:0:0:0:
196,300,55583,1,0,0:0:0:0:
192,276,55635,1,0,0:0:0:0:
188,256,55686,1,8,0:0:0:0:
364,228,55790,1,0,0:0:0:0:
368,204,55842,1,0,0:0:0:0:
372,184,55893,1,8,0:0:0:0:
196,172,55997,1,0,0:0:0:0:
192,148,56049,1,0,0:0:0:0:
188,128,56100,1,8,0:0:0:0:
364,100,56204,1,0,0:0:0:0:
368,76,56256,1,0,0:0:0:0:
372,56,56307,37,8,0:0:0:0:
434,223,56411,1,0,0:0:0:0:
445,244,56463,1,0,0:0:0:0:
453,263,56514,1,8,0:0:0:0:
305,164,56617,1,0,0:0:0:0:
283,154,56669,1,0,0:0:0:0:
266,143,56720,1,8,0:0:0:0:
444,136,56824,1,0,0:0:0:0:
468,132,56876,1,0,0:0:0:0:
488,130,56927,1,8,0:0:0:0:
348,240,57031,1,0,0:0:0:0:
331,258,57083,1,0,0:0:0:0:
316,271,57134,5,12,0:0:0:0:
316,272,57238,1,0,0:0:0:0:
328,360,57342,1,0,0:0:0:0:
328,360,57445,1,0,0:0:0:0:
176,200,57549,37,12,0:0:0:0:
176,201,57653,1,0,0:0:0:0:
156,340,57755,1,0,0:0:0:0:
156,340,57860,1,0,0:0:0:0:
376,116,57962,5,12,0:0:0:0:
376,117,58066,1,0,0:0:0:0:
400,308,58170,1,0,0:0:0:0:
400,308,58273,1,0,0:0:0:0:
140,36,58376,37,12,0:0:0:0:
140,37,58480,1,0,0:0:0:0:
112,264,58584,1,0,0:0:0:0:
112,264,58687,1,0,0:0:0:0:
408,3,58790,5,12,0:0:0:0:
480,58,58894,1,0,0:0:0:0:
491,147,58998,1,0,0:0:0:0:
437,219,59101,1,0,0:0:0:0:
347,230,59205,1,0,0:0:0:0:
276,175,59308,1,0,0:0:0:0:
264,86,59411,1,0,0:0:0:0:
319,15,59514,1,0,0:0:0:0:
491,147,59618,37,8,0:0:0:0:
503,189,59669,1,0,0:0:0:0:
503,234,59721,1,0,0:0:0:0:
490,277,59773,1,0,0:0:0:0:
464,314,59824,1,0,0:0:0:0:
429,342,59876,1,0,0:0:0:0:
387,358,59928,1,0,0:0:0:0:
342,361,59980,1,0,0:0:0:0:
299,351,60031,1,8,0:0:0:0:
260,328,60083,1,8,0:0:0:0:
232,292,60135,1,0,0:0:0:0:
192,268,60186,1,0,0:0:0:0:
148,260,60238,1,8,0:0:0:0:
104,264,60290,1,8,0:0:0:0:
64,284,60342,1,0,0:0:0:0:
36,320,60393,1,0,0:0:0:0:
28,364,60445,6,0,P|105:344|148:260,1,180,12|0,0:0|0:0,0:0:0:0:
104,180,60755,1,8,0:0:0:0:
104,180,60807,1,8,0:0:0:0:
104,180,60859,1,0,0:0:0:0:
85,139,60910,1,0,0:0:0:0:
92,96,60962,1,0,0:0:0:0:
123,64,61014,1,0,0:0:0:0:
167,56,61065,1,8,0:0:0:0:
207,75,61117,1,0,0:0:0:0:
230,113,61169,1,0,0:0:0:0:
226,157,61221,1,0,0:0:0:0:
248,196,61273,37,10,0:0:0:0:
284,220,61324,1,0,0:0:0:0:
328,224,61376,1,8,0:0:0:0:
372,208,61428,1,8,0:0:0:0:
416,212,61480,1,0,0:0:0:0:
456,232,61531,1,0,0:0:0:0:
480,272,61583,1,10,0:0:0:0:
480,316,61635,1,0,0:0:0:0:
460,356,61686,1,0,0:0:0:0:
416,372,61738,1,0,0:0:0:0:
372,368,61790,1,0,0:0:0:0:
336,344,61842,1,0,0:0:0:0:
316,304,61893,2,0,L|224:312,1,90,10|0,0:0|0:0,0:0:0:0:
12,328,62100,22,0,B|-4:280|-4:280|4:220,1,107.999996704102,4|8,0:0|0:0,0:0:0:0:
217,206,62307,2,0,B|233:254|233:254|225:314,1,107.999996704102,0|8,0:0|0:0,0:0:0:0:
124,356,62514,1,0,0:0:0:0:
108,184,62618,1,8,0:0:0:0:
124,356,62721,1,0,0:0:0:0:
108,184,62824,1,8,0:0:0:0:
329,178,62928,6,0,B|345:130|345:130|337:70,1,107.999996704102,4|8,0:0|0:0,0:0:0:0:
124,56,63135,2,0,B|108:104|108:104|116:164,1,107.999996704102,0|8,0:0|0:0,0:0:0:0:
217,206,63342,1,0,0:0:0:0:
233,34,63446,1,8,0:0:0:0:
217,206,63549,1,0,0:0:0:0:
233,34,63652,1,8,0:0:0:0:
329,178,63755,38,0,L|437:194,1,107.999996704102,4|8,0:0|0:0,0:0:0:0:
230,371,63962,2,0,L|122:355,1,107.999996704102,0|8,0:0|0:0,0:0:0:0:
183,225,64169,1,0,0:0:0:0:
376,324,64273,1,8,0:0:0:0:
183,225,64376,1,0,0:0:0:0:
376,324,64480,1,8,0:0:0:0:
183,225,64583,6,0,L|172:112,1,107.999996704102,4|8,0:0|0:0,0:0:0:0:
376,324,64790,2,0,L|387:211,1,107.999996704102,0|8,0:0|0:0,0:0:0:0:
92,264,64997,2,0,L|81:151,1,107.999996704102,0|8,0:0|0:0,0:0:0:0:
467,363,65204,2,0,L|478:250,1,107.999996704102,0|8,0:0|0:0,0:0:0:0:
368,28,65411,38,0,B|312:20|312:20|264:40,1,107.999996704102,4|8,0:0|0:0,0:0:0:0:
282,228,65618,2,0,B|338:236|338:236|386:216,1,107.999996704102,0|8,0:0|0:0,0:0:0:0:
436,112,65824,1,0,0:0:0:0:
214,144,65928,1,8,0:0:0:0:
436,112,66031,1,0,0:0:0:0:
214,144,66135,1,8,0:0:0:0:
436,112,66238,6,0,B|380:104|380:104|332:124,1,107.999996704102,4|8,0:0|0:0,0:0:0:0:
350,312,66445,2,0,B|406:320|406:320|454:300,1,107.999996704102,0|8,0:0|0:0,0:0:0:0:
504,196,66651,1,0,0:0:0:0:
282,228,66755,1,8,0:0:0:0:
504,196,66858,1,0,0:0:0:0:
282,228,66962,1,8,0:0:0:0:
504,196,67066,38,0,L|512:88,1,107.999996704102,4|8,0:0|0:0,0:0:0:0:
264,8,67273,2,0,L|272:116,1,107.999996704102,0|8,0:0|0:0,0:0:0:0:
320,348,67480,1,0,0:0:0:0:
452,320,67583,1,8,0:0:0:0:
320,348,67686,1,0,0:0:0:0:
452,320,67790,1,8,0:0:0:0:
361,219,67893,6,0,L|252:208,1,107.999996704102,4|0,0:0|0:0,0:0:0:0:
24,244,68100,1,8,0:0:0:0:
20,292,68152,1,8,0:0:0:0:
36,336,68204,1,8,0:0:0:0:
76,364,68255,1,8,0:0:0:0:
124,376,68307,37,8,0:0:0:0:
148,332,68359,1,0,0:0:0:0:
152,284,68411,1,0,0:0:0:0:
144,236,68462,1,0,0:0:0:0:
116,196,68514,1,8,0:0:0:0:
88,156,68566,1,8,0:0:0:0:
80,108,68617,1,0,0:0:0:0:
84,60,68669,1,0,0:0:0:0:
108,16,68721,6,0,L|220:8,1,107.999996704102,4|8,0:0|0:0,0:0:0:0:
116,196,68928,2,0,L|4:188,1,107.999996704102,0|8,0:0|0:0,0:0:0:0:
108,16,69135,1,0,0:0:0:0:
202,102,69238,1,8,0:0:0:0:
116,196,69342,1,0,0:0:0:0:
22,110,69445,1,8,0:0:0:0:
342,46,69549,38,0,L|454:38,1,107.999996704102,4|8,0:0|0:0,0:0:0:0:
350,226,69756,2,0,L|238:218,1,107.999996704102,0|8,0:0|0:0,0:0:0:0:
342,46,69963,1,0,0:0:0:0:
436,132,70066,1,8,0:0:0:0:
350,226,70170,1,0,0:0:0:0:
256,140,70273,1,8,0:0:0:0:
436,132,70376,6,0,B|452:180|452:180|440:240,1,107.999996704102,4|8,0:0|0:0,0:0:0:0:
247,322,70583,2,0,B|231:274|231:274|243:214,1,107.999996704102,0|8,0:0|0:0,0:0:0:0:
440,236,70790,1,0,0:0:0:0:
247,322,70893,1,8,0:0:0:0:
161,129,70997,1,0,0:0:0:0:
354,43,71100,1,8,0:0:0:0:
440,236,71204,38,0,L|428:344,1,107.999996704102,4|8,0:0|0:0,0:0:0:0:
235,214,71411,2,0,L|247:322,1,107.999996704102,0|8,0:0|0:0,0:0:0:0:
504,40,71618,2,0,L|492:148,1,107.999996704102,0|8,0:0|0:0,0:0:0:0:
171,18,71824,2,0,L|183:126,1,107.999996704102,0|8,0:0|0:0,0:0:0:0:
339,292,72031,6,0,L|348:184,1,107.999996704102,4|8,0:0|0:0,0:0:0:0:
113,206,72238,2,0,L|122:314,1,107.999996704102,0|8,0:0|0:0,0:0:0:0:
408,372,72445,1,0,0:0:0:0:
448,272,72549,1,8,0:0:0:0:
408,372,72652,1,0,0:0:0:0:
448,272,72755,1,8,0:0:0:0:
222,186,72859,38,0,L|213:294,1,107.999996704102,4|8,0:0|0:0,0:0:0:0:
448,272,73066,2,0,L|439:164,1,107.999996704102,0|8,0:0|0:0,0:0:0:0:
153,106,73273,1,0,0:0:0:0:
113,206,73377,1,8,0:0:0:0:
153,106,73480,1,0,0:0:0:0:
113,206,73583,1,8,0:0:0:0:
300,364,73686,6,0,L|408:372,1,107.999996704102,4|0,0:0|0:0,0:0:0:0:
488,176,73893,1,8,0:0:0:0:
439,164,73945,1,0,0:0:0:0:
392,172,73997,1,8,0:0:0:0:
352,200,74049,1,8,0:0:0:0:
320,236,74100,37,8,0:0:0:0:
308,188,74152,1,0,0:0:0:0:
272,156,74204,1,0,0:0:0:0:
224,148,74255,1,0,0:0:0:0:
176,160,74307,1,8,0:0:0:0:
128,172,74360,1,8,0:0:0:0:
80,164,74411,1,0,0:0:0:0:
44,132,74463,1,0,0:0:0:0:
32,84,74515,5,8,0:0:0:0:
252,16,74618,1,8,0:0:0:0:
320,236,74721,1,8,0:0:0:0:
100,304,74824,1,8,0:0:0:0:
32,84,74928,38,8,L|88:80,1,53.9999983520508
160,24,75031,2,8,L|216:20,1,53.9999983520508
296,68,75135,2,8,L|352:64,1,53.9999983520508
424,8,75238,2,8,L|480:4,1,53.9999983520508
466,180,75342,38,0,B|402:176|402:176|354:152|354:152|292:148,1,180,4|0,0:0|0:0,0:0:0:0:
292,148,75652,1,0,0:0:0:0:
120,116,75755,37,8,0:0:0:0:
100,28,75859,1,0,0:0:0:0:
120,116,75962,1,0,0:0:0:0:
100,28,76066,1,0,0:0:0:0:
216,68,76169,5,2,0:0:0:0:
293,21,76273,1,0,0:0:0:0:
216,68,76376,1,0,0:0:0:0:
293,21,76480,1,0,0:0:0:0:
292,148,76583,37,8,0:0:0:0:
359,207,76687,1,0,0:0:0:0:
292,148,76790,1,0,0:0:0:0:
359,207,76894,1,0,0:0:0:0:
238,241,76997,5,2,0:0:0:0:
203,323,77101,1,0,0:0:0:0:
238,241,77204,1,0,0:0:0:0:
203,323,77308,1,0,0:0:0:0:
134,222,77411,37,8,0:0:0:0:
45,214,77515,1,0,0:0:0:0:
134,222,77618,1,0,0:0:0:0:
45,214,77722,1,0,0:0:0:0:
120,116,77824,6,0,B|184:120|184:120|232:144|232:144|296:148,1,180,2|0,0:0|0:0,0:0:0:0:
134,222,78135,1,2,0:0:0:0:
134,222,78238,2,0,L|38:214,1,90,8|0,0:0|0:0,0:0:0:0:
280,41,78445,2,0,L|376:49,1,90,2|0,0:0|0:0,0:0:0:0:
506,266,78652,38,0,B|442:270|442:270|394:294|394:294|330:298,1,180,4|0,0:0|0:0,0:0:0:0:
332,298,78962,1,0,0:0:0:0:
169,342,79066,5,8,0:0:0:0:
134,260,79170,1,0,0:0:0:0:
169,342,79273,1,0,0:0:0:0:
134,260,79377,1,0,0:0:0:0:
13,226,79480,37,2,0:0:0:0:
80,167,79584,1,0,0:0:0:0:
13,226,79687,1,0,0:0:0:0:
80,167,79791,1,0,0:0:0:0:
79,40,79893,5,8,0:0:0:0:
156,87,79997,1,0,0:0:0:0:
79,40,80100,1,0,0:0:0:0:
156,87,80204,1,0,0:0:0:0:
272,47,80307,37,2,0:0:0:0:
252,135,80411,1,0,0:0:0:0:
272,47,80514,1,0,0:0:0:0:
252,135,80618,1,0,0:0:0:0:
327,233,80721,5,8,0:0:0:0:
238,241,80825,1,0,0:0:0:0:
327,233,80928,1,0,0:0:0:0:
238,241,81032,1,0,0:0:0:0:
148,301,81135,38,0,B|100:290|100:290|65:264,1,90,8|0,0:0|0:0,0:0:0:0:
38,58,81342,1,8,0:0:0:0:
38,58,81445,2,0,B|70:21|70:21|110:3,1,90,10|0,0:0|0:0,0:0:0:0:
302,83,81652,1,0,0:0:0:0:
302,83,81755,2,0,B|316:129|316:129|311:172,1,90,12|0,0:0|0:0,0:0:0:0:
296,360,81962,6,0,B|303:271|303:271|380:223|380:223|391:133,1,270,4|0,0:0|0:0,0:0:0:0:
464,264,82376,2,0,L|456:360,1,90,8|0,0:0|0:0,0:0:0:0:
223,229,82583,2,0,L|231:133,1,90,0|0,0:0|0:0,0:0:0:0:
372,24,82790,38,0,B|432:20|432:20|484:56,2,120,2|0|0,0:0|0:0|0:0,0:0:0:0:
230,139,83204,2,0,B|184:143|184:143|142:127,1,90,8|0,0:0|0:0,0:0:0:0:
16,36,83411,2,0,B|62:32|62:32|104:48,1,90,0|0,0:0|0:0,0:0:0:0:
178,216,83618,5,2,0:0:0:0:
156,360,83721,1,0,0:0:0:0:
258,257,83824,1,0,0:0:0:0:
115,279,83928,1,0,0:0:0:0:
244,345,84031,2,0,B|309:361|309:361|353:337|353:337|413:353,1,180,8|0,0:0|0:0,0:0:0:0:
492,308,84342,1,0,0:0:0:0:
412,264,84445,38,0,B|408:219|408:219|420:175,1,90,2|0,0:0|0:0,0:0:0:0:
484,32,84652,1,0,0:0:0:0:
484,32,84755,2,0,B|447:57|447:57|403:68,1,90,0|8,0:0|0:0,0:0:0:0:
247,85,84962,1,0,0:0:0:0:
247,85,85065,2,0,B|287:103|287:103|319:136,1,90,0|0,0:0|0:0,0:0:0:0:
356,336,85273,5,4,0:0:0:0:
268,344,85376,1,0,0:0:0:0:
176,352,85480,1,0,0:0:0:0:
88,360,85583,1,0,0:0:0:0:
36,176,85686,37,8,0:0:0:0:
124,184,85789,1,0,0:0:0:0:
216,192,85893,1,0,0:0:0:0:
304,200,85996,1,0,0:0:0:0:
356,336,86100,5,2,0:0:0:0:
268,344,86203,1,0,0:0:0:0:
216,192,86307,1,0,0:0:0:0:
304,200,86410,1,0,0:0:0:0:
176,352,86514,37,8,0:0:0:0:
88,360,86617,1,0,0:0:0:0:
36,176,86720,1,0,0:0:0:0:
124,184,86823,1,0,0:0:0:0:
356,336,86928,5,2,0:0:0:0:
304,200,87031,1,0,0:0:0:0:
176,352,87135,1,0,0:0:0:0:
124,184,87238,1,0,0:0:0:0:
268,344,87342,37,8,0:0:0:0:
216,192,87445,1,0,0:0:0:0:
88,360,87549,1,0,0:0:0:0:
36,176,87652,1,0,0:0:0:0:
272,59,87755,5,2,0:0:0:0:
304,200,87859,1,0,0:0:0:0:
196,105,87962,1,0,0:0:0:0:
339,117,88066,1,0,0:0:0:0:
216,192,88169,38,0,B|168:188|168:188|132:168,1,90,8|0,0:0|0:0,0:0:0:0:
352,28,88376,2,0,B|400:32|400:32|436:52,1,90,0|0,0:0|0:0,0:0:0:0:
512,272,88583,6,0,B|472:328|472:328|456:320|456:320|432:376|372:392|320:368|300:332,1,270,4|0,0:0|0:0,0:0:0:0:
392,188,88997,2,0,L|488:196,1,90,8|0,0:0|0:0,0:0:0:0:
376,288,89204,2,0,L|280:296,1,90,0|0,0:0|0:0,0:0:0:0:
44,260,89411,37,2,0:0:0:0:
28,172,89514,1,0,0:0:0:0:
44,260,89618,1,0,0:0:0:0:
28,172,89721,1,0,0:0:0:0:
200,324,89824,5,8,0:0:0:0:
216,236,89927,1,0,0:0:0:0:
200,324,90031,1,0,0:0:0:0:
216,236,90134,1,0,0:0:0:0:
28,172,90238,37,2,0:0:0:0:
216,236,90342,1,0,0:0:0:0:
44,260,90445,1,0,0:0:0:0:
200,328,90549,1,0,0:0:0:0:
60,348,90652,2,0,L|44:260,1,90,8|0,0:0|0:0,0:0:0:0:
232,148,90859,2,0,L|248:60,1,90,0|0,0:0|0:0,0:0:0:0:
424,188,91066,6,0,B|428:260|428:260|452:280|452:280|460:356,1,180,2|0,0:0|0:0,0:0:0:0:
376,328,91376,1,0,0:0:0:0:
508,124,91480,2,0,L|512:216,1,90,8|0,0:0|0:0,0:0:0:0:
340,248,91686,2,0,L|336:156,1,90
224,16,91893,37,6,0:0:0:0:
164,28,91962,1,0,0:0:0:0:
120,72,92031,1,0,0:0:0:0:
112,132,92100,1,0,0:0:0:0:
136,188,92169,1,0,0:0:0:0:
128,248,92238,1,0,0:0:0:0:
84,292,92307,2,0,L|24:296,2,60,8|0|0,0:0|0:0|0:0,0:0:0:0:
200,368,92514,2,0,L|140:364,2,60,0|0|0,0:0|0:0|0:0,0:0:0:0:
248,244,92721,5,0,0:0:0:0:
288,220,92773,1,0,0:0:0:0:
332,220,92824,1,0,0:0:0:0:
372,244,92876,1,0,0:0:0:0:
384,288,92928,1,0,0:0:0:0:
420,312,92980,1,0,0:0:0:0:
464,312,93031,1,0,0:0:0:0:
500,284,93083,1,0,0:0:0:0:
508,240,93135,37,8,0:0:0:0:
488,200,93186,1,0,0:0:0:0:
444,184,93238,1,0,0:0:0:0:
420,144,93290,1,0,0:0:0:0:
424,100,93342,1,0,0:0:0:0:
456,68,93393,1,0,0:0:0:0:
500,60,93445,2,0,L|504:108,1,45,0|0,0:0|0:0,0:0:0:0:
340,148,93549,5,2,0:0:0:0:
296,140,93600,1,0,0:0:0:0:
260,112,93652,1,8,0:0:0:0:
244,68,93704,1,0,0:0:0:0:
212,40,93755,1,0,0:0:0:0:
168,32,93807,1,0,0:0:0:0:
124,48,93859,1,0,0:0:0:0:
96,84,93911,1,0,0:0:0:0:
88,128,93962,37,8,0:0:0:0:
104,172,94014,1,0,0:0:0:0:
140,196,94066,1,0,0:0:0:0:
156,240,94118,1,0,0:0:0:0:
152,284,94169,1,8,0:0:0:0:
124,316,94221,1,0,0:0:0:0:
80,328,94273,1,8,0:0:0:0:
40,312,94324,1,0,0:0:0:0:
16,272,94376,6,0,L|8:180,1,90,12|0,0:0|0:0,0:0:0:0:
176,120,94583,1,2,0:0:0:0:
176,120,94686,2,0,L|184:212,1,90,8|2,0:0|0:0,0:0:0:0:
96,344,94893,1,0,0:0:0:0:
96,344,94996,2,0,L|88:252,1,90,8|8,0:0|0:0,0:0:0:0:
324,28,95204,5,4,0:0:0:0:
371,4,95255,1,0,0:0:0:0:
424,9,95307,1,8,0:0:0:0:
466,42,95359,1,0,0:0:0:0:
483,92,95410,1,0,0:0:0:0:
471,144,95462,1,0,0:0:0:0:
432,181,95514,1,8,0:0:0:0:
380,192,95566,1,0,0:0:0:0:
328,204,95617,1,0,0:0:0:0:
290,241,95669,1,0,0:0:0:0:
277,293,95721,1,8,0:0:0:0:
295,343,95772,1,0,0:0:0:0:
337,376,95824,1,0,0:0:0:0:
390,382,95876,1,0,0:0:0:0:
437,358,95928,2,0,L|444:304,1,53.9999983520508,8|0,0:0|0:0,0:0:0:0:
432,181,96031,5,2,0:0:0:0:
392,145,96083,1,0,0:0:0:0:
340,137,96135,1,8,0:0:0:0:
292,157,96186,1,0,0:0:0:0:
260,201,96238,1,0,0:0:0:0:
252,253,96290,1,0,0:0:0:0:
220,297,96342,1,8,0:0:0:0:
172,317,96393,1,0,0:0:0:0:
120,309,96445,1,0,0:0:0:0:
80,273,96497,1,0,0:0:0:0:
60,221,96549,1,8,0:0:0:0:
68,169,96600,1,0,0:0:0:0:
104,129,96652,2,0,L|160:121,1,53.9999983520508,0|0,0:0|0:0,0:0:0:0:
220,228,96755,2,0,L|164:220,1,53.9999983520508,8|0,0:0|0:0,0:0:0:0:
72,52,96859,37,6,0:0:0:0:
119,26,96911,1,0,0:0:0:0:
173,29,96962,1,8,0:0:0:0:
218,58,97014,1,0,0:0:0:0:
249,103,97066,1,0,0:0:0:0:
293,132,97118,1,0,0:0:0:0:
348,135,97169,1,8,0:0:0:0:
395,110,97221,1,0,0:0:0:0:
420,60,97273,5,0,0:0:0:0:
370,40,97324,1,0,0:0:0:0:
318,53,97376,1,8,0:0:0:0:
282,92,97428,1,0,0:0:0:0:
274,144,97479,1,0,0:0:0:0:
297,192,97531,1,0,0:0:0:0:
343,219,97583,1,8,0:0:0:0:
396,215,97635,1,0,0:0:0:0:
436,180,97686,37,6,0:0:0:0:
372,173,97737,1,0,0:0:0:0:
316,205,97789,1,8,0:0:0:0:
289,262,97841,1,0,0:0:0:0:
299,325,97892,1,0,0:0:0:0:
343,371,97944,1,0,0:0:0:0:
406,383,97996,1,8,0:0:0:0:
464,358,98048,1,0,0:0:0:0:
496,300,98100,2,0,L|500:188,1,107.999996704102,0|8,0:0|0:0,0:0:0:0:
368,65,98307,2,0,L|372:173,1,107.999996704102,0|8,0:0|0:0,0:0:0:0:
299,325,98514,5,4,0:0:0:0:
196,356,98618,1,8,0:0:0:0:
104,300,98721,1,0,0:0:0:0:
1,331,98825,1,8,0:0:0:0:
56,136,98928,37,0,0:0:0:0:
159,105,99032,1,8,0:0:0:0:
251,161,99135,1,0,0:0:0:0:
354,130,99239,1,8,0:0:0:0:
104,300,99342,5,2,0:0:0:0:
251,161,99445,1,8,0:0:0:0:
151,328,99549,1,0,0:0:0:0:
206,133,99652,1,8,0:0:0:0:
196,356,99755,2,0,L|304:360,1,107.999996704102,0|8,0:0|0:0,0:0:0:0:
159,105,99962,2,0,L|51:101,1,107.999996704102,0|8,0:0|0:0,0:0:0:0:
177,230,100169,37,4,0:0:0:0:
280,260,100273,1,8,0:0:0:0:
177,230,100376,1,0,0:0:0:0:
280,260,100480,1,8,0:0:0:0:
384,28,100583,5,0,0:0:0:0:
281,58,100687,1,8,0:0:0:0:
384,28,100790,1,0,0:0:0:0:
281,58,100894,1,8,0:0:0:0:
383,290,100997,38,0,L|491:298,1,107.999996704102,4|8,0:0|0:0,0:0:0:0:
448,123,101204,2,0,L|456:15,1,107.999996704102,0|8,0:0|0:0,0:0:0:0:
281,58,101411,2,0,L|173:50,1,107.999996704102,0|8,0:0|0:0,0:0:0:0:
216,225,101618,2,0,L|208:333,1,107.999996704102,0|8,0:0|0:0,0:0:0:0:
383,290,101824,6,0,L|491:298,1,107.999996704102,4|8,0:0|0:0,0:0:0:0:
448,124,102031,37,0,0:0:0:0:
376,112,102100,1,0,0:0:0:0:
308,140,102169,1,0,0:0:0:0:
272,204,102238,1,0,0:0:0:0:
272,276,102307,1,0,0:0:0:0:
236,340,102376,1,0,0:0:0:0:
168,368,102445,1,0,0:0:0:0:
96,356,102514,1,0,0:0:0:0:
44,308,102583,1,0,0:0:0:0:
28,240,102652,6,0,L|20:168,2,71.9999978027344,0|0|0,0:0|0:0|0:0,0:0:0:0:
144,152,102859,2,0,L|152:80,2,71.9999978027344,0|0|0,0:0|0:0|0:0,0:0:0:0:
272,204,103066,2,0,L|264:132,2,71.9999978027344,0|0|0,0:0|0:0|0:0,0:0:0:0:
388,116,103273,2,0,L|396:44,2,71.9999978027344,0|0|0,0:0|0:0|0:0,0:0:0:0:
480,240,103480,37,4,0:0:0:0:
421,281,103549,1,0,0:0:0:0:
349,287,103618,1,0,0:0:0:0:
284,257,103686,1,0,0:0:0:0:
242,198,103755,1,0,0:0:0:0:
236,126,103824,1,0,0:0:0:0:
266,61,103893,1,0,0:0:0:0:
325,19,103962,1,0,0:0:0:0:
397,13,104031,1,0,0:0:0:0:
462,44,104100,1,0,0:0:0:0:
504,103,104169,2,0,L|508:176,1,71.9999978027344,0|0,0:0|0:0,0:0:0:0:
411,256,104307,5,4,0:0:0:0:
354,261,104376,1,0,0:0:0:0:
302,236,104445,1,0,0:0:0:0:
269,189,104514,1,0,0:0:0:0:
264,132,104583,1,0,0:0:0:0:
288,79,104652,1,0,0:0:0:0:
335,46,104721,1,0,0:0:0:0:
393,41,104790,1,0,0:0:0:0:
445,66,104859,1,0,0:0:0:0:
478,113,104928,1,0,0:0:0:0:
483,170,104997,2,0,L|476:248,1,71.9999978027344,0|0,0:0|0:0,0:0:0:0:
344,344,105135,37,12,0:0:0:0:
236,352,105238,1,0,0:0:0:0:
128,360,105342,1,0,0:0:0:0:
20,368,105445,1,0,0:0:0:0:
60,152,105549,5,8,0:0:0:0:
168,160,105652,1,0,0:0:0:0:
276,168,105756,1,0,0:0:0:0:
384,176,105859,1,0,0:0:0:0:
344,344,105962,37,8,0:0:0:0:
384,176,106066,1,0,0:0:0:0:
236,352,106169,1,0,0:0:0:0:
168,160,106273,1,0,0:0:0:0:
236,352,106376,5,8,0:0:0:0:
276,168,106480,1,0,0:0:0:0:
128,360,106583,1,0,0:0:0:0:
60,152,106686,1,0,0:0:0:0:
128,360,106790,37,8,0:0:0:0:
384,176,106893,1,0,0:0:0:0:
168,160,106996,5,8,0:0:0:0:
344,344,107100,1,0,0:0:0:0:
20,368,107204,37,8,0:0:0:0:
276,168,107307,1,0,0:0:0:0:
60,152,107410,5,8,0:0:0:0:
236,352,107514,1,0,0:0:0:0:
20,368,107618,37,12,0:0:0:0:
16,316,107669,1,0,0:0:0:0:
12,260,107721,1,0,0:0:0:0:
8,204,107773,1,0,0:0:0:0:
4,152,107824,2,0,L|0:96,1,53.9999983520508,0|0,0:0|0:0,0:0:0:0:
176,52,107928,5,12,0:0:0:0:
172,104,107979,1,0,0:0:0:0:
168,160,108031,1,0,0:0:0:0:
164,216,108083,1,0,0:0:0:0:
160,268,108134,2,0,L|156:324,1,53.9999983520508,0|0,0:0|0:0,0:0:0:0:
292,348,108238,38,0,L|404:360,1,107.999996704102,12|0,0:0|0:0,0:0:0:0:
377,87,108445,6,0,B|353:38|353:38|309:6,1,107.999996704102,4|8,0:0|0:0,0:0:0:0:
240,241,108652,2,0,B|293:244|293:244|343:222,1,107.999996704102,0|8,0:0|0:0,0:0:0:0:
176,45,108859,2,0,B|146:89|146:89|140:143,1,107.999996704102,0|8,0:0|0:0,0:0:0:0:
377,87,109066,37,0,0:0:0:0:
176,45,109169,1,8,0:0:0:0:
240,241,109273,2,0,B|293:244|293:244|392:201|392:201|448:205,1,215.999993408203,0|0,0:0|0:0,0:0:0:0:
446,204,109583,1,8,0:0:0:0:
288,325,109686,2,0,L|180:317,1,107.999996704102,0|8,0:0|0:0,0:0:0:0:
398,120,109893,2,0,L|506:128,1,107.999996704102,0|8,0:0|0:0,0:0:0:0:
240,167,110100,6,0,L|248:59,1,107.999996704102,4|8,0:0|0:0,0:0:0:0:
445,277,110307,2,0,L|437:385,1,107.999996704102,0|8,0:0|0:0,0:0:0:0:
208,173,110514,38,0,L|216:65,1,107.999996704102,0|8,0:0|0:0,0:0:0:0:
476,269,110721,2,0,L|468:377,1,107.999996704102,0|8,0:0|0:0,0:0:0:0:
288,332,110928,6,0,B|235:335|235:335|136:292|136:292|80:296,1,215.999993408203,4|0,0:0|0:0,0:0:0:0:
82,296,111238,1,8,0:0:0:0:
248,252,111342,2,0,L|356:244,1,107.999996704102,0|8,0:0|0:0,0:0:0:0:
121,375,111549,2,0,L|13:383,1,107.999996704102,0|8,0:0|0:0,0:0:0:0:
112,116,111755,37,4,0:0:0:0:
264,136,111859,1,8,0:0:0:0:
112,116,111962,1,0,0:0:0:0:
264,136,112066,1,8,0:0:0:0:
100,152,112169,5,0,0:0:0:0:
276,100,112273,1,8,0:0:0:0:
100,152,112376,1,0,0:0:0:0:
276,100,112480,1,8,0:0:0:0:
36,96,112583,37,0,0:0:0:0:
340,156,112686,1,8,0:0:0:0:
36,96,112790,1,0,0:0:0:0:
340,156,112893,1,8,0:0:0:0:
24,132,112997,5,0,0:0:0:0:
352,120,113100,1,8,0:0:0:0:
24,132,113204,1,0,0:0:0:0:
352,120,113307,1,8,0:0:0:0:
12,168,113411,37,4,0:0:0:0:
144,376,113514,2,0,B|241:328,1,107.999996704102,8|0,0:0|0:0,0:0:0:0:
12,168,113721,2,0,B|4:276,1,107.999996704102,8|0,0:0|0:0,0:0:0:0:
258,157,113928,2,0,B|168:96,1,107.999996704102,8|0,0:0|0:0,0:0:0:0:
12,168,114135,1,8,0:0:0:0:
200,232,114238,6,0,B|248:252|248:252|304:240,1,107.999996704102,4|8,0:0|0:0,0:0:0:0:
500,104,114445,2,0,B|452:84|452:84|396:96,1,107.999996704102,0|8,0:0|0:0,0:0:0:0:
414,318,114652,2,0,B|434:270|434:270|422:214,1,107.999996704102,0|8,0:0|0:0,0:0:0:0:
286,18,114859,2,0,B|266:66|266:66|278:122,1,107.999996704102,0|8,0:0|0:0,0:0:0:0:
414,318,115066,37,4,0:0:0:0:
348,292,115135,1,0,0:0:0:0:
276,300,115204,1,0,0:0:0:0:
212,336,115273,1,0,0:0:0:0:
148,372,115342,1,0,0:0:0:0:
76,380,115411,1,0,0:0:0:0:
10,354,115480,2,0,L|4:280,2,71.9999978027344,0|0|0,0:0|0:0|0:0,0:0:0:0:
108,268,115686,2,0,L|114:194,2,71.9999978027344,0|0|0,0:0|0:0|0:0,0:0:0:0:
212,336,115893,5,8,0:0:0:0:
248,374,115944,1,8,0:0:0:0:
300,387,115996,1,0,0:0:0:0:
351,370,116048,1,0,0:0:0:0:
384,329,116099,1,8,0:0:0:0:
391,276,116151,1,8,0:0:0:0:
368,228,116203,1,0,0:0:0:0:
324,200,116255,1,0,0:0:0:0:
300,152,116307,1,8,0:0:0:0:
307,98,116359,1,8,0:0:0:0:
341,57,116410,1,0,0:0:0:0:
392,41,116462,1,0,0:0:0:0:
444,54,116514,1,10,0:0:0:0:
480,92,116565,1,0,0:0:0:0:
484,148,116618,2,0,L|476:208,1,53.9999983520508,0|0,0:0|0:0,0:0:0:0:
300,292,116721,37,4,0:0:0:0:
238,309,116772,1,0,0:0:0:0:
175,296,116824,1,0,0:0:0:0:
125,256,116876,1,0,0:0:0:0:
100,197,116927,1,0,0:0:0:0:
104,133,116979,1,0,0:0:0:0:
138,78,117031,1,0,0:0:0:0:
193,45,117083,1,0,0:0:0:0:
257,41,117135,5,8,0:0:0:0:
274,102,117186,1,8,0:0:0:0:
261,165,117238,1,0,0:0:0:0:
221,215,117290,1,0,0:0:0:0:
162,240,117341,1,8,0:0:0:0:
98,236,117393,1,8,0:0:0:0:
43,202,117445,1,0,0:0:0:0:
10,147,117497,1,0,0:0:0:0:
6,83,117548,37,8,0:0:0:0:
50,21,117600,1,8,0:0:0:0:
121,2,117652,1,8,0:0:0:0:
191,34,117703,1,8,0:0:0:0:
222,102,117755,1,8,0:0:0:0:
203,175,117807,1,8,0:0:0:0:
142,220,117859,1,0,0:0:0:0:
66,211,117911,1,0,0:0:0:0:
12,158,117962,6,0,L|8:102,1,53.9999983520508,8|0,0:0|0:0,0:0:0:0:
136,52,118066,2,0,L|164:3,1,53.9999983520508,8|0,0:0|0:0,0:0:0:0:
298,36,118169,2,0,L|349:13,1,53.9999983520508,8|0,0:0|0:0,0:0:0:0:
452,87,118273,2,0,L|508:86,1,53.9999983520508,8|0,0:0|0:0,0:0:0:0:
504,256,118376,38,0,B|460:284|448:320|448:320|432:272|432:272|412:336|384:352|384:352|352:304|272:296,1,360,4|0,0:0|2:0,0:0:0:0:
274,296,120031,37,4,0:0:0:0:
274,296,120859,37,8,0:0:0:0:
229,308,120911,1,8,0:0:0:0:
185,302,120962,1,0,0:0:0:0:
152,271,121014,1,0,0:0:0:0:
142,228,121066,1,8,0:0:0:0:
161,186,121118,1,8,0:0:0:0:
198,159,121169,1,0,0:0:0:0:
233,132,121221,1,0,0:0:0:0:
252,91,121273,1,8,0:0:0:0:
243,48,121325,1,8,0:0:0:0:
209,17,121377,1,0,0:0:0:0:
165,10,121428,1,0,0:0:0:0:
122,23,121480,2,0,L|80:44,3,45,8|8|0|0,0:0|0:0|0:0|0:0,0:0:0:0:
28,88,121686,6,0,L|20:180,1,90,4|8,0:0|0:0,0:0:0:0:
152,324,121893,1,0,0:0:0:0:
236,284,121997,2,0,L|244:192,1,90,8|0,0:0|0:0,0:0:0:0:
112,48,122204,1,8,0:0:0:0:
28,88,122308,2,0,L|20:180,1,90,0|8,0:0|0:0,0:0:0:0:
152,324,122514,37,0,0:0:0:0:
228,376,122618,2,0,B|272:384|272:384|320:372,1,90,8|0,0:0|0:0,0:0:0:0:
328,156,122824,1,8,0:0:0:0:
252,104,122928,2,0,B|208:96|208:96|160:108,1,90,0|8,0:0|0:0,0:0:0:0:
152,324,123135,1,0,0:0:0:0:
228,376,123238,1,8,0:0:0:0:
236,284,123342,5,14,0:0:0:0:
68,364,123445,1,0,0:0:0:0:
228,376,123549,1,0,0:0:0:0:
76,272,123652,2,0,L|68:182,1,90,10|0,0:0|0:0,0:0:0:0:
68,183,123859,1,0,0:0:0:0:
228,192,123962,37,10,0:0:0:0:
396,272,124065,1,0,0:0:0:0:
236,284,124169,1,0,0:0:0:0:
388,180,124272,2,0,L|395:90,1,90,10|0,0:0|0:0,0:0:0:0:
395,91,124479,1,0,0:0:0:0:
460,220,124583,6,0,L|456:268,1,45,10|10,0:0|0:0,0:0:0:0:
324,380,124686,2,0,L|276:376,1,45,10|10,0:3|0:3,0:3:0:0:
164,244,124790,2,0,L|168:196,1,45,10|10,0:0|0:0,0:0:0:0:
300,84,124893,2,0,L|348:88,1,45,10|10,0:3|0:3,0:3:0:0:
460,220,124997,37,4,0:0:0:0:
460,220,125100,1,0,0:0:0:0:
424,304,125204,1,10,0:0:0:0:
368,232,125307,2,0,L|372:140,1,90,0|10,0:0|0:0,0:0:0:0:
280,30,125514,1,0,0:0:0:0:
224,102,125617,2,0,L|228:194,1,90,10|0,0:0|0:0,0:0:0:0:
128,332,125824,5,10,0:0:0:0:
72,260,125927,2,0,L|76:168,1,90,0|10,0:0|0:0,0:0:0:0:
264,276,126135,1,0,0:0:0:0:
320,204,126238,2,0,L|316:112,1,90,10|0,0:0|0:0,0:0:0:0:
356,136,126393,1,0,0:0:0:0:
400,140,126445,1,8,0:0:0:0:
444,128,126497,1,0,0:0:0:0:
476,96,126549,1,0,0:0:0:0:
496,56,126600,1,0,0:0:0:0:
496,12,126652,37,4,0:0:0:0:
496,12,126755,1,0,0:0:0:0:
412,40,126859,1,10,0:0:0:0:
476,96,126962,2,0,B|490:138|490:138|486:186,1,90,0|10,0:0|0:0,0:0:0:0:
394,347,127169,1,0,0:0:0:0:
330,291,127272,2,0,B|316:249|316:249|320:201,1,90,10|0,0:0|0:0,0:0:0:0:
412,40,127480,6,0,L|476:32,2,60,14|0|0,0:0|0:0|0:0,0:0:0:0:
300,124,127686,2,0,L|364:132,2,60,14|0|0,0:0|0:0|0:0,0:0:0:0:
156,44,127893,2,0,L|220:36,2,60,14|0|0,0:0|0:0|0:0,0:0:0:0:
44,128,128100,2,0,L|108:136,2,60,14|0|0,0:0|0:0|0:0,0:0:0:0:
160,204,128307,37,4,0:0:0:0:
160,204,128411,1,0,0:0:0:0:
216,272,128514,1,10,0:0:0:0:
128,284,128618,2,0,B|84:288|84:288|40:272,1,90,0|10,0:0|0:0,0:0:0:0:
68,56,128824,1,0,0:0:0:0:
156,44,128928,2,0,B|200:40|200:40|244:56,1,90,10|0,0:0|0:0,0:0:0:0:
328,128,129135,6,0,L|380:136,1,45,8|0,0:0|0:0,0:0:0:0:
428,200,129238,2,0,L|480:192,1,45,8|0,0:0|0:0,0:0:0:0:
496,80,129342,37,0,0:0:0:0:
496,80,129393,1,0,0:0:0:0:
496,80,129445,2,0,L|444:72,1,45,8|0,0:0|0:0,0:0:0:0:
396,8,129548,2,0,L|344:16,1,45,8|0,0:0|0:0,0:0:0:0:
240,100,129652,5,0,0:0:0:0:
240,100,129703,1,0,0:0:0:0:
240,100,129755,1,0,0:0:0:0:
200,124,129807,1,0,0:0:0:0:
156,128,129859,1,0,0:0:0:0:
116,112,129910,1,0,0:0:0:0:
84,80,129962,37,12,0:0:0:0:
212,16,130065,1,0,0:0:0:0:
320,108,130169,1,0,0:0:0:0:
192,172,130272,2,0,L|96:184,1,90,12|0,0:0|0:0,0:0:0:0:
132,16,130480,1,0,0:0:0:0:
292,32,130583,2,0,L|388:44,1,90,12|0,0:0|0:0,0:0:0:0:
452,200,130790,5,10,0:0:0:0:
432,344,130893,1,0,0:0:0:0:
318,255,130997,1,0,0:0:0:0:
340,112,131100,2,0,L|432:124,1,90,10|0,0:0|0:0,0:0:0:0:
468,276,131307,1,0,0:0:0:0:
304,180,131411,2,0,L|212:192,1,90,10|0,0:0|0:0,0:0:0:0:
80,296,131618,37,12,0:0:0:0:
156,344,131721,1,0,0:0:0:0:
180,340,131773,1,0,0:0:0:0:
204,336,131824,1,8,0:0:0:0:
168,164,131928,1,0,0:0:0:0:
144,168,131980,1,0,0:0:0:0:
120,172,132031,1,8,0:0:0:0:
252,260,132135,1,0,0:0:0:0:
248,236,132187,1,0,0:0:0:0:
244,212,132238,1,8,0:0:0:0:
72,248,132342,1,0,0:0:0:0:
76,272,132394,1,0,0:0:0:0:
80,296,132445,5,8,0:0:0:0:
170,302,132549,1,0,0:0:0:0:
187,319,132601,1,0,0:0:0:0:
204,336,132652,1,8,0:0:0:0:
281,290,132755,1,0,0:0:0:0:
304,294,132807,1,0,0:0:0:0:
328,298,132858,1,8,0:0:0:0:
365,216,132962,1,0,0:0:0:0:
386,206,133014,1,0,0:0:0:0:
408,196,133065,1,8,0:0:0:0:
391,107,133169,1,0,0:0:0:0:
402,86,133221,1,0,0:0:0:0:
415,66,133273,37,12,0:0:0:0:
328,48,133376,1,0,0:0:0:0:
415,66,133480,1,0,0:0:0:0:
328,48,133583,1,0,0:0:0:0:
400,139,133686,5,12,0:0:0:0:
256,136,133790,1,0,0:0:0:0:
400,139,133894,1,0,0:0:0:0:
256,136,133997,1,0,0:0:0:0:
398,215,134100,37,12,0:0:0:0:
200,235,134204,1,0,0:0:0:0:
398,215,134308,1,0,0:0:0:0:
200,235,134411,1,0,0:0:0:0:
409,289,134514,5,12,0:0:0:0:
162,342,134618,1,0,0:0:0:0:
409,289,134722,1,0,0:0:0:0:
162,342,134825,1,0,0:0:0:0:
432,359,134928,37,12,0:0:0:0:
508,312,135031,1,0,0:0:0:0:
504,288,135083,1,0,0:0:0:0:
500,264,135135,1,8,0:0:0:0:
428,212,135238,1,0,0:0:0:0:
432,188,135290,1,0,0:0:0:0:
436,164,135342,1,8,0:0:0:0:
508,108,135445,1,0,0:0:0:0:
504,84,135497,1,0,0:0:0:0:
500,60,135549,1,8,0:0:0:0:
344,12,135652,1,0,0:0:0:0:
340,36,135704,1,0,0:0:0:0:
336,60,135756,5,8,0:0:0:0:
264,112,135859,1,0,0:0:0:0:
268,136,135911,1,0,0:0:0:0:
272,160,135963,1,8,0:0:0:0:
344,216,136066,1,0,0:0:0:0:
340,240,136118,1,0,0:0:0:0:
336,264,136170,1,8,0:0:0:0:
264,316,136272,1,0,0:0:0:0:
268,340,136324,1,0,0:0:0:0:
272,364,136376,1,8,0:0:0:0:
104,332,136480,1,0,0:0:0:0:
108,308,136532,1,0,0:0:0:0:
112,284,136583,38,0,L|64:276,1,45,12|0,0:0|0:0,0:0:0:0:
36,128,136686,2,0,L|84:120,2,45,8|0|0,0:0|0:0|0:0,0:0:0:0:
244,296,136893,6,0,L|196:288,1,45,8|0,0:0|0:0,0:0:0:0:
168,140,136997,2,0,L|216:132,2,45,8|0|0,0:0|0:0|0:0,0:0:0:0:
376,308,137204,38,0,L|328:300,1,45,8|0,0:0|0:0,0:0:0:0:
300,152,137307,2,0,L|348:144,2,45,8|0|0,0:0|0:0|0:0,0:0:0:0:
508,320,137514,6,0,L|460:312,1,45,8|0,0:0|0:0,0:0:0:0:
432,164,137617,2,0,L|480:156,2,45,8|0|0,0:0|0:0|0:0,0:0:0:0:
376,232,137824,37,8,0:0:0:0:
404,76,137928,1,8,0:0:0:0:
376,232,138031,1,8,0:0:0:0:
404,76,138135,1,8,0:0:0:0:
260,16,138238,5,12,0:0:0:0:
144,128,138342,1,0,0:0:0:0:
148,148,138393,1,0,0:0:0:0:
152,172,138445,1,8,0:0:0:0:
268,60,138549,1,0,0:0:0:0:
264,40,138600,1,0,0:0:0:0:
260,16,138652,1,8,0:0:0:0:
240,157,138756,1,0,0:0:0:0:
260,152,138807,1,0,0:0:0:0:
284,148,138859,1,8,0:0:0:0:
172,32,138963,1,0,0:0:0:0:
152,35,139014,1,0,0:0:0:0:
127,40,139066,37,8,0:0:0:0:
240,157,139169,1,0,0:0:0:0:
260,160,139220,1,0,0:0:0:0:
285,165,139272,1,8,0:0:0:0:
336,32,139376,1,0,0:0:0:0:
316,35,139427,1,0,0:0:0:0:
291,40,139479,1,8,0:0:0:0:
404,157,139582,1,0,0:0:0:0:
424,160,139635,1,0,0:0:0:0:
449,165,139685,1,8,0:0:0:0:
500,32,139790,1,0,0:0:0:0:
480,35,139841,1,0,0:0:0:0:
455,40,139893,5,12,0:0:0:0:
483,123,139996,1,0,0:0:0:0:
455,40,140099,1,0,0:0:0:0:
483,123,140203,1,0,0:0:0:0:
375,52,140307,37,12,0:0:0:0:
395,192,140410,1,0,0:0:0:0:
375,52,140514,1,0,0:0:0:0:
395,192,140618,1,0,0:0:0:0:
294,50,140721,5,12,0:3:0:0:
296,244,140824,1,0,0:0:0:0:
294,50,140927,1,0,0:3:0:0:
296,244,141031,1,0,0:0:0:0:
214,34,141135,37,12,0:3:0:0:
189,279,141238,1,0,0:0:0:0:
214,34,141341,1,0,0:3:0:0:
189,279,141445,1,0,0:0:0:0:
137,4,141549,6,0,L|104:88,1,90,12|0,0:0|0:0,0:0:0:0:
142,280,141755,1,8,0:3:0:0:
189,279,141807,1,0,0:0:0:0:
229,261,141859,1,0,0:0:0:0:
260,228,141911,1,0,0:0:0:0:
280,188,141962,1,8,0:0:0:0:
311,155,142014,1,0,0:0:0:0:
351,137,142066,1,0,0:0:0:0:
398,136,142118,1,8,0:3:0:0:
440,148,142169,1,8,0:0:0:0:
472,180,142221,1,0,0:0:0:0:
492,220,142273,1,0,0:0:0:0:
492,264,142324,1,0,0:0:0:0:
476,304,142376,37,8,3:0:0:0:
314,326,142480,1,8,3:0:0:0:
287,168,142584,1,8,3:0:0:0:
446,140,142686,1,8,3:0:0:0:
396,347,142790,5,8,3:0:0:0:
267,253,142894,1,8,3:0:0:0:
357,121,142998,1,8,3:0:0:0:
489,215,143100,1,8,3:0:0:0:
378,234,143204,37,6,0:0:0:0:
256,192,143255,12,8,144445,0:0:0:0:
224,132,144859,22,0,B|182:102|182:102|125:105,1,107.999996704102,4|8,0:0|0:0,0:0:0:0:
73,295,145066,2,0,B|114:324|114:324|171:321,1,107.999996704102,0|8,0:0|0:0,0:0:0:0:
252,244,145273,1,0,0:0:0:0:
44,184,145376,1,8,0:0:0:0:
244,220,145480,1,0,0:0:0:0:
52,208,145583,1,8,0:0:0:0:
236,196,145686,6,0,L|244:88,1,107.999996704102,4|8,0:0|0:0,0:0:0:0:
28,52,145893,2,0,L|36:160,1,107.999996704102,0|8,0:0|0:0,0:0:0:0:
160,312,146100,1,0,0:0:0:0:
344,272,146204,1,8,0:0:0:0:
152,288,146307,1,0,0:0:0:0:
352,296,146411,1,8,0:0:0:0:
144,260,146514,38,0,L|136:152,1,107.999996704102,4|8,0:0|0:0,0:0:0:0:
352,116,146721,2,0,L|344:224,1,107.999996704102,0|8,0:0|0:0,0:0:0:0:
220,376,146928,1,0,0:0:0:0:
36,336,147032,1,8,0:0:0:0:
228,352,147135,1,0,0:0:0:0:
28,360,147239,1,8,0:0:0:0:
236,328,147342,6,0,L|348:336,1,107.999996704102,4|8,0:0|0:0,0:0:0:0:
136,236,147549,2,0,L|24:244,1,107.999996704102,0|8,0:0|0:0,0:0:0:0:
244,152,147755,2,0,L|356:160,1,107.999996704102,0|8,0:0|0:0,0:0:0:0:
144,60,147962,2,0,L|32:68,1,107.999996704102,0|8,0:0|0:0,0:0:0:0:
240,244,148169,38,0,L|352:252,1,107.999996704102,4|8,0:0|0:0,0:0:0:0:
420,64,148376,2,0,L|308:72,1,107.999996704102,0|8,0:0|0:0,0:0:0:0:
244,152,148583,1,0,0:0:0:0:
420,168,148686,1,8,0:0:0:0:
236,176,148790,1,0,0:0:0:0:
428,144,148893,1,8,0:0:0:0:
228,200,148997,6,0,L|236:308,1,107.999996704102,4|8,0:0|0:0,0:0:0:0:
424,300,149204,2,0,L|416:192,1,107.999996704102,0|8,0:0|0:0,0:0:0:0:
219,44,149411,1,0,0:0:0:0:
43,60,149514,1,8,0:0:0:0:
227,68,149618,1,0,0:0:0:0:
35,36,149721,1,8,0:0:0:0:
235,92,149825,38,0,L|227:200,1,107.999996704102,4|8,0:0|0:0,0:0:0:0:
39,192,150032,2,0,L|47:84,1,107.999996704102,0|8,0:0|0:0,0:0:0:0:
316,48,150238,1,0,0:0:0:0:
140,64,150341,1,8,0:0:0:0:
324,72,150445,1,0,0:0:0:0:
132,40,150548,1,8,0:0:0:0:
332,96,150652,6,0,L|440:88,1,107.999996704102,12|8,0:0|0:0,0:0:0:0:
392,268,150859,1,0,0:0:0:0:
392,268,150911,1,0,0:0:0:0:
392,268,150962,1,8,0:0:0:0:
214,234,151066,1,8,0:0:0:0:
332,96,151169,1,0,0:0:0:0:
332,96,151221,1,0,0:0:0:0:
332,96,151273,1,14,0:0:0:0:
392,268,151376,1,0,0:0:0:0:
392,268,151428,1,0,0:0:0:0:
392,268,151480,38,0,L|284:260,1,107.999996704102,4|8,0:0|0:0,0:0:0:0:
308,24,151686,2,0,L|416:16,1,107.999996704102,0|8,0:0|0:0,0:0:0:0:
284,260,151893,1,0,0:0:0:0:
178,130,151997,1,8,0:0:0:0:
308,24,152100,1,0,0:0:0:0:
414,154,152204,1,8,0:0:0:0:
262,374,152307,6,0,L|154:366,1,107.999996704102,4|8,0:0|0:0,0:0:0:0:
178,130,152514,2,0,L|286:122,1,107.999996704102,0|8,0:0|0:0,0:0:0:0:
154,366,152720,1,0,0:0:0:0:
48,236,152824,1,8,0:0:0:0:
178,130,152927,1,0,0:0:0:0:
284,260,153031,1,8,0:0:0:0:
154,366,153135,38,0,L|146:259,1,107.999996704102,4|8,0:0|0:0,0:0:0:0:
388,112,153342,2,0,L|400:220,1,107.999996704102,0|8,0:0|0:0,0:0:0:0:
146,259,153549,1,0,0:0:0:0:
253,112,153652,1,8,0:0:0:0:
400,220,153755,1,0,0:0:0:0:
292,366,153858,1,8,0:0:0:0:
146,259,153962,6,0,B|36:248,1,107.999996704102,4|8,0:0|0:0,0:0:0:0:
253,112,154169,2,0,B|143:123,1,107.999996704102,0|8,0:0|0:0,0:0:0:0:
360,284,154376,2,0,B|250:273,1,107.999996704102,4|8,0:0|0:0,0:0:0:0:
467,87,154583,2,0,B|357:98,1,107.999996704102,0|8,0:0|0:0,0:0:0:0:
17,192,154790,38,0,L|13:80,1,107.999996704102,4|8,0:0|0:0,0:0:0:0:
208,79,154997,2,0,L|212:191,1,107.999996704102,0|8,0:0|0:0,0:0:0:0:
87,44,155204,1,0,0:0:0:0:
139,236,155307,1,8,0:0:0:0:
119,52,155411,1,0,0:0:0:0:
107,228,155514,1,8,0:0:0:0:
399,192,155618,6,0,L|403:80,1,107.999996704102,4|8,0:0|0:0,0:0:0:0:
208,79,155825,2,0,L|204:191,1,107.999996704102,0|8,0:0|0:0,0:0:0:0:
309,228,156031,1,0,0:0:0:0:
297,52,156135,1,8,0:0:0:0:
277,236,156238,1,0,0:0:0:0:
329,44,156342,1,8,0:0:0:0:
329,44,156393,1,0,0:0:0:0:
329,44,156445,38,0,L|437:56,1,107.999996704102,4|8,0:0|0:0,0:0:0:0:
277,132,156652,1,0,0:0:0:0:
225,36,156755,1,8,0:0:0:0:
169,128,156859,2,0,L|61:140,1,107.999996704102,4|8,0:0|0:0,0:0:0:0:
225,228,157066,1,0,0:0:0:0:
277,132,157169,1,8,0:0:0:0:
333,232,157273,5,4,0:0:0:0:
333,232,157376,1,8,0:0:0:0:
169,128,157480,1,2,0:0:0:0:
169,128,157583,1,2,0:0:0:0:
303,98,157686,1,2,0:0:0:0:
303,98,157790,1,2,0:0:0:0:
199,262,157893,1,2,0:0:0:0:
199,262,157997,1,2,0:0:0:0:
404,344,158100,37,4,0:0:0:0:
456,304,158169,1,0,0:0:0:0:
480,244,158238,1,0,0:0:0:0:
480,180,158307,1,0,0:0:0:0:
460,120,158376,2,0,P|456:88|460:48,1,71.9999978027344
324,24,158514,5,12,0:0:0:0:
272,64,158583,1,0,0:0:0:0:
248,124,158652,1,0,0:0:0:0:
248,188,158721,1,0,0:0:0:0:
268,248,158790,2,0,P|272:280|268:320,1,71.9999978027344
120,360,158928,37,4,0:0:0:0:
60,340,158997,1,0,0:0:0:0:
24,288,159066,1,0,0:0:0:0:
16,224,159135,1,0,0:0:0:0:
36,164,159204,2,0,L|92:120,1,71.9999978027344
248,124,159342,5,12,0:0:0:0:
308,144,159411,1,0,0:0:0:0:
344,196,159480,1,0,0:0:0:0:
352,260,159549,1,0,0:0:0:0:
332,320,159618,2,0,L|276:364,1,71.9999978027344
120,360,159755,37,4,0:0:0:0:
152,304,159824,1,0,0:0:0:0:
208,268,159893,1,0,0:0:0:0:
272,252,159962,1,0,0:0:0:0:
336,256,160031,2,0,L|408:276,1,71.9999978027344
488,168,160169,5,12,0:0:0:0:
456,112,160238,1,0,0:0:0:0:
400,76,160307,1,0,0:0:0:0:
336,60,160376,1,0,0:0:0:0:
272,64,160445,2,0,L|200:84,1,71.9999978027344
88,208,160583,37,12,0:0:0:0:
88,208,160652,2,0,L|16:228,1,71.9999978027344
152,320,160790,1,0,0:0:0:0:
152,320,160859,2,0,L|80:340,1,71.9999978027344
272,208,160997,1,12,0:0:0:0:
272,208,161066,2,0,L|200:228,1,71.9999978027344
336,320,161204,1,0,0:0:0:0:
336,320,161273,2,0,L|264:340,1,71.9999978027344
456,360,161411,5,4,0:0:0:0:
480,300,161480,1,0,0:0:0:0:
472,236,161549,1,0,0:0:0:0:
496,176,161617,1,0,0:0:0:0:
488,112,161686,2,0,P|480:84|480:32,1,71.9999978027344
312,32,161824,37,12,0:0:0:0:
336,92,161893,1,0,0:0:0:0:
328,156,161962,1,0,0:0:0:0:
352,216,162030,1,0,0:0:0:0:
344,280,162100,2,0,P|336:308|336:360,1,71.9999978027344
200,352,162238,5,4,0:0:0:0:
176,292,162307,1,0,0:0:0:0:
184,228,162376,1,0,0:0:0:0:
160,168,162444,1,0,0:0:0:0:
168,104,162514,2,0,P|176:76|176:24,1,71.9999978027344
56,24,162653,37,12,0:0:0:0:
32,84,162722,1,0,0:0:0:0:
40,148,162791,1,0,0:0:0:0:
16,208,162859,1,0,0:0:0:0:
24,272,162928,2,0,P|32:300|32:352,1,71.9999978027344
200,352,163066,5,4,0:0:0:0:
248,312,163135,1,0,0:0:0:0:
312,296,163204,1,0,0:0:0:0:
376,304,163273,1,0,0:0:0:0:
436,332,163342,2,0,L|496:292,1,71.9999978027344
484,172,163480,37,12,0:0:0:0:
436,132,163549,1,0,0:0:0:0:
372,116,163618,1,0,0:0:0:0:
308,124,163687,1,0,0:0:0:0:
248,152,163756,2,0,L|188:112,1,71.9999978027344
60,160,163893,6,0,P|40:196|36:228,1,71.9999978027344,8|0,0:0|0:0,0:0:0:0:
144,364,164031,1,8,0:0:0:0:
144,364,164100,2,0,P|164:328|168:296,1,71.9999978027344,8|0,0:0|0:0,0:0:0:0:
0,304,164238,1,8,0:0:0:0:
0,304,164307,2,0,P|36:324|67:328,1,71.9999978027344,8|0,0:0|0:0,0:0:0:0:
204,220,164445,1,8,0:0:0:0:
204,220,164514,2,0,P|168:200|136:196,2,71.9999978027344,8|0|0,0:0|0:0|0:0,0:0:0:0:
304,372,164721,37,4,0:0:0:0:
364,352,164790,1,0,0:0:0:0:
412,308,164859,1,0,0:0:0:0:
432,248,164928,2,0,L|440:176,2,71.9999978027344,8|0|0,0:0|0:0|0:0,0:0:0:0:
332,152,165135,2,0,L|324:80,2,71.9999978027344,8|0|0,0:0|0:0|0:0,0:0:0:0:
428,76,165342,2,0,L|436:4,2,71.9999978027344,8|0|0,0:0|0:0|0:0,0:0:0:0:
208,12,165549,5,8,0:0:0:0:
148,32,165618,1,0,0:0:0:0:
100,76,165687,1,0,0:0:0:0:
80,136,165756,2,0,L|72:208,2,71.9999978027344,8|0|0,0:0|0:0|0:0,0:0:0:0:
180,232,165963,2,0,L|188:304,2,71.9999978027344,8|0|0,0:0|0:0|0:0,0:0:0:0:
84,308,166170,2,0,L|76:380,2,71.9999978027344,8|0|0,0:0|0:0|0:0,0:0:0:0:
276,356,166376,37,8,0:0:0:0:
340,368,166445,1,0,0:0:0:0:
404,356,166514,1,0,0:0:0:0:
456,320,166583,2,0,P|476:292|488:256,2,71.9999978027344,8|0|0,0:0|0:0|0:0,0:0:0:0:
452,180,166790,2,0,P|452:145|441:109,2,71.9999978027344,8|0|0,0:0|0:0|0:0,0:0:0:0:
368,67,166997,2,0,P|348:38|318:15,2,71.9999978027344,8|0|0,0:0|0:0|0:0,0:0:0:0:
236,28,167204,5,8,0:0:0:0:
172,16,167273,1,0,0:0:0:0:
108,28,167342,1,0,0:0:0:0:
56,64,167411,2,0,P|36:92|24:128,2,71.9999978027344,8|0|0,0:0|0:0|0:0,0:0:0:0:
60,204,167618,2,0,P|59:238|70:274,2,71.9999978027344,8|0|0,0:0|0:0|0:0,0:0:0:0:
144,317,167825,2,0,P|163:345|193:368,2,71.9999978027344,8|0|0,0:0|0:0|0:0,0:0:0:0:
312,368,168031,38,0,L|384:376,2,71.9999978027344,12|0|0,0:0|0:0|0:0,0:0:0:0:
344,104,168238,2,0,L|272:112,2,71.9999978027344,12|0|0,0:0|0:0|0:0,0:0:0:0:
328,340,168445,2,0,L|400:348,2,71.9999978027344,12|0|0,0:0|0:0|0:0,0:0:0:0:
360,76,168652,2,0,L|288:84,2,71.9999978027344,12|0|0,0:0|0:0|0:0,0:0:0:0:
190,198,168859,6,0,L|182:270,2,71.9999978027344,12|0|0,0:0|0:0|0:0,0:0:0:0:
454,230,169066,2,0,L|446:158,2,71.9999978027344,12|0|0,0:0|0:0|0:0,0:0:0:0:
218,214,169273,2,0,L|210:286,2,71.9999978027344,12|0|0,0:0|0:0|0:0,0:0:0:0:
482,246,169480,2,0,L|474:174,2,71.9999978027344,12|0|0,0:0|0:0|0:0,0:0:0:0:
352,296,169686,37,10,0:0:0:0:
300,312,169738,1,10,0:0:0:0:
248,300,169790,1,10,0:0:0:0:
208,264,169842,1,10,0:0:0:0:
188,216,169893,1,0,0:0:0:0:
148,180,169945,1,0,0:0:0:0:
96,168,169997,1,0,0:0:0:0:
44,184,170049,1,0,0:0:0:0:
8,224,170100,1,0,0:0:0:0:
0,276,170152,1,0,0:0:0:0:
16,328,170204,1,0,0:0:0:0:
56,364,170255,1,0,0:0:0:0:
108,376,170307,2,0,L|120:324,3,53.9999983520508,10|10|10|10,0:0|0:0|0:0|0:0,0:0:0:0:
188,216,170514,5,0,0:0:0:0:
240,204,170566,1,0,0:0:0:0:
292,216,170618,1,0,0:0:0:0:
336,248,170669,1,0,0:0:0:0:
388,260,170721,1,0,0:0:0:0:
440,248,170773,1,0,0:0:0:0:
476,208,170824,1,0,0:0:0:0:
488,156,170876,1,0,0:0:0:0:
476,104,170928,37,8,0:0:0:0:
240,204,171031,1,0,0:0:0:0:
248,256,171083,1,0,0:0:0:0:
256,308,171135,1,8,0:0:0:0:
504,8,171342,5,4,0:0:0:0:
256,192,171393,12,0,181273,2:0:0:0:
